osu file format v14

[General]
AudioFilename: Zetsubousei Hero Chiryouyaku.mp3
AudioLeadIn: 0
PreviewTime: 56077
Countdown: 0
SampleSet: Normal
StackLeniency: 0.7
Mode: 2
LetterboxInBreaks: 0
WidescreenStoryboard: 1

[Editor]
DistanceSpacing: 1
BeatDivisor: 4
GridSize: 16
TimelineZoom: 1.300002

[Metadata]
Title:Zetsubousei: Hero Chiryouyaku The Animation
TitleUnicode:絶望性:ヒーロー治療薬 The Animation
Artist:suzumu feat.soraru
ArtistUnicode:スズム feat.そらる
Creator:Deif
Version:Salad
Source:ダンガンロンパ 希望の学園と絶望の高校生 The Animation
Tags:Danganronpa Kibou no Gakuen to Zetsubou no Koukousei Ending
BeatmapID:806344
BeatmapSetID:367646

[Difficulty]
HPDrainRate:5
CircleSize:3
OverallDifficulty:7
ApproachRate:7
SliderMultiplier:1.3
SliderTickRate:1

[Events]
//Background and Video events
0,0,"BG.jpg",0,0
//Break Periods
//Storyboard Layer 0 (Background)
//Storyboard Layer 1 (Fail)
//Storyboard Layer 2 (Pass)
//Storyboard Layer 3 (Foreground)
//Storyboard Sound Samples

[TimingPoints]
614,292.682926829268,4,2,1,50,1,0
614,-133.333333333333,4,2,1,50,0,0
9979,-100,4,1,1,70,0,0
10784,-100,4,1,1,100,0,0
11004,-100,4,1,1,70,0,0
11955,-100,4,1,1,100,0,0
12174,-100,4,1,1,70,0,0
13126,-100,4,1,1,100,0,0
13345,-100,4,1,1,70,0,0
14077,-100,4,1,1,100,0,0
14150,-100,4,1,1,70,0,0
14370,-100,4,1,1,100,0,0
14443,-100,4,1,1,70,0,0
15467,-100,4,1,1,100,0,0
15687,-100,4,1,1,70,0,0
16638,-100,4,1,1,100,0,0
16857,-100,4,1,1,70,0,0
17809,-100,4,1,1,100,0,0
18028,-100,4,1,1,70,0,0
18760,-100,4,1,1,100,0,0
18833,-100,4,1,1,70,0,0
19053,-100,4,1,1,100,0,0
19126,-100,4,1,1,70,0,0
19345,-100,4,1,0,70,0,0
19784,-100,4,1,0,46,0,0
20077,-100,4,1,0,50,0,0
20370,-100,4,1,0,54,0,0
20662,-100,4,1,0,58,0,0
20955,-100,4,1,0,62,0,0
21248,-100,4,1,0,66,0,0
21540,-100,4,1,0,70,0,0
22126,-100,4,1,0,46,0,0
22419,-100,4,1,0,50,0,0
22712,-100,4,1,0,54,0,0
23004,-100,4,1,0,58,0,0
23297,-100,4,1,0,62,0,0
23590,-100,4,1,0,56,0,0
23882,-100,4,1,0,50,0,0
24028,-100,4,1,0,70,0,0
24467,-100,4,1,0,46,0,0
24760,-100,4,1,0,50,0,0
25053,-100,4,1,0,54,0,0
25345,-100,4,1,0,58,0,0
25638,-100,4,1,0,62,0,0
25931,-100,4,1,0,66,0,0
26223,-100,4,1,0,70,0,0
26809,-100,4,1,0,46,0,0
27102,-100,4,1,0,50,0,0
27395,-100,4,1,0,54,0,0
27687,-100,4,1,0,58,0,0
27980,-100,4,1,0,62,0,0
28273,-100,4,1,0,56,0,0
28565,-100,4,1,0,50,0,0
28711,-133.333333333333,4,1,2,50,0,0
31053,-133.333333333333,4,1,2,70,0,0
31492,-133.333333333333,4,1,2,35,0,0
31638,-133.333333333333,4,1,2,50,0,0
33394,-133.333333333333,4,1,2,70,0,0
33833,-133.333333333333,4,1,2,35,0,0
33979,-133.333333333333,4,1,2,50,0,0
35735,-133.333333333333,4,1,2,70,0,0
36174,-133.333333333333,4,1,2,35,0,0
36321,-133.333333333333,4,1,2,50,0,0
36906,-100,4,1,1,60,0,0
38077,-100,4,1,2,70,0,0
47443,-100,4,1,3,70,0,0
55638,-100,4,1,3,70,0,0
56809,-100,4,1,2,75,0,1
60321,-100,4,1,0,50,0,1
60613,-100,4,1,0,60,0,1
60906,-100,4,1,0,70,0,1
61199,-100,4,1,2,75,0,1
69687,-100,4,1,0,50,0,1
69979,-100,4,1,0,60,0,1
70272,-100,4,1,0,70,0,1
70565,-100,4,1,2,75,0,1
74370,-100,4,1,0,50,0,0
75101,-100,4,1,1,100,0,0
75540,-100,4,1,1,70,0,0
79638,-100,4,1,1,100,0,0
79711,-100,4,1,1,70,0,0
79931,-100,4,1,1,100,0,0
80004,-100,4,1,1,70,0,0
81028,-100,4,1,1,100,0,0
81248,-100,4,1,1,70,0,0
82199,-100,4,1,1,100,0,0
82418,-100,4,1,1,70,0,0
83370,-100,4,1,1,100,0,0
83589,-100,4,1,1,70,0,0
83735,-100,4,1,1,60,0,0
84321,-100,4,1,1,90,0,0
84394,-100,4,1,1,60,0,0
84614,-100,4,1,1,90,0,0
84687,-100,4,1,1,60,0,0
86077,-100,4,1,1,30,0,0

[Colours]
Combo1 : 255,255,128
Combo2 : 255,128,128
Combo3 : 128,255,255
Combo4 : 128,255,128

[HitObjects]
208,208,614,6,0,P|160:208|112:176,1,97.50000371933,6|0,0:0|0:0,0:0:0:0:
192,96,1053,2,0,P|240:96|288:128,1,97.50000371933,10|2,0:0|0:0,0:0:0:0:
208,208,1492,2,0,L|256:208,1,48.750001859665,2|8,0:0|0:0,0:0:0:0:
305,208,1784,6,0,P|353:208|401:176,1,97.50000371933,2|0,0:0|0:0,0:0:0:0:
321,96,2223,2,0,P|273:96|225:128,1,97.50000371933,10|2,0:0|0:0,0:0:0:0:
305,208,2662,2,0,L|257:208,1,48.750001859665,2|8,0:0|0:0,0:0:0:0:
208,208,2955,6,0,P|208:272|240:304,1,97.50000371933,2|0,0:0|0:0,0:0:0:0:
284,296,3394,2,0,P|309:255|304:208,1,97.50000371933,10|2,0:0|0:0,0:0:0:0:
256,192,3833,2,0,L|208:176,1,48.750001859665,2|8,0:0|0:0,0:0:0:0:
272,160,4126,6,0,P|304:112|304:64,1,97.50000371933,2|0,0:0|0:0,0:0:0:0:
205,72,4565,2,0,P|210:120|239:159,1,97.50000371933,10|2,0:0|0:0,0:0:0:0:
144,192,5004,1,2,0:0:0:0:
304,176,5296,6,0,P|352:176|400:208,1,97.50000371933,6|0,0:0|0:0,0:0:0:0:
320,288,5735,2,0,P|272:288|224:256,1,97.50000371933,10|2,0:0|0:0,0:0:0:0:
304,176,6174,2,0,L|256:176,1,48.750001859665,2|8,0:0|0:0,0:0:0:0:
207,176,6467,6,0,P|159:176|111:208,1,97.50000371933,2|0,0:0|0:0,0:0:0:0:
191,288,6906,2,0,P|239:288|287:256,1,97.50000371933,10|2,0:0|0:0,0:0:0:0:
207,176,7345,2,0,L|255:176,1,48.750001859665,2|8,0:0|0:0,0:0:0:0:
304,176,7638,6,0,P|304:112|272:80,1,97.50000371933,2|0,0:0|0:0,0:0:0:0:
227,87,8077,2,0,P|202:128|208:176,1,97.50000371933,10|2,0:0|0:0,0:0:0:0:
256,192,8516,1,2,0:0:0:0:
256,192,8809,12,12,9979,0:0:0:0:
160,64,10272,6,0,L|112:112,2,65,8|8|8,0:0|0:0|0:0,0:0:0:0:
240,64,10711,2,0,L|304:64,2,65,0|2|8,0:0|0:0|0:0,0:0:0:0:
144,192,11150,5,12,0:0:0:0:
352,64,11443,2,0,L|400:112,2,65,0|8|8,0:0|0:0|0:0,0:0:0:0:
272,64,11882,2,0,L|256:128,2,65,0|2|8,0:0|0:0|0:0,0:0:0:0:
368,192,12321,5,12,0:0:0:0:
160,320,12614,2,0,L|112:272,2,65,8|8|8,0:0|0:0|0:0,0:0:0:0:
240,320,13052,2,0,L|304:320,2,65,0|2|8,0:0|0:0|0:0,0:0:0:0:
128,192,13492,6,0,P|128:128|176:80,1,130,4|8,0:0|0:0,0:0:0:0:
368,96,14077,2,0,L|432:96,1,65,2|8,0:0|0:0,0:0:0:0:
336,192,14370,2,0,L|272:192,1,65,2|8,0:0|0:0,0:0:0:0:
160,192,14662,5,12,0:0:0:0:
352,320,14955,2,0,L|400:272,2,65,8|8|8,0:0|0:0|0:0,0:0:0:0:
272,320,15394,2,0,L|208:320,2,65,0|2|8,0:0|0:0|0:0,0:0:0:0:
368,192,15833,5,12,0:0:0:0:
160,320,16126,2,0,L|112:272,2,65,0|8|8,0:0|0:0|0:0,0:0:0:0:
240,320,16565,2,0,L|256:256,2,65,0|2|8,0:0|0:0|0:0,0:0:0:0:
144,192,17004,5,12,0:0:0:0:
352,64,17297,2,0,L|400:112,2,65,8|8|8,0:0|0:0|0:0,0:0:0:0:
272,64,17735,2,0,L|208:64,2,65,0|2|8,0:0|0:0|0:0,0:0:0:0:
384,192,18174,6,0,P|384:256|336:304,1,130,4|8,0:0|0:0,0:0:0:0:
144,288,18760,2,0,L|80:288,1,65,2|8,0:0|0:0,0:0:0:0:
176,192,19053,2,0,L|240:192,1,65,2|8,0:0|0:0,0:0:0:0:
352,192,19345,6,0,L|272:304,1,130,6|0,0:0|0:0,0:0:0:0:
384,112,19784,1,8,0:0:0:0:
224,112,20077,1,8,0:0:0:0:
384,112,20370,1,8,0:0:0:0:
192,192,20663,5,8,0:0:0:0:
352,112,20955,1,8,0:0:0:0:
160,272,21248,1,8,0:0:0:0:
352,112,21540,1,10,0:0:0:0:
256,48,21687,6,0,P|208:48|160:112,1,130,6|0,0:0|0:0,0:0:0:0:
240,128,22126,1,8,0:0:0:0:
384,112,22418,1,8,0:0:0:0:
224,208,22711,1,8,0:0:0:0:
384,112,23004,5,8,0:0:0:0:
240,288,23296,2,0,P|192:288|144:224,1,130,8|8,0:0|0:0,0:0:0:0:
224,272,23735,2,0,L|240:208,1,65,0|10,0:0|0:0,0:0:0:0:
160,192,24028,6,0,L|240:80,1,130,6|0,0:0|0:0,0:0:0:0:
128,272,24467,1,8,0:0:0:0:
288,272,24760,1,8,0:0:0:0:
128,272,25053,1,8,0:0:0:0:
320,192,25346,5,8,0:0:0:0:
160,272,25638,1,8,0:0:0:0:
352,112,25931,1,8,0:0:0:0:
160,272,26223,1,10,0:0:0:0:
256,336,26370,6,0,P|304:336|352:272,1,130,6|0,0:0|0:0,0:0:0:0:
272,256,26809,1,8,0:0:0:0:
128,272,27101,1,8,0:0:0:0:
288,176,27394,1,8,0:0:0:0:
128,272,27687,5,8,0:0:0:0:
272,96,27979,2,0,P|320:96|368:160,1,130,8|8,0:0|0:0,0:0:0:0:
288,112,28418,2,0,L|272:176,1,65,0|10,0:0|0:0,0:0:0:0:
368,288,28711,6,0,P|272:256|256:160,1,195.00000743866,6|2,0:0|0:0,0:0:0:0:
336,176,29443,2,0,B|336:80|336:80|288:48,1,146.250005578995,2|2,0:0|0:0,0:0:0:0:
208,208,30028,6,0,B|208:304|208:304|256:336,1,146.250005578995,2|2,0:0|0:0,0:0:0:0:
336,224,30613,2,0,L|384:224,2,48.750001859665,2|2|2,0:0|0:0|0:0,0:0:0:0:
240,192,31053,5,8,0:0:0:0:
432,192,31345,2,0,L|480:192,2,48.750001859665,8|0|2,0:0|0:0|0:0,0:0:0:0:
368,192,31784,2,0,L|272:176,1,97.50000371933,2|2,0:0|0:0,0:0:0:0:
112,240,32370,6,0,L|208:256,1,97.50000371933,2|2,0:0|0:0,0:0:0:0:
255,251,32808,1,0,0:0:0:0:
290,219,32955,2,0,P|296:168|272:128,1,97.50000371933,2|2,0:0|0:0,0:0:0:0:
176,176,33394,5,8,0:0:0:0:
368,208,33687,2,0,L|464:192,1,97.50000371933,8|2,0:0|0:0,0:0:0:0:
400,144,34126,2,0,P|352:128|256:144,1,146.250005578995,2|2,0:0|0:0,0:0:0:0:
320,224,34711,6,0,P|272:240|176:224,1,146.250005578995,2|2,0:0|0:0,0:0:0:0:
137,202,35297,1,2,0:0:0:0:
112,160,35443,1,2,0:0:0:0:
111,112,35589,1,2,0:0:0:0:
208,128,35735,5,8,0:0:0:0:
400,128,36028,2,0,L|448:128,2,48.750001859665,8|0|2,0:0|0:0|0:0,0:0:0:0:
336,128,36467,2,0,L|240:112,1,97.50000371933,2|2,0:0|0:0,0:0:0:0:
128,192,36906,6,0,L|256:224,1,130,4|0,0:0|0:0,0:0:0:0:
320,224,37345,2,0,L|256:208,1,65
176,160,37638,2,0,L|304:192,1,130,0|0,0:0|0:0,0:0:0:0:
432,240,38077,6,0,P|464:176|432:128,1,130,4|0,0:0|0:0,0:0:0:0:
272,80,38662,1,2,0:0:0:0:
352,224,38809,2,0,B|224:192|224:192|224:128,1,195,2|2,0:0|0:0,0:0:0:0:
304,112,39394,6,0,B|176:144|176:144|176:208,1,195,2|2,0:0|0:0,0:0:0:0:
256,192,39979,1,2,0:0:0:0:
304,272,40126,1,0,0:0:0:0:
224,320,40272,1,10,0:0:0:0:
128,304,40418,6,0,P|96:256|128:192,1,130,0|0,0:0|0:0,0:0:0:0:
224,160,40857,1,10,0:0:0:0:
288,112,41004,1,0,0:0:0:0:
224,64,41150,1,2,0:0:0:0:
400,112,41443,1,10,0:0:0:0:
224,64,41735,6,0,P|192:112|224:176,1,130,2|10,0:0|0:0,0:0:0:0:
288,112,42174,1,0,0:0:0:0:
176,160,42321,1,2,0:0:0:0:
128,240,42467,1,0,0:0:0:0:
176,160,42613,1,10,0:0:0:0:
256,160,42760,5,2,0:0:0:0:
416,160,43053,1,0,0:0:0:0:
256,160,43345,1,2,0:0:0:0:
160,160,43492,2,0,B|288:192|288:192|288:256,1,195,2|2,0:0|0:0,0:0:0:0:
208,272,44077,6,0,B|336:240|336:240|336:176,1,195,2|2,0:0|0:0,0:0:0:0:
256,192,44662,1,2,0:0:0:0:
208,112,44809,1,0,0:0:0:0:
288,64,44955,1,10,0:0:0:0:
384,80,45101,6,0,P|416:128|384:192,1,130,2|0,0:0|0:0,0:0:0:0:
288,224,45540,1,10,0:0:0:0:
224,272,45687,1,0,0:0:0:0:
288,320,45833,1,2,0:0:0:0:
112,272,46126,1,10,0:0:0:0:
224,272,46272,6,0,P|256:224|224:160,1,130,6|0,0:0|0:0,0:0:0:0:
144,224,46711,1,10,0:0:0:0:
64,160,46858,1,0,0:0:0:0:
144,96,47004,1,2,0:0:0:0:
448,192,47443,6,0,P|448:240|384:288,1,130,0|0,0:0|0:0,0:0:0:0:
304,304,47882,2,0,P|304:256|368:208,1,130,0|0,0:0|0:0,0:0:0:0:
448,192,48321,1,2,0:0:0:0:
368,208,48467,1,0,0:0:0:0:
288,224,48613,6,0,P|192:240|160:224,1,130,2|2,0:0|0:0,0:0:0:0:
352,144,49199,2,0,P|256:128|224:144,1,130,2|2,0:0|0:0,0:0:0:0:
416,224,49784,6,0,P|320:240|288:224,1,130,8|0,0:0|0:0,0:0:0:0:
192,144,50223,2,0,P|252:123|314:140,1,130
416,224,50809,1,0,0:0:0:0:
326,138,50955,6,0,P|359:194|416:224,1,130,8|0,0:0|0:0,0:0:0:0:
320,112,51394,1,0,0:0:0:0:
256,112,51540,1,8,0:0:0:0:
190,144,51687,2,0,P|252:159|314:140,1,130
416,192,52126,6,0,P|432:256|384:288,1,130,4|8,0:0|0:0,0:0:0:0:
304,288,52565,1,10,0:0:0:0:
368,192,52711,1,0,0:0:0:0:
320,80,52857,2,0,P|258:95|196:76,1,130
96,192,53296,6,0,P|80:256|128:288,1,130,4|8,0:0|0:0,0:0:0:0:
208,288,53735,1,10,0:0:0:0:
144,192,53881,1,0,0:0:0:0:
208,96,54028,1,2,0:0:0:0:
256,192,54467,12,12,55638,0:0:0:0:
160,192,56809,6,0,P|208:144|272:144,1,130,4|0,0:0|0:0,0:0:0:0:
384,144,57248,2,0,P|416:192|384:256,1,130,8|0,0:0|0:0,0:0:0:0:
272,256,57687,2,0,L|208:256,1,65,0|8,0:0|0:0,0:0:0:0:
320,208,57979,6,0,L|448:160,2,130,0|0|0,0:0|0:0|0:0,0:0:0:0:
160,192,58857,2,0,L|176:128,1,65,0|8,0:0|0:0,0:0:0:0:
272,128,59150,6,0,P|352:144|384:176,1,130,0|0,0:0|0:0,0:0:0:0:
480,256,59589,2,0,P|400:240|368:208,1,130,8|0,0:0|0:0,0:0:0:0:
272,192,60028,2,0,L|208:192,1,65,0|8,0:0|0:0,0:0:0:0:
320,192,60321,5,2,0:0:0:0:
160,192,60613,1,2,0:0:0:0:
336,128,60906,1,2,0:0:0:0:
176,128,61199,1,8,0:0:0:0:
256,64,61345,1,8,0:0:0:0:
336,128,61492,6,0,P|416:128|464:144,1,130,4|0,0:0|0:0,0:0:0:0:
336,128,61931,2,0,P|256:128|208:144,2,130,8|0|8,0:0|0:0|0:0,0:0:0:0:
448,144,62662,6,0,P|416:208|368:240,1,130,0|0,0:0|0:0,0:0:0:0:
143,239,63248,2,0,P|91:202|64:144,1,130
288,32,63833,6,0,P|299:90|244:113,1,130
160,32,64272,1,8,0:0:0:0:
256,32,64418,2,0,L|320:32,1,65,0|0,0:0|0:0,0:0:0:0:
224,192,64711,2,0,L|160:192,1,65,0|8,0:0|0:0,0:0:0:0:
288,192,65004,6,0,L|432:192,1,130
352,192,65443,1,0,0:0:0:0:
288,192,65589,1,0,0:0:0:0:
224,192,65735,2,0,P|192:144|224:80,1,130,0|12,0:0|0:0,0:0:0:0:
352,192,66174,6,0,P|304:240|240:240,1,130,4|0,0:0|0:0,0:0:0:0:
128,240,66613,2,0,P|96:192|128:128,1,130,8|0,0:0|0:0,0:0:0:0:
240,128,67052,2,0,L|304:128,1,65,0|8,0:0|0:0,0:0:0:0:
192,176,67345,6,0,L|64:224,2,130,0|0|0,0:0|0:0|0:0,0:0:0:0:
352,192,68223,2,0,L|336:256,1,65,0|8,0:0|0:0,0:0:0:0:
240,256,68516,6,0,P|160:240|128:208,1,130,0|0,0:0|0:0,0:0:0:0:
32,128,68955,2,0,P|112:144|144:176,1,130,8|0,0:0|0:0,0:0:0:0:
240,192,69394,2,0,L|304:192,1,65,0|8,0:0|0:0,0:0:0:0:
192,192,69687,5,2,0:0:0:0:
352,192,69979,1,2,0:0:0:0:
176,256,70272,1,2,0:0:0:0:
336,256,70565,1,8,0:0:0:0:
256,320,70711,1,8,0:0:0:0:
176,256,70858,6,0,P|96:256|48:240,2,130,4|0|0,0:0|0:0|0:0,0:0:0:0:
256,240,71589,2,0,P|224:176|176:144,1,130,0|8,0:0|0:0,0:0:0:0:
64,240,72028,6,0,P|112:192|176:176,1,130
341,176,72613,1,0,0:0:0:0:
432,208,72760,2,0,P|387:254|325:271,1,130,0|8,0:0|0:0,0:0:0:0:
224,352,73199,6,0,P|208:304|272:272,1,130,0|0,0:0|0:0,0:0:0:0:
352,352,73638,1,8,0:0:0:0:
256,352,73784,2,0,L|192:352,1,65,0|0,0:0|0:0,0:0:0:0:
288,192,74077,2,0,L|352:192,1,65,0|8,0:0|0:0,0:0:0:0:
224,192,74370,6,0,B|96:192|96:192|176:192,1,195,4|0,0:0|0:0,0:0:0:0:
288,192,74955,2,0,L|352:192,2,65,0|2|2,0:0|0:0|0:0,0:0:0:0:
256,192,75540,12,12,77882,0:0:0:0:
400,192,79053,6,0,P|400:128|352:80,1,130,4|8,0:0|0:0,0:0:0:0:
160,96,79638,2,0,L|96:96,1,65,2|8,0:0|0:0,0:0:0:0:
192,192,79931,2,0,L|256:192,1,65,2|8,0:0|0:0,0:0:0:0:
368,192,80223,5,12,0:0:0:0:
160,64,80516,2,0,L|112:112,2,65,8|8|8,0:0|0:0|0:0,0:0:0:0:
240,64,80955,2,0,L|304:64,2,65,0|2|8,0:0|0:0|0:0,0:0:0:0:
144,192,81394,5,12,0:0:0:0:
352,64,81687,2,0,L|400:112,2,65,0|8|8,0:0|0:0|0:0,0:0:0:0:
272,64,82126,2,0,L|256:128,2,65,0|2|8,0:0|0:0|0:0,0:0:0:0:
368,192,82565,5,12,0:0:0:0:
160,320,82858,2,0,L|112:272,2,65,8|8|8,0:0|0:0|0:0,0:0:0:0:
240,320,83296,2,0,L|304:320,2,65,0|2|8,0:0|0:0|0:0,0:0:0:0:
112,192,83735,6,0,P|112:128|160:80,1,130,4|8,0:0|0:0,0:0:0:0:
352,96,84320,2,0,L|416:96,1,65,0|8,0:0|0:0,0:0:0:0:
320,192,84613,1,0,0:0:0:0:
256,192,84906,12,8,86223,0:0:0:0:
