osu file format v14

[General]
AudioFilename: Zetsubousei Hero Chiryouyaku.mp3
AudioLeadIn: 0
PreviewTime: 56077
Countdown: 0
SampleSet: Normal
StackLeniency: 0.7
Mode: 2
LetterboxInBreaks: 0
WidescreenStoryboard: 1

[Editor]
DistanceSpacing: 1.4
BeatDivisor: 4
GridSize: 16
TimelineZoom: 1.600001

[Metadata]
Title:Zetsubousei: Hero Chiryouyaku The Animation
TitleUnicode:絶望性:ヒーロー治療薬 The Animation
Artist:suzumu feat.soraru
ArtistUnicode:スズム feat.そらる
Creator:Deif
Version:Rain
Source:ダンガンロンパ 希望の学園と絶望の高校生 The Animation
Tags:Danganronpa Kibou no Gakuen to Zetsubou no Koukousei Ending
BeatmapID:806343
BeatmapSetID:367646

[Difficulty]
HPDrainRate:7
CircleSize:4
OverallDifficulty:9
ApproachRate:9
SliderMultiplier:1.9
SliderTickRate:1

[Events]
//Background and Video events
0,0,"BG.jpg",0,0
//Break Periods
//Storyboard Layer 0 (Background)
//Storyboard Layer 1 (Fail)
//Storyboard Layer 2 (Pass)
//Storyboard Layer 3 (Foreground)
//Storyboard Sound Samples

[TimingPoints]
614,292.682926829268,4,2,1,50,1,0
614,-133.333333333333,4,2,1,50,0,0
9101,-133.333333333333,4,2,1,60,0,0
9394,-133.333333333333,4,2,1,70,0,0
9540,-133.333333333333,4,1,1,70,0,0
9979,-100,4,1,1,70,0,0
10784,-100,4,1,1,100,0,0
11004,-100,4,1,1,70,0,0
11955,-100,4,1,1,100,0,0
12174,-100,4,1,1,70,0,0
13126,-100,4,1,1,100,0,0
13345,-100,4,1,1,70,0,0
13857,-100,4,1,1,100,0,0
13931,-100,4,1,1,70,0,0
14077,-100,4,1,1,100,0,0
14150,-100,4,1,1,70,0,0
14370,-100,4,1,1,100,0,0
14443,-100,4,1,1,70,0,0
15467,-100,4,1,1,100,0,0
15687,-100,4,1,1,70,0,0
16638,-100,4,1,1,100,0,0
16857,-100,4,1,1,70,0,0
17809,-100,4,1,1,100,0,0
18028,-100,4,1,1,70,0,0
18540,-100,4,1,1,100,0,0
18614,-100,4,1,1,70,0,0
18760,-100,4,1,1,100,0,0
18833,-100,4,1,1,70,0,0
19053,-100,4,1,1,100,0,0
19126,-100,4,1,1,70,0,0
19345,-100,4,1,0,70,0,0
19784,-100,4,1,0,46,0,0
20077,-100,4,1,0,50,0,0
20370,-100,4,1,0,54,0,0
20662,-100,4,1,0,58,0,0
20955,-100,4,1,0,62,0,0
21248,-100,4,1,0,66,0,0
21540,-100,4,1,0,70,0,0
22126,-100,4,1,0,46,0,0
22419,-100,4,1,0,50,0,0
22712,-100,4,1,0,54,0,0
23004,-100,4,1,0,58,0,0
23297,-100,4,1,0,62,0,0
23590,-100,4,1,0,56,0,0
23882,-100,4,1,0,50,0,0
24028,-100,4,1,0,70,0,0
24467,-100,4,1,0,46,0,0
24760,-100,4,1,0,50,0,0
25053,-100,4,1,0,54,0,0
25345,-100,4,1,0,58,0,0
25638,-100,4,1,0,62,0,0
25931,-100,4,1,0,66,0,0
26223,-100,4,1,0,70,0,0
26809,-100,4,1,0,46,0,0
27102,-100,4,1,0,50,0,0
27395,-100,4,1,0,54,0,0
27687,-100,4,1,0,58,0,0
27980,-100,4,1,0,62,0,0
28273,-100,4,1,0,56,0,0
28565,-100,4,1,0,50,0,0
28711,-133.333333333333,4,1,2,50,0,0
31053,-133.333333333333,4,1,2,70,0,0
31199,-133.333333333333,4,1,2,35,0,0
31345,-133.333333333333,4,1,2,70,0,0
31492,-133.333333333333,4,1,2,35,0,0
31638,-133.333333333333,4,1,2,50,0,0
33394,-133.333333333333,4,1,2,70,0,0
33540,-133.333333333333,4,1,2,35,0,0
33687,-133.333333333333,4,1,2,70,0,0
33833,-133.333333333333,4,1,2,35,0,0
33979,-133.333333333333,4,1,2,50,0,0
35735,-133.333333333333,4,1,2,70,0,0
35882,-133.333333333333,4,1,2,35,0,0
36028,-133.333333333333,4,1,2,70,0,0
36174,-133.333333333333,4,1,2,35,0,0
36321,-133.333333333333,4,1,2,50,0,0
36906,-100,4,1,1,60,0,0
38077,-100,4,1,2,70,0,0
47443,-100,4,1,3,70,0,0
55345,-100,4,1,3,50,0,0
55638,-100,4,1,3,70,0,0
56077,-100,4,2,0,70,0,0
56809,-80,4,1,2,75,0,1
60321,-100,4,1,0,50,0,1
60394,-100,4,1,0,25,0,1
60613,-80,4,1,0,60,0,1
60687,-80,4,1,0,30,0,1
60906,-66.6666666666667,4,1,0,70,0,1
60979,-66.6666666666667,4,1,0,35,0,1
61199,-80,4,1,2,75,0,1
69687,-100,4,1,0,50,0,1
69760,-100,4,1,0,25,0,1
69979,-80,4,1,0,60,0,1
70053,-80,4,1,0,30,0,1
70272,-66.6666666666667,4,1,0,70,0,1
70345,-66.6666666666667,4,1,0,35,0,1
70565,-80,4,1,2,75,0,1
74370,-100,4,1,0,50,0,0
75101,-100,4,1,1,100,0,0
75540,-100,4,1,1,70,0,0
76345,-100,4,1,1,100,0,0
76565,-100,4,1,1,70,0,0
77516,-100,4,1,1,100,0,0
77735,-100,4,1,1,70,0,0
78687,-100,4,1,1,100,0,0
78906,-100,4,1,1,70,0,0
79418,-100,4,1,1,100,0,0
79492,-100,4,1,1,70,0,0
79638,-100,4,1,1,100,0,0
79711,-100,4,1,1,70,0,0
79931,-100,4,1,1,100,0,0
80004,-100,4,1,1,70,0,0
81028,-100,4,1,1,100,0,0
81248,-100,4,1,1,70,0,0
82199,-100,4,1,1,100,0,0
82418,-100,4,1,1,70,0,0
83370,-100,4,1,1,100,0,0
83589,-100,4,1,1,70,0,0
83735,-100,4,1,1,60,0,0
84101,-100,4,1,1,90,0,0
84175,-100,4,1,1,60,0,0
84321,-100,4,1,1,90,0,0
84394,-100,4,1,1,60,0,0
84614,-100,4,1,1,90,0,0
84687,-100,4,1,1,60,0,0
86077,-100,4,1,1,30,0,0

[Colours]
Combo1 : 255,255,128
Combo2 : 255,128,128
Combo3 : 128,255,255
Combo4 : 128,255,128

[HitObjects]
160,192,614,6,0,P|192:256|256:272,1,142.500005435944,6|0,0:0|0:0,0:0:0:0:
400,272,1053,2,0,L|368:208,1,71.2500027179719,10|0,0:0|0:0,0:0:0:0:
256,192,1345,1,2,0:0:0:0:
368,176,1492,2,0,L|400:112,1,71.2500027179719,2|8,0:0|0:0,0:0:0:0:
256,64,1784,6,0,P|208:112|256:144,1,142.500005435944,2|0,0:0|0:0,0:0:0:0:
400,192,2223,2,0,L|320:192,1,71.2500027179719,10|0,0:0|0:0,0:0:0:0:
220,192,2516,1,2,0:0:0:0:
112,192,2662,2,0,L|192:192,1,71.2500027179719,2|8,0:0|0:0,0:0:0:0:
320,192,2955,6,0,P|368:192|432:256,1,142.500005435944,2|0,0:0|0:0,0:0:0:0:
288,256,3394,2,0,L|224:304,1,71.2500027179719,10|0,0:0|0:0,0:0:0:0:
336,320,3687,1,2,0:0:0:0:
231,298,3833,2,0,L|288:256,1,71.2500027179719,2|8,0:0|0:0,0:0:0:0:
144,192,4126,6,0,L|64:192,2,71.2500027179719,2|0|0,0:0|0:0|0:0,0:0:0:0:
288,192,4565,2,0,L|368:192,1,71.2500027179719,10|0,0:0|0:0,0:0:0:0:
256,192,4857,1,2,0:0:0:0:
152,192,5004,2,0,L|80:192,1,71.2500027179719,2|8,0:0|0:0,0:0:0:0:
352,192,5296,6,0,P|320:128|256:112,1,142.500005435944,6|0,0:0|0:0,0:0:0:0:
112,112,5735,2,0,L|144:176,1,71.2500027179719,10|0,0:0|0:0,0:0:0:0:
256,192,6027,1,2,0:0:0:0:
144,208,6174,2,0,L|112:272,1,71.2500027179719,2|8,0:0|0:0,0:0:0:0:
256,320,6467,6,0,P|304:272|256:240,1,142.500005435944,2|0,0:0|0:0,0:0:0:0:
112,192,6906,2,0,L|192:192,1,71.2500027179719,10|0,0:0|0:0,0:0:0:0:
292,192,7199,1,2,0:0:0:0:
400,192,7345,2,0,L|320:192,1,71.2500027179719,2|8,0:0|0:0,0:0:0:0:
192,192,7638,6,0,P|144:192|80:128,1,142.500005435944,2|0,0:0|0:0,0:0:0:0:
224,128,8077,2,0,L|288:80,1,71.2500027179719,10|0,0:0|0:0,0:0:0:0:
176,64,8370,1,2,0:0:0:0:
71,86,8516,2,0,L|128:128,1,71.2500027179719,2|8,0:0|0:0,0:0:0:0:
368,192,8809,6,0,L|448:192,1,71.2500027179719,2|0,0:0|0:0,0:0:0:0:
296,192,9101,2,0,L|248:192,2,35.625001358986,2|0|2,0:0|0:0|0:0,0:0:0:0:
432,192,9394,2,0,L|480:192,1,35.625001358986,2|0,0:0|0:0,0:0:0:0:
320,96,9540,1,2,0:0:0:0:
267,97,9613,1,2,0:0:0:0:
219,121,9686,1,2,0:0:0:0:
186,163,9759,1,2,0:0:0:0:
174,214,9832,1,2,0:0:0:0:
185,266,9905,1,2,0:0:0:0:
416,192,9979,6,0,P|472:128|416:56,1,190,12|8,0:0|0:0,0:0:0:0:
304,192,10418,2,0,L|400:192,1,95,8|8,0:0|0:0,0:0:0:0:
256,192,10711,1,0,0:0:0:0:
224,224,10784,1,2,0:0:0:0:
256,256,10857,1,2,0:0:0:0:
288,288,10931,1,2,0:0:0:0:
304,320,11004,1,8,0:0:0:0:
96,112,11150,6,8,P|64:192|96:288,1,190,12|0,0:0|0:0,0:0:0:0:
208,192,11589,2,0,L|112:192,1,95,8|8,0:0|0:0,0:0:0:0:
256,192,11882,1,0,0:0:0:0:
288,160,11955,1,2,0:0:0:0:
256,128,12028,1,2,0:0:0:0:
224,96,12102,1,2,0:0:0:0:
240,64,12175,1,8,0:0:0:0:
448,256,12321,6,0,P|432:176|336:176,1,190,12|8,0:0|0:0,0:0:0:0:
480,176,12760,1,8,0:0:0:0:
352,176,12906,1,8,0:0:0:0:
464,176,13053,1,0,0:0:0:0:
496,144,13126,1,2,0:0:0:0:
464,112,13199,1,2,0:0:0:0:
432,80,13273,1,2,0:0:0:0:
416,48,13346,1,8,0:0:0:0:
96,48,13492,6,0,P|64:128|144:176,1,190,4|8,0:0|0:0,0:0:0:0:
176,192,13857,1,2,0:0:0:0:
224,192,13931,1,8,0:0:0:0:
432,192,14077,2,0,L|480:288,1,95,2|8,0:0|0:0,0:0:0:0:
256,192,14370,2,0,L|336:256,1,95,2|8,0:0|0:0,0:0:0:0:
96,192,14662,6,0,P|40:256|96:328,1,190,12|8,0:0|0:0,0:0:0:0:
208,192,15101,2,0,L|112:192,1,95,8|8,0:0|0:0,0:0:0:0:
256,192,15394,1,0,0:0:0:0:
288,160,15467,1,2,0:0:0:0:
256,128,15540,1,2,0:0:0:0:
224,96,15614,1,2,0:0:0:0:
208,64,15687,1,8,0:0:0:0:
416,272,15833,6,8,P|448:192|416:96,1,190,12|0,0:0|0:0,0:0:0:0:
304,192,16272,2,0,L|400:192,1,95,8|8,0:0|0:0,0:0:0:0:
256,192,16565,1,0,0:0:0:0:
224,224,16638,1,2,0:0:0:0:
256,256,16711,1,2,0:0:0:0:
288,288,16785,1,2,0:0:0:0:
272,320,16858,1,8,0:0:0:0:
64,128,17004,6,0,P|80:208|176:208,1,190,12|8,0:0|0:0,0:0:0:0:
32,208,17443,1,8,0:0:0:0:
160,208,17589,1,8,0:0:0:0:
48,208,17736,1,0,0:0:0:0:
16,240,17809,1,2,0:0:0:0:
48,272,17882,1,2,0:0:0:0:
80,304,17956,1,2,0:0:0:0:
96,336,18029,1,8,0:0:0:0:
416,336,18175,6,0,P|448:256|368:208,1,190,4|8,0:0|0:0,0:0:0:0:
336,192,18540,1,2,0:0:0:0:
288,192,18614,1,8,0:0:0:0:
80,192,18760,2,0,L|32:96,1,95,2|8,0:0|0:0,0:0:0:0:
256,192,19053,2,0,L|176:128,1,95,2|8,0:0|0:0,0:0:0:0:
400,128,19345,6,0,P|448:192|368:224,1,190,6|0,0:0|0:0,0:0:0:0:
160,224,19784,2,0,L|144:128,1,95,8|0,0:0|0:0,0:0:0:0:
368,256,20077,2,0,L|353:162,1,95,8|0,0:0|0:0,0:0:0:0:
128,208,20370,2,0,L|112:112,1,95,8|0,0:0|0:0,0:0:0:0:
400,272,20662,6,0,L|385:178,1,95,8|0,0:0|0:0,0:0:0:0:
96,192,20955,2,0,L|80:96,1,95,8|0,0:0|0:0,0:0:0:0:
384,272,21248,1,8,0:0:0:0:
256,192,21394,1,0,0:0:0:0:
128,272,21540,1,10,0:0:0:0:
416,176,21687,6,0,P|480:128|416:64,1,190,6|0,0:0|0:0,0:0:0:0:
192,48,22126,2,0,L|128:128,1,95,8|0,0:0|0:0,0:0:0:0:
240,96,22418,2,0,L|144:144,1,95,8|0,0:0|0:0,0:0:0:0:
288,144,22711,2,0,L|192:160,1,95,8|0,0:0|0:0,0:0:0:0:
48,192,23004,6,0,L|144:176,1,95,8|0,0:0|0:0,0:0:0:0:
288,144,23296,2,0,P|368:208|320:256,1,190,8|8,0:0|0:0,0:0:0:0:
208,336,23735,1,0,0:0:0:0:
255,330,23808,1,0,0:0:0:0:
291,300,23881,1,10,0:0:0:0:
272,256,23954,1,0,0:0:0:0:
112,256,24028,6,0,P|64:192|144:160,1,190,6|0,0:0|0:0,0:0:0:0:
352,160,24467,2,0,L|368:256,1,95,8|0,0:0|0:0,0:0:0:0:
144,128,24760,2,0,L|159:222,1,95,8|0,0:0|0:0,0:0:0:0:
384,176,25053,2,0,L|400:272,1,95,8|0,0:0|0:0,0:0:0:0:
112,112,25345,6,0,L|127:206,1,95,8|0,0:0|0:0,0:0:0:0:
416,192,25638,2,0,L|432:288,1,95,8|0,0:0|0:0,0:0:0:0:
128,112,25931,1,8,0:0:0:0:
256,192,26077,1,0,0:0:0:0:
384,112,26223,1,10,0:0:0:0:
96,208,26370,6,0,P|32:256|96:320,1,190,6|0,0:0|0:0,0:0:0:0:
320,336,26809,2,0,L|384:256,1,95,8|0,0:0|0:0,0:0:0:0:
272,288,27101,2,0,L|368:240,1,95,8|0,0:0|0:0,0:0:0:0:
224,240,27394,2,0,L|320:224,1,95,8|0,0:0|0:0,0:0:0:0:
464,192,27687,5,8,0:0:0:0:
418,199,27760,1,0,0:0:0:0:
371,207,27833,1,0,0:0:0:0:
224,240,27979,1,8,0:0:0:0:
178,239,28052,1,0,0:0:0:0:
147,205,28125,1,0,0:0:0:0:
150,159,28198,1,0,0:0:0:0:
186,129,28271,1,8,0:0:0:0:
224,112,28345,1,0,0:0:0:0:
272,112,28418,2,0,L|368:112,1,95,0|10,0:0|0:0,0:0:0:0:
128,111,28711,6,0,P|96:173|123:236,1,142.500005435944,6|0,0:0|0:0,0:0:0:0:
123,236,29150,1,0,0:0:0:0:
256,288,29296,1,2,0:0:0:0:
384,272,29443,2,0,P|416:208|384:144,1,142.500005435944,2|0,0:0|0:0,0:0:0:0:
256,96,29882,5,2,0:0:0:0:
128,112,30028,2,0,P|96:176|128:240,1,142.500005435944,2|0,0:0|0:0,0:0:0:0:
256,288,30467,1,2,0:0:0:0:
384,272,30613,2,0,L|416:208,1,71.2500027179719,2|2,0:0|0:0,0:0:0:0:
320,192,30906,1,2,0:0:0:0:
64,192,31053,6,0,L|64:112,1,71.2500027179719,8|0,0:0|0:0,0:0:0:0:
320,192,31345,2,0,L|320:272,1,71.2500027179719,8|0,0:0|0:0,0:0:0:0:
192,192,31638,1,2,0:0:0:0:
320,192,31784,2,0,L|320:112,1,71.2500027179719,2|0,0:0|0:0,0:0:0:0:
192,120,32077,2,0,L|192:192,1,71.2500027179719,2|0,0:0|0:0,0:0:0:0:
320,192,32370,6,0,P|304:240|256:272,1,106.875004076958,2|0,0:0|0:0,0:0:0:0:
160,288,32662,2,0,L|192:224,1,71.2500027179719,2|0,0:0|0:0,0:0:0:0:
320,224,32955,2,0,L|352:288,1,71.2500027179719,2|0,0:0|0:0,0:0:0:0:
224,288,33248,1,2,0:0:0:0:
480,96,33394,6,0,L|480:176,1,71.2500027179719,8|0,0:0|0:0,0:0:0:0:
224,288,33687,2,0,L|224:208,1,71.2500027179719,8|0,0:0|0:0,0:0:0:0:
320,128,33979,1,2,0:0:0:0:
192,128,34126,2,0,P|144:176|192:208,1,142.500005435944,2|0,0:0|0:0,0:0:0:0:
320,192,34565,5,2,0:0:0:0:
190,175,34711,2,0,P|143:216|192:256,1,142.500005435944,2|0,0:0|0:0,0:0:0:0:
320,256,35150,1,2,0:0:0:0:
192,256,35296,2,0,L|224:192,1,71.2500027179719,2|2,0:0|0:0,0:0:0:0:
128,176,35589,1,2,0:0:0:0:
384,176,35736,6,0,L|384:96,1,71.2500027179719,8|0,0:0|0:0,0:0:0:0:
128,176,36028,2,0,L|128:256,1,71.2500027179719,8|0,0:0|0:0,0:0:0:0:
256,176,36321,1,2,0:0:0:0:
128,176,36467,2,0,L|96:112,1,71.2500027179719,2|0,0:0|0:0,0:0:0:0:
224,112,36760,1,2,0:0:0:0:
480,112,36906,6,0,P|432:192|336:192,1,190,4|0,0:0|0:0,0:0:0:0:
304,192,37272,1,0,0:0:0:0:
256,176,37345,1,0,0:0:0:0:
48,112,37492,1,0,0:0:0:0:
86,115,37566,1,0,0:0:0:0:
134,131,37639,1,0,0:0:0:0:
342,195,37784,2,0,L|432:160,1,95,8|0,0:0|0:0,0:0:0:0:
64,224,38077,6,0,P|32:160|112:80,1,190,4|0,0:0|0:0,0:0:0:0:
256,80,38516,2,0,L|176:144,1,95,8|2,0:0|0:0,0:0:0:0:
48,224,38809,2,0,L|128:160,1,95,2|0,0:0|0:0,0:0:0:0:
272,160,39101,1,8,0:0:0:0:
384,304,39248,5,2,0:0:0:0:
256,304,39394,2,0,L|176:240,1,95,2|0,0:0|0:0,0:0:0:0:
48,160,39687,2,0,L|128:224,1,95,8|2,0:0|0:0,0:0:0:0:
256,192,39979,2,0,P|160:176|112:144,1,142.5,2|0,0:0|0:0,0:0:0:0:
48,112,40272,1,10,0:0:0:0:
256,192,40418,6,0,P|352:176|416:112,1,190
272,112,40857,2,0,L|240:16,1,95,10|0,0:0|0:0,0:0:0:0:
384,112,41150,2,0,L|352:16,1,95,2|0,0:0|0:0,0:0:0:0:
128,112,41443,2,0,L|96:16,1,95,10|0,0:0|0:0,0:0:0:0:
256,192,41735,6,0,P|352:176|400:144,1,142.5,2|0,0:0|0:0,0:0:0:0:
479,112,42028,2,0,L|384:112,1,95,10|0,0:0|0:0,0:0:0:0:
273,118,42321,2,0,L|304:208,1,95,2|0,0:0|0:0,0:0:0:0:
192,208,42613,1,10,0:0:0:0:
448,160,42760,6,0,P|480:224|400:304,1,190,2|0,0:0|0:0,0:0:0:0:
256,304,43199,2,0,L|336:240,1,95,8|2,0:0|0:0,0:0:0:0:
464,160,43492,2,0,L|384:224,1,95,2|0,0:0|0:0,0:0:0:0:
240,224,43784,1,8,0:0:0:0:
128,80,43931,5,2,0:0:0:0:
256,80,44077,2,0,L|336:144,1,95,2|0,0:0|0:0,0:0:0:0:
464,224,44370,2,0,L|384:160,1,95,8|2,0:0|0:0,0:0:0:0:
256,192,44662,2,0,L|336:256,1,95,2|2,0:0|0:0,0:0:0:0:
464,304,44955,1,10,0:0:0:0:
256,192,45101,6,0,P|160:208|96:272,1,190,2|0,0:0|0:0,0:0:0:0:
240,272,45540,2,0,L|272:368,1,95,10|0,0:0|0:0,0:0:0:0:
128,272,45833,2,0,L|160:368,1,95,2|0,0:0|0:0,0:0:0:0:
384,272,46126,1,10,0:0:0:0:
128,272,46272,6,0,P|80:224|128:128,1,190,6|0,0:0|0:0,0:0:0:0:
464,128,46711,2,0,L|464:224,1,95,10|0,0:0|0:0,0:0:0:0:
224,192,47004,2,0,L|304:112,1,95,2|0,0:0|0:0,0:0:0:0:
416,128,47296,1,8,0:0:0:0:
112,208,47443,6,0,P|48:144|112:80,1,190
240,80,47882,2,0,L|336:80,1,95,0|2,0:0|0:0,0:0:0:0:
192,96,48174,2,0,L|112:176,1,95,0|2,0:0|0:0,0:0:0:0:
272,192,48467,1,0,0:0:0:0:
144,240,48613,6,0,L|211:307,1,95,2|0,0:0|0:0,0:0:0:0:
338,323,48906,2,0,L|243:323,1,95,2|0,0:0|0:0,0:0:0:0:
144,208,49199,2,0,L|211:275,1,95,2|0,0:0|0:0,0:0:0:0:
320,288,49492,2,0,L|225:288,1,95,2|0,0:0|0:0,0:0:0:0:
464,288,49784,6,0,P|480:208|416:128,1,190,8|0,0:0|0:0,0:0:0:0:
160,128,50223,2,0,L|192:224,1,95,0|8,0:0|0:0,0:0:0:0:
321,218,50516,2,0,L|352:128,1,95,0|8,0:0|0:0,0:0:0:0:
208,80,50809,1,0,0:0:0:0:
448,80,50955,6,0,P|480:176|448:256,1,190,8|0,0:0|0:0,0:0:0:0:
208,256,51394,2,0,L|112:256,1,95,0|8,0:0|0:0,0:0:0:0:
352,256,51687,2,0,L|272:176,1,95,0|8,0:0|0:0,0:0:0:0:
160,256,51979,1,0,0:0:0:0:
432,256,52126,6,0,P|400:160|320:160,1,190,4|8,0:0|0:0,0:0:0:0:
192,160,52565,1,10,0:0:0:0:
320,160,52711,2,0,L|416:144,1,95,0|2,0:0|0:0,0:0:0:0:
272,160,53004,2,0,L|352:80,1,95
80,256,53296,6,0,P|112:160|192:160,1,190,4|8,0:0|0:0,0:0:0:0:
320,160,53735,1,10,0:0:0:0:
192,160,53882,2,0,L|96:144,1,95,0|2,0:0|0:0,0:0:0:0:
240,160,54175,2,0,L|160:80,1,95
432,128,54467,6,0,P|400:64|288:48,1,190,4|8,0:0|0:0,0:0:0:0:
64,112,54906,2,0,L|128:192,1,95,8|8,0:0|0:0,0:0:0:0:
352,272,55199,1,0,0:0:0:0:
397,261,55272,1,0,0:0:0:0:
427,226,55345,1,0,0:0:0:0:
429,179,55418,1,0,0:0:0:0:
402,141,55491,1,0,0:0:0:0:
357,127,55564,1,0,0:0:0:0:
154,127,55638,5,12,0:0:0:0:
188,192,56077,2,2,P|256:248|324:192,2,190,2|2|0,0:0|0:0|0:0,0:0:0:0:
464,304,56809,6,0,B|464:64,1,237.5,4|0,0:0|0:0,0:0:0:0:
112,96,57248,2,0,L|112:224,1,118.75,8|0,0:0|0:0,0:0:0:0:
256,224,57540,1,0,0:0:0:0:
128,224,57687,1,0,0:0:0:0:
368,192,57833,1,8,0:0:0:0:
256,224,57979,6,0,P|176:224|112:96,1,237.5,0|0,0:0|0:0,0:0:0:0:
256,64,58418,1,8,0:0:0:0:
400,96,58565,2,0,L|480:192,1,118.75,0|0,0:0|0:0,0:0:0:0:
320,192,58857,1,0,0:0:0:0:
448,192,59004,1,8,0:0:0:0:
112,192,59150,6,0,P|144:256|288:240,1,237.5,0|0,0:0|0:0,0:0:0:0:
144,160,59589,1,8,0:0:0:0:
288,160,59735,2,0,L|400:112,1,118.75
146,113,60028,2,0,L|256:160,1,118.75,0|8,0:0|0:0,0:0:0:0:
368,192,60321,6,0,L|192:192,1,166.25,2|0,0:0|0:0,0:0:0:0:
202,192,60613,2,0,L|416:192,1,207.8125,2|0,0:0|0:0,0:0:0:0:
410,192,60906,2,0,L|160:192,1,249.375009512902,2|0,0:0|0:0,0:0:0:0:
160,192,61199,1,8,0:0:0:0:
410,192,61345,1,8,0:0:0:0:
136,64,61492,6,0,P|28:86|40:192,1,237.5,4|0,0:0|0:0,0:0:0:0:
416,96,61931,2,0,L|368:208,1,118.75,8|0,0:0|0:0,0:0:0:0:
224,208,62223,2,0,L|272:96,1,118.75,0|0,0:0|0:0,0:0:0:0:
416,96,62516,1,8,0:0:0:0:
176,96,62662,6,0,L|176:224,1,118.75,0|0,0:0|0:0,0:0:0:0:
336,288,62955,2,0,L|336:160,1,118.75,0|8,0:0|0:0,0:0:0:0:
80,48,63248,2,0,L|80:176,1,118.75,0|0,0:0|0:0,0:0:0:0:
432,336,63540,2,0,L|432:208,1,118.75,0|8,0:0|0:0,0:0:0:0:
176,96,63833,6,0,P|128:176|240:240,1,237.5,0|0,0:0|0:0,0:0:0:0:
352,192,64272,1,8,0:0:0:0:
224,176,64418,2,0,P|176:144|176:80,1,118.75,0|0,0:0|0:0,0:0:0:0:
352,192,64711,2,0,P|400:160|400:96,1,118.75,0|8,0:0|0:0,0:0:0:0:
64,64,65004,6,0,P|80:176|192:224,1,237.5,0|0,0:0|0:0,0:0:0:0:
224,224,65370,1,0,0:0:0:0:
272,224,65443,1,8,0:0:0:0:
416,144,65589,1,0,0:0:0:0:
375,143,65662,1,0,0:0:0:0:
327,143,65735,1,0,0:0:0:0:
176,144,65882,1,4,0:0:0:0:
416,288,66028,1,12,0:0:0:0:
96,160,66174,6,0,P|128:272|240:288,1,237.5,4|0,0:0|0:0,0:0:0:0:
400,288,66613,2,0,L|400:160,1,118.75,8|0,0:0|0:0,0:0:0:0:
256,160,66906,1,0,0:0:0:0:
384,160,67053,1,0,0:0:0:0:
144,192,67199,1,8,0:0:0:0:
256,160,67345,6,0,P|336:160|400:288,1,237.5
256,320,67784,1,8,0:0:0:0:
112,288,67931,2,0,L|32:192,1,118.75
192,192,68223,1,0,0:0:0:0:
64,192,68370,1,8,0:0:0:0:
400,192,68516,6,0,P|368:128|224:144,1,237.5
368,224,68955,1,8,0:0:0:0:
224,224,69101,2,0,L|112:272,1,118.75
366,271,69394,2,0,L|256:224,1,118.75,0|8,0:0|0:0,0:0:0:0:
144,192,69687,6,0,L|320:192,1,166.25,2|0,0:0|0:0,0:0:0:0:
310,192,69979,2,0,L|96:192,1,207.8125,2|0,0:0|0:0,0:0:0:0:
102,192,70272,2,0,L|352:192,1,249.375009512902,2|0,0:0|0:0,0:0:0:0:
352,192,70565,1,8,0:0:0:0:
102,192,70711,1,8,0:0:0:0:
376,320,70857,6,0,P|484:298|472:192,1,237.5,4|0,0:0|0:0,0:0:0:0:
256,175,71296,1,8,0:0:0:0:
209,285,71443,2,0,L|256:176,1,118.75
142,178,71735,2,0,L|96:288,1,118.75,0|8,0:0|0:0,0:0:0:0:
416,288,72028,6,0,L|370:178,1,118.75
224,176,72321,2,0,L|271:285,1,118.75,0|8,0:0|0:0,0:0:0:0:
416,288,72613,1,0,0:0:0:0:
200,216,72760,2,0,L|312:168,1,118.75
96,96,73053,1,8,0:0:0:0:
336,288,73199,6,0,P|384:208|272:144,1,237.5
160,192,73638,1,8,0:0:0:0:
320,192,73784,1,0,0:0:0:0:
192,160,73931,1,0,0:0:0:0:
352,160,74077,2,0,P|416:160|464:128,1,118.75,0|8,0:0|0:0,0:0:0:0:
160,128,74370,6,0,P|100:192|160:256,1,190,4|0,0:0|0:0,0:0:0:0:
256,288,74809,1,0,0:0:0:0:
160,336,74955,2,0,L|256:336,1,95,0|2,0:0|0:0,0:0:0:0:
288,288,75174,1,2,0:0:0:0:
256,240,75248,1,2,0:0:0:0:
224,208,75321,1,2,0:0:0:0:
240,176,75394,1,2,0:0:0:0:
256,144,75467,1,2,0:0:0:0:
416,272,75540,6,0,P|448:192|416:96,1,190,12|8,0:0|0:0,0:0:0:0:
304,192,75979,2,0,L|400:192,1,95,8|8,0:0|0:0,0:0:0:0:
256,192,76272,1,0,0:0:0:0:
224,224,76345,1,2,0:0:0:0:
256,256,76418,1,2,0:0:0:0:
288,288,76492,1,2,0:0:0:0:
304,320,76565,1,8,0:0:0:0:
96,112,76711,6,8,P|64:192|96:288,1,190,12|0,0:0|0:0,0:0:0:0:
208,192,77150,2,0,L|112:192,1,95,8|8,0:0|0:0,0:0:0:0:
256,192,77443,1,0,0:0:0:0:
288,160,77516,1,2,0:0:0:0:
256,128,77589,1,2,0:0:0:0:
224,96,77663,1,2,0:0:0:0:
240,64,77736,1,8,0:0:0:0:
448,256,77882,6,0,P|432:176|336:176,1,190,12|8,0:0|0:0,0:0:0:0:
480,176,78321,1,8,0:0:0:0:
352,176,78467,1,8,0:0:0:0:
464,176,78614,1,0,0:0:0:0:
496,144,78687,1,2,0:0:0:0:
464,112,78760,1,2,0:0:0:0:
432,80,78834,1,2,0:0:0:0:
416,48,78907,1,8,0:0:0:0:
96,48,79053,6,0,P|64:128|144:176,1,190,4|8,0:0|0:0,0:0:0:0:
176,192,79418,1,2,0:0:0:0:
224,192,79492,1,8,0:0:0:0:
432,192,79638,2,0,L|464:288,1,95,2|8,0:0|0:0,0:0:0:0:
256,192,79931,2,0,L|336:256,1,95,2|8,0:0|0:0,0:0:0:0:
96,112,80223,6,0,P|64:192|96:288,1,190,12|8,0:0|0:0,0:0:0:0:
208,192,80662,2,0,L|112:192,1,95,8|8,0:0|0:0,0:0:0:0:
256,192,80955,1,0,0:0:0:0:
288,160,81028,1,2,0:0:0:0:
256,128,81101,1,2,0:0:0:0:
224,96,81175,1,2,0:0:0:0:
208,64,81248,1,8,0:0:0:0:
416,272,81394,6,8,P|448:192|416:96,1,190,12|0,0:0|0:0,0:0:0:0:
304,192,81833,2,0,L|400:192,1,95,8|8,0:0|0:0,0:0:0:0:
256,192,82126,1,0,0:0:0:0:
224,224,82199,1,2,0:0:0:0:
256,256,82272,1,2,0:0:0:0:
288,288,82346,1,2,0:0:0:0:
272,320,82419,1,8,0:0:0:0:
64,128,82565,6,0,P|80:208|176:208,1,190,12|8,0:0|0:0,0:0:0:0:
32,208,83004,1,8,0:0:0:0:
160,208,83150,1,8,0:0:0:0:
48,208,83297,1,0,0:0:0:0:
16,240,83370,1,2,0:0:0:0:
48,272,83443,1,2,0:0:0:0:
80,304,83517,1,2,0:0:0:0:
96,336,83590,1,8,0:0:0:0:
416,336,83736,6,0,P|448:256|368:208,1,190,4|8,0:0|0:0,0:0:0:0:
336,192,84101,1,0,0:0:0:0:
288,192,84175,1,8,0:0:0:0:
80,192,84321,2,0,L|48:96,1,95,0|8,0:0|0:0,0:0:0:0:
432,192,84614,1,0,0:0:0:0:
461,154,84687,1,0,0:0:0:0:
467,107,84760,1,8,0:0:0:0:
449,64,84833,1,0,0:0:0:0:
224,192,84906,5,12,0:0:0:0:
256,192,85053,12,8,86223,0:0:0:0:
