osu file format v14

[General]
AudioFilename: Zetsubousei Hero Chiryouyaku.mp3
AudioLeadIn: 0
PreviewTime: 56077
Countdown: 0
SampleSet: Normal
StackLeniency: 0.7
Mode: 2
LetterboxInBreaks: 0
WidescreenStoryboard: 1

[Editor]
Bookmarks: 14443
DistanceSpacing: 1
BeatDivisor: 4
GridSize: 16
TimelineZoom: 1.900001

[Metadata]
Title:Zetsubousei: Hero Chiryouyaku The Animation
TitleUnicode:絶望性:ヒーロー治療薬 The Animation
Artist:suzumu feat.soraru
ArtistUnicode:スズム feat.そらる
Creator:Deif
Version:Platter
Source:ダンガンロンパ 希望の学園と絶望の高校生 The Animation
Tags:Danganronpa Kibou no Gakuen to Zetsubou no Koukousei Ending
BeatmapID:806342
BeatmapSetID:367646

[Difficulty]
HPDrainRate:6
CircleSize:3.5
OverallDifficulty:8
ApproachRate:8
SliderMultiplier:1.6
SliderTickRate:1

[Events]
//Background and Video events
0,0,"BG.jpg",0,0
//Break Periods
//Storyboard Layer 0 (Background)
//Storyboard Layer 1 (Fail)
//Storyboard Layer 2 (Pass)
//Storyboard Layer 3 (Foreground)
//Storyboard Sound Samples

[TimingPoints]
614,292.682926829268,4,2,1,50,1,0
614,-133.333333333333,4,2,1,50,0,0
9101,-133.333333333333,4,2,1,60,0,0
9394,-133.333333333333,4,2,1,70,0,0
9540,-133.333333333333,4,1,1,70,0,0
9979,-100,4,1,1,70,0,0
10784,-100,4,1,1,100,0,0
11004,-100,4,1,1,70,0,0
11955,-100,4,1,1,100,0,0
12174,-100,4,1,1,70,0,0
13126,-100,4,1,1,100,0,0
13345,-100,4,1,1,70,0,0
14077,-100,4,1,1,100,0,0
14150,-100,4,1,1,70,0,0
14370,-100,4,1,1,100,0,0
14443,-100,4,1,1,70,0,0
15467,-100,4,1,1,100,0,0
15687,-100,4,1,1,70,0,0
16638,-100,4,1,1,100,0,0
16857,-100,4,1,1,70,0,0
17809,-100,4,1,1,100,0,0
18028,-100,4,1,1,70,0,0
18760,-100,4,1,1,100,0,0
18833,-100,4,1,1,70,0,0
19053,-100,4,1,1,100,0,0
19126,-100,4,1,1,70,0,0
19345,-100,4,1,0,70,0,0
19784,-100,4,1,0,46,0,0
20077,-100,4,1,0,50,0,0
20370,-100,4,1,0,54,0,0
20662,-100,4,1,0,58,0,0
20955,-100,4,1,0,62,0,0
21248,-100,4,1,0,66,0,0
21540,-100,4,1,0,70,0,0
22126,-100,4,1,0,46,0,0
22419,-100,4,1,0,50,0,0
22712,-100,4,1,0,54,0,0
23004,-100,4,1,0,58,0,0
23297,-100,4,1,0,62,0,0
23590,-100,4,1,0,56,0,0
23882,-100,4,1,0,50,0,0
24028,-100,4,1,0,70,0,0
24467,-100,4,1,0,46,0,0
24760,-100,4,1,0,50,0,0
25053,-100,4,1,0,54,0,0
25345,-100,4,1,0,58,0,0
25638,-100,4,1,0,62,0,0
25931,-100,4,1,0,66,0,0
26223,-100,4,1,0,70,0,0
26809,-100,4,1,0,46,0,0
27102,-100,4,1,0,50,0,0
27395,-100,4,1,0,54,0,0
27687,-100,4,1,0,58,0,0
27980,-100,4,1,0,62,0,0
28273,-100,4,1,0,56,0,0
28565,-100,4,1,0,50,0,0
28711,-133.333333333333,4,1,2,50,0,0
31053,-133.333333333333,4,1,2,70,0,0
31492,-133.333333333333,4,1,2,35,0,0
31638,-133.333333333333,4,1,2,50,0,0
33394,-133.333333333333,4,1,2,70,0,0
33833,-133.333333333333,4,1,2,35,0,0
33979,-133.333333333333,4,1,2,50,0,0
35735,-133.333333333333,4,1,2,70,0,0
36174,-133.333333333333,4,1,2,35,0,0
36321,-133.333333333333,4,1,2,50,0,0
36906,-100,4,1,1,60,0,0
38077,-100,4,1,2,70,0,0
47443,-100,4,1,3,70,0,0
55345,-100,4,1,3,50,0,0
55638,-100,4,1,3,70,0,0
56809,-100,4,1,2,75,0,1
60321,-100,4,1,0,50,0,1
60613,-100,4,1,0,60,0,1
60906,-100,4,1,0,70,0,1
61199,-100,4,1,2,75,0,1
69687,-100,4,1,0,50,0,1
69979,-100,4,1,0,60,0,1
70272,-100,4,1,0,70,0,1
70565,-100,4,1,2,75,0,1
74370,-100,4,1,0,50,0,0
75101,-100,4,1,1,100,0,0
75540,-100,4,1,1,70,0,0
76345,-100,4,1,1,100,0,0
76565,-100,4,1,1,70,0,0
77516,-100,4,1,1,100,0,0
77735,-100,4,1,1,70,0,0
78687,-100,4,1,1,100,0,0
78906,-100,4,1,1,70,0,0
79638,-100,4,1,1,100,0,0
79711,-100,4,1,1,70,0,0
79931,-100,4,1,1,100,0,0
80004,-100,4,1,1,70,0,0
81028,-100,4,1,1,100,0,0
81248,-100,4,1,1,70,0,0
82199,-100,4,1,1,100,0,0
82418,-100,4,1,1,70,0,0
83370,-100,4,1,1,100,0,0
83589,-100,4,1,1,70,0,0
83735,-100,4,1,1,60,0,0
84321,-100,4,1,1,90,0,0
84394,-100,4,1,1,60,0,0
84614,-100,4,1,1,90,0,0
84687,-100,4,1,1,60,0,0
86077,-100,4,1,1,30,0,0

[Colours]
Combo1 : 255,255,128
Combo2 : 255,128,128
Combo3 : 128,255,255
Combo4 : 128,255,128

[HitObjects]
224,256,614,6,0,P|281:267|330:235,1,120.000004577637,6|0,0:0|0:0,0:0:0:0:
416,192,1053,2,0,P|358:180|309:212,1,120.000004577637,10|2,0:0|0:0,0:0:0:0:
224,256,1492,2,0,L|160:240,1,60.0000022888184,2|8,0:0|0:0,0:0:0:0:
256,192,1784,6,0,P|313:203|362:171,1,120.000004577637,2|0,0:0|0:0,0:0:0:0:
448,128,2223,2,0,P|390:116|341:148,1,120.000004577637,10|2,0:0|0:0,0:0:0:0:
256,192,2662,2,0,L|192:176,1,60.0000022888184,2|8,0:0|0:0,0:0:0:0:
288,128,2955,6,0,P|320:80|288:16,1,120.000004577637,2|0,0:0|0:0,0:0:0:0:
223,127,3394,2,0,P|191:79|211:25,1,120.000004577637,10|2,0:0|0:0,0:0:0:0:
300,25,3833,1,2,0:0:0:0:
211,25,3979,1,8,0:0:0:0:
336,96,4126,6,0,P|352:144|304:192,1,120.000004577637,2|0,0:0|0:0,0:0:0:0:
176,96,4565,2,0,P|224:64|288:64,1,120.000004577637,10|2,0:0|0:0,0:0:0:0:
400,80,5004,2,0,L|464:112,1,60.0000022888184,2|8,0:0|0:0,0:0:0:0:
288,256,5296,6,0,P|231:267|182:235,1,120.000004577637,6|0,0:0|0:0,0:0:0:0:
96,192,5735,2,0,P|154:180|203:212,1,120.000004577637,10|2,0:0|0:0,0:0:0:0:
288,256,6174,2,0,L|352:240,1,60.0000022888184,2|8,0:0|0:0,0:0:0:0:
256,192,6467,6,0,P|199:203|150:171,1,120.000004577637,2|0,0:0|0:0,0:0:0:0:
64,128,6906,2,0,P|122:116|171:148,1,120.000004577637,10|2,0:0|0:0,0:0:0:0:
256,192,7345,2,0,L|320:176,1,60.0000022888184,2|8,0:0|0:0,0:0:0:0:
224,128,7638,6,0,P|192:80|224:16,1,120.000004577637,2|0,0:0|0:0,0:0:0:0:
288,127,8077,2,0,P|320:79|300:25,1,120.000004577637,10|2,0:0|0:0,0:0:0:0:
211,25,8516,1,2,0:0:0:0:
300,25,8662,1,8,0:0:0:0:
176,96,8809,6,0,P|144:144|176:192,1,120.000004577637,2|2,0:0|0:0,0:0:0:0:
272,224,9248,1,2,0:0:0:0:
368,192,9394,2,0,P|400:160|400:144,1,60.0000022888184,2|2,0:0|0:0,0:0:0:0:
390,114,9613,1,2,0:0:0:0:
368,96,9686,1,2,0:0:0:0:
336,96,9760,1,2,0:0:0:0:
288,96,9833,1,2,0:0:0:0:
224,96,9906,1,2,0:0:0:0:
144,96,9979,6,0,P|96:144|144:208,1,160,12|8,0:0|0:0,0:0:0:0:
256,208,10418,1,8,0:0:0:0:
144,208,10565,2,0,P|96:208|64:240,1,80,8|0,0:0|0:0,0:0:0:0:
45,265,10784,1,2,0:0:0:0:
32,302,10857,1,2,0:0:0:0:
80,320,10931,1,2,0:0:0:0:
144,320,11004,1,8,0:0:0:0:
272,320,11150,6,0,P|368:288|384:240,1,160,12|0,0:0|0:0,0:0:0:0:
272,192,11589,2,0,L|192:192,1,80,8|8,0:0|0:0,0:0:0:0:
80,64,11882,2,0,L|144:128,2,80,0|2|8,0:0|0:0|0:0,0:0:0:0:
208,64,12321,6,0,P|288:64|368:96,1,160,12|8,0:0|0:0,0:0:0:0:
464,144,12760,1,8,0:0:0:0:
352,192,12906,2,0,L|416:240,1,80,8|0,0:0|0:0,0:0:0:0:
448,272,13126,1,2,0:0:0:0:
416,304,13199,1,2,0:0:0:0:
368,304,13272,1,2,0:0:0:0:
304,304,13345,1,8,0:0:0:0:
64,192,13492,6,0,P|96:112|160:80,1,160,4|8,0:0|0:0,0:0:0:0:
256,80,13931,1,8,0:0:0:0:
352,144,14077,2,0,L|272:144,1,80,2|8,0:0|0:0,0:0:0:0:
160,192,14370,2,0,L|240:192,1,80,2|8,0:0|0:0,0:0:0:0:
368,288,14662,6,0,P|416:240|368:176,1,160,12|8,0:0|0:0,0:0:0:0:
256,176,15101,1,8,0:0:0:0:
368,176,15248,2,0,P|416:176|448:144,1,80,8|0,0:0|0:0,0:0:0:0:
467,119,15467,1,2,0:0:0:0:
480,82,15540,1,2,0:0:0:0:
432,64,15614,1,2,0:0:0:0:
368,64,15687,1,8,0:0:0:0:
240,64,15833,6,0,P|144:96|128:144,1,160,12|0,0:0|0:0,0:0:0:0:
240,192,16272,2,0,L|320:192,1,80,8|8,0:0|0:0,0:0:0:0:
432,320,16565,2,0,L|368:256,2,80,0|2|8,0:0|0:0|0:0,0:0:0:0:
304,320,17004,6,0,P|224:320|144:288,1,160,12|8,0:0|0:0,0:0:0:0:
48,240,17443,1,8,0:0:0:0:
160,192,17589,2,0,L|96:144,1,80,8|0,0:0|0:0,0:0:0:0:
64,112,17809,1,2,0:0:0:0:
96,80,17882,1,2,0:0:0:0:
144,80,17955,1,2,0:0:0:0:
208,80,18028,1,8,0:0:0:0:
448,192,18174,6,0,P|416:272|352:304,1,160,4|8,0:0|0:0,0:0:0:0:
256,304,18614,1,8,0:0:0:0:
160,240,18760,2,0,L|240:240,1,80,2|8,0:0|0:0,0:0:0:0:
352,192,19053,2,0,L|272:192,1,80,2|8,0:0|0:0,0:0:0:0:
64,192,19345,6,0,P|112:128|192:112,1,160,6|0,0:0|0:0,0:0:0:0:
304,112,19784,2,0,L|352:176,1,80,8|0,0:0|0:0,0:0:0:0:
240,272,20077,2,0,L|192:208,1,80,8|0,0:0|0:0,0:0:0:0:
309,105,20370,2,0,L|373:169,1,80,8|0,0:0|0:0,0:0:0:0:
234,278,20663,6,0,L|170:214,1,80,8|0,0:0|0:0,0:0:0:0:
312,96,20955,2,0,L|392:160,1,80,8|0,0:0|0:0,0:0:0:0:
232,284,21248,2,0,L|152:220,1,80,8|0,0:0|0:0,0:0:0:0:
316,88,21540,1,10,0:0:0:0:
80,176,21687,6,0,P|112:256|192:272,1,160,6|0,0:0|0:0,0:0:0:0:
304,272,22126,2,0,L|352:208,1,80,8|0,0:0|0:0,0:0:0:0:
224,112,22418,2,0,L|176:176,1,80,8|0,0:0|0:0,0:0:0:0:
304,272,22711,2,0,L|352:192,1,80,8|0,0:0|0:0,0:0:0:0:
224,112,23004,6,0,L|176:192,1,80,8|0,0:0|0:0,0:0:0:0:
304,272,23296,2,0,P|336:192|304:128,1,160,8|8,0:0|0:0,0:0:0:0:
176,128,23735,2,0,L|192:208,1,80,0|10,0:0|0:0,0:0:0:0:
448,192,24028,6,0,P|400:256|320:272,1,160,6|0,0:0|0:0,0:0:0:0:
208,272,24467,2,0,L|160:208,1,80,8|0,0:0|0:0,0:0:0:0:
272,112,24760,2,0,L|320:176,1,80,8|0,0:0|0:0,0:0:0:0:
203,279,25053,2,0,L|139:215,1,80,8|0,0:0|0:0,0:0:0:0:
278,106,25346,6,0,L|342:170,1,80,8|0,0:0|0:0,0:0:0:0:
200,288,25638,2,0,L|120:224,1,80,8|0,0:0|0:0,0:0:0:0:
280,100,25931,2,0,L|360:164,1,80,8|0,0:0|0:0,0:0:0:0:
196,296,26223,1,10,0:0:0:0:
432,208,26370,6,0,P|400:128|320:112,1,160,6|0,0:0|0:0,0:0:0:0:
208,112,26809,2,0,L|160:176,1,80,8|0,0:0|0:0,0:0:0:0:
288,272,27101,2,0,L|336:208,1,80,8|0,0:0|0:0,0:0:0:0:
208,112,27394,2,0,L|160:192,1,80,8|0,0:0|0:0,0:0:0:0:
288,272,27687,6,0,L|336:192,1,80,8|0,0:0|0:0,0:0:0:0:
208,112,27979,2,0,P|176:192|208:256,1,160,8|8,0:0|0:0,0:0:0:0:
336,256,28418,2,0,L|416:256,1,80,0|10,0:0|0:0,0:0:0:0:
176,256,28711,6,0,B|64:256|64:256|192:256,1,240.000009155274,6|2,0:0|0:0,0:0:0:0:
304,224,29443,2,0,B|368:224|368:224|288:224,1,120.000004577637,2|0,0:0|0:0,0:0:0:0:
208,176,29882,1,2,0:0:0:0:
320,144,30028,6,0,B|384:144|384:144|304:144,1,120.000004577637,2|0,0:0|0:0,0:0:0:0:
224,96,30467,1,2,0:0:0:0:
312,64,30613,1,2,0:0:0:0:
400,64,30760,1,2,0:0:0:0:
272,64,30906,1,2,0:0:0:0:
144,128,31053,5,8,0:0:0:0:
384,128,31345,2,0,L|448:144,2,60.0000022888184,8|0|2,0:0|0:0|0:0,0:0:0:0:
304,112,31784,2,0,P|256:144|256:208,1,120.000004577637,2|2,0:0|0:0,0:0:0:0:
384,256,32370,6,0,L|256:256,1,120.000004577637,2|2,0:0|0:0,0:0:0:0:
192,256,32809,1,0,0:0:0:0:
212,201,32955,1,2,0:0:0:0:
266,180,33101,1,0,0:0:0:0:
318,206,33248,1,2,0:0:0:0:
192,256,33394,5,8,0:0:0:0:
440,256,33687,2,0,L|320:256,1,120.000004577637,8|2,0:0|0:0,0:0:0:0:
208,224,34126,2,0,B|144:224|144:224|224:224,1,120.000004577637,2|0,0:0|0:0,0:0:0:0:
304,176,34565,1,2,0:0:0:0:
192,144,34711,6,0,B|128:144|128:144|208:144,1,120.000004577637,2|0,0:0|0:0,0:0:0:0:
288,96,35150,1,2,0:0:0:0:
200,64,35296,1,2,0:0:0:0:
112,64,35443,1,2,0:0:0:0:
240,64,35589,1,2,0:0:0:0:
368,128,35736,5,8,0:0:0:0:
128,128,36028,2,0,L|64:144,2,60.0000022888184,8|0|2,0:0|0:0|0:0,0:0:0:0:
208,112,36467,2,0,P|256:144|256:208,1,120.000004577637,2|2,0:0|0:0,0:0:0:0:
128,256,36906,5,4,0:0:0:0:
224,256,37053,2,0,L|304:256,1,80
432,192,37345,2,0,L|352:192,1,80
256,128,37638,2,0,P|192:192|208:256,1,160
464,256,38077,6,0,P|464:160|416:112,1,160,4|0,0:0|0:0,0:0:0:0:
256,64,38662,1,2,0:0:0:0:
144,64,38809,2,0,L|115:138,1,80,2|0,0:0|0:0,0:0:0:0:
221,138,39102,2,0,L|192:64,1,80,8|2,0:0|0:0,0:0:0:0:
80,64,39394,6,0,L|51:138,1,80,2|0,0:0|0:0,0:0:0:0:
173,138,39687,2,0,L|144:64,1,80,8|2,0:0|0:0,0:0:0:0:
32,64,39979,2,0,P|80:32|144:32,1,120,2|0,0:0|0:0,0:0:0:0:
176,32,40272,1,10,0:0:0:0:
32,192,40418,6,0,P|96:240|176:240,1,160,0|0,0:0|0:0,0:0:0:0:
272,224,40857,2,0,L|192:208,1,80,10|0,0:0|0:0,0:0:0:0:
96,192,41150,1,2,0:0:0:0:
352,176,41443,2,0,P|416:128|416:48,1,160,10|2,0:0|0:0,0:0:0:0:
208,32,41955,5,0,0:0:0:0:
160,32,42028,2,0,L|80:32,1,80,10|0,0:0|0:0,0:0:0:0:
208,96,42321,1,2,0:0:0:0:
304,96,42467,1,0,0:0:0:0:
224,160,42613,1,10,0:0:0:0:
96,192,42760,5,2,0:0:0:0:
352,192,43053,1,0,0:0:0:0:
160,192,43345,1,2,0:0:0:0:
256,240,43492,2,0,L|304:304,1,80,2|0,0:0|0:0,0:0:0:0:
208,304,43784,2,0,L|256:240,1,80,8|2,0:0|0:0,0:0:0:0:
352,240,44077,6,0,L|400:304,1,80,2|0,0:0|0:0,0:0:0:0:
304,304,44369,2,0,L|352:240,1,80,8|2,0:0|0:0,0:0:0:0:
448,240,44662,1,2,0:0:0:0:
336,192,44809,1,2,0:0:0:0:
416,112,44955,1,10,0:0:0:0:
288,64,45101,6,0,P|224:80|176:160,1,160,2|0,0:0|0:0,0:0:0:0:
288,192,45540,1,10,0:0:0:0:
400,192,45687,1,0,0:0:0:0:
288,320,45833,2,0,P|224:304|176:224,1,160,2|10,0:0|0:0,0:0:0:0:
448,64,46272,6,0,P|384:80|336:160,1,160,6|0,0:0|0:0,0:0:0:0:
448,320,46711,1,10,0:0:0:0:
320,192,46857,2,0,L|240:192,1,80,0|2,0:0|0:0,0:0:0:0:
320,192,47150,2,0,L|384:128,1,80,0|8,0:0|0:0,0:0:0:0:
96,112,47443,6,0,P|80:192|144:224,1,160,0|0,0:0|0:0,0:0:0:0:
240,224,47882,2,0,L|256:144,1,80,0|2,0:0|0:0,0:0:0:0:
352,224,48174,2,0,L|368:144,1,80,0|2,0:0|0:0,0:0:0:0:
464,224,48467,1,0,0:0:0:0:
352,304,48613,6,0,P|240:288|208:256,1,160,2|2,0:0|0:0,0:0:0:0:
384,80,49199,2,0,P|272:96|240:128,1,160,2|2,0:0|0:0,0:0:0:0:
416,272,49784,6,0,P|432:192|368:160,1,160,8|0,0:0|0:0,0:0:0:0:
272,160,50223,2,0,L|256:240,1,80,0|8,0:0|0:0,0:0:0:0:
160,160,50515,2,0,L|176:240,1,80,0|8,0:0|0:0,0:0:0:0:
272,160,50808,1,0,0:0:0:0:
160,160,50955,6,0,P|80:128|48:64,1,160,8|0,0:0|0:0,0:0:0:0:
160,48,51394,2,0,L|240:48,1,80,0|8,0:0|0:0,0:0:0:0:
352,64,51687,2,0,P|400:128|352:176,1,160
96,192,52126,6,0,P|144:256|224:272,1,160,4|8,0:0|0:0,0:0:0:0:
320,272,52565,2,0,L|272:208,1,80,10|0,0:0|0:0,0:0:0:0:
176,192,52857,2,0,P|176:128|256:96,1,160,2|0,0:0|0:0,0:0:0:0:
416,192,53296,6,0,P|368:256|288:272,1,160,4|8,0:0|0:0,0:0:0:0:
192,272,53735,2,0,L|240:208,1,80,10|0,0:0|0:0,0:0:0:0:
336,192,54028,2,0,P|336:128|256:96,1,160,2|0,0:0|0:0,0:0:0:0:
96,112,54467,6,0,P|64:192|96:256,1,160,4|8,0:0|0:0,0:0:0:0:
192,256,54906,2,0,L|176:176,1,80,8|8,0:0|0:0,0:0:0:0:
272,256,55199,2,0,L|256:176,1,80
352,256,55492,1,0,0:0:0:0:
96,112,55638,5,12,0:0:0:0:
80,192,56809,6,0,P|112:128|192:96,1,160,4|0,0:0|0:0,0:0:0:0:
320,96,57248,1,8,0:0:0:0:
160,192,57540,2,0,L|80:192,2,80,0|0|8,0:0|0:0|0:0,0:0:0:0:
256,192,57979,6,0,L|416:192,1,160,0|0,0:0|0:0,0:0:0:0:
256,192,58565,2,0,L|384:64,1,160,0|0,0:0|0:0,0:0:0:0:
256,48,59004,1,8,0:0:0:0:
142,78,59150,6,0,L|256:192,1,160,0|0,0:0|0:0,0:0:0:0:
368,192,59589,2,0,L|288:192,1,80,8|0,0:0|0:0,0:0:0:0:
176,192,59882,2,0,L|256:192,2,80,0|0|8,0:0|0:0|0:0,0:0:0:0:
64,192,60321,5,2,0:0:0:0:
288,192,60613,1,2,0:0:0:0:
32,192,60906,1,2,0:0:0:0:
320,192,61199,2,0,L|256:144,1,80,8|8,0:0|0:0,0:0:0:0:
32,192,61492,6,0,P|64:256|144:288,1,160,4|0,0:0|0:0,0:0:0:0:
272,288,61931,2,0,L|432:288,1,160,8|0,0:0|0:0,0:0:0:0:
369,287,62516,1,8,0:0:0:0:
256,288,62662,6,0,P|192:272|144:192,1,160,0|0,0:0|0:0,0:0:0:0:
256,176,63101,1,8,0:0:0:0:
367,195,63248,2,0,P|330:264|256:288,1,160,0|0,0:0|0:0,0:0:0:0:
144,195,63687,1,8,0:0:0:0:
256,176,63833,6,0,L|416:176,1,160,0|0,0:0|0:0,0:0:0:0:
296,112,64272,1,8,0:0:0:0:
176,112,64418,2,0,L|144:192,1,80,0|0,0:0|0:0,0:0:0:0:
304,272,64711,2,0,L|333:197,1,80,0|8,0:0|0:0,0:0:0:0:
64,112,65004,6,0,B|32:192|32:192|64:272,1,160,0|0,0:0|0:0,0:0:0:0:
96,272,65370,1,0,0:0:0:0:
144,272,65443,1,8,0:0:0:0:
272,192,65589,2,0,L|192:192,1,80
64,112,65882,2,0,L|144:112,1,80,4|12,0:0|0:0,0:0:0:0:
432,192,66174,6,0,P|400:256|320:288,1,160,4|0,0:0|0:0,0:0:0:0:
192,288,66613,1,8,0:0:0:0:
352,192,66906,2,0,L|432:192,2,80,0|0|8,0:0|0:0|0:0,0:0:0:0:
256,192,67345,6,0,L|96:192,1,160
256,192,67930,2,0,L|128:320,1,160,0|0,0:0|0:0,0:0:0:0:
256,336,68369,1,8,0:0:0:0:
370,306,68516,6,0,L|256:192,1,160
144,192,68955,2,0,L|224:192,1,80,8|0,0:0|0:0,0:0:0:0:
336,192,69247,2,0,L|256:192,2,80,0|0|8,0:0|0:0|0:0,0:0:0:0:
448,192,69686,5,2,0:0:0:0:
224,192,69979,1,2,0:0:0:0:
480,192,70271,1,2,0:0:0:0:
192,192,70565,2,0,L|256:240,1,80,8|8,0:0|0:0,0:0:0:0:
480,192,70857,6,0,P|448:128|368:96,1,160,4|0,0:0|0:0,0:0:0:0:
144,144,71443,2,0,L|224:144,1,80
352,144,71735,2,0,L|272:144,1,80,0|8,0:0|0:0,0:0:0:0:
144,144,72028,6,0,P|64:176|32:240,2,160
256,144,72760,2,0,L|416:144,1,160,0|8,0:0|0:0,0:0:0:0:
256,208,73199,6,0,L|96:208,1,160
216,272,73638,1,8,0:0:0:0:
336,272,73784,2,0,L|368:192,1,80
208,112,74077,2,0,L|179:187,1,80,0|8,0:0|0:0,0:0:0:0:
448,272,74370,6,0,B|480:192|480:192|448:112,1,160,4|0,0:0|0:0,0:0:0:0:
368,112,74809,1,0,0:0:0:0:
288,192,74955,2,0,L|368:192,1,80,0|2,0:0|0:0,0:0:0:0:
390,270,75174,1,2,0:0:0:0:
368,288,75247,1,2,0:0:0:0:
336,288,75321,1,2,0:0:0:0:
288,288,75394,1,2,0:0:0:0:
224,288,75467,1,2,0:0:0:0:
144,288,75540,6,0,P|96:240|144:176,1,160,12|8,0:0|0:0,0:0:0:0:
256,176,75979,1,8,0:0:0:0:
144,176,76126,2,0,P|96:176|64:144,1,80,8|0,0:0|0:0,0:0:0:0:
45,119,76345,1,2,0:0:0:0:
32,82,76418,1,2,0:0:0:0:
80,64,76492,1,2,0:0:0:0:
144,64,76565,1,8,0:0:0:0:
272,64,76711,6,0,P|368:96|384:144,1,160,12|0,0:0|0:0,0:0:0:0:
272,192,77150,2,0,L|192:192,1,80,8|8,0:0|0:0,0:0:0:0:
80,320,77443,2,0,L|160:320,2,80,0|2|8,0:0|0:0|0:0,0:0:0:0:
208,320,77882,6,0,P|288:320|368:288,1,160,12|8,0:0|0:0,0:0:0:0:
464,240,78321,1,8,0:0:0:0:
352,192,78467,2,0,L|416:144,1,80,8|0,0:0|0:0,0:0:0:0:
448,112,78687,1,2,0:0:0:0:
416,80,78760,1,2,0:0:0:0:
368,80,78833,1,2,0:0:0:0:
304,80,78906,1,8,0:0:0:0:
96,176,79053,6,0,P|112:272|160:304,1,160,4|8,0:0|0:0,0:0:0:0:
256,304,79492,1,8,0:0:0:0:
352,240,79638,2,0,L|272:240,1,80,2|8,0:0|0:0,0:0:0:0:
160,192,79931,2,0,L|240:192,1,80,2|8,0:0|0:0,0:0:0:0:
368,288,80223,6,0,P|416:240|368:176,1,160,12|8,0:0|0:0,0:0:0:0:
256,176,80662,1,8,0:0:0:0:
368,176,80809,2,0,P|416:176|448:144,1,80,8|0,0:0|0:0,0:0:0:0:
467,119,81028,1,2,0:0:0:0:
480,82,81101,1,2,0:0:0:0:
432,64,81174,1,2,0:0:0:0:
368,64,81248,1,8,0:0:0:0:
240,64,81394,6,0,P|144:96|128:144,1,160,12|0,0:0|0:0,0:0:0:0:
240,192,81833,2,0,L|320:192,1,80,8|8,0:0|0:0,0:0:0:0:
432,320,82126,2,0,L|352:320,2,80,0|2|8,0:0|0:0|0:0,0:0:0:0:
304,320,82565,6,0,P|224:320|144:288,1,160,12|8,0:0|0:0,0:0:0:0:
48,240,83004,1,8,0:0:0:0:
160,192,83150,2,0,L|96:144,1,80,8|0,0:0|0:0,0:0:0:0:
64,112,83370,1,2,0:0:0:0:
96,80,83443,1,2,0:0:0:0:
144,80,83516,1,2,0:0:0:0:
208,80,83589,1,8,0:0:0:0:
416,176,83735,6,0,P|400:272|352:304,1,160,4|8,0:0|0:0,0:0:0:0:
256,304,84175,1,8,0:0:0:0:
160,240,84321,2,0,L|240:240,1,80,0|8,0:0|0:0,0:0:0:0:
352,192,84614,2,0,L|272:192,1,80,0|8,0:0|0:0,0:0:0:0:
256,192,84906,12,8,86223,0:0:0:0:
