osu file format v14

[General]
AudioFilename: Zetsubousei Hero Chiryouyaku.mp3
AudioLeadIn: 0
PreviewTime: 56077
Countdown: 0
SampleSet: Normal
StackLeniency: 0.7
Mode: 2
LetterboxInBreaks: 0
WidescreenStoryboard: 1

[Editor]
DistanceSpacing: 1.4
BeatDivisor: 4
GridSize: 16
TimelineZoom: 1.000001

[Metadata]
Title:Zetsubousei: Hero Chiryouyaku The Animation
TitleUnicode:絶望性:ヒーロー治療薬 The Animation
Artist:suzumu feat.soraru
ArtistUnicode:スズム feat.そらる
Creator:Deif
Version:Cup
Source:ダンガンロンパ 希望の学園と絶望の高校生 The Animation
Tags:Danganronpa Kibou no Gakuen to Zetsubou no Koukousei Ending
BeatmapID:806341
BeatmapSetID:367646

[Difficulty]
HPDrainRate:4
CircleSize:2.5
OverallDifficulty:6
ApproachRate:6
SliderMultiplier:0.999999999999999
SliderTickRate:1

[Events]
//Background and Video events
0,0,"BG.jpg",0,0
//Break Periods
//Storyboard Layer 0 (Background)
//Storyboard Layer 1 (Fail)
//Storyboard Layer 2 (Pass)
//Storyboard Layer 3 (Foreground)
//Storyboard Sound Samples

[TimingPoints]
614,292.682926829268,4,2,1,50,1,0
614,-133.333333333333,4,2,1,50,0,0
9979,-100,4,1,1,70,0,0
10784,-100,4,1,1,100,0,0
11004,-100,4,1,1,70,0,0
11955,-100,4,1,1,100,0,0
12174,-100,4,1,1,70,0,0
13126,-100,4,1,1,100,0,0
13345,-100,4,1,1,70,0,0
14077,-100,4,1,1,100,0,0
14150,-100,4,1,1,70,0,0
14370,-100,4,1,1,100,0,0
14443,-100,4,1,1,70,0,0
15467,-100,4,1,1,100,0,0
15687,-100,4,1,1,70,0,0
16638,-100,4,1,1,100,0,0
16857,-100,4,1,1,70,0,0
17809,-100,4,1,1,100,0,0
18028,-100,4,1,1,70,0,0
18760,-100,4,1,1,100,0,0
18833,-100,4,1,1,70,0,0
19053,-100,4,1,1,100,0,0
19126,-100,4,1,1,70,0,0
19345,-100,4,1,0,70,0,0
19784,-100,4,1,0,46,0,0
20077,-100,4,1,0,50,0,0
20370,-100,4,1,0,54,0,0
20662,-100,4,1,0,58,0,0
20955,-100,4,1,0,62,0,0
21248,-100,4,1,0,66,0,0
21540,-100,4,1,0,70,0,0
22126,-100,4,1,0,46,0,0
22419,-100,4,1,0,50,0,0
22712,-100,4,1,0,54,0,0
23004,-100,4,1,0,58,0,0
23297,-100,4,1,0,62,0,0
23590,-100,4,1,0,56,0,0
23882,-100,4,1,0,50,0,0
24028,-100,4,1,0,70,0,0
24467,-100,4,1,0,46,0,0
24760,-100,4,1,0,50,0,0
25053,-100,4,1,0,54,0,0
25345,-100,4,1,0,58,0,0
25638,-100,4,1,0,62,0,0
25931,-100,4,1,0,66,0,0
26223,-100,4,1,0,70,0,0
26809,-100,4,1,0,46,0,0
27102,-100,4,1,0,50,0,0
27395,-100,4,1,0,54,0,0
27687,-100,4,1,0,58,0,0
27980,-100,4,1,0,62,0,0
28273,-100,4,1,0,56,0,0
28565,-100,4,1,0,50,0,0
28711,-133.333333333333,4,1,2,50,0,0
31053,-133.333333333333,4,1,2,70,0,0
31638,-133.333333333333,4,1,2,50,0,0
33394,-133.333333333333,4,1,2,70,0,0
33979,-133.333333333333,4,1,2,50,0,0
35735,-133.333333333333,4,1,2,70,0,0
36321,-133.333333333333,4,1,2,50,0,0
36906,-100,4,1,1,60,0,0
38077,-100,4,1,2,70,0,0
47443,-100,4,1,3,70,0,0
55638,-100,4,1,3,70,0,0
56809,-100,4,1,2,75,0,1
60321,-100,4,1,0,50,0,1
60613,-100,4,1,0,60,0,1
60906,-100,4,1,0,70,0,1
61199,-100,4,1,2,75,0,1
69687,-100,4,1,0,50,0,1
69979,-100,4,1,0,60,0,1
70272,-100,4,1,0,70,0,1
70565,-100,4,1,2,75,0,1
74370,-100,4,1,0,50,0,0
75101,-100,4,1,1,100,0,0
75540,-100,4,1,1,70,0,0
79638,-100,4,1,1,100,0,0
79711,-100,4,1,1,70,0,0
79931,-100,4,1,1,100,0,0
80004,-100,4,1,1,70,0,0
81028,-100,4,1,1,100,0,0
81248,-100,4,1,1,70,0,0
82199,-100,4,1,1,100,0,0
82418,-100,4,1,1,70,0,0
83370,-100,4,1,1,100,0,0
83589,-100,4,1,1,70,0,0
83735,-100,4,1,1,60,0,0
84321,-100,4,1,1,90,0,0
84687,-100,4,1,1,60,0,0
86077,-100,4,1,1,30,0,0

[Colours]
Combo1 : 255,255,128
Combo2 : 255,128,128
Combo3 : 128,255,255
Combo4 : 128,255,128

[HitObjects]
208,96,614,6,0,P|272:128|320:128,2,112.500004291534,6|10|2,0:0|0:0|0:0,0:0:0:0:
304,96,1784,6,0,P|240:128|192:128,2,112.500004291534,2|10|2,0:0|0:0|0:0,0:0:0:0:
208,192,2955,6,0,P|144:224|96:224,2,112.500004291534,2|10|2,0:0|0:0|0:0,0:0:0:0:
336,192,4126,6,0,L|352:272,1,75.000002861023,2|0,0:0|0:0,0:0:0:0:
305,265,4565,2,0,L|320:192,1,75.000002861023,10|2,0:0|0:0,0:0:0:0:
272,176,5004,1,2,0:0:0:0:
160,96,5296,6,0,L|80:96,1,75.000002861023,6|0,0:0|0:0,0:0:0:0:
128,96,5735,2,0,L|208:96,1,75.000002861023,10|2,0:0|0:0,0:0:0:0:
160,96,6174,1,2,0:0:0:0:
272,192,6467,6,0,L|352:192,1,75.000002861023,2|0,0:0|0:0,0:0:0:0:
304,192,6906,2,0,L|224:192,1,75.000002861023,10|2,0:0|0:0,0:0:0:0:
272,192,7345,1,2,0:0:0:0:
160,288,7638,6,0,L|80:288,1,75.000002861023,2|0,0:0|0:0,0:0:0:0:
128,288,8077,2,0,L|208:288,1,75.000002861023,10|2,0:0|0:0,0:0:0:0:
160,288,8516,1,2,0:0:0:0:
256,192,8809,12,12,9979,0:0:0:0:
240,192,10272,6,0,L|288:176,2,50,8|8|8,0:0|0:0|0:0,0:0:0:0:
128,192,10857,1,2,0:0:0:0:
272,192,11150,5,12,0:0:0:0:
160,192,11443,2,0,L|112:176,2,50,0|8|8,0:0|0:0|0:0,0:0:0:0:
272,192,12028,1,2,0:0:0:0:
128,192,12321,5,12,0:0:0:0:
224,192,12613,1,8,0:0:0:0:
256,144,12760,1,8,0:0:0:0:
288,192,12906,1,8,0:0:0:0:
384,192,13199,1,2,0:0:0:0:
256,240,13492,6,0,P|304:256|352:240,1,99.9999999999999,4|8,0:0|0:0,0:0:0:0:
256,240,14077,2,0,L|208:256,2,50,2|2|2,0:0|0:0|0:0,0:0:0:0:
384,192,14662,5,12,0:0:0:0:
272,192,14955,2,0,L|224:208,2,50,8|8|8,0:0|0:0|0:0,0:0:0:0:
384,192,15540,1,2,0:0:0:0:
240,192,15833,5,12,0:0:0:0:
128,192,16126,2,0,L|80:208,2,50,0|8|8,0:0|0:0|0:0,0:0:0:0:
240,192,16711,1,2,0:0:0:0:
384,192,17004,5,12,0:0:0:0:
288,192,17296,1,8,0:0:0:0:
256,240,17443,1,8,0:0:0:0:
224,192,17589,1,8,0:0:0:0:
128,192,17882,1,2,0:0:0:0:
256,144,18174,6,0,P|208:128|160:144,1,99.9999999999999,4|8,0:0|0:0,0:0:0:0:
256,144,18760,2,0,L|304:128,2,50,2|2|2,0:0|0:0|0:0,0:0:0:0:
128,192,19345,6,0,P|96:256|160:304,1,150,6|8,0:0|0:0,0:0:0:0:
272,304,20077,1,8,0:0:0:0:
176,240,20370,1,8,0:0:0:0:
80,176,20662,5,8,0:0:0:0:
192,176,20955,1,8,0:0:0:0:
304,176,21248,1,8,0:0:0:0:
416,176,21540,1,10,0:0:0:0:
352,208,21687,6,0,P|336:272|400:320,1,150,6|8,0:0|0:0,0:0:0:0:
464,240,22418,1,8,0:0:0:0:
368,208,22711,1,8,0:0:0:0:
256,192,23004,5,8,0:0:0:0:
368,208,23296,1,8,0:0:0:0:
464,176,23589,1,8,0:0:0:0:
352,160,23882,1,10,0:0:0:0:
384,192,24028,6,0,P|416:128|352:80,1,150,6|8,0:0|0:0,0:0:0:0:
240,80,24760,1,8,0:0:0:0:
336,144,25053,1,8,0:0:0:0:
432,208,25345,5,8,0:0:0:0:
320,208,25638,1,8,0:0:0:0:
208,208,25931,1,8,0:0:0:0:
96,208,26223,1,10,0:0:0:0:
160,176,26370,6,0,P|176:112|112:64,1,150,6|8,0:0|0:0,0:0:0:0:
48,144,27101,1,8,0:0:0:0:
144,176,27394,1,8,0:0:0:0:
256,192,27687,5,8,0:0:0:0:
144,176,27979,1,8,0:0:0:0:
48,208,28272,1,8,0:0:0:0:
160,224,28565,1,10,0:0:0:0:
128,192,28711,5,6,0:0:0:0:
256,192,29443,1,2,0:0:0:0:
352,192,30028,1,2,0:0:0:0:
256,192,30613,1,2,0:0:0:0:
144,192,31053,5,8,0:0:0:0:
256,192,31345,1,8,0:0:0:0:
352,192,31784,1,2,0:0:0:0:
256,192,32370,1,2,0:0:0:0:
160,192,32955,1,2,0:0:0:0:
48,192,33394,5,8,0:0:0:0:
160,192,33686,1,8,0:0:0:0:
256,192,34125,1,2,0:0:0:0:
160,192,34711,1,2,0:0:0:0:
64,192,35296,1,2,0:0:0:0:
176,192,35735,5,8,0:0:0:0:
288,192,36027,1,8,0:0:0:0:
400,192,36467,1,2,0:0:0:0:
256,96,36906,6,0,L|176:176,1,99.9999999999999,4|0,0:0|0:0,0:0:0:0:
240,192,37345,2,0,L|320:112,1,99.9999999999999
112,192,38077,5,4,0:0:0:0:
256,192,38662,1,2,0:0:0:0:
288,192,38809,2,0,B|384:192|384:192|416:240,1,150,2|2,0:0|0:0,0:0:0:0:
382,236,39394,6,0,B|286:236|286:236|254:188,1,150,2|2,0:0|0:0,0:0:0:0:
288,192,39979,2,0,L|256:96,1,99.9999999999999,2|10,0:0|0:0,0:0:0:0:
208,96,40418,6,0,B|112:96|112:96|80:144,1,150,0|10,0:0|0:0,0:0:0:0:
176,160,41150,1,2,0:0:0:0:
80,160,41443,1,10,0:0:0:0:
176,160,41735,2,0,L|144:256,1,99.9999999999999,2|0,0:0|0:0,0:0:0:0:
240,272,42321,2,0,L|336:240,1,99.9999999999999,2|0,0:0|0:0,0:0:0:0:
400,192,42760,5,2,0:0:0:0:
256,192,43345,1,2,0:0:0:0:
224,192,43492,2,0,B|128:192|128:192|96:144,1,150,2|2,0:0|0:0,0:0:0:0:
130,148,44077,6,0,B|226:148|226:148|258:196,1,150,2|2,0:0|0:0,0:0:0:0:
224,192,44662,2,0,L|256:288,1,99.9999999999999,2|10,0:0|0:0,0:0:0:0:
304,288,45101,6,0,B|400:288|400:288|432:240,1,150,2|10,0:0|0:0,0:0:0:0:
336,224,45833,1,2,0:0:0:0:
432,224,46126,1,10,0:0:0:0:
432,224,46272,6,0,P|352:176|352:128,1,150,6|2,0:0|0:0,0:0:0:0:
432,80,47004,1,0,0:0:0:0:
304,48,47443,6,0,P|256:96|240:176,1,150,0|0,0:0|0:0,0:0:0:0:
320,240,48174,1,0,0:0:0:0:
400,304,48467,1,0,0:0:0:0:
464,272,48613,6,0,L|432:176,1,99.9999999999999,2|2,0:0|0:0,0:0:0:0:
336,128,49199,2,0,L|241:96,1,99.9999999999999,2|2,0:0|0:0,0:0:0:0:
144,128,49784,6,0,P|80:192|96:256,1,150,8|0,0:0|0:0,0:0:0:0:
192,240,50515,1,0,0:0:0:0:
112,304,50808,1,0,0:0:0:0:
48,272,50955,6,0,L|80:176,1,99.9999999999999,8|0,0:0|0:0,0:0:0:0:
144,304,51394,2,0,L|112:208,1,99.9999999999999
272,144,52126,6,0,P|320:192|272:240,1,150,4|10,0:0|0:0,0:0:0:0:
176,192,52857,1,2,0:0:0:0:
320,144,53296,6,0,P|368:192|320:240,1,150,4|10,0:0|0:0,0:0:0:0:
224,192,54027,1,2,0:0:0:0:
256,192,54467,12,12,55638,0:0:0:0:
192,192,56809,6,0,L|288:160,1,99.9999999999999,4|0,0:0|0:0,0:0:0:0:
336,160,57248,2,0,P|368:192|336:224,1,99.9999999999999,8|0,0:0|0:0,0:0:0:0:
288,224,57687,1,0,0:0:0:0:
160,224,57979,6,0,L|80:160,3,99.9999999999999,0|0|0|0,0:0|0:0|0:0|0:0,0:0:0:0:
192,160,59150,6,0,L|288:128,1,99.9999999999999,0|0,0:0|0:0,0:0:0:0:
336,128,59589,2,0,P|368:160|336:192,1,99.9999999999999,8|0,0:0|0:0,0:0:0:0:
288,192,60028,1,0,0:0:0:0:
144,192,60321,5,2,0:0:0:0:
128,192,60613,1,2,0:0:0:0:
112,192,60906,1,2,0:0:0:0:
96,192,61199,1,8,0:0:0:0:
208,192,61492,6,0,P|240:160|208:128,1,99.9999999999999,4|0,0:0|0:0,0:0:0:0:
152,128,61931,2,0,L|248:96,2,99.9999999999999,8|0|8,0:0|0:0|0:0,0:0:0:0:
96,128,62662,6,0,L|192:96,1,99.9999999999999,0|0,0:0|0:0,0:0:0:0:
321,96,63248,2,0,L|416:128,1,99.9999999999999,0|0,0:0|0:0,0:0:0:0:
304,176,63833,6,0,L|320:288,1,99.9999999999999,0|0,0:0|0:0,0:0:0:0:
256,288,64272,1,8,0:0:0:0:
193,274,64418,2,0,L|208:176,1,99.9999999999999,0|0,0:0|0:0,0:0:0:0:
256,128,64857,1,8,0:0:0:0:
320,96,65004,6,0,P|384:144|352:192,1,150,0|8,0:0|0:0,0:0:0:0:
304,192,65589,2,0,L|208:160,1,99.9999999999999,0|4,0:0|0:0,0:0:0:0:
320,192,66174,6,0,L|224:224,1,99.9999999999999,4|0,0:0|0:0,0:0:0:0:
176,224,66613,2,0,P|144:192|176:160,1,99.9999999999999,8|0,0:0|0:0,0:0:0:0:
224,160,67052,1,0,0:0:0:0:
352,160,67344,6,0,L|432:224,3,99.9999999999999,0|0|0|0,0:0|0:0|0:0|0:0,0:0:0:0:
320,224,68516,6,0,L|224:256,1,99.9999999999999
176,256,68955,2,0,P|144:224|176:192,1,99.9999999999999,8|0,0:0|0:0,0:0:0:0:
224,192,69393,1,0,0:0:0:0:
368,192,69686,5,2,0:0:0:0:
384,192,69978,1,2,0:0:0:0:
400,192,70271,1,2,0:0:0:0:
416,192,70565,1,8,0:0:0:0:
304,192,70857,6,0,P|272:224|304:256,1,99.9999999999999,4|0,0:0|0:0,0:0:0:0:
400,192,71443,1,0,0:0:0:0:
320,192,71735,1,0,0:0:0:0:
416,256,72028,6,0,B|320:288|320:288|208:288,1,200,0|0,0:0|0:0,0:0:0:0:
304,208,72906,1,0,0:0:0:0:
208,208,73199,6,0,L|192:96,1,99.9999999999999
319,110,73784,2,0,L|304:208,1,99.9999999999999
192,288,74370,6,0,P|320:192|256:144,1,300,4|2,0:0|0:0,0:0:0:0:
256,192,75540,12,12,77882,0:0:0:0:
256,144,79053,6,0,P|208:128|160:144,1,99.9999999999999,4|8,0:0|0:0,0:0:0:0:
256,144,79638,2,0,L|304:160,2,50,2|2|2,0:0|0:0|0:0,0:0:0:0:
128,192,80223,5,12,0:0:0:0:
240,192,80516,2,0,L|288:176,2,50,8|8|8,0:0|0:0|0:0,0:0:0:0:
128,192,81101,1,2,0:0:0:0:
272,192,81394,5,12,0:0:0:0:
160,192,81687,2,0,L|112:176,2,50,0|8|8,0:0|0:0|0:0,0:0:0:0:
272,192,82272,1,2,0:0:0:0:
128,192,82565,5,12,0:0:0:0:
224,192,82857,1,8,0:0:0:0:
256,144,83004,1,8,0:0:0:0:
288,192,83150,1,8,0:0:0:0:
384,192,83443,1,2,0:0:0:0:
256,272,83735,6,0,P|208:288|160:272,2,99.9999999999999,4|8|0,0:0|0:0|0:0,0:0:0:0:
349,273,84613,1,0,0:0:0:0:
256,192,84906,12,8,86223,0:0:0:0:
