osu file format v14

[General]
AudioFilename: audio.mp3
AudioLeadIn: 0
PreviewTime: 55751
Countdown: 0
SampleSet: Soft
StackLeniency: 0.7
Mode: 2
LetterboxInBreaks: 0
WidescreenStoryboard: 1

[Editor]
Bookmarks: 5370,19345,23809,23955,26004,27540,40199
DistanceSpacing: 1.2
BeatDivisor: 4
GridSize: 8
TimelineZoom: 1.4

[Metadata]
Title:Zetsubousei: Hero Chiryouyaku (TV Size)
TitleUnicode:絶望性:ヒーロー治療薬 (TV Size)
Artist:suzumu feat. soraru
ArtistUnicode:スズム feat. そらる
Creator:Spinacina
Version:Rain
Source:ダンガンロンパ: The Animation
Tags:Anime Japanese Electronic Ending ed Danganronpa 希望の学園と絶望の高校生 Kibou no Gakuen to Zetsubou no Koukousei Verti Dangan Ronpa Utaite rock j-rock jrock
BeatmapID:2726261
BeatmapSetID:1315568

[Difficulty]
HPDrainRate:5
CircleSize:4
OverallDifficulty:9
ApproachRate:9
SliderMultiplier:1.7
SliderTickRate:2

[Events]
//Background and Video events
0,0,"Danganronpa.jpg",0,0
//Break Periods
//Storyboard Layer 0 (Background)
//Storyboard Layer 1 (Fail)
//Storyboard Layer 2 (Pass)
//Storyboard Layer 3 (Foreground)
//Storyboard Layer 4 (Overlay)
//Storyboard Sound Samples

[TimingPoints]
434,292.682926829268,4,2,1,30,1,0
8629,-100,4,3,1,30,0,0
8921,-100,4,3,2,30,0,0
9214,-100,4,3,1,40,0,0
9653,-100,4,3,1,60,0,0
27507,-100,4,3,2,60,0,0
27799,-100,4,3,1,60,0,0
28385,-138.888888888889,4,3,1,50,0,0
36873,-138.888888888889,4,3,2,50,0,0
37165,-138.888888888889,4,3,1,50,0,0
37751,-121.951219512195,4,3,1,60,0,0
47116,-121.951219512195,4,3,1,60,0,0
51799,-98.0392156862744,4,3,1,60,0,0
54873,-98.0392156862744,4,3,2,60,0,0
55165,-98.0392156862744,4,3,1,60,0,0
56482,-98.0392156862745,4,3,1,80,0,1
64970,-98.0392156862745,4,3,2,80,0,1
65263,-98.0392156862745,4,3,1,80,0,1
74043,-98.0392156862745,4,3,1,60,0,1
74775,-98.0392156862745,4,3,2,80,0,1
75068,-98.0392156862745,4,3,1,80,0,1
75214,-100,4,3,1,60,0,0
86043,-100,4,3,1,20,0,0

[Colours]
Combo1 : 0,143,213
Combo2 : 128,128,192
Combo3 : 255,64,255
Combo4 : 255,255,72

[HitObjects]
160,128,288,6,0,L|352:120,1,170,4|0,0:0|0:0,0:0:0:0:
195,234,727,2,0,L|195:138,1,85,2|0,0:0|0:0,0:0:0:0:
297,223,1019,2,0,L|297:319,1,85,0|0,0:0|0:0,0:0:0:0:
195,322,1312,1,2,0:0:0:0:
350,131,1458,6,0,P|398:187|318:243,1,170,4|0,0:0|0:0,0:0:0:0:
187,202,1897,2,0,L|187:306,1,85,2|0,0:0|0:0,0:0:0:0:
288,139,2190,2,0,L|176:131,2,85,0|0|2,0:0|0:0|0:0,0:0:0:0:
136,64,2629,6,0,P|65:108|122:183,1,170,4|0,0:0|0:0,0:0:0:0:
247,170,3068,2,0,L|260:277,1,85,2|0,0:0|0:0,0:0:0:0:
157,276,3360,2,0,L|79:338,2,85,0|0|2,0:0|0:0|0:0,0:0:0:0:
312,61,3799,6,0,L|320:245,1,170,4|0,0:0|0:0,0:0:0:0:
166,275,4238,2,0,L|90:215,1,85,2|0,0:0|0:0,0:0:0:0:
198,346,4531,2,0,L|268:292,2,85,2|0|2,0:0|0:0|0:0,0:0:0:0:
423,211,4970,6,0,L|423:91,1,85,4|0,0:0|0:0,0:0:0:0:
270,109,5263,2,0,L|197:64,2,85,0|2|0,0:0|0:0|0:0,0:0:0:0:
370,150,5702,2,0,L|445:105,2,85,0|0|2,0:0|0:0|0:0,0:0:0:0:
216,264,6141,6,0,L|39:237,1,170,4|0,0:0|0:0,0:0:0:0:
202,85,6580,2,0,L|202:181,1,85,2|0,0:0|0:0,0:0:0:0:
296,296,6873,2,0,L|392:288,2,85,0|0|2,0:0|0:0|0:0,0:0:0:0:
140,325,7312,6,0,P|116:245|204:221,1,170,4|0,0:0|0:0,0:0:0:0:
337,165,7751,2,0,L|345:60,1,85,2|0,0:0|0:0,0:0:0:0:
245,72,8044,2,0,L|141:56,2,85,0|0|2,0:0|0:0|0:0,0:0:0:0:
88,304,8483,5,2,0:0:0:0:
51,266,8556,1,0,0:0:0:0:
61,213,8629,1,0,0:0:0:0:
109,191,8702,1,0,0:0:0:0:
272,208,8775,1,0,0:0:0:0:
320,186,8848,1,0,0:0:0:0:
330,133,8921,1,8,0:0:0:0:
293,95,8994,1,8,0:0:0:0:
136,72,9068,6,0,L|80:64,1,42.5,8|8,0:0|0:0,0:0:0:0:
261,99,9214,2,0,L|325:83,1,42.5,8|8,0:0|0:0,0:0:0:0:
144,234,9361,2,0,L|80:250,1,42.5,8|8,0:0|0:0,0:0:0:0:
269,207,9507,2,0,L|333:223,1,42.5,8|8,0:0|0:0,0:0:0:0:
135,133,9653,6,0,P|88:188|179:241,1,170,4|0,0:0|0:0,0:0:0:0:
282,177,10092,2,0,L|296:279,1,85,8|0,0:0|0:0,0:0:0:0:
64,288,10385,1,8,0:3:0:0:
36,256,10458,1,8,0:3:0:0:
33,214,10531,1,8,0:3:0:0:
56,180,10604,1,8,0:3:0:0:
96,166,10677,1,8,0:3:0:0:
312,112,10824,6,0,L|120:96,1,170,4|0,0:0|0:0,0:0:0:0:
280,224,11263,2,0,L|392:216,1,85,8|0,0:0|0:0,0:0:0:0:
144,304,11556,1,8,0:3:0:0:
115,273,11629,1,8,0:3:0:0:
111,231,11702,1,8,0:3:0:0:
133,196,11775,1,8,0:3:0:0:
172,181,11848,1,8,0:3:0:0:
392,112,11995,6,0,L|192:96,1,170,4|0,0:0|0:0,0:0:0:0:
88,40,12434,2,0,L|176:32,1,85,8|0,0:0|0:0,0:0:0:0:
408,312,12727,1,8,0:3:0:0:
434,280,12800,1,8,0:3:0:0:
431,238,12873,1,8,0:3:0:0:
400,211,12946,1,8,0:3:0:0:
358,213,13019,1,8,0:3:0:0:
136,152,13166,6,0,L|320:136,1,170,4|8,0:0|0:0,0:0:0:0:
376,128,13531,2,0,L|384:80,1,42.5,8|8,0:0|0:0,0:0:0:0:
160,240,13751,2,0,L|48:232,1,85,0|10,0:0|0:0,0:0:0:0:
312,328,14044,2,0,L|424:320,1,85,0|10,0:0|0:0,0:0:0:0:
75,63,14336,6,0,L|75:271,1,170,4|0,0:0|0:0,0:0:0:0:
208,312,14775,2,0,L|96:320,1,85,8|0,0:0|0:0,0:0:0:0:
368,104,15068,1,8,0:3:0:0:
409,108,15141,1,8,0:3:0:0:
436,140,15214,1,8,0:3:0:0:
435,181,15287,1,8,0:3:0:0:
406,211,15360,1,8,0:3:0:0:
184,288,15507,6,0,L|8:272,1,170,4|0,0:0|0:0,0:0:0:0:
152,200,15946,2,0,L|160:312,1,85,8|0,0:0|0:0,0:0:0:0:
304,96,16239,1,8,0:3:0:0:
261,92,16312,1,8,0:3:0:0:
219,88,16385,1,8,0:3:0:0:
176,84,16458,1,8,0:3:0:0:
134,81,16531,1,8,0:3:0:0:
352,160,16678,6,0,P|392:208|304:264,1,170,4|0,0:0|0:0,0:0:0:0:
192,352,17117,2,0,L|280:344,1,85,8|0,0:0|0:0,0:0:0:0:
56,304,17409,1,8,0:3:0:0:
33,268,17482,1,8,0:3:0:0:
35,226,17555,1,8,0:3:0:0:
61,194,17628,1,8,0:3:0:0:
101,182,17701,1,8,0:3:0:0:
320,240,17848,6,0,L|496:224,1,170,4|8,0:0|0:0,0:0:0:0:
446,217,18214,2,0,L|390:209,1,42.5,8|8,0:0|0:0,0:0:0:0:
160,112,18434,2,0,L|264:104,1,85,0|10,0:0|0:0,0:0:0:0:
464,96,18727,2,0,L|360:88,1,85,0|10,0:0|0:0,0:0:0:0:
120,40,19019,6,0,L|112:232,1,170,4|0,0:0|0:0,0:0:0:0:
248,264,19458,2,0,L|360:272,1,85,8|0,0:0|0:0,0:0:0:0:
208,184,19751,2,0,L|96:192,1,85,8|0,0:0|0:0,0:0:0:0:
264,80,20044,2,0,L|264:176,1,85,8|0,0:0|0:0,0:0:0:0:
136,112,20336,6,0,L|136:16,1,85,8|0,0:0|0:0,0:0:0:0:
360,224,20629,2,0,L|464:240,1,85,8|0,0:0|0:0,0:0:0:0:
224,280,20922,2,0,L|120:296,2,85,8|8|8,0:0|0:0|0:0,0:0:0:0:
448,56,21361,6,0,L|448:232,1,170,4|0,0:0|0:0,0:0:0:0:
304,296,21800,2,0,L|208:304,1,85,8|0,0:0|0:0,0:0:0:0:
344,192,22092,2,0,L|440:200,1,85,8|0,0:0|0:0,0:0:0:0:
304,296,22385,2,0,L|304:200,1,85,8|0,0:0|0:0,0:0:0:0:
428,114,22678,6,0,L|428:218,1,85,8|0,0:0|0:0,0:0:0:0:
304,112,22970,2,0,L|392:104,1,85,8|0,0:0|0:0,0:0:0:0:
272,192,23263,2,0,L|168:184,1,85,8|8,0:0|0:0,0:0:0:0:
168,144,23483,1,8,0:0:0:0:
321,119,23556,2,0,L|339:78,1,42.5,8|8,0:0|0:0,0:0:0:0:
152,299,23702,6,0,P|78:271|112:195,1,170,4|8,0:0|0:0,0:0:0:0:
150,183,24068,1,8,0:0:0:0:
304,236,24141,2,0,L|304:132,1,85,8|0,0:0|0:0,0:0:0:0:
176,260,24434,2,0,L|176:364,1,85,8|0,0:0|0:0,0:0:0:0:
304,236,24727,2,0,L|400:244,1,85,8|0,0:0|0:0,0:0:0:0:
264,148,25019,6,0,L|168:156,1,85,8|0,0:0|0:0,0:0:0:0:
304,236,25312,2,0,L|400:244,1,85,8|0,0:0|0:0,0:0:0:0:
154,40,25605,1,8,0:0:0:0:
114,54,25678,1,0,0:0:0:0:
99,93,25751,1,8,0:0:0:0:
115,131,25824,1,8,0:0:0:0:
154,147,25897,1,8,0:0:0:0:
376,208,26044,6,0,L|184:224,1,170,4|0,0:0|0:0,0:0:0:0:
328,80,26483,2,0,L|328:192,1,85,8|0,0:0|0:0,0:0:0:0:
206,307,26775,2,0,L|206:195,1,85,8|0,0:0|0:0,0:0:0:0:
328,248,27068,6,0,L|424:256,1,85,8|0,0:0|0:0,0:0:0:0:
288,160,27361,2,0,L|232:168,1,42.5,8|0,0:0|0:0,0:0:0:0:
432,56,27507,1,8,0:0:0:0:
434,98,27580,1,8,0:0:0:0:
436,140,27653,1,8,0:0:0:0:
439,183,27726,1,8,0:0:0:0:
240,264,27800,6,0,L|168:256,1,42.5,8|8,0:0|0:0,0:0:0:0:
392,312,27946,2,0,L|480:304,2,85,8|4|0,0:0|0:0|0:0,0:0:0:0:
160,328,28385,6,0,P|88:312|96:208,1,183.600004482422,4|0,0:0|0:0,0:0:0:0:
176,184,28970,1,0,0:0:0:0:
288,64,29117,2,0,L|200:56,1,61.2000014941407,8|0,0:0|0:0,0:0:0:0:
328,144,29409,2,0,L|416:136,1,61.2000014941407,8|0,0:0|0:0,0:0:0:0:
280,200,29702,6,0,L|280:136,1,61.2000014941407,8|0,0:0|0:0,0:0:0:0:
360,288,29995,2,0,L|296:288,1,61.2000014941407,8|0,0:0|0:0,0:0:0:0:
408,192,30287,2,0,L|488:192,2,61.2000014941407,8|0|8,0:0|0:0|0:0,0:0:0:0:
184,96,30727,6,0,L|112:96,1,61.2000014941407,4|0,0:0|0:0,0:0:0:0:
344,40,31019,2,0,L|416:40,2,61.2000014941407,4|0|0,0:0|0:0|0:0,0:0:0:0:
248,88,31458,2,0,L|248:176,1,61.2000014941407,8|0,0:0|0:0,0:0:0:0:
352,136,31751,2,0,L|352:224,1,61.2000014941407,8|0,0:0|0:0,0:0:0:0:
240,248,32044,6,0,L|312:256,1,61.2000014941407,8|0,0:0|0:0,0:0:0:0:
408,312,32336,2,0,L|336:320,1,61.2000014941407,8|0,0:0|0:0,0:0:0:0:
248,248,32629,2,0,L|176:256,2,61.2000014941407,8|0|8,0:0|0:0|0:0,0:0:0:0:
464,240,33068,6,0,L|464:160,1,61.2000014941407,4|0,0:0|0:0,0:0:0:0:
232,96,33361,2,0,L|232:176,1,61.2000014941407,4|0,0:0|0:0,0:0:0:0:
336,192,33653,1,0,0:0:0:0:
432,216,33800,2,0,L|432:304,1,61.2000014941407,8|0,0:0|0:0,0:0:0:0:
328,192,34092,6,0,L|248:184,1,61.2000014941407,8|0,0:0|0:0,0:0:0:0:
376,120,34385,2,0,L|456:112,1,61.2000014941407,8|0,0:0|0:0,0:0:0:0:
328,192,34678,2,0,L|328:272,1,61.2000014941407,8|0,0:0|0:0,0:0:0:0:
424,304,34970,2,0,L|488:296,2,61.2000014941407,8|0|8,0:0|0:0|0:0,0:0:0:0:
200,192,35409,6,0,L|200:280,1,61.2000014941407,4|0,0:0|0:0,0:0:0:0:
416,192,35702,2,0,L|488:184,2,61.2000014941407,4|0|0,0:0|0:0|0:0,0:0:0:0:
312,264,36141,2,0,L|240:256,2,61.2000014941407,8|0|8,0:0|0:0|0:0,0:0:0:0:
80,112,36580,5,0,0:0:0:0:
184,160,36727,2,0,L|184:192,1,30.6000007470703,4|0,0:0|0:0,0:0:0:0:
112,216,36873,2,0,L|112:248,1,30.6000007470703,8|8,0:0|0:0,0:0:0:0:
184,280,37019,1,8,0:0:0:0:
416,312,37166,5,8,0:0:0:0:
448,293,37239,1,8,0:0:0:0:
461,260,37312,1,8,0:0:0:0:
452,225,37385,1,0,0:0:0:0:
424,203,37458,2,0,L|360:192,1,61.2000014941407,0|0,0:0|0:0,0:0:0:0:
152,128,37751,6,0,L|300:95,1,139.400002127075,4|0,0:0|0:0,0:0:0:0:
159,287,38190,2,0,L|160:196,1,69.7000010635376,8|0,0:0|0:0,0:0:0:0:
253,164,38482,2,0,L|326:149,1,69.7000010635376,2|0,0:0|0:0,0:0:0:0:
194,95,38775,6,0,L|122:81,1,69.7000010635376,8|0,0:0|0:0,0:0:0:0:
219,171,39068,2,0,L|291:157,1,69.7000010635376,2|0,0:0|0:0,0:0:0:0:
152,275,39360,6,0,L|153:197,1,69.7000010635376,8|0,0:0|0:0,0:0:0:0:
250,136,39653,1,2,0:0:0:0:
181,125,39799,1,0,0:0:0:0:
112,114,39945,1,8,0:0:0:0:
335,320,40092,6,0,P|382:296|352:212,1,139.400002127075,0|0,0:0|0:0,0:0:0:0:
251,218,40531,2,0,L|237:145,1,69.7000010635376,8|0,0:0|0:0,0:0:0:0:
340,78,40824,2,0,L|266:65,1,69.7000010635376,0|0,0:0|0:0,0:0:0:0:
54,269,41116,6,0,P|54:177|106:160,1,139.400002127075,8|0,0:0|0:0,0:0:0:0:
170,147,41555,1,0,0:0:0:0:
305,103,41702,2,0,L|318:193,1,69.7000010635376,8|0,0:0|0:0,0:0:0:0:
213,252,41994,1,0,0:0:0:0:
281,263,42140,1,0,0:0:0:0:
350,274,42286,1,0,0:0:0:0:
126,293,42434,6,0,P|99:241|167:195,1,139.400002127075,4|4,0:0|0:0,0:0:0:0:
279,202,42873,2,0,L|283:110,1,69.7000010635376,8|0,0:0|0:0,0:0:0:0:
180,126,43165,2,0,L|176:34,1,69.7000010635376,2|0,0:0|0:0,0:0:0:0:
305,59,43458,6,0,L|393:75,1,69.7000010635376,8|0,0:0|0:0,0:0:0:0:
271,164,43751,2,0,L|186:180,1,69.7000010635376,2|0,0:0|0:0,0:0:0:0:
330,221,44044,2,0,L|330:317,1,69.7000010635376,8|0,0:0|0:0,0:0:0:0:
228,327,44336,1,2,0:0:0:0:
298,333,44482,1,0,0:0:0:0:
367,340,44628,1,8,0:0:0:0:
143,277,44775,6,0,L|156:121,1,139.400002127075,4|4,0:0|0:0,0:0:0:0:
248,119,45214,1,8,0:0:0:0:
144,72,45361,2,0,L|66:58,1,69.7000010635376,2|0,0:0|0:0,0:0:0:0:
181,238,45653,2,0,L|101:246,1,69.7000010635376,2|8,0:0|0:0,0:0:0:0:
336,112,45946,6,0,L|488:128,1,139.400002127075,4|0,0:0|0:0,0:0:0:0:
360,208,46385,1,8,0:0:0:0:
248,288,46531,1,0,0:0:0:0:
216,256,46604,1,0,0:0:0:0:
248,218,46677,1,8,0:0:0:0:
368,208,46824,1,0,0:0:0:0:
393,172,46897,1,0,0:0:0:0:
384,129,46970,1,8,0:0:0:0:
345,107,47043,1,0,0:0:0:0:
144,240,47117,6,0,L|144:80,1,139.400002127075,4|0,0:0|0:0,0:0:0:0:
256,104,47556,2,0,L|176:96,1,69.7000010635376,8|0,0:0|0:0,0:0:0:0:
296,184,47848,2,0,L|376:176,2,69.7000010635376,8|0|8,0:0|0:0|0:0,0:0:0:0:
72,280,48287,6,0,L|72:200,1,69.7000010635376,0|8,0:0|0:0,0:0:0:0:
184,192,48580,2,0,L|256:176,1,69.7000010635376,0|8,0:0|0:0,0:0:0:0:
136,128,48873,2,0,L|64:112,1,69.7000010635376,0|8,0:0|0:0,0:0:0:0:
184,64,49166,2,0,L|112:48,1,69.7000010635376,0|8,0:0|0:0,0:0:0:0:
344,192,49458,6,0,L|488:184,1,139.400002127075,0|0,0:0|0:0,0:0:0:0:
368,112,49897,2,0,L|368:40,1,69.7000010635376,8|0,0:0|0:0,0:0:0:0:
480,200,50190,2,0,L|400:192,2,69.7000010635376,8|0|8,0:0|0:0|0:0,0:0:0:0:
256,272,50629,6,0,P|192:248|224:184,1,139.400002127075,0|0,0:0|0:0,0:0:0:0:
320,176,51068,2,0,L|320:96,1,69.7000010635376,8|0,0:0|0:0,0:0:0:0:
208,112,51361,2,0,L|208:24,1,69.7000010635376,8|0,0:0|0:0,0:0:0:0:
320,32,51653,1,8,0:0:0:0:
104,304,51799,6,0,P|56:248|128:168,1,173.40000105835,4|0,0:0|0:0,0:0:0:0:
224,104,52239,2,0,L|128:96,1,86.7000005291748,8|8,0:0|0:0,0:0:0:0:
264,192,52531,2,0,L|360:184,2,86.7000005291748,8|8|8,0:0|0:0|0:0,0:0:0:0:
480,96,52970,6,0,L|288:80,1,173.40000105835,4|0,0:0|0:0,0:0:0:0:
432,216,53409,2,0,L|432:128,1,86.7000005291748,8|8,0:0|0:0,0:0:0:0:
312,272,53702,1,8,0:0:0:0:
408,264,53848,1,8,0:0:0:0:
312,272,53995,1,8,0:0:0:0:
80,312,54141,6,0,P|40:256|112:184,1,173.40000105835,4|0,0:0|0:0,0:0:0:0:
320,184,54580,2,0,L|320:88,1,86.7000005291748,8|8,0:0|0:0,0:0:0:0:
192,184,54873,2,0,L|144:176,1,43.3500002645874,8|8,0:0|0:0,0:0:0:0:
320,97,55019,2,0,L|376:89,1,43.3500002645874,8|8,0:0|0:0,0:0:0:0:
200,80,55166,2,0,L|144:72,1,43.3500002645874,8|8,0:0|0:0,0:0:0:0:
376,160,55312,5,12,0:0:0:0:
234,179,55751,2,0,P|184:242|254:297,1,173.40000105835,0|0,0:0|0:0,0:0:0:0:
328,332,56190,1,0,0:0:0:0:
416,304,56336,1,0,0:0:0:0:
192,296,56483,6,0,L|8:280,1,173.40000105835,4|0,0:0|0:0,0:0:0:0:
240,208,56922,2,0,L|336:200,1,86.7000005291748,8|2,0:0|0:0,0:0:0:0:
208,112,57214,2,0,L|112:104,1,86.7000005291748,0|2,0:0|0:0,0:0:0:0:
240,208,57507,1,8,0:0:0:0:
32,232,57653,6,0,L|32:320,1,86.7000005291748,2|0,0:0|0:0,0:0:0:0:
160,264,57946,2,0,L|160:176,1,86.7000005291748,2|8,0:0|0:0,0:0:0:0:
40,88,58239,2,0,L|136:80,1,86.7000005291748,2|0,0:0|0:0,0:0:0:0:
272,136,58531,2,0,L|272:40,1,86.7000005291748,2|8,0:0|0:0,0:0:0:0:
56,232,58824,6,0,L|264:216,1,173.40000105835,2|0,0:0|0:0,0:0:0:0:
96,192,59263,2,0,L|0:184,1,86.7000005291748,8|2,0:0|0:0,0:0:0:0:
152,120,59556,2,0,L|248:112,2,86.7000005291748,0|2|8,0:0|0:0|0:0,0:0:0:0:
376,208,59995,6,0,L|376:112,1,86.7000005291748,2|0,0:0|0:0,0:0:0:0:
136,328,60287,2,0,L|136:232,1,86.7000005291748,2|0,0:0|0:0,0:0:0:0:
376,208,60580,2,0,L|376:112,1,86.7000005291748,2|0,0:0|0:0,0:0:0:0:
248,56,60873,2,0,L|352:48,1,86.7000005291748,0|0,0:0|0:0,0:0:0:0:
104,80,61166,6,0,P|72:144|160:192,1,173.40000105835,4|0,0:0|0:0,0:0:0:0:
288,128,61605,2,0,L|192:120,1,86.7000005291748,8|2,0:0|0:0,0:0:0:0:
312,240,61897,2,0,L|416:232,2,86.7000005291748,0|2|8,0:0|0:0|0:0,0:0:0:0:
96,312,62336,6,0,L|88:224,1,86.7000005291748,2|0,0:0|0:0,0:0:0:0:
208,256,62629,2,0,L|224:144,1,86.7000005291748,0|8,0:0|0:0,0:0:0:0:
96,144,62922,2,0,L|80:40,1,86.7000005291748,2|0,0:0|0:0,0:0:0:0:
224,144,63214,2,0,L|336:136,1,86.7000005291748,2|8,0:0|0:0,0:0:0:0:
93,217,63507,6,0,L|88:312,1,86.7000005291748,2|0,0:0|0:0,0:0:0:0:
216,232,63800,2,0,L|320:224,2,86.7000005291748,0|0|2,0:0|0:0|0:0,0:0:0:0:
104,128,64239,2,0,L|0:120,2,86.7000005291748,8|2|8,0:0|0:0|0:0,0:0:0:0:
336,40,64678,6,0,L|352:216,1,173.40000105835,4|8,0:0|0:0,0:0:0:0:
308,208,65043,1,8,0:0:0:0:
265,204,65116,1,8,0:0:0:0:
222,200,65189,1,0,0:0:0:0:
384,296,65263,1,8,0:0:0:0:
427,291,65336,1,8,0:0:0:0:
470,287,65409,1,8,0:0:0:0:
220,287,65556,2,0,L|222:182,1,86.7000005291748,4|0,0:0|0:0,0:0:0:0:
432,112,65848,6,0,L|240:96,1,173.40000105835,4|0,0:0|0:0,0:0:0:0:
144,208,66287,2,0,L|232:200,1,86.7000005291748,8|2,0:0|0:0,0:0:0:0:
344,104,66580,2,0,L|256:96,1,86.7000005291748,0|2,0:0|0:0,0:0:0:0:
168,80,66873,1,8,0:0:0:0:
392,176,67019,6,0,L|392:264,1,86.7000005291748,2|0,0:0|0:0,0:0:0:0:
176,320,67311,2,0,L|176:224,1,86.7000005291748,2|8,0:0|0:0,0:0:0:0:
400,80,67604,2,0,L|496:72,1,86.7000005291748,2|0,0:0|0:0,0:0:0:0:
360,176,67897,1,0,0:0:0:0:
446,168,68043,1,8,0:0:0:0:
232,288,68190,6,0,L|56:272,1,173.40000105835,2|2,0:0|0:0,0:0:0:0:
176,264,68628,2,0,L|176:176,1,86.7000005291748,8|2,0:0|0:0,0:0:0:0:
56,104,68922,2,0,L|144:96,2,86.7000005291748,0|0|8,0:0|0:0|0:0,0:0:0:0:
304,192,69361,6,0,L|304:288,1,86.7000005291748,2|0,0:0|0:0,0:0:0:0:
80,192,69653,2,0,L|80:104,1,86.7000005291748,2|0,0:0|0:0,0:0:0:0:
312,104,69946,2,0,L|400:96,1,86.7000005291748,2|0,0:0|0:0,0:0:0:0:
272,192,70239,1,0,0:0:0:0:
358,184,70385,1,0,0:0:0:0:
136,120,70531,6,0,P|64:168|168:280,1,260.100001587524,4|8,0:0|0:0,0:0:0:0:
248,272,71117,1,2,0:0:0:0:
40,184,71263,2,0,L|40:280,1,86.7000005291748,8|2,0:0|0:0,0:0:0:0:
136,312,71556,1,8,0:0:0:0:
352,184,71702,6,0,L|176:192,1,173.40000105835,2|0,0:0|0:0,0:0:0:0:
296,96,72141,2,0,L|392:104,1,86.7000005291748,8|2,0:0|0:0,0:0:0:0:
240,192,72434,1,8,0:0:0:0:
210,161,72507,1,0,0:0:0:0:
212,119,72580,1,10,0:0:0:0:
244,92,72653,1,8,0:0:0:0:
286,97,72726,1,8,0:0:0:0:
504,192,72873,6,0,L|312:184,1,173.40000105835,4|0,0:0|0:0,0:0:0:0:
240,176,73312,1,8,0:0:0:0:
448,288,73458,2,0,L|448:200,1,86.7000005291748,8|8,0:0|0:0,0:0:0:0:
192,248,73751,2,0,L|192:336,1,86.7000005291748,8|8,0:0|0:0,0:0:0:0:
408,320,74044,6,0,L|408:144,1,173.40000105835,8|0,0:0|0:0,0:0:0:0:
288,72,74483,2,0,L|384:64,1,86.7000005291748,0|0,0:0|0:0,0:0:0:0:
256,168,74775,2,0,L|200:160,1,43.3500002645874,8|8,3:0|3:0,0:0:0:0:
400,168,74922,2,0,L|456:160,1,43.3500002645874,8|8,3:0|3:0,0:0:0:0:
240,256,75068,2,0,L|176:248,1,43.3500002645874,8|8,3:0|3:0,0:0:0:0:
432,312,75214,6,0,P|464:240|376:192,1,170,4|0,0:0|0:0,0:0:0:0:
264,112,75653,2,0,L|376:104,1,85,8|0,0:0|0:0,0:0:0:0:
128,304,75946,1,8,0:3:0:0:
87,299,76019,1,8,0:3:0:0:
60,268,76092,1,8,0:3:0:0:
60,227,76165,1,8,0:3:0:0:
89,196,76238,1,8,0:3:0:0:
312,112,76385,6,0,L|120:96,1,170,4|0,0:0|0:0,0:0:0:0:
280,224,76824,2,0,L|280:128,1,85,8|0,0:0|0:0,0:0:0:0:
56,304,77117,1,8,0:3:0:0:
98,302,77190,1,8,0:3:0:0:
140,300,77263,1,8,0:3:0:0:
183,298,77336,1,8,0:3:0:0:
225,297,77409,1,8,0:3:0:0:
448,128,77556,6,0,L|248:112,1,170,4|0,0:0|0:0,0:0:0:0:
144,48,77995,2,0,L|232:40,1,85,8|0,0:0|0:0,0:0:0:0:
448,272,78288,1,8,0:3:0:0:
474,240,78361,1,8,0:3:0:0:
471,198,78434,1,8,0:3:0:0:
440,171,78507,1,8,0:3:0:0:
398,173,78580,1,8,0:3:0:0:
176,168,78727,6,0,L|360:152,1,170,4|8,0:0|0:0,0:0:0:0:
303,149,79092,1,8,0:0:0:0:
260,145,79165,1,8,0:0:0:0:
40,80,79312,2,0,L|136:72,1,85,0|10,0:0|0:0,0:0:0:0:
400,56,79605,2,0,L|304:48,1,85,0|10,0:0|0:0,0:0:0:0:
96,80,79897,6,0,L|96:288,1,170,4|0,0:0|0:0,0:0:0:0:
208,312,80336,2,0,L|112:320,1,85,8|0,0:0|0:0,0:0:0:0:
344,264,80629,1,8,0:3:0:0:
380,245,80702,1,8,0:3:0:0:
393,205,80775,1,8,0:3:0:0:
374,168,80848,1,8,0:3:0:0:
335,156,80921,1,8,0:3:0:0:
120,88,81068,6,0,L|304:80,1,170,4|0,0:0|0:0,0:0:0:0:
152,192,81507,2,0,L|48:184,1,85,8|0,0:0|0:0,0:0:0:0:
299,178,81799,1,8,0:3:0:0:
341,177,81872,1,8,0:3:0:0:
375,201,81945,1,8,0:3:0:0:
386,242,82018,1,8,0:3:0:0:
370,280,82091,1,8,0:3:0:0:
144,208,82239,6,0,P|104:152|200:104,1,170,4|0,0:0|0:0,0:0:0:0:
304,40,82678,2,0,L|216:32,1,85,8|0,0:0|0:0,0:0:0:0:
432,120,82970,1,8,0:3:0:0:
463,146,83043,1,8,0:3:0:0:
470,187,83116,1,8,0:3:0:0:
449,223,83189,1,0,0:0:0:0:
409,236,83262,1,0,0:0:0:0:
192,296,83409,6,0,L|400:312,1,170,4|8,0:0|0:0,0:0:0:0:
128,192,83848,2,0,L|32:200,2,85,8|0|10,0:0|0:0|0:0,0:0:0:0:
344,176,84287,1,0,0:0:0:0:
344,214,84360,1,0,0:0:0:0:
186,283,84433,1,10,0:0:0:0:
142,270,84506,1,0,0:0:0:0:
348,292,84580,5,4,0:1:0:0:
256,192,84727,12,0,86044,0:0:0:0:
