osu file format v14

[General]
AudioFilename: audio.mp3
AudioLeadIn: 0
PreviewTime: 55751
Countdown: 0
SampleSet: Soft
StackLeniency: 0.7
Mode: 2
LetterboxInBreaks: 0
WidescreenStoryboard: 1

[Editor]
Bookmarks: 28711
DistanceSpacing: 1.2
BeatDivisor: 4
GridSize: 8
TimelineZoom: 1.9

[Metadata]
Title:Zetsubousei: Hero Chiryouyaku (TV Size)
TitleUnicode:絶望性:ヒーロー治療薬 (TV Size)
Artist:suzumu feat. soraru
ArtistUnicode:スズム feat. そらる
Creator:Spinacina
Version:Platter
Source:ダンガンロンパ: The Animation
Tags:Anime Japanese Electronic Ending ed Danganronpa 希望の学園と絶望の高校生 Kibou no Gakuen to Zetsubou no Koukousei Verti Dangan Ronpa Utaite rock j-rock jrock
BeatmapID:2953971
BeatmapSetID:1315568

[Difficulty]
HPDrainRate:4
CircleSize:3.8
OverallDifficulty:8
ApproachRate:8
SliderMultiplier:1.6
SliderTickRate:1

[Events]
//Background and Video events
0,0,"Danganronpa.jpg",0,0
//Break Periods
//Storyboard Layer 0 (Background)
//Storyboard Layer 1 (Fail)
//Storyboard Layer 2 (Pass)
//Storyboard Layer 3 (Foreground)
//Storyboard Layer 4 (Overlay)
//Storyboard Sound Samples

[TimingPoints]
434,292.682926829268,4,2,1,30,1,0
8629,-100,4,3,1,30,0,0
8921,-100,4,3,2,30,0,0
9214,-100,4,3,1,40,0,0
9653,-100,4,3,1,60,0,0
27507,-100,4,3,2,60,0,0
27799,-100,4,3,1,60,0,0
28385,-138.888888888889,4,3,1,50,0,0
36873,-138.888888888889,4,3,2,50,0,0
37165,-138.888888888889,4,3,1,50,0,0
37751,-121.951219512195,4,3,1,60,0,0
47116,-121.951219512195,4,3,1,60,0,0
51799,-100,4,3,1,60,0,0
54873,-100,4,3,2,60,0,0
55165,-100,4,3,1,60,0,0
56482,-100,4,3,1,80,0,1
64970,-100,4,3,2,80,0,1
65263,-100,4,3,1,80,0,1
74043,-100,4,3,1,60,0,1
74775,-100,4,3,2,80,0,1
75068,-100,4,3,1,80,0,1
75214,-100,4,3,1,60,0,0
86043,-100,4,3,1,20,0,0

[Colours]
Combo1 : 0,143,213
Combo2 : 128,128,192
Combo3 : 255,64,255
Combo4 : 255,255,72

[HitObjects]
247,330,288,6,0,P|198:276|267:221,1,160,4|0,0:0|0:0,0:0:0:0:
325,206,727,1,2,0:0:0:0:
325,126,873,1,0,0:0:0:0:
234,140,1019,1,0,0:0:0:0:
234,60,1165,1,0,0:0:0:0:
325,126,1312,1,2,0:0:0:0:
159,265,1458,6,0,P|96:224|143:162,1,160,4|0,0:0|0:0,0:0:0:0:
224,144,1897,1,2,0:0:0:0:
304,129,2043,1,0,0:0:0:0:
224,144,2190,1,0,0:0:0:0:
144,129,2336,1,0,0:0:0:0:
224,144,2483,1,2,0:0:0:0:
376,320,2629,6,0,L|376:152,1,160,4|0,0:0|0:0,0:0:0:0:
283,84,3068,1,2,0:0:0:0:
204,77,3214,1,0,0:0:0:0:
283,84,3361,1,0,0:0:0:0:
363,76,3507,1,0,0:0:0:0:
283,84,3653,1,2,0:0:0:0:
135,311,3800,6,0,P|86:271|151:206,1,160,4|0,0:0|0:0,0:0:0:0:
227,220,4239,2,0,L|227:132,1,80,2|0,0:0|0:0,0:0:0:0:
135,58,4531,1,2,0:0:0:0:
212,50,4677,1,0,0:0:0:0:
135,58,4823,1,2,0:0:0:0:
287,304,4970,6,0,L|287:128,1,160,4|0,0:0|0:0,0:0:0:0:
191,124,5409,1,2,0:0:0:0:
112,116,5555,1,0,0:0:0:0:
191,124,5702,1,0,0:0:0:0:
271,116,5848,1,0,0:0:0:0:
191,124,5995,1,2,0:0:0:0:
336,320,6141,6,0,P|384:257|318:212,1,160,4|0,0:0|0:0,0:0:0:0:
242,235,6580,1,2,0:0:0:0:
241,156,6726,1,0,0:0:0:0:
333,157,6873,1,0,0:0:0:0:
334,78,7019,1,0,0:0:0:0:
241,156,7166,1,2,0:0:0:0:
392,295,7312,6,0,P|466:252|436:181,1,160,4|0,0:0|0:0,0:0:0:0:
355,170,7751,1,2,0:0:0:0:
277,156,7897,1,0,0:0:0:0:
355,170,8044,1,0,0:0:0:0:
433,156,8190,1,0,0:0:0:0:
355,170,8336,1,2,0:0:0:0:
207,330,8482,5,2,0:0:0:0:
167,332,8555,1,0,0:0:0:0:
131,315,8628,1,0,0:0:0:0:
108,283,8701,1,0,0:0:0:0:
103,244,8774,1,0,0:0:0:0:
118,207,8847,1,0,0:0:0:0:
148,182,8921,6,0,L|228:166,1,80,8|8,0:0|0:0,0:0:0:0:
353,139,9214,1,8,0:0:0:0:
260,76,9360,1,8,0:0:0:0:
220,74,9434,1,8,0:0:0:0:
180,74,9507,1,8,0:0:0:0:
403,325,9653,6,0,P|453:280|382:218,1,160,4|0,0:0|0:0,0:0:0:0:
315,281,10092,2,0,L|203:273,1,80,8|0,0:0|0:0,0:0:0:0:
331,193,10385,1,8,0:3:0:0:
371,168,10458,2,0,L|369:77,1,80,8|8,0:3|0:3,0:0:0:0:
327,75,10677,1,8,0:3:0:0:
102,259,10824,6,0,L|102:91,1,160,4|0,0:0|0:0,0:0:0:0:
196,75,11263,2,0,L|284:59,1,80,8|0,0:0|0:0,0:0:0:0:
180,158,11556,1,8,0:3:0:0:
145,177,11629,2,0,L|139:271,1,80,8|8,0:3|0:3,0:0:0:0:
173,275,11848,1,8,0:3:0:0:
392,340,11995,6,0,P|430:284|351:237,1,160,4|0,0:0|0:0,0:0:0:0:
278,286,12434,1,8,0:0:0:0:
278,206,12580,1,0,0:0:0:0:
374,131,12727,1,8,0:3:0:0:
334,129,12800,2,0,L|249:126,1,80,8|8,0:3|0:3,0:0:0:0:
214,123,13019,1,8,0:3:0:0:
434,305,13166,6,0,L|434:145,1,160,4|8,0:0|0:0,0:0:0:0:
386,137,13531,2,0,L|330:129,1,40,8|8,0:0|0:0,0:0:0:0:
218,113,13751,1,0,0:0:0:0:
297,104,13897,1,10,0:0:0:0:
376,97,14043,1,0,0:0:0:0:
297,104,14190,1,10,0:0:0:0:
77,311,14336,6,0,P|41:266|109:204,1,160,4|0,0:0|0:0,0:0:0:0:
195,188,14775,1,8,0:0:0:0:
199,109,14921,1,0,0:0:0:0:
100,283,15068,1,8,0:3:0:0:
68,259,15141,2,0,L|67:173,1,80,8|8,0:3|0:3,0:0:0:0:
103,164,15360,1,8,0:3:0:0:
324,294,15507,6,0,P|385:244|345:184,1,160,4|0,0:0|0:0,0:0:0:0:
252,184,15946,1,8,0:0:0:0:
249,108,16092,1,0,0:0:0:0:
348,44,16239,1,8,0:3:0:0:
383,61,16312,2,0,L|390:154,1,80,8|8,0:3|0:3,0:0:0:0:
353,155,16531,1,8,0:3:0:0:
134,193,16678,6,0,P|88:239|160:297,1,160,4|0,0:0|0:0,0:0:0:0:
237,208,17117,1,8,0:0:0:0:
237,128,17263,1,0,0:0:0:0:
141,54,17409,1,8,0:3:0:0:
180,52,17483,2,0,L|268:47,1,80,8|8,0:3|0:3,0:0:0:0:
300,46,17701,1,8,0:3:0:0:
79,269,17848,6,0,P|33:217|104:152,1,160,4|8,0:0|0:0,0:0:0:0:
168,136,18287,1,8,0:0:0:0:
168,136,18434,1,0,0:0:0:0:
72,77,18580,1,10,0:0:0:0:
152,69,18726,1,0,0:0:0:0:
72,77,18872,1,10,0:0:0:0:
295,123,19019,6,0,P|392:155|390:227,1,160,4|0,0:0|0:0,0:0:0:0:
307,193,19458,1,8,0:0:0:0:
307,273,19604,1,0,0:0:0:0:
406,229,19751,1,8,0:0:0:0:
406,309,19897,1,0,0:0:0:0:
307,193,20044,2,0,L|211:185,1,80,8|0,0:0|0:0,0:0:0:0:
373,50,20336,5,8,0:0:0:0:
380,130,20482,1,0,0:0:0:0:
283,187,20629,1,8,0:0:0:0:
276,267,20775,1,0,0:0:0:0:
422,265,20922,1,8,0:0:0:0:
501,258,21068,1,8,0:0:0:0:
422,265,21214,1,8,0:0:0:0:
193,313,21361,6,0,P|137:275|195:208,1,160,4|0,0:0|0:0,0:0:0:0:
274,205,21800,2,0,L|282:125,1,80,8|0,0:0|0:0,0:0:0:0:
186,131,22092,2,0,L|178:51,1,80,8|0,0:0|0:0,0:0:0:0:
274,205,22385,2,0,L|283:122,1,80,8|0,0:0|0:0,0:0:0:0:
136,57,22678,6,0,L|135:142,1,80,8|0,0:0|0:0,0:0:0:0:
231,216,22970,2,0,L|231:296,1,80,8|0,0:0|0:0,0:0:0:0:
133,146,23263,2,0,L|279:138,1,120,8|8,0:0|0:0,0:0:0:0:
292,138,23556,1,8,0:0:0:0:
79,354,23702,6,0,P|20:319|81:240,1,160,4|8,0:0|0:0,0:0:0:0:
87,261,24068,2,0,L|135:253,1,40,8|8,0:0|0:0,0:0:0:0:
225,231,24287,1,0,0:0:0:0:
126,167,24434,1,8,0:0:0:0:
126,87,24580,1,0,0:0:0:0:
225,311,24727,1,8,0:0:0:0:
225,231,24873,1,0,0:0:0:0:
80,86,25019,6,0,L|80:181,1,80,8|0,0:0|0:0,0:0:0:0:
175,199,25312,2,0,L|274:219,1,80,8|0,0:0|0:0,0:0:0:0:
107,294,25605,2,0,L|19:302,2,80,8|8|8,0:0|0:0|0:0,0:0:0:0:
334,298,26044,6,0,L|334:130,1,160,4|0,0:0|0:0,0:0:0:0:
235,66,26483,2,0,L|323:58,1,80,8|0,0:0|0:0,0:0:0:0:
218,164,26775,1,8,0:0:0:0:
178,160,26848,1,0,0:0:0:0:
138,156,26921,1,0,0:0:0:0:
235,258,27068,1,8,0:0:0:0:
274,254,27141,1,0,0:0:0:0:
314,250,27214,1,0,0:0:0:0:
217,338,27361,1,8,0:0:0:0:
181,316,27434,1,0,0:0:0:0:
178,277,27507,1,8,0:0:0:0:
274,201,27653,5,8,0:0:0:0:
306,177,27726,1,8,0:0:0:0:
314,139,27799,1,8,0:0:0:0:
295,105,27873,1,8,0:0:0:0:
258,93,27945,1,8,0:0:0:0:
110,137,28092,1,4,0:0:0:0:
112,58,28238,1,0,0:0:0:0:
321,278,28385,6,0,P|416:219|355:149,1,230.400005625,4|0,0:0|0:0,0:0:0:0:
225,219,29117,2,0,L|224:147,1,57.60000140625,8|0,0:0|0:0,0:0:0:0:
298,165,29409,2,0,L|298:91,1,57.60000140625,8|0,0:0|0:0,0:0:0:0:
225,219,29702,6,0,L|143:210,1,57.60000140625,8|0,0:0|0:0,0:0:0:0:
236,303,29995,2,0,L|312:297,1,57.60000140625,8|0,0:0|0:0,0:0:0:0:
157,213,30287,1,8,0:0:0:0:
99,206,30433,1,0,0:0:0:0:
157,213,30579,1,8,0:0:0:0:
320,157,30727,6,0,L|320:219,1,57.60000140625,4|0,0:0|0:0,0:0:0:0:
157,271,31019,2,0,L|157:193,1,57.60000140625,4|0,0:0|0:0,0:0:0:0:
220,160,31312,1,0,0:0:0:0:
294,138,31458,2,0,L|294:76,1,57.60000140625,8|0,0:0|0:0,0:0:0:0:
157,63,31751,6,0,L|88:56,1,57.60000140625,8|0,0:0|0:0,0:0:0:0:
164,143,32044,2,0,L|222:138,1,57.60000140625,8|0,0:0|0:0,0:0:0:0:
155,219,32336,2,0,L|77:209,1,57.60000140625,8|0,0:0|0:0,0:0:0:0:
236,138,32629,1,8,0:0:0:0:
304,130,32775,1,0,0:0:0:0:
236,138,32922,1,8,0:0:0:0:
75,259,33068,6,0,L|75:178,1,57.60000140625,4|0,0:0|0:0,0:0:0:0:
236,290,33360,2,0,L|372:279,1,115.2000028125,4|0,0:0|0:0,0:0:0:0:
212,221,33800,2,0,L|213:142,1,57.60000140625,8|0,0:0|0:0,0:0:0:0:
287,154,34092,2,0,L|286:84,1,57.60000140625,8|0,0:0|0:0,0:0:0:0:
212,221,34385,6,0,L|138:211,1,57.60000140625,8|0,0:0|0:0,0:0:0:0:
228,101,34678,2,0,L|302:94,1,57.60000140625,8|0,0:0|0:0,0:0:0:0:
149,200,34970,1,8,0:0:0:0:
89,192,35116,1,0,0:0:0:0:
149,200,35263,1,8,0:0:0:0:
310,212,35409,6,0,L|311:136,1,57.60000140625,4|0,0:0|0:0,0:0:0:0:
149,286,35702,2,0,L|9:273,1,115.2000028125,4|0,0:0|0:0,0:0:0:0:
171,196,36141,2,0,L|233:190,2,57.60000140625,8|0|8,0:0|0:0|0:0,0:0:0:0:
380,310,36580,6,0,L|390:183,1,115.2000028125,0|8,0:0|0:0,0:0:0:0:
343,189,36946,1,8,0:0:0:0:
298,192,37019,2,0,L|289:129,1,57.60000140625,8|8,0:0|0:0,0:0:0:0:
424,115,37312,1,8,0:0:0:0:
427,97,37385,1,0,0:0:0:0:
430,78,37458,1,0,0:0:0:0:
338,54,37605,1,0,0:0:0:0:
132,300,37751,6,0,L|132:164,1,131.200002001953,4|0,0:0|0:0,0:0:0:0:
272,178,38190,2,0,L|272:105,1,65.6000010009766,8|0,0:0|0:0,0:0:0:0:
197,74,38483,2,0,L|120:63,1,65.6000010009766,2|0,0:0|0:0,0:0:0:0:
272,178,38775,6,0,L|348:170,1,65.6000010009766,8|0,0:0|0:0,0:0:0:0:
261,259,39068,2,0,L|182:247,1,65.6000010009766,2|0,0:0|0:0,0:0:0:0:
338,227,39361,2,0,L|338:138,1,65.6000010009766,8|0,0:0|0:0,0:0:0:0:
262,151,39653,2,0,L|262:69,1,65.6000010009766,2|0,0:0|0:0,0:0:0:0:
340,52,39946,1,8,0:0:0:0:
126,178,40092,6,0,P|94:231|161:270,1,131.200002001953,0|0,0:0|0:0,0:0:0:0:
279,336,40531,2,0,L|295:258,1,65.6000010009766,8|0,0:0|0:0,0:0:0:0:
216,242,40824,2,0,L|202:174,1,65.6000010009766,0|0,0:0|0:0,0:0:0:0:
415,237,41117,6,0,P|462:200|425:139,1,131.200002001953,8|0,0:0|0:0,0:0:0:0:
361,124,41556,1,0,0:0:0:0:
148,265,41702,2,0,L|147:179,1,65.6000010009766,8|0,0:0|0:0,0:0:0:0:
223,123,41995,1,0,0:0:0:0:
146,115,42141,1,0,0:0:0:0:
223,123,42287,1,8,0:0:0:0:
440,309,42434,6,0,L|446:157,1,131.200002001953,4|4,0:0|0:0,0:0:0:0:
304,152,42873,1,8,0:0:0:0:
379,160,43019,2,0,L|463:168,2,65.6000010009766,0|2|0,0:0|0:0|0:0,0:0:0:0:
238,180,43458,6,0,L|238:106,1,65.6000010009766,8|0,0:0|0:0,0:0:0:0:
314,116,43751,2,0,L|314:33,1,65.6000010009766,2|0,0:0|0:0,0:0:0:0:
173,286,44044,2,0,L|174:208,1,65.6000010009766,8|0,0:0|0:0,0:0:0:0:
246,187,44336,2,0,L|317:179,2,65.6000010009766,2|0|8,0:0|0:0|0:0,0:0:0:0:
458,290,44775,6,0,L|457:140,1,131.200002001953,4|4,0:0|0:0,0:0:0:0:
316,144,45214,2,0,L|236:135,1,65.6000010009766,8|2,0:0|0:0,0:0:0:0:
327,67,45507,2,0,L|405:60,2,65.6000010009766,0|2|8,0:0|0:0|0:0,0:0:0:0:
109,296,45946,6,0,L|109:142,1,131.200002001953,4|0,0:0|0:0,0:0:0:0:
187,166,46385,2,0,L|271:154,1,65.6000010009766,8|0,0:0|0:0,0:0:0:0:
174,89,46678,2,0,L|94:80,2,65.6000010009766,8|0|8,0:0|0:0|0:0,0:0:0:0:
389,61,47117,6,0,L|389:144,1,65.6000010009766,4|0,0:0|0:0,0:0:0:0:
312,177,47409,2,0,L|227:184,2,65.6000010009766,0|8|0,0:0|0:0|0:0,0:0:0:0:
390,221,47848,2,0,L|475:229,2,65.6000010009766,8|0|8,0:0|0:0|0:0,0:0:0:0:
249,275,48287,6,0,L|249:202,1,65.6000010009766,0|8,0:0|0:0,0:0:0:0:
327,183,48580,2,0,L|327:102,1,65.6000010009766,0|8,0:0|0:0,0:0:0:0:
251,72,48873,2,0,L|163:62,1,65.6000010009766,0|8,0:0|0:0,0:0:0:0:
261,190,49166,2,0,L|336:181,1,65.6000010009766,0|8,0:0|0:0,0:0:0:0:
113,317,49458,6,0,L|113:159,1,131.200002001953,0|0,0:0|0:0,0:0:0:0:
255,152,49897,1,8,0:0:0:0:
331,142,50043,1,0,0:0:0:0:
255,152,50190,1,8,0:0:0:0:
180,139,50336,1,0,0:0:0:0:
255,152,50483,1,8,0:0:0:0:
114,290,50629,6,0,P|81:249|128:200,1,131.200002001953,0|0,0:0|0:0,0:0:0:0:
268,242,51068,2,0,L|268:165,1,65.6000010009766,8|0,0:0|0:0,0:0:0:0:
190,154,51361,2,0,L|115:149,2,65.6000010009766,8|0|8,0:0|0:0|0:0,0:0:0:0:
412,324,51800,6,0,P|456:277|385:221,1,160,4|0,0:0|0:0,0:0:0:0:
304,222,52239,2,0,L|303:133,1,80,8|8,0:0|0:0,0:0:0:0:
404,130,52531,2,0,L|405:34,1,80,8|8,0:0|0:0,0:0:0:0:
320,35,52824,1,8,0:0:0:0:
99,259,52970,6,0,P|35:211|73:133,1,160,4|0,0:0|0:0,0:0:0:0:
144,48,53409,2,0,L|48:40,1,80,8|8,0:0|0:0,0:0:0:0:
163,136,53702,2,0,L|243:90,2,80,8|8|8,0:0|0:0|0:0,0:0:0:0:
387,272,54141,6,0,P|452:235|418:171,1,160,4|0,0:0|0:0,0:0:0:0:
274,185,54580,2,0,L|274:97,1,80,8|8,0:0|0:0,0:0:0:0:
361,60,54873,1,8,0:0:0:0:
322,56,54946,1,8,0:0:0:0:
282,52,55019,1,8,0:0:0:0:
242,48,55092,1,8,0:0:0:0:
202,44,55165,1,8,0:0:0:0:
430,108,55312,5,12,0:0:0:0:
311,175,55751,2,0,L|148:164,2,160,0|0|0,0:0|0:0|0:0,0:0:0:0:
96,256,56483,6,0,P|64:184|144:144,1,160,4|0,0:0|0:0,0:0:0:0:
219,183,56922,2,0,L|315:175,1,80,8|2,0:0|0:0,0:0:0:0:
199,75,57214,2,0,L|121:130,2,80,0|2|8,0:0|0:0|0:0,0:0:0:0:
346,79,57653,6,0,L|354:171,1,80,2|0,0:0|0:0,0:0:0:0:
254,195,57946,2,0,L|245:299,1,80,2|8,0:0|0:0,0:0:0:0:
347,260,58239,2,0,L|354:340,1,80,2|0,0:0|0:0,0:0:0:0:
254,195,58531,2,0,L|158:187,1,80,2|8,0:0|0:0,0:0:0:0:
393,310,58824,6,0,P|417:270|329:214,1,160,2|0,0:0|0:0,0:0:0:0:
246,251,59263,2,0,L|142:243,1,80,8|2,0:0|0:0,0:0:0:0:
266,155,59556,2,0,L|338:95,2,80,0|2|8,0:0|0:0|0:0,0:0:0:0:
45,236,59995,6,0,L|45:140,1,80,2|0,0:0|0:0,0:0:0:0:
192,82,60287,2,0,L|192:178,1,80,2|0,0:0|0:0,0:0:0:0:
45,236,60580,2,0,L|45:140,1,80,2|0,0:0|0:0,0:0:0:0:
192,82,60873,2,0,L|288:74,1,80,0|0,0:0|0:0,0:0:0:0:
53,267,61166,6,0,P|19:206|88:160,1,160,4|0,0:0|0:0,0:0:0:0:
174,158,61605,2,0,L|188:60,1,80,8|2,0:0|0:0,0:0:0:0:
93,74,61897,2,0,L|15:20,2,80,0|2|8,0:0|0:0|0:0,0:0:0:0:
239,177,62336,6,0,L|239:97,1,80,2|0,0:0|0:0,0:0:0:0:
140,159,62629,2,0,L|140:239,1,80,0|8,0:0|0:0,0:0:0:0:
232,332,62922,2,0,L|144:324,1,80,2|0,0:0|0:0,0:0:0:0:
241,248,63214,2,0,L|329:240,1,80,2|8,0:0|0:0,0:0:0:0:
104,272,63507,6,0,P|67:221|142:174,1,160,2|0,0:0|0:0,0:0:0:0:
227,178,63946,1,8,0:0:0:0:
227,101,64092,1,2,0:0:0:0:
132,85,64239,1,8,0:0:0:0:
51,78,64385,1,2,0:0:0:0:
132,85,64531,1,8,0:0:0:0:
354,306,64678,6,0,P|400:253|346:198,1,160,4|8,0:0|0:0,0:0:0:0:
200,208,65117,1,8,0:0:0:0:
162,197,65190,1,0,0:0:0:0:
139,165,65263,1,8,0:0:0:0:
143,126,65336,1,8,0:0:0:0:
171,99,65409,1,8,0:0:0:0:
316,125,65556,2,0,L|316:29,1,80,4|0,0:0|0:0,0:0:0:0:
100,315,65848,6,0,P|60:274|127:207,1,160,4|0,0:0|0:0,0:0:0:0:
210,236,66288,2,0,L|218:150,1,80,8|2,0:0|0:0,0:0:0:0:
122,99,66580,2,0,L|50:46,2,80,0|2|8,0:0|0:0|0:0,0:0:0:0:
268,115,67019,6,0,L|275:206,1,80,2|0,0:0|0:0,0:0:0:0:
173,191,67312,2,0,L|166:301,1,80,2|8,0:0|0:0,0:0:0:0:
268,115,67605,2,0,L|275:195,1,80,2|0,0:0|0:0,0:0:0:0:
173,191,67897,2,0,L|77:183,1,80,0|8,0:0|0:0,0:0:0:0:
315,266,68190,6,0,P|371:210|315:154,1,160,2|2,0:0|0:0,0:0:0:0:
230,164,68629,2,0,L|229:74,1,80,8|2,0:0|0:0,0:0:0:0:
323,60,68922,2,0,L|397:121,2,80,0|0|8,0:0|0:0|0:0,0:0:0:0:
104,233,69361,6,0,L|104:137,1,80,2|0,0:0|0:0,0:0:0:0:
252,67,69654,2,0,L|252:163,1,80,2|0,0:0|0:0,0:0:0:0:
104,233,69946,2,0,L|104:137,1,80,2|0,0:0|0:0,0:0:0:0:
252,147,70239,2,0,L|348:139,1,80,0|0,0:0|0:0,0:0:0:0:
107,239,70532,6,0,P|69:196|138:139,1,160,4|0,0:0|0:0,0:0:0:0:
226,180,70971,2,0,L|235:87,1,80,8|2,0:0|0:0,0:0:0:0:
140,51,71263,2,0,L|59:113,2,80,8|2|8,0:0|0:0|0:0,0:0:0:0:
288,184,71702,6,0,L|288:104,1,80,2|0,0:0|0:0,0:0:0:0:
186,172,71995,2,0,L|186:252,1,80,0|8,0:0|0:0,0:0:0:0:
288,336,72288,2,0,L|200:328,1,80,2|8,0:0|0:0,0:0:0:0:
106,179,72580,2,0,L|194:171,1,80,10|8,0:0|0:0,0:0:0:0:
410,262,72873,6,0,P|460:239|404:156,1,160,4|0,0:0|0:0,0:0:0:0:
342,140,73312,1,8,0:0:0:0:
195,176,73458,2,0,L|187:88,1,80,8|8,0:0|0:0,0:0:0:0:
287,266,73751,2,0,L|295:178,1,80,8|8,0:0|0:0,0:0:0:0:
76,51,74044,5,8,0:0:0:0:
206,130,74336,2,0,L|290:69,2,80,0|0|0,0:0|0:0|0:0,0:0:0:0:
108,153,74775,1,8,3:0:0:0:
74,172,74848,2,0,L|66:258,1,80,8|8,3:0|3:0,0:0:0:0:
101,270,75067,1,8,3:0:0:0:
327,319,75214,6,0,P|406:291|394:224,1,160,4|0,0:0|0:0,0:0:0:0:
299,208,75653,2,0,L|291:120,1,80,8|0,0:0|0:0,0:0:0:0:
391,171,75946,1,8,0:3:0:0:
427,156,76019,2,0,L|438:73,1,80,8|8,0:3|0:3,0:0:0:0:
407,59,76238,1,8,0:3:0:0:
186,240,76385,6,0,P|150:185|216:129,1,160,4|0,0:0|0:0,0:0:0:0:
307,160,76824,2,0,L|307:68,1,80,8|0,0:0|0:0,0:0:0:0:
209,305,77117,1,8,0:3:0:0:
177,281,77190,2,0,L|180:193,1,80,8|8,0:3|0:3,0:0:0:0:
223,192,77409,1,8,0:3:0:0:
445,272,77556,6,0,L|445:88,1,160,4|0,0:0|0:0,0:0:0:0:
348,55,77995,2,0,L|436:39,1,80,8|0,0:0|0:0,0:0:0:0:
329,143,78287,1,8,0:3:0:0:
289,139,78361,2,0,L|199:132,1,80,8|8,0:3|0:3,0:0:0:0:
169,129,78579,1,0,0:0:0:0:
390,285,78727,6,0,P|454:253|430:173,1,160,4|8,0:0|0:0,0:0:0:0:
398,165,79092,1,8,0:0:0:0:
358,159,79165,1,8,0:0:0:0:
258,86,79312,2,0,L|162:94,2,80,0|10|0,0:0|0:0|0:0,0:0:0:0:
348,76,79751,1,10,0:0:0:0:
124,263,79897,6,0,P|92:215|172:159,1,160,4|0,0:0|0:0,0:0:0:0:
256,210,80336,2,0,L|264:119,1,80,8|0,0:0|0:0,0:0:0:0:
162,188,80630,1,8,0:3:0:0:
130,212,80702,2,0,L|138:302,1,80,8|8,0:3|0:3,0:0:0:0:
176,301,80922,1,8,0:3:0:0:
401,287,81068,6,0,P|470:239|412:179,1,160,4|0,0:0|0:0,0:0:0:0:
343,200,81507,2,0,L|343:88,1,80,8|0,0:0|0:0,0:0:0:0:
442,55,81800,1,8,0:3:0:0:
402,53,81873,2,0,L|301:48,1,80,8|8,0:3|0:3,0:0:0:0:
282,47,82092,1,8,0:3:0:0:
58,252,82239,6,0,P|25:187|96:144,1,160,4|0,0:0|0:0,0:0:0:0:
185,152,82678,2,0,L|273:144,1,80,8|0,0:0|0:0,0:0:0:0:
166,308,82970,1,8,0:3:0:0:
166,268,83044,2,0,L|165:181,1,80,8|8,0:3|0:3,0:0:0:0:
166,148,83262,1,0,0:0:0:0:
389,245,83409,6,0,P|442:194|397:136,1,160,4|8,0:0|0:0,0:0:0:0:
249,165,83848,2,0,L|249:85,1,80,8|0,0:0|0:0,0:0:0:0:
349,88,84141,2,0,L|389:80,1,40,10|0,0:0|0:0,0:0:0:0:
381,184,84287,2,0,L|341:176,1,40,0|0,0:0|0:0,0:0:0:0:
293,168,84434,1,10,0:0:0:0:
69,142,84580,5,4,0:1:0:0:
256,192,84727,12,0,86044,0:0:0:0:
