osu file format v14

[General]
AudioFilename: audio.mp3
AudioLeadIn: 0
PreviewTime: 55751
Countdown: 0
SampleSet: Drum
StackLeniency: 0.7
Mode: 2
LetterboxInBreaks: 0
WidescreenStoryboard: 1

[Editor]
DistanceSpacing: 1.2
BeatDivisor: 4
GridSize: 8
TimelineZoom: 1.4

[Metadata]
Title:Zetsubousei: Hero Chiryouyaku (TV Size)
TitleUnicode:絶望性:ヒーロー治療薬 (TV Size)
Artist:suzumu feat. soraru
ArtistUnicode:スズム feat. そらる
Creator:Spinacina
Version:Cup
Source:ダンガンロンパ: The Animation
Tags:Anime Japanese Electronic Ending ed Danganronpa 希望の学園と絶望の高校生 Kibou no Gakuen to Zetsubou no Koukousei Verti Dangan Ronpa Utaite rock j-rock jrock
BeatmapID:2726259
BeatmapSetID:1315568

[Difficulty]
HPDrainRate:3
CircleSize:3
OverallDifficulty:6
ApproachRate:6
SliderMultiplier:1.2
SliderTickRate:1

[Events]
//Background and Video events
0,0,"Danganronpa.jpg",0,0
//Break Periods
//Storyboard Layer 0 (Background)
//Storyboard Layer 1 (Fail)
//Storyboard Layer 2 (Pass)
//Storyboard Layer 3 (Foreground)
//Storyboard Layer 4 (Overlay)
//Storyboard Sound Samples

[TimingPoints]
434,292.682926829268,4,2,1,30,1,0
8629,-100,4,3,1,30,0,0
8921,-100,4,3,2,30,0,0
9214,-100,4,3,1,40,0,0
9653,-100,4,3,1,60,0,0
27507,-100,4,3,2,60,0,0
27799,-100,4,3,1,60,0,0
28385,-100,4,3,1,50,0,0
36873,-100,4,3,2,50,0,0
37165,-100,4,3,1,50,0,0
37751,-100,4,3,1,60,0,0
47116,-100,4,3,1,60,0,0
51799,-100,4,3,1,60,0,0
54873,-100,4,3,2,60,0,0
55165,-100,4,3,1,60,0,0
56482,-100,4,3,1,80,0,1
64970,-100,4,3,2,80,0,1
65263,-100,4,3,1,80,0,1
74043,-100,4,3,1,60,0,1
74775,-100,4,3,2,80,0,1
75068,-100,4,3,1,80,0,1
75214,-100,4,3,1,60,0,0
86043,-100,4,3,1,20,0,0

[Colours]
Combo1 : 0,143,213
Combo2 : 128,128,192
Combo3 : 255,64,255
Combo4 : 255,255,72

[HitObjects]
185,353,288,6,0,P|145:281|225:209,1,180,4|2,0:0|0:0,0:0:0:0:
345,241,1019,2,0,L|345:113,1,120,0|2,0:0|0:0,0:0:0:0:
421,195,1458,6,0,P|467:137|422:51,1,180,4|2,0:0|0:0,0:0:0:0:
277,107,2190,2,0,L|277:245,1,120,0|2,0:0|0:0,0:0:0:0:
353,171,2629,6,0,P|377:91|289:59,1,180,4|2,0:0|0:0,0:0:0:0:
153,227,3361,2,0,L|153:99,1,120,0|2,0:0|0:0,0:0:0:0:
77,64,3800,6,0,P|40:138|114:178,1,180,4|2,0:0|0:0,0:0:0:0:
253,82,4531,1,2,0:0:0:0:
313,79,4677,1,0,0:0:0:0:
253,82,4823,1,2,0:0:0:0:
177,272,4970,6,0,P|131:220|208:154,1,180,4|2,0:0|0:0,0:0:0:0:
341,188,5702,1,0,0:0:0:0:
341,128,5848,1,0,0:0:0:0:
265,82,5995,1,2,0:0:0:0:
189,98,6141,6,0,L|189:306,1,180,4|2,0:0|0:0,0:0:0:0:
303,310,6872,1,0,0:0:0:0:
362,304,7018,1,0,0:0:0:0:
303,310,7166,1,2,0:0:0:0:
227,318,7312,6,0,P|179:276|258:201,1,180,4|2,0:0|0:0,0:0:0:0:
381,201,8044,1,0,0:0:0:0:
440,194,8190,1,0,0:0:0:0:
381,201,8336,1,2,0:0:0:0:
305,244,8483,6,0,P|239:214|290:129,1,180,2|8,0:0|0:0,0:0:0:0:
417,118,9214,1,8,0:0:0:0:
473,110,9361,1,8,0:0:0:0:
417,118,9507,1,8,0:0:0:0:
341,127,9653,6,0,L|341:324,1,180,4|8,0:0|0:0,0:0:0:0:
197,228,10385,1,8,0:3:0:0:
137,236,10531,1,8,0:3:0:0:
197,228,10678,1,8,0:3:0:0:
274,119,10824,6,0,L|274:311,1,180,4|8,0:0|0:0,0:0:0:0:
418,137,11556,1,8,0:3:0:0:
418,77,11702,1,8,0:3:0:0:
342,55,11848,1,8,0:3:0:0:
264,55,11995,6,0,P|208:111|280:183,1,180,4|8,0:0|0:0,0:0:0:0:
402,208,12727,1,8,0:3:0:0:
462,201,12873,1,8,0:3:0:0:
402,208,13019,1,8,0:3:0:0:
325,285,13166,6,0,P|249:253|296:179,1,180,4|8,0:0|0:0,0:0:0:0:
358,201,13751,1,0,0:0:0:0:
358,141,13897,1,10,0:0:0:0:
280,137,14044,1,0,0:0:0:0:
280,77,14190,1,10,0:0:0:0:
358,289,14336,6,0,P|438:249|390:177,1,180,4|8,0:0|0:0,0:0:0:0:
262,161,15068,2,0,L|262:33,1,120,8|8,0:3|0:3,0:0:0:0:
339,265,15507,6,0,L|155:225,1,180,4|8,0:0|0:0,0:0:0:0:
307,181,16239,1,8,0:3:0:0:
367,173,16385,1,8,0:3:0:0:
307,181,16531,1,8,0:3:0:0:
230,265,16678,6,0,L|230:81,1,180,4|8,0:0|0:0,0:0:0:0:
86,89,17409,1,8,0:3:0:0:
27,82,17555,1,8,0:3:0:0:
86,89,17702,1,8,0:3:0:0:
163,210,17848,6,0,P|243:189|195:106,1,180,4|8,0:0|0:0,0:0:0:0:
77,115,18580,1,10,0:0:0:0:
220,113,18873,1,10,0:0:0:0:
144,186,19019,6,0,L|144:322,1,120,4|0,0:0|0:0,0:0:0:0:
222,337,19458,2,0,L|358:329,1,120,8|8,0:0|0:0,0:0:0:0:
198,233,20044,6,0,L|200:92,1,120,8|8,0:0|0:0,0:0:0:0:
344,116,20629,2,0,L|464:108,2,120,8|8|8,0:0|0:0|0:0,0:0:0:0:
267,136,21361,6,0,L|267:272,1,120,4|0,0:0|0:0,0:0:0:0:
344,300,21800,2,0,L|472:292,1,120,8|8,0:0|0:0,0:0:0:0:
320,214,22385,6,0,L|184:206,2,120,8|8|8,0:0|0:0|0:0,0:0:0:0:
176,225,23263,2,0,L|264:137,1,120,8|8,0:0|0:0,0:0:0:0:
338,128,23702,6,0,P|354:64|290:40,1,120,4|8,0:0|0:0,0:0:0:0:
240,210,24141,2,0,L|240:82,1,120,8|8,0:0|0:0,0:0:0:0:
385,170,24727,6,0,L|385:298,1,120,8|8,0:0|0:0,0:0:0:0:
241,328,25312,2,0,L|97:320,2,120,8|8|8,0:0|0:0|0:0,0:0:0:0:
319,335,26044,6,0,L|319:191,1,120,4|0,0:0|0:0,0:0:0:0:
242,200,26483,2,0,L|363:191,1,120,8|8,0:0|0:0,0:0:0:0:
217,97,27068,6,0,L|89:89,2,120,8|8|8,0:0|0:0|0:0,0:0:0:0:
361,215,27946,1,8,0:0:0:0:
361,140,28092,1,4,0:0:0:0:
283,124,28239,1,0,0:0:0:0:
206,213,28385,6,0,P|123:173|150:102,1,180,4|0,0:0|0:0,0:0:0:0:
290,223,29117,2,0,L|289:99,1,120,8|8,0:0|0:0,0:0:0:0:
145,298,29702,6,0,L|143:154,1,120,8|8,0:0|0:0,0:0:0:0:
288,88,30287,2,0,L|288:232,1,120,8|8,0:0|0:0,0:0:0:0:
364,272,30727,6,0,L|236:272,2,120,4|4|0,0:0|0:0|0:0,0:0:0:0:
440,280,31458,2,0,L|440:149,1,120,8|8,0:0|0:0,0:0:0:0:
295,113,32044,6,0,L|159:105,1,120,8|8,0:0|0:0,0:0:0:0:
319,207,32629,2,0,L|455:199,1,120,8|8,0:0|0:0,0:0:0:0:
361,128,33068,5,4,0:0:0:0:
223,145,33361,2,0,L|212:289,1,120,4|0,0:0|0:0,0:0:0:0:
292,229,33800,2,0,L|301:369,1,120,8|8,0:0|0:0,0:0:0:0:
156,198,34385,6,0,L|156:70,1,120,8|8,0:0|0:0,0:0:0:0:
300,142,34970,2,0,L|300:270,1,120,8|8,0:0|0:0,0:0:0:0:
222,312,35409,6,0,L|96:298,1,120,4|4,0:0|0:0,0:0:0:0:
247,230,35995,1,0,0:0:0:0:
325,246,36141,2,0,L|325:126,1,120,8|8,0:0|0:0,0:0:0:0:
247,102,36580,5,0,0:0:0:0:
103,187,36873,2,0,L|103:40,1,120,8|8,0:0|0:0,0:0:0:0:
158,57,37312,1,8,0:0:0:0:
213,51,37458,1,0,0:0:0:0:
268,47,37604,1,0,0:0:0:0:
333,231,37751,6,0,L|347:47,1,180,4|8,0:0|0:0,0:0:0:0:
203,136,38483,1,2,0:0:0:0:
143,130,38629,1,0,0:0:0:0:
203,136,38775,1,8,0:0:0:0:
347,223,39068,6,0,L|347:79,1,120,2|8,0:0|0:0,0:0:0:0:
203,136,39653,2,0,L|205:284,1,120,2|8,0:0|0:0,0:0:0:0:
282,197,40092,6,0,L|410:189,1,120,0|0,0:0|0:0,0:0:0:0:
325,306,40531,2,0,L|197:298,1,120,8|0,0:0|0:0,0:0:0:0:
66,204,41117,6,0,L|68:80,1,120,8|0,0:0|0:0,0:0:0:0:
212,76,41702,1,8,0:0:0:0:
254,71,41848,1,0,0:0:0:0:
296,66,41994,1,0,0:0:0:0:
152,252,42287,1,8,0:0:0:0:
80,226,42434,6,0,L|80:98,1,120,4|4,0:0|0:0,0:0:0:0:
225,135,43019,1,0,0:0:0:0:
265,183,43165,1,2,0:0:0:0:
244,242,43311,1,0,0:0:0:0:
182,254,43458,6,0,L|182:122,1,120,8|2,0:0|0:0,0:0:0:0:
327,94,44044,1,8,0:0:0:0:
183,97,44336,1,2,0:0:0:0:
123,97,44482,1,0,0:0:0:0:
183,97,44629,1,8,0:0:0:0:
243,96,44775,6,0,L|373:86,1,120,4|4,0:0|0:0,0:0:0:0:
286,190,45214,2,0,L|163:179,1,120,8|0,0:0|0:0,0:0:0:0:
308,308,45799,1,8,0:0:0:0:
382,314,45946,6,0,P|448:277|389:193,1,180,4|8,0:0|0:0,0:0:0:0:
268,207,46678,2,0,L|268:79,1,120,8|8,0:0|0:0,0:0:0:0:
346,60,47117,6,0,L|474:52,1,120,4|2,0:0|0:0,0:0:0:0:
334,179,47702,2,0,L|215:171,1,120,0|2,0:0|0:0,0:0:0:0:
358,70,48287,6,0,L|358:198,1,120,0|2,0:0|0:0,0:0:0:0:
214,305,48873,2,0,L|214:177,1,120,0|2,0:0|0:0,0:0:0:0:
358,190,49458,6,0,L|358:60,1,120,0|0,0:0|0:0,0:0:0:0:
281,69,49897,2,0,L|145:58,2,120,8|8|8,0:0|0:0|0:0,0:0:0:0:
204,161,50629,6,0,L|66:171,1,120,0|0,0:0|0:0,0:0:0:0:
161,254,51068,2,0,L|289:262,1,120,8|8,0:0|0:0,0:0:0:0:
140,332,51653,1,8,0:0:0:0:
64,325,51800,6,0,P|30:260|102:202,1,180,4|8,0:0|0:0,0:0:0:0:
243,204,52531,1,8,0:0:0:0:
392,239,52824,1,8,0:0:0:0:
461,234,52970,6,0,P|497:170|418:122,1,180,4|8,0:0|0:0,0:0:0:0:
282,125,53702,1,8,0:0:0:0:
144,147,53995,1,8,0:0:0:0:
220,306,54141,6,0,P|292:290|260:146,1,240,4|8,0:0|0:0,0:0:0:0:
205,174,54873,1,8,0:0:0:0:
205,114,55019,1,8,0:0:0:0:
276,98,55166,1,8,0:0:0:0:
276,38,55312,1,12,0:0:0:0:
122,297,56482,6,0,P|66:249|162:193,1,180,4|8,0:0|0:0,0:0:0:0:
266,257,57214,2,0,L|402:249,1,120,0|8,0:0|0:0,0:0:0:0:
306,162,57653,6,0,L|170:154,2,120,2|2|2,0:0|0:0|0:0,0:0:0:0:
450,179,58531,1,2,0:0:0:0:
450,119,58677,1,8,0:0:0:0:
373,68,58824,6,0,L|173:76,1,180,2|8,0:0|0:0,0:0:0:0:
337,169,59556,2,0,L|481:177,1,120,0|8,0:0|0:0,0:0:0:0:
380,250,59995,5,2,0:0:0:0:
236,250,60287,1,2,0:0:0:0:
92,250,60580,1,2,0:0:0:0:
236,250,60873,1,0,0:0:0:0:
236,190,61019,1,0,0:0:0:0:
159,156,61166,6,0,P|107:95|195:49,1,180,4|8,0:0|0:0,0:0:0:0:
314,161,61897,2,0,L|314:25,1,120,0|8,0:0|0:0,0:0:0:0:
237,225,62336,6,0,L|85:217,1,120,2|2,0:0|0:0,0:0:0:0:
262,309,62922,2,0,L|414:301,1,120,2|2,0:0|0:0,0:0:0:0:
238,217,63507,6,0,P|182:185|278:89,1,240,2|2,0:0|0:0,0:0:0:0:
343,183,64239,2,0,L|487:183,1,120,8|8,0:0|0:0,0:0:0:0:
385,96,64678,5,4,0:0:0:0:
279,183,64970,1,8,0:0:0:0:
219,176,65116,1,8,0:0:0:0:
292,109,65263,1,8,0:0:0:0:
351,101,65409,1,8,0:0:0:0:
292,109,65556,1,4,0:0:0:0:
148,312,65848,6,0,P|99:248|174:197,1,180,4|8,0:0|0:0,0:0:0:0:
306,228,66580,2,0,L|433:217,1,120,0|8,0:0|0:0,0:0:0:0:
346,116,67019,6,0,L|210:108,2,120,2|2|2,0:0|0:0|0:0,0:0:0:0:
202,244,67897,1,0,0:0:0:0:
202,184,68043,1,8,0:0:0:0:
281,240,68190,6,0,P|336:181|257:128,1,180,2|8,0:0|0:0,0:0:0:0:
130,113,68922,2,0,L|-6:105,1,120,0|8,0:0|0:0,0:0:0:0:
82,81,69361,5,2,0:0:0:0:
226,81,69653,1,2,0:0:0:0:
370,81,69946,1,2,0:0:0:0:
250,84,70239,1,0,0:0:0:0:
250,144,70385,1,0,0:0:0:0:
318,217,70531,6,0,L|118:193,1,180,4|8,0:0|0:0,0:0:0:0:
283,112,71263,2,0,L|403:120,1,120,8|8,0:0|0:0,0:0:0:0:
326,211,71702,6,0,L|326:331,1,120,2|0,0:0|0:0,0:0:0:0:
184,194,72287,1,2,0:0:0:0:
109,192,72434,2,0,L|109:324,1,120,8|8,0:0|0:0,0:0:0:0:
186,299,72873,6,0,P|262:251|229:180,1,180,4|8,0:0|0:0,0:0:0:0:
156,194,73458,2,0,L|156:116,1,60,8|8,0:0|0:0,0:0:0:0:
233,137,73751,2,0,L|233:59,1,60,8|8,0:0|0:0,0:0:0:0:
156,134,74044,5,8,0:0:0:0:
386,99,74775,1,8,3:0:0:0:
446,94,74921,1,8,3:0:0:0:
386,99,75068,1,8,3:0:0:0:
308,99,75214,6,0,L|308:315,1,180,4|8,0:0|0:0,0:0:0:0:
164,295,75946,1,8,0:3:0:0:
104,287,76092,1,8,0:3:0:0:
164,295,76239,1,8,0:3:0:0:
242,319,76385,6,0,L|242:127,1,180,4|8,0:0|0:0,0:0:0:0:
386,141,77117,1,8,0:3:0:0:
446,133,77263,1,8,0:3:0:0:
386,141,77409,1,8,0:3:0:0:
306,110,77556,6,0,P|246:166|319:227,1,180,4|8,0:0|0:0,0:0:0:0:
442,217,78288,1,8,0:3:0:0:
502,210,78434,1,8,0:3:0:0:
442,217,78580,1,8,0:3:0:0:
365,302,78727,6,0,L|182:288,1,180,4|8,0:0|0:0,0:0:0:0:
42,179,79458,2,0,L|167:166,1,120,10|10,0:0|0:0,0:0:0:0:
238,70,79897,6,0,P|310:113|260:183,1,180,4|8,0:0|0:0,0:0:0:0:
126,202,80629,2,0,L|126:330,1,120,8|8,0:3|0:3,0:0:0:0:
202,145,81068,6,0,L|386:121,1,180,4|8,0:0|0:0,0:0:0:0:
236,66,81800,1,8,0:3:0:0:
176,58,81946,1,8,0:3:0:0:
236,66,82092,1,8,0:3:0:0:
313,296,82239,6,0,L|313:112,1,180,4|8,0:0|0:0,0:0:0:0:
168,169,82970,1,8,0:3:0:0:
109,162,83116,1,8,0:3:0:0:
168,169,83263,1,8,0:3:0:0:
244,289,83409,6,0,P|308:281|276:185,1,180,4|8,0:0|0:0,0:0:0:0:
214,178,83995,1,0,0:0:0:0:
137,177,84141,2,0,L|137:57,1,120,10|10,0:0|0:0,0:0:0:0:
215,59,84580,5,4,0:1:0:0:
256,192,84873,12,0,86044,0:0:0:0:
