osu file format v14

[General]
AudioFilename: audio.mp3
AudioLeadIn: 0
PreviewTime: 55678
Countdown: 0
SampleSet: Soft
StackLeniency: 0.7
Mode: 0
LetterboxInBreaks: 0
WidescreenStoryboard: 0

[Editor]
DistanceSpacing: 1
BeatDivisor: 2
GridSize: 32
TimelineZoom: 1.9

[Metadata]
Title:Zetsubousei: Hero Chiryouyaku (TV Size)
TitleUnicode:絶望性:ヒーロー治療薬 (TV Size)
Artist:suzumu feat. soraru
ArtistUnicode:スズム feat. そらる
Creator:Desire Blue sky
Version:Ultimate Hope
Source:ダンガンロンパ The Animation
Tags:supav shirokumocha kumocha yuuma2 adinda raja kaine vinxis mishima yurara payney dooe -doodle anime japanese electronic ending ed danganronpa 希望の学園と絶望の高校生 kibou no gakuen to zetsubou no koukousei dangan ronpa male utaite rock j-rock jrock
BeatmapID:3957892
BeatmapSetID:1833202

[Difficulty]
HPDrainRate:6
CircleSize:4
OverallDifficulty:9
ApproachRate:9.4
SliderMultiplier:1.9
SliderTickRate:1

[Events]
//Background and Video events
0,0,"syo.jpg",0,0
//Break Periods
//Storyboard Layer 0 (Background)
//Storyboard Layer 1 (Fail)
//Storyboard Layer 2 (Pass)
//Storyboard Layer 3 (Foreground)
//Storyboard Layer 4 (Overlay)
//Storyboard Sound Samples

[TimingPoints]
-736,292.682926829268,4,2,2,40,1,0
288,-142.857142857143,4,2,2,40,0,0
4971,-142.857142857143,4,2,2,50,0,0
8483,-142.857142857143,4,2,1,50,0,0
9215,-142.857142857143,4,2,1,60,0,0
9654,-100,4,2,1,70,0,0
18727,-100,4,2,1,40,0,0
18800,-100,4,2,1,50,0,0
18873,-100,4,2,1,60,0,0
18946,-100,4,2,1,70,0,0
19020,-100,4,2,2,70,0,0
19166,-100,4,2,1,70,0,0
19312,-100,4,2,1,70,0,0
23410,-100,4,2,1,40,0,0
23483,-100,4,2,1,50,0,0
23556,-100,4,2,1,60,0,0
23629,-100,4,2,1,70,0,0
28385,-125,4,2,1,60,0,0
28532,-125,4,2,1,50,0,0
28677,-125,4,2,1,50,0,0
30727,-125,4,2,1,70,0,0
30873,-125,4,2,1,50,0,0
30946,-125,4,2,1,50,0,0
31020,-125,4,2,1,70,0,0
31166,-125,4,2,1,50,0,0
33068,-125,4,2,1,70,0,0
33214,-125,4,2,1,50,0,0
33287,-125,4,2,1,50,0,0
33361,-125,4,2,1,70,0,0
33507,-125,4,2,1,50,0,0
35410,-125,4,2,1,70,0,0
35556,-125,4,2,1,50,0,0
35629,-125,4,2,1,50,0,0
35703,-125,4,2,1,70,0,0
35849,-125,4,2,1,50,0,0
36581,-111.111111111111,4,2,1,70,0,0
37751,-111.111111111111,4,2,2,60,0,0
37898,-111.111111111111,4,2,1,60,0,0
38043,-111.111111111111,4,2,1,60,0,0
45946,-111.111111111111,4,2,1,70,0,0
46824,-111.111111111111,4,2,1,50,0,0
46898,-111.111111111111,4,2,1,60,0,0
46971,-111.111111111111,4,2,1,70,0,0
47117,-111.111111111111,4,2,2,60,0,0
47263,-111.111111111111,4,2,1,60,0,0
47409,-111.111111111111,4,2,1,60,0,0
54142,-111.111111111111,4,2,2,70,0,0
54288,-111.111111111111,4,2,1,70,0,0
54434,-111.111111111111,4,2,1,70,0,0
55751,-166.666666666667,4,2,1,40,0,0
55897,-166.666666666667,4,2,1,50,0,0
56044,-166.666666666667,4,2,1,60,0,0
56190,-166.666666666667,4,2,1,70,0,0
56336,-166.666666666667,4,2,1,80,0,0
56483,-90.9090909090909,4,2,1,80,0,1
73166,-90.9090909090909,4,2,1,55,0,1
73312,-90.9090909090909,4,2,1,60,0,1
73459,-90.9090909090909,4,2,1,65,0,1
73605,-90.9090909090909,4,2,1,70,0,1
73751,-90.9090909090909,4,2,1,75,0,1
73898,-90.9090909090909,4,2,1,80,0,1
74776,-90.9090909090909,4,2,1,50,0,1
74849,-90.9090909090909,4,2,1,55,0,1
74922,-90.9090909090909,4,2,1,60,0,1
74995,-90.9090909090909,4,2,1,65,0,1
75068,-90.9090909090909,4,2,1,70,0,1
75142,-90.9090909090909,4,2,1,75,0,1
75215,-100,4,2,1,70,0,0
84581,-133.333333333333,4,2,1,70,0,0
85020,-133.333333333333,4,2,2,60,0,0
85312,-133.333333333333,4,2,1,50,0,0
85605,-133.333333333333,4,2,2,40,0,0
85898,-133.333333333333,4,2,1,60,0,0
85971,-133.333333333333,4,2,2,20,0,0
86044,-133.333333333333,4,2,1,5,0,0

[Colours]
Combo1 : 123,184,244
Combo2 : 245,37,27
Combo3 : 170,114,239
Combo4 : 238,122,45

[HitObjects]
171,175,288,6,0,P|104:185|26:196,1,133,6|0,1:2|0:0,0:0:0:0:
114,105,727,2,0,P|152:99|204:90,1,66.4999999999999,10|0,0:0|0:0,0:0:0:0:
103,266,1020,2,0,L|23:276,2,66.4999999999999,2|0|8,0:0|0:0|0:0,0:0:0:0:
243,366,1459,2,0,P|249:299|259:233,1,133,2|0,0:0|0:0,0:0:0:0:
174,295,1898,2,0,P|168:327|163:360,1,66.4999999999999,10|0,0:0|0:0,0:0:0:0:
328,309,2190,2,0,P|333:276|337:243,2,66.4999999999999,2|0|8,0:0|0:0|0:0,0:0:0:0:
347,166,2629,6,0,P|412:156|478:147,1,133,2|0,0:0|0:0,0:0:0:0:
490,227,3068,2,0,P|457:232|424:237,1,66.4999999999999,10|0,0:0|0:0,0:0:0:0:
400,79,3361,2,0,P|433:74|465:70,2,66.4999999999999,2|0|8,0:0|0:0|0:0,0:0:0:0:
264,6,3800,2,0,P|256:72|249:138,1,133,2|0,0:0|0:0,0:0:0:0:
315,221,4239,2,0,P|348:216|380:212,1,66.4999999999999,10|0,0:0|0:0,0:0:0:0:
226,280,4532,1,2,0:0:0:0:
226,280,4678,2,0,L|160:288,1,66.4999999999999,2|8,0:0|0:0,0:0:0:0:
77,359,4971,6,0,P|83:292|93:226,1,133,2|0,0:1|0:0,0:0:0:0:
11,260,5410,2,0,P|6:293|2:326,1,66.4999999999999,10|0,0:0|0:0,0:0:0:0:
171,217,5703,2,0,P|176:185|181:152,2,66.4999999999999,2|0|8,0:0|0:0|0:0,0:0:0:0:
55,90,6142,2,0,P|120:80|186:70,1,133,2|0,0:0|0:0,0:0:0:0:
251,10,6581,2,0,L|331:0,1,66.4999999999999,10|0,0:0|0:0,0:0:0:0:
330,99,6873,2,0,L|265:108,2,66.4999999999999,2|0|8,0:0|0:0|0:0,0:0:0:0:
431,43,7312,6,0,P|421:108|411:174,1,133,2|0,0:0|0:0,0:0:0:0:
461,305,7751,2,0,P|466:272|470:239,1,66.4999999999999,10|0,0:0|0:0,0:0:0:0:
332,216,8044,2,0,P|327:248|322:281,2,66.4999999999999,2|0|8,0:0|0:0|0:0,0:0:0:0:
213,368,8483,6,0,P|220:301|228:235,1,133,6|0,1:2|0:0,0:0:0:0:
241,136,8922,2,0,L|245:99,3,33.2499989852906
307,25,9215,1,2,0:0:0:0:
262,16,9288,1,2,0:0:0:0:
219,22,9361,1,2,0:0:0:0:
180,42,9434,1,2,0:0:0:0:
142,62,9507,1,2,0:0:0:0:
101,71,9581,1,2,0:0:0:0:
57,59,9654,6,0,P|81:139|108:252,1,190,6|0,1:0|1:0,0:0:0:0:
277,379,10093,2,0,P|286:332|297:286,1,95,10|0,1:2|0:0,0:0:0:0:
34,346,10385,1,2,1:2:0:0:
74,338,10459,1,2,1:2:0:0:
116,330,10532,1,0,1:0:0:0:
160,321,10605,1,2,1:2:0:0:
203,313,10678,1,10,1:2:0:0:
392,224,10824,6,0,B|290:232|315:175|206:187,1,190,6|0,1:2|1:0,0:0:0:0:
389,38,11263,2,0,P|376:82|362:134,1,95,10|0,1:2|0:0,0:0:0:0:
505,271,11556,1,2,1:2:0:0:
498,248,11629,1,2,1:2:0:0:
491,225,11703,1,2,1:2:0:0:
484,202,11776,1,0,1:0:0:0:
477,179,11849,1,8,1:2:0:0:
355,355,11995,6,0,P|273:359|268:251,1,190,6|0,1:2|1:0,0:0:0:0:
361,140,12434,2,0,P|314:132|255:120,1,95,10|0,1:2|0:0,0:0:0:0:
73,17,12727,1,2,1:2:0:0:
81,60,12800,1,2,1:2:0:0:
90,104,12873,1,0,1:0:0:0:
98,146,12946,1,2,1:2:0:0:
106,186,13020,1,8,1:2:0:0:
0,328,13166,6,0,P|52:310|117:290,1,95,6|0,1:2|0:0,0:0:0:0:
264,260,13459,1,2,1:2:0:0:
228,247,13532,1,2,1:2:0:0:
191,233,13605,1,10,1:2:0:0:
335,368,13751,1,2,1:2:0:0:
393,177,13898,1,14,1:2:0:0:
230,363,14044,1,2,1:2:0:0:
444,274,14190,1,10,1:2:0:0:
229,153,14337,6,0,P|335:116|412:76,1,190,4|0,1:0|1:0,0:0:0:0:
158,13,14776,2,0,P|218:41|259:51,1,95,10|0,1:2|0:0,0:0:0:0:
459,181,15068,1,2,1:2:0:0:
418,189,15142,1,2,1:2:0:0:
376,197,15215,1,0,1:0:0:0:
333,206,15288,1,2,1:2:0:0:
289,214,15361,1,10,1:2:0:0:
148,358,15507,6,0,B|250:357|221:320|331:313,1,190,6|0,1:2|1:0,0:0:0:0:
105,261,15946,2,0,P|55:249|11:241,1,95,10|0,1:2|0:0,0:0:0:0:
85,39,16239,1,2,1:2:0:0:
92,62,16312,1,2,1:2:0:0:
99,85,16385,1,2,1:2:0:0:
106,108,16459,1,0,1:0:0:0:
113,131,16532,1,8,1:2:0:0:
206,258,16678,6,0,P|222:167|247:50,1,190,6|0,1:2|1:0,0:0:0:0:
455,20,17117,2,0,P|409:27|347:39,1,95,10|0,1:2|0:0,0:0:0:0:
393,268,17410,1,2,1:2:0:0:
400,226,17483,1,2,1:2:0:0:
408,184,17556,1,0,1:0:0:0:
416,141,17629,1,2,1:2:0:0:
425,99,17703,1,10,1:2:0:0:
457,332,17849,6,0,P|412:345|351:361,1,95,6|0,1:2|0:0,0:0:0:0:
163,348,18142,1,2,1:2:0:0:
199,360,18215,1,2,1:2:0:0:
237,373,18288,1,10,1:2:0:0:
135,207,18434,1,4,0:3:0:0:
41,371,18581,1,8,0:3:0:0:
251,281,18727,5,8,0:0:0:0:
247,267,18800,1,8,0:0:0:0:
243,253,18873,1,8,0:0:0:0:
239,239,18946,1,8,0:0:0:0:
235,225,19020,2,0,P|251:125|264:32,1,190,6|0,1:0|1:0,0:0:0:0:
86,107,19459,2,0,P|133:98|188:90,1,95,10|0,1:2|1:0,0:0:0:0:
325,207,19751,2,0,P|372:199|419:192,1,95,10|0,1:2|1:0,0:0:0:0:
78,327,20044,2,0,P|125:318|180:310,1,95,10|0,1:2|1:0,0:0:0:0:
404,346,20337,5,10,1:2:0:0:
193,222,20483,1,0,1:0:0:0:
430,177,20629,5,10,1:2:0:0:
172,300,20776,1,0,1:0:0:0:
485,276,20922,5,10,1:2:0:0:
209,144,21068,1,0,1:0:0:0:
495,283,21215,1,10,1:2:0:0:
199,134,21361,6,0,P|293:121|400:104,1,190,6|0,1:2|1:0,0:0:0:0:
103,323,21800,2,0,P|116:277|129:223,1,95,10|0,1:2|1:0,0:0:0:0:
284,156,22093,2,0,P|297:110|310:56,1,95,10|0,1:2|1:0,0:0:0:0:
382,361,22385,2,0,P|395:315|408:261,1,95,10|0,1:2|1:0,0:0:0:0:
222,38,22678,5,10,1:2:0:0:
336,227,22824,1,0,1:0:0:0:
369,8,22971,5,10,1:2:0:0:
249,254,23117,1,0,1:0:0:0:
111,19,23263,1,10,1:2:0:0:
202,155,23410,5,8,1:2:0:0:
187,151,23483,1,8,0:0:0:0:
173,147,23556,1,8,0:0:0:0:
159,143,23629,1,8,0:0:0:0:
145,139,23703,2,0,P|133:237|121:340,1,190,6|0,1:2|1:0,0:0:0:0:
359,93,24142,2,0,P|312:101|265:108,1,95,10|0,1:2|1:0,0:0:0:0:
98,233,24434,2,0,P|51:241|4:248,1,95,10|0,1:2|1:0,0:0:0:0:
381,322,24727,2,0,P|334:330|287:337,1,95,10|0,1:2|1:0,0:0:0:0:
111,50,25020,5,10,1:2:0:0:
318,169,25166,1,0,1:0:0:0:
93,216,25312,5,10,1:2:0:0:
353,103,25459,1,0,1:0:0:0:
107,34,25605,5,10,1:2:0:0:
417,142,25751,1,0,1:0:0:0:
145,273,25898,1,10,1:2:0:0:
430,134,26044,6,0,P|337:152|225:169,1,190,6|0,1:2|1:0,0:0:0:0:
4,126,26483,2,0,P|10:173|21:227,1,95,10|0,1:2|1:0,0:0:0:0:
172,275,26776,2,0,P|178:322|189:376,1,95,10|0,1:2|1:0,0:0:0:0:
326,106,27068,2,0,P|332:153|343:207,1,95,10|0,1:2|1:0,0:0:0:0:
29,28,27361,5,8,1:2:0:0:
70,17,27434,1,8,0:3:0:0:
112,23,27507,1,0,1:0:0:0:
144,50,27581,1,0,1:0:0:0:
166,86,27654,1,4,0:3:0:0:
198,114,27727,1,8,0:3:0:0:
236,131,27800,1,0,1:0:0:0:
278,132,27873,1,0,1:0:0:0:
315,111,27946,6,0,P|319:89|324:63,1,47.5,8|0,1:2|0:0,0:0:0:0:
484,20,28093,2,0,P|474:67|464:130,1,95,2|2,1:3|1:2,0:0:0:0:
512,234,28385,6,0,P|438:249|362:292,1,152,6|0,1:0|0:0,0:0:0:0:
308,337,28824,1,0,1:0:0:0:
308,337,28971,1,2,0:0:0:0:
212,379,29117,2,0,P|228:306|247:217,1,152,2|0,1:2|1:0,0:0:0:0:
265,136,29556,1,2,0:0:0:0:
174,169,29703,6,0,P|117:189|10:210,1,152,2|0,1:2|1:0,0:0:0:0:
105,273,30142,1,2,0:0:0:0:
70,125,30288,2,0,P|63:89|52:40,2,76,2|2|2,1:2|0:0|1:2,0:0:0:0:
143,18,30727,6,0,P|198:39|271:51,1,114,10|0,1:2|0:0,0:0:0:0:
325,15,31020,2,0,P|349:18|374:24,1,38,10|0,1:2|0:0,0:0:0:0:
423,79,31166,1,2,1:2:0:0:
423,79,31312,1,2,0:0:0:0:
492,20,31459,6,0,B|494:105|458:82|460:167,1,152,2|2,1:2|1:2,0:0:0:0:
487,374,32044,2,0,P|497:334|499:295,1,76,2|0,1:2|0:0,0:0:0:0:
443,246,32263,1,2,0:0:0:0:
443,246,32337,2,0,P|394:264|357:263,1,76,2|2,1:2|0:0,0:0:0:0:
290,330,32629,2,0,P|326:349|376:345,2,76,2|2|2,1:2|0:0|1:2,0:0:0:0:
203,365,33068,6,0,P|192:303|172:223,1,114,10|0,1:2|0:0,0:0:0:0:
120,200,33361,2,0,P|112:175|109:159,1,38,8|0,1:2|0:0,0:0:0:0:
163,104,33507,1,0,1:0:0:0:
163,104,33654,1,2,0:0:0:0:
232,34,33800,6,0,P|157:55|67:69,1,152,2|0,1:2|1:0,0:0:0:0:
0,17,34239,1,2,0:0:0:0:
32,130,34385,2,0,P|21:203|10:292,1,152,2|0,1:2|1:0,0:0:0:0:
63,374,34824,1,2,0:0:0:0:
170,268,34971,2,0,P|162:305|154:368,2,76,2|2|2,1:2|0:0|1:2,0:0:0:0:
127,166,35410,6,0,B|189:170|181:149|246:152,1,114,10|0,1:2|0:0,0:0:0:0:
308,192,35703,2,0,P|303:213|298:245,1,38,10|0,1:2|0:0,0:0:0:0:
289,307,35849,1,2,1:2:0:0:
289,307,35995,1,2,0:0:0:0:
341,380,36142,2,0,P|422:349|503:330,1,152,2|2,1:2|1:0,0:0:0:0:
501,208,36581,6,0,P|425:172|424:129,1,128.25,14|0,1:2|0:0,0:0:0:0:
394,54,36873,1,8,0:0:0:0:
380,71,36946,1,8,0:0:0:0:
368,88,37020,1,8,1:2:0:0:
153,111,37166,1,8,0:0:0:0:
169,134,37239,1,8,0:0:0:0:
183,159,37312,1,8,1:2:0:0:
263,94,37459,6,0,L|279:39,1,42.75,4|8,0:3|0:3,0:0:0:0:
142,266,37605,2,0,L|158:320,1,42.75,4|0,0:3|1:0,0:0:0:0:
265,214,37751,6,0,P|148:185|82:172,1,171,6|0,1:0|1:0,0:0:0:0:
0,65,38190,1,8,1:2:0:0:
183,159,38337,1,2,0:0:0:0:
5,264,38483,2,0,P|46:255|151:347,1,171,2|8,1:2|1:2,0:0:0:0:
44,377,38922,1,2,0:0:0:0:
238,258,39068,6,0,P|230:300|223:354,1,85.5000000000001,2|0,1:2|1:0,0:0:0:0:
356,176,39361,2,0,P|361:133|369:91,1,85.5000000000001,8|2,1:2|0:0,0:0:0:0:
164,163,39654,1,2,1:2:0:0:
341,267,39800,1,0,1:0:0:0:
361,261,39873,1,2,0:0:0:0:
381,256,39946,1,8,1:2:0:0:
298,72,40093,6,0,P|398:50|454:31,1,128.25,2|0,1:2|0:0,0:0:0:0:
512,18,40385,2,0,P|503:47|495:88,1,42.75,2|0,1:2|0:0,0:0:0:0:
512,207,40532,2,0,P|447:173|428:165,1,85.5000000000001,10|2,1:2|0:0,0:0:0:0:
293,315,40824,2,0,P|364:325|392:284,1,128.25,2|0,1:0|0:0,0:0:0:0:
338,220,41117,2,0,P|347:180|358:131,1,85.5000000000001,10|0,1:2|0:0,0:0:0:0:
123,57,41410,5,2,1:2:0:0:
259,195,41556,1,2,1:2:0:0:
62,163,41703,1,10,1:2:0:0:
249,79,41849,1,2,0:0:0:0:
149,249,41995,2,0,P|155:209|163:153,1,85.5000000000001,2|2,1:2|1:2,0:0:0:0:
309,313,42288,1,10,1:2:0:0:
145,364,42434,6,0,P|92:345|12:325,1,128.25,2|0,1:2|0:0,0:0:0:0:
6,255,42727,2,0,P|2:229|4:198,1,42.75,2|0,1:2|0:0,0:0:0:0:
35,74,42873,2,0,P|90:89|137:99,1,85.5000000000001,8|2,1:2|0:0,0:0:0:0:
308,200,43166,2,0,B|299:100|345:144|337:35,1,171,2|8,1:2|1:2,0:0:0:0:
246,77,43605,1,2,0:0:0:0:
400,179,43751,6,0,P|447:162|485:151,1,85.5000000000001,2|0,1:2|1:0,0:0:0:0:
269,278,44044,2,0,P|222:261|184:250,1,85.5000000000001,8|2,1:2|0:0,0:0:0:0:
398,372,44337,1,2,1:2:0:0:
306,205,44483,1,2,1:2:0:0:
224,377,44629,1,10,1:2:0:0:
431,289,44776,6,0,P|410:228|389:146,1,128.25,2|0,1:2|0:0,0:0:0:0:
414,87,45068,2,0,P|369:78|357:68,1,42.75,2|0,1:2|0:0,0:0:0:0:
262,2,45215,2,0,P|255:48|246:98,1,85.5000000000001,10|2,1:2|0:0,0:0:0:0:
87,171,45507,2,0,P|150:177|184:243,1,128.25,2|0,1:2|0:0,0:0:0:0:
186,303,45800,1,10,1:2:0:0:
30,380,45946,6,0,P|40:335|52:278,1,85.5000000000001,6|0,1:2|0:0,0:0:0:0:
164,101,46239,1,0,1:2:0:0:
193,315,46385,1,8,1:2:0:0:
13,208,46532,1,8,0:3:0:0:
8,186,46605,1,4,0:3:0:0:
2,165,46678,1,0,1:0:0:0:
290,84,46824,5,8,0:0:0:0:
284,113,46898,1,8,0:0:0:0:
278,142,46971,1,8,1:2:0:0:
272,171,47044,1,0,1:0:0:0:
266,200,47117,2,0,P|373:173|448:159,1,171,4|2,1:0|3:2,0:0:0:0:
175,84,47556,2,0,P|134:71|79:56,1,85.5000000000001,10|2,0:0|3:2,0:0:0:0:
191,259,47849,1,0,1:0:0:0:
290,84,47995,1,2,3:2:0:0:
78,206,48142,1,10,1:2:0:0:
292,316,48288,6,0,P|302:271|310:226,1,85.5000000000001,2|0,3:2|1:0,0:0:0:0:
106,301,48581,2,0,P|95:345|83:389,1,85.5000000000001,2|8,3:2|1:2,0:0:0:0:
256,165,48873,2,0,P|266:114|273:71,1,85.5000000000001,2|0,3:2|1:0,0:0:0:0:
79,196,49166,1,2,3:2:0:0:
350,139,49312,1,8,1:2:0:0:
199,16,49459,6,0,P|182:104|164:189,1,171,2|0,3:2|3:0,0:0:0:0:
13,136,49898,2,0,P|59:112|114:119,1,85.5000000000001,10|0,1:2|3:0,0:0:0:0:
242,249,50190,1,2,1:2:0:0:
10,328,50337,1,0,3:0:0:0:
163,166,50483,1,10,1:2:0:0:
227,384,50629,6,0,P|249:295|262:245,1,128.25,2|0,3:2|0:0,0:0:0:0:
279,183,50922,1,2,3:2:0:0:
368,378,51068,1,10,1:2:0:0:
140,285,51215,1,2,3:2:0:0:
371,175,51361,2,0,P|383:217|397:263,1,85.5000000000001,2|0,1:2|3:0,0:0:0:0:
512,168,51654,1,8,1:2:0:0:
390,59,51800,6,0,B|289:49|318:98|219:86,1,171,6|2,1:2|1:2,0:0:0:0:
55,37,52239,2,0,P|68:77|81:123,1,85.5000000000001,10|2,1:2|3:2,0:0:0:0:
246,253,52532,2,0,P|256:212|272:167,1,85.5000000000001,2|0,1:2|3:0,0:0:0:0:
66,289,52824,1,10,1:2:0:0:
270,369,52971,6,0,P|365:324|445:305,1,171,6|2,1:2|1:2,0:0:0:0:
161,273,53410,2,0,P|138:319|150:355,1,85.5000000000001,10|2,1:2|3:2,0:0:0:0:
285,155,53703,2,0,P|248:145|191:126,1,85.5000000000001,2|0,1:2|3:0,0:0:0:0:
0,190,53995,1,8,1:2:0:0:
135,0,54142,6,0,B|151:107|96:63|106:166,1,170.999994781494,6|2,1:0|1:2,0:0:0:0:
349,266,54581,1,10,1:2:0:0:
212,58,54727,1,2,1:2:0:0:
128,298,54873,1,10,1:2:0:0:
360,135,55020,1,8,0:3:0:0:
365,105,55093,1,4,0:3:0:0:
370,75,55166,1,0,1:0:0:0:
376,45,55239,1,0,1:0:0:0:
382,15,55312,2,0,L|313:28,1,42.75,10|0,1:2|0:0,0:0:0:0:
457,215,55751,6,0,P|461:188|468:158,1,56.9999999999999,2|0,0:0|0:0,0:0:0:0:
379,325,56044,2,0,P|374:351|368:380,2,56.9999999999999,2|0|2,0:0|0:0|0:0,0:0:0:0:
512,322,56483,6,0,P|413:291|304:267,1,209,6|2,1:0|1:2,0:0:0:0:
79,172,56922,2,0,P|147:158|183:144,1,104.5,10|2,1:2|3:2,0:0:0:0:
10,339,57215,1,2,1:2:0:0:
250,223,57361,1,2,3:2:0:0:
0,124,57507,1,8,1:2:0:0:
183,371,57654,6,0,P|175:319|165:265,1,104.5,2|0,3:2|1:0,0:0:0:0:
394,137,57946,2,0,P|384:187|376:243,1,104.5,2|8,3:2|1:2,0:0:0:0:
130,61,58239,2,0,P|178:55|236:43,1,104.5,2|0,3:2|1:0,0:0:0:0:
458,260,58532,1,2,3:2:0:0:
250,157,58678,1,10,1:2:0:0:
512,85,58824,6,0,P|421:65|338:27,1,156.75,2|0,3:2|0:0,0:0:0:0:
298,4,59117,1,2,3:2:0:0:
150,160,59263,2,0,P|211:145|265:139,1,104.5,10|2,1:2|3:2,0:0:0:0:
383,367,59556,1,2,1:2:0:0:
147,255,59703,1,2,3:2:0:0:
394,149,59849,1,10,1:2:0:0:
229,374,59995,6,0,L|177:364,1,52.25,2|0,1:3|0:0,0:0:0:0:
365,289,60288,6,0,L|313:279,1,52.25,2|0,1:3|0:0,0:0:0:0:
505,210,60581,6,0,L|453:200,1,52.25,2|0,1:3|0:0,0:0:0:0:
453,200,60873,1,2,1:3:0:0:
205,200,61020,1,8,0:0:0:0:
392,76,61166,6,0,P|372:173|348:283,1,209,4|2,1:2|3:2,0:0:0:0:
144,362,61605,2,0,P|107:319|119:274,1,104.5,10|0,1:2|3:0,0:0:0:0:
292,161,61898,2,0,P|235:187|175:182,1,104.5,2|0,1:2|3:0,0:0:0:0:
0,85,62190,1,10,1:2:0:0:
136,0,62337,6,0,P|126:50|116:108,1,104.5,2|0,3:2|1:0,0:0:0:0:
260,277,62629,2,0,P|268:225|279:174,1,104.5,2|8,3:2|1:2,0:0:0:0:
469,29,62922,2,0,P|459:79|449:137,1,104.5,2|0,3:2|1:0,0:0:0:0:
284,71,63215,1,2,3:2:0:0:
512,180,63361,1,8,1:2:0:0:
340,258,63507,6,0,P|430:265|475:344,1,156.75,2|0,3:2|0:0,0:0:0:0:
441,379,63800,1,2,3:2:0:0:
201,273,63946,1,10,1:2:0:0:
442,151,64093,1,2,3:2:0:0:
272,366,64239,1,4,1:3:0:0:
188,109,64385,1,8,1:3:0:0:
218,114,64459,1,0,1:3:0:0:
248,120,64532,1,10,1:2:0:0:
102,255,64678,6,2,P|52:244|-16:231,1,104.5,6|2,1:2|0:0,0:0:0:0:
220,201,64971,1,8,0:3:0:0:
250,206,65044,1,8,0:0:0:0:
280,212,65117,1,8,1:2:0:0:
210,26,65263,1,4,0:3:0:0:
180,20,65337,1,8,0:0:0:0:
150,15,65410,1,10,1:2:0:0:
340,93,65556,6,0,L|355:38,1,52.25,6|0,1:2|0:0,0:0:0:0:
94,124,65703,2,0,L|80:174,1,52.25,2|0,1:3|0:0,0:0:0:0:
203,310,65849,6,0,P|303:284|420:260,1,209,4|2,1:0|1:2,0:0:0:0:
512,141,66288,2,0,P|461:129|412:111,1,104.5,10|0,1:2|3:0,0:0:0:0:
206,13,66581,1,2,1:2:0:0:
336,238,66727,1,2,3:2:0:0:
421,0,66873,1,10,1:2:0:0:
172,133,67020,6,0,P|184:183|195:234,1,104.5,2|0,3:2|1:0,0:0:0:0:
383,364,67312,2,0,P|394:313|406:263,1,104.5,2|8,3:2|1:2,0:0:0:0:
103,208,67605,2,0,P|115:258|126:309,1,104.5,2|0,3:2|1:0,0:0:0:0:
297,131,67898,1,2,3:2:0:0:
34,274,68044,1,10,1:2:0:0:
277,374,68190,6,0,B|297:286|252:317|278:218,1,156.75,2|0,3:2|0:0,0:0:0:0:
295,144,68483,1,2,3:2:0:0:
506,232,68629,2,0,P|454:251|394:263,1,104.5,10|2,1:2|3:2,0:0:0:0:
187,163,68922,1,2,1:2:0:0:
438,77,69068,1,2,3:2:0:0:
291,302,69215,1,10,1:2:0:0:
158,63,69361,6,0,L|168:11,1,52.25,2|0,1:3|0:0,0:0:0:0:
183,220,69654,6,0,L|193:168,1,52.25,2|0,1:3|0:0,0:0:0:0:
195,380,69946,6,0,L|205:328,1,52.25,2|0,1:3|0:0,0:0:0:0:
204,328,70239,1,2,1:3:0:0:
251,120,70385,1,8,0:0:0:0:
23,165,70532,6,0,P|111:206|242:236,1,209,4|0,1:2|3:0,0:0:0:0:
157,81,70971,1,8,1:2:0:0:
63,308,71117,1,2,3:2:0:0:
324,220,71263,2,0,P|331:171|345:97,1,104.5,2|2,1:2|3:2,0:0:0:0:
138,215,71556,1,10,1:2:0:0:
397,289,71703,6,0,P|411:192|433:70,1,209,2|0,3:2|3:0,0:0:0:0:
237,163,72142,1,8,1:2:0:0:
489,261,72288,1,2,3:2:0:0:
348,46,72434,1,2,1:2:0:0:
245,288,72581,1,2,1:3:0:0:
503,169,72727,1,8,1:2:0:0:
194,67,72873,6,0,P|212:134|222:181,1,104.5,6|0,1:2|0:0,0:0:0:0:
362,42,73166,1,8,1:2:0:0:
68,174,73312,1,8,1:2:0:0:
402,249,73459,5,8,1:2:0:0:
99,59,73605,1,8,1:2:0:0:
464,8,73751,5,8,1:2:0:0:
136,131,73898,1,8,1:2:0:0:
416,257,74044,6,0,L|406:188,1,52.25,8|0,1:2|0:0,0:0:0:0:
463,369,74776,5,2,0:0:0:0:
418,353,74849,1,2,0:0:0:0:
370,348,74922,1,2,0:0:0:0:
323,354,74995,1,2,0:0:0:0:
280,372,75068,1,2,0:0:0:0:
233,375,75142,1,2,0:0:0:0:
191,363,75215,6,0,P|207:268|222:174,1,190,4|0,1:0|1:0,0:0:0:0:
115,0,75654,2,0,P|108:48|98:103,1,95,10|0,1:2|0:0,0:0:0:0:
362,85,75946,1,2,1:2:0:0:
322,77,76020,1,2,1:2:0:0:
280,69,76093,1,0,1:0:0:0:
238,60,76166,1,2,1:2:0:0:
195,52,76239,1,10,1:2:0:0:
328,233,76385,6,0,P|439:199|521:186,1,190,6|0,1:2|1:0,0:0:0:0:
302,330,76824,2,0,P|246:306|230:253,1,95,10|0,1:2|0:0,0:0:0:0:
451,280,77117,1,2,1:2:0:0:
447,304,77190,1,2,1:2:0:0:
443,328,77263,1,2,1:2:0:0:
438,351,77337,1,0,1:0:0:0:
434,375,77410,1,8,1:2:0:0:
256,193,77556,6,0,B|276:81|229:121|251:6,1,190,6|0,1:2|1:0,0:0:0:0:
80,177,77995,2,0,P|151:160|179:146,1,95,10|0,1:2|0:0,0:0:0:0:
394,19,78288,1,2,1:2:0:0:
387,58,78361,1,2,1:2:0:0:
382,98,78434,1,0,1:0:0:0:
377,141,78507,1,2,1:2:0:0:
372,182,78581,1,10,1:2:0:0:
273,376,78727,6,0,P|280:327|292:259,1,95,4|0,1:2|0:0,0:0:0:0:
91,197,79020,1,2,1:2:0:0:
127,206,79093,1,2,1:2:0:0:
164,215,79166,1,10,1:2:0:0:
371,259,79312,1,2,1:2:0:0:
172,341,79459,1,8,0:3:0:0:
293,162,79605,1,0,1:0:0:0:
350,369,79751,1,10,1:2:0:0:
469,190,79898,6,0,B|471:82|418:124|422:9,1,190,6|0,1:0|1:0,0:0:0:0:
282,141,80337,2,0,P|335:155|375:172,1,95,10|0,1:2|0:0,0:0:0:0:
512,298,80629,1,2,1:2:0:0:
469,306,80703,1,2,1:2:0:0:
427,314,80776,1,0,1:0:0:0:
382,323,80849,1,2,1:2:0:0:
338,331,80922,1,10,1:2:0:0:
134,266,81068,6,0,P|222:276|248:378,1,190,6|0,1:2|1:0,0:0:0:0:
10,347,81507,2,0,P|26:282|33:236,1,95,10|0,1:2|0:0,0:0:0:0:
122,19,81800,1,2,1:2:0:0:
126,43,81873,1,2,1:2:0:0:
130,67,81946,1,2,1:2:0:0:
135,90,82020,1,0,1:0:0:0:
139,114,82093,1,8,1:2:0:0:
0,152,82239,6,0,P|93:181|198:192,1,190,6|0,1:2|1:0,0:0:0:0:
327,58,82678,2,0,P|245:77|215:76,1,95,10|0,1:2|0:0,0:0:0:0:
374,317,82971,1,2,1:2:0:0:
381,275,83044,1,2,1:0:0:0:
388,232,83117,1,8,0:0:0:0:
394,188,83190,1,10,0:0:0:0:
401,145,83263,1,10,0:0:0:0:
156,320,83410,6,0,P|172:225|187:131,1,190,2|0,1:3|1:0,0:0:0:0:
181,116,83776,1,0,0:0:0:0:
174,102,83849,2,0,P|221:91|247:90,1,47.5,12|0,1:2|0:0,0:0:0:0:
431,162,83995,1,0,1:0:0:0:
154,223,84142,1,10,1:2:0:0:
338,36,84288,5,10,1:2:0:0:
332,78,84361,1,8,1:2:0:0:
325,119,84434,1,10,1:2:0:0:
319,161,84507,1,8,1:2:0:0:
312,205,84581,2,2,B|341:238|340:283|298:312|298:312|269:287|217:283|163:324|149:370|149:370|73:340|58:255|114:222|114:222|143:251|196:246|211:194|211:194|239:223|278:222|298:207,1,712.500027179719,4|0,1:0|0:0,0:1:0:0:
