osu file format v14

[General]
AudioFilename: audio.mp3
AudioLeadIn: 0
PreviewTime: 55678
Countdown: 0
SampleSet: Soft
StackLeniency: 0.7
Mode: 0
LetterboxInBreaks: 0
WidescreenStoryboard: 1

[Editor]
DistanceSpacing: 1
BeatDivisor: 2
GridSize: 8
TimelineZoom: 1.9

[Metadata]
Title:Zetsubousei: Hero Chiryouyaku (TV Size)
TitleUnicode:絶望性:ヒーロー治療薬 (TV Size)
Artist:suzumu feat. soraru
ArtistUnicode:スズム feat. そらる
Creator:Desire Blue sky
Version:Normal
Source:ダンガンロンパ The Animation
Tags:supav shirokumocha kumocha yuuma2 adinda raja kaine vinxis mishima yurara payney dooe -doodle anime japanese electronic ending ed danganronpa 希望の学園と絶望の高校生 kibou no gakuen to zetsubou no koukousei dangan ronpa male utaite rock j-rock jrock
BeatmapID:3768810
BeatmapSetID:1833202

[Difficulty]
HPDrainRate:3
CircleSize:3
OverallDifficulty:4.5
ApproachRate:6
SliderMultiplier:1
SliderTickRate:1

[Events]
//Background and Video events
0,0,"syo.jpg",0,0
//Break Periods
//Storyboard Layer 0 (Background)
//Storyboard Layer 1 (Fail)
//Storyboard Layer 2 (Pass)
//Storyboard Layer 3 (Foreground)
//Storyboard Layer 4 (Overlay)
//Storyboard Sound Samples

[TimingPoints]
-736,292.682926829268,4,2,2,40,1,0
8483,-111.111111111111,4,2,1,50,0,0
9215,-111.111111111111,4,2,1,60,0,0
9654,-100,4,2,1,70,0,0
18727,-100,4,2,1,40,0,0
18800,-100,4,2,1,50,0,0
18873,-100,4,2,1,60,0,0
18946,-100,4,2,1,70,0,0
19020,-100,4,2,2,70,0,0
19166,-100,4,2,1,70,0,0
19459,-100,4,2,1,70,0,0
23409,-100,4,2,1,40,0,0
23483,-100,4,2,1,50,0,0
23555,-100,4,2,1,60,0,0
23629,-100,4,2,1,70,0,0
23703,-100,4,2,1,70,0,0
28385,-111.111111111111,4,2,1,60,0,0
28532,-111.111111111111,4,2,1,50,0,0
28677,-111.111111111111,4,2,1,50,0,0
30727,-111.111111111111,4,2,1,70,0,0
30873,-111.111111111111,4,2,1,50,0,0
31020,-111.111111111111,4,2,1,70,0,0
31166,-111.111111111111,4,2,1,50,0,0
33068,-111.111111111111,4,2,1,70,0,0
33214,-111.111111111111,4,2,1,50,0,0
33361,-111.111111111111,4,2,1,70,0,0
33507,-111.111111111111,4,2,1,50,0,0
35410,-111.111111111111,4,2,1,70,0,0
35556,-111.111111111111,4,2,1,50,0,0
35703,-111.111111111111,4,2,1,70,0,0
35849,-111.111111111111,4,2,1,50,0,0
36581,-111.111111111111,4,2,1,70,0,0
37751,-111.111111111111,4,2,2,60,0,0
37898,-111.111111111111,4,2,1,60,0,0
38043,-111.111111111111,4,2,1,60,0,0
45946,-111.111111111111,4,2,1,70,0,0
46824,-111.111111111111,4,2,1,50,0,0
46898,-111.111111111111,4,2,1,60,0,0
46971,-111.111111111111,4,2,1,70,0,0
47117,-111.111111111111,4,2,2,60,0,0
47263,-111.111111111111,4,2,1,60,0,0
47409,-111.111111111111,4,2,1,60,0,0
54142,-111.111111111111,4,2,2,70,0,0
54288,-111.111111111111,4,2,1,70,0,0
54434,-111.111111111111,4,2,1,70,0,0
55751,-111.111111111111,4,2,1,40,0,0
55898,-111.111111111111,4,2,1,50,0,0
56044,-111.111111111111,4,2,1,60,0,0
56190,-111.111111111111,4,2,1,70,0,0
56337,-111.111111111111,4,2,1,80,0,0
56483,-100,4,2,1,80,0,0
73165,-100,4,2,1,55,0,0
73312,-100,4,2,1,60,0,0
73459,-100,4,2,1,65,0,0
73605,-100,4,2,1,70,0,0
73751,-100,4,2,1,75,0,0
73898,-100,4,2,1,80,0,0
74776,-100,4,2,1,50,0,0
74849,-100,4,2,1,55,0,0
74922,-100,4,2,1,60,0,0
74995,-100,4,2,1,65,0,0
75068,-100,4,2,1,70,0,0
75142,-100,4,2,1,75,0,0
75214,-100,4,2,1,70,0,0
85020,-100,4,2,2,60,0,0
85312,-100,4,2,1,50,0,0
85605,-100,4,2,2,40,0,0
85898,-100,4,2,1,60,0,0
85971,-100,4,2,2,20,0,0
86044,-100,4,2,1,5,0,0

[Colours]
Combo1 : 123,184,244
Combo2 : 245,37,27
Combo3 : 170,114,239
Combo4 : 238,122,45

[HitObjects]
256,192,4971,12,0,8483,0:0:0:0:
405,57,9215,6,0,L|420:5,2,45.0000000000001,2|2|2,0:0|0:0|0:0,0:0:0:0:
427,101,9654,6,0,P|352:129|321:156,1,100,6|0,1:0|1:0,0:0:0:0:
309,182,10093,1,10,1:2:0:0:
283,278,10385,2,0,B|224:293|224:293|165:277,1,100,2|10,1:2|1:2,0:0:0:0:
136,274,10824,2,0,P|151:216|162:150,1,100,6|0,1:2|1:0,0:0:0:0:
123,140,11263,1,10,1:2:0:0:
122,39,11556,2,0,P|186:35|224:57,1,100,2|8,1:2|1:2,0:0:0:0:
260,75,11995,6,0,P|319:56|376:42,1,100,6|0,1:2|1:0,0:0:0:0:
398,72,12434,1,10,1:2:0:0:
482,125,12727,2,0,B|501:182|501:182|466:233,1,100,2|8,1:2|1:2,0:0:0:0:
443,251,13166,1,6,1:2:0:0:
365,313,13459,2,0,L|353:366,2,50,2|10|2,1:2|1:2|1:2,0:0:0:0:
329,277,13898,1,14,1:2:0:0:
233,286,14190,1,10,1:2:0:0:
233,286,14337,6,0,P|249:228|260:168,1,100,4|0,1:0|1:0,0:0:0:0:
232,144,14776,1,10,1:2:0:0:
236,44,15068,2,0,P|182:22|116:23,1,100,2|10,1:2|1:2,0:0:0:0:
92,32,15507,2,0,B|60:72|60:72|86:143,1,100,6|0,1:2|1:0,0:0:0:0:
89,166,15946,1,10,1:2:0:0:
63,262,16239,2,0,P|117:255|169:277,1,100,2|8,1:2|1:2,0:0:0:0:
195,304,16678,6,0,P|237:326|305:317,1,100,6|0,1:2|1:0,0:0:0:0:
335,306,17117,1,10,1:2:0:0:
429,274,17410,2,0,B|445:215|445:215|411:176,1,100,2|10,1:2|1:2,0:0:0:0:
381,153,17849,1,6,1:2:0:0:
322,71,18142,2,0,L|334:10,2,50,2|10|4,1:2|1:2|0:3,0:0:0:0:
276,92,18581,1,8,0:3:0:0:
184,72,18873,1,8,0:0:0:0:
184,72,19020,6,0,B|186:160|147:133|154:227,1,150,6|10,1:0|1:2,0:0:0:0:
129,313,19751,1,10,1:2:0:0:
213,366,20044,1,10,1:2:0:0:
292,305,20337,2,0,P|293:276|298:251,1,50,8|0,0:0|1:0,0:0:0:0:
276,209,20629,2,0,P|274:180|270:155,1,50,8|0,0:0|1:0,0:0:0:0:
296,115,20922,1,10,1:2:0:0:
396,146,21215,1,10,1:2:0:0:
396,146,21361,6,0,B|441:202|441:202|392:299,1,150,6|10,1:2|1:2,0:0:0:0:
371,365,22093,1,10,1:2:0:0:
283,317,22385,1,10,1:2:0:0:
204,379,22678,2,0,P|152:358|87:349,1,100,10|10,1:2|1:2,0:0:0:0:
17,310,23263,2,0,L|1:372,2,50,10|8|8,1:2|1:2|0:0,0:0:0:0:
46,269,23703,6,0,B|49:183|0:216|-1:122,1,150,6|10,1:2|1:2,0:0:0:0:
35,37,24434,1,10,1:2:0:0:
134,50,24727,1,10,1:2:0:0:
164,145,25020,2,0,P|195:140|219:137,1,50,8|0,0:0|1:0,0:0:0:0:
259,157,25312,2,0,P|290:162|314:165,1,50,8|0,0:0|1:0,0:0:0:0:
347,132,25605,1,10,1:2:0:0:
447,161,25898,1,10,1:2:0:0:
447,161,26044,6,0,P|505:119|491:42,1,150,6|10,1:2|1:2,0:0:0:0:
405,5,26776,1,10,1:2:0:0:
314,46,27068,1,10,1:2:0:0:
219,12,27361,2,0,P|235:63|246:132,1,100,8|4,1:2|0:3,0:0:0:0:
281,201,27946,2,0,L|345:233,2,50,8|2|2,1:2|1:3|1:2,0:0:0:0:
240,220,28385,6,0,P|199:258|148:250,1,90.0000000000001,6|0,1:0|0:0,0:0:0:0:
123,270,28824,1,0,1:0:0:0:
42,230,29117,2,0,P|23:172|49:124,1,90.0000000000001,2|0,1:2|1:0,0:0:0:0:
77,69,29703,2,0,P|137:57|186:34,1,90.0000000000001,2|0,1:2|1:0,0:0:0:0:
249,18,30288,2,0,B|271:57|271:57|246:118,1,90.0000000000001,2|2,1:2|1:2,0:0:0:0:
241,142,30727,6,0,P|263:201|269:245,1,90.0000000000001,10|10,1:2|1:2,0:0:0:0:
278,271,31166,1,2,1:2:0:0:
329,344,31459,2,0,P|381:338|433:293,1,90.0000000000001,2|2,1:2|1:2,0:0:0:0:
469,248,32044,1,2,1:2:0:0:
425,169,32337,1,2,1:2:0:0:
473,92,32629,2,0,P|414:79|358:52,1,90.0000000000001,2|2,1:2|1:2,0:0:0:0:
346,47,33068,6,0,B|288:34|288:34|237:59,1,90.0000000000001,10|8,1:2|1:2,0:0:0:0:
217,62,33507,1,0,1:0:0:0:
126,58,33800,2,0,P|143:119|153:173,1,90.0000000000001,2|0,1:2|1:0,0:0:0:0:
74,198,34385,2,0,P|61:251|53:298,1,90.0000000000001,2|0,1:2|1:0,0:0:0:0:
91,369,34971,2,0,P|150:350|174:309,1,90.0000000000001,2|2,1:2|1:2,0:0:0:0:
175,285,35410,6,0,P|221:246|276:241,1,90.0000000000001,10|10,1:2|1:2,0:0:0:0:
290,257,35849,1,2,1:2:0:0:
364,206,36142,2,0,P|349:143|342:104,1,90.0000000000001,2|2,1:2|1:0,0:0:0:0:
333,74,36581,2,0,B|294:58|294:58|231:80,1,90.0000000000001,14|8,1:2|0:0,0:0:0:0:
208,94,37020,1,8,1:2:0:0:
154,166,37312,1,8,1:2:0:0:
218,236,37605,1,4,0:3:0:0:
218,236,37751,6,0,P|276:248|328:271,1,90.0000000000001,6|0,1:0|1:0,0:0:0:0:
343,282,38190,1,8,1:2:0:0:
409,342,38483,2,0,P|363:365|306:369,1,90.0000000000001,2|8,1:2|1:2,0:0:0:0:
284,373,38922,1,2,0:0:0:0:
284,373,39068,2,0,P|214:353|173:352,1,90.0000000000001,2|8,1:2|1:2,0:0:0:0:
109,370,39654,2,0,P|52:340|47:301,1,90.0000000000001,2|8,1:2|1:2,0:0:0:0:
66,279,40093,6,0,P|54:212|37:170,1,90.0000000000001,2|2,1:2|1:2,0:0:0:0:
23,152,40532,1,10,1:2:0:0:
20,61,40824,2,0,P|79:79|141:87,1,90.0000000000001,2|10,1:0|1:2,0:0:0:0:
172,21,41410,1,2,1:2:0:0:
237,82,41703,1,10,1:2:0:0:
175,147,41995,2,0,P|192:207|201:250,1,90.0000000000001,2|10,1:2|1:2,0:0:0:0:
216,275,42434,6,0,P|266:301|312:284,1,90.0000000000001,2|2,1:2|1:2,0:0:0:0:
338,278,42873,1,8,1:2:0:0:
427,284,43166,2,0,P|404:223|399:182,1,90.0000000000001,2|8,1:2|1:2,0:0:0:0:
401,157,43605,1,2,0:0:0:0:
401,157,43751,2,0,B|406:113|406:113|381:69,1,90.0000000000001,2|8,1:2|1:2,0:0:0:0:
305,29,44337,2,0,P|251:7|206:-2,1,90.0000000000001,2|10,1:2|1:2,0:0:0:0:
175,5,44776,6,0,P|140:57|155:96,1,90.0000000000001,2|2,1:2|1:2,0:0:0:0:
173,114,45215,1,10,1:2:0:0:
231,182,45507,2,0,P|181:211|153:242,1,90.0000000000001,2|10,1:2|1:2,0:0:0:0:
147,277,45946,2,0,P|95:278|62:241,1,90.0000000000001,6|0,1:2|1:2,0:0:0:0:
50,212,46385,1,8,1:2:0:0:
50,121,46678,2,0,P|36:81|29:66,1,45.0000000000001,0|8,1:0|0:0,0:0:0:0:
16,44,46971,1,8,1:2:0:0:
16,44,47117,6,0,P|68:31|111:15,1,90.0000000000001,4|2,1:0|3:2,0:0:0:0:
145,7,47556,1,10,0:0:0:0:
226,43,47849,2,0,B|296:41|284:13|372:12,1,135,0|2,1:0|3:2,0:0:0:0:
438,49,48581,1,2,3:2:0:0:
392,126,48873,2,0,P|337:136|298:149,1,90.0000000000001,2|2,3:2|3:2,0:0:0:0:
226,191,49459,6,0,P|212:256|296:269,1,135,2|10,3:2|1:2,0:0:0:0:
347,319,50190,2,0,P|360:257|373:220,1,90.0000000000001,2|10,1:2|1:2,0:0:0:0:
407,208,50629,2,0,P|390:147|384:112,1,90.0000000000001,2|2,3:2|3:2,0:0:0:0:
365,80,51068,1,10,1:2:0:0:
301,15,51361,2,0,P|239:23|213:62,1,90.0000000000001,2|8,1:2|1:2,0:0:0:0:
205,83,51800,6,0,P|151:70|106:65,1,90.0000000000001,6|2,1:2|1:2,0:0:0:0:
72,54,52239,1,10,1:2:0:0:
20,127,52532,2,0,P|45:176|58:220,1,90.0000000000001,2|10,1:2|1:2,0:0:0:0:
82,245,52971,2,0,P|61:297|50:340,1,90.0000000000001,6|2,1:2|1:2,0:0:0:0:
40,373,53410,1,10,1:2:0:0:
128,357,53703,2,0,B|185:346|185:346|234:367,1,90.0000000000001,2|8,1:2|1:2,0:0:0:0:
256,373,54142,6,0,P|305:350|354:343,1,90.0000000000001,6|2,1:0|1:2,0:0:0:0:
384,335,54581,1,10,1:2:0:0:
474,332,54873,2,0,P|459:301|455:273,1,45.0000000000001,10|8,1:2|0:3,0:0:0:0:
456,249,55166,1,0,1:0:0:0:
456,249,55312,1,10,1:2:0:0:
138,5,56483,6,0,P|160:71|172:123,1,100,6|2,1:0|1:2,0:0:0:0:
147,146,56922,1,10,1:2:0:0:
119,241,57215,2,0,P|149:231|179:227,1,50,2|2,1:2|3:2,0:0:0:0:
208,265,57507,1,8,1:2:0:0:
208,265,57654,2,0,P|268:261|300:205,1,100,2|2,3:2|3:2,0:0:0:0:
236,150,58239,1,2,3:2:0:0:
306,78,58532,2,0,P|339:70|367:61,1,50,2|10,3:2|1:2,0:0:0:0:
403,53,58824,6,0,B|428:102|428:102|394:166,1,100,2|2,3:2|3:2,0:0:0:0:
378,182,59263,1,10,1:2:0:0:
440,260,59556,2,0,P|430:314|378:347,1,100,2|10,1:2|1:2,0:0:0:0:
354,367,59995,1,2,1:3:0:0:
254,377,60288,1,2,1:3:0:0:
204,290,60581,1,2,1:3:0:0:
276,221,60873,2,0,P|268:194|257:165,1,50,2|8,1:3|0:0,0:0:0:0:
241,127,61166,6,0,P|188:150|119:157,1,100,4|2,1:2|3:2,0:0:0:0:
96,150,61605,1,10,1:2:0:0:
26,221,61898,2,0,P|93:237|119:280,1,100,2|10,1:2|1:2,0:0:0:0:
130,305,62337,1,2,3:2:0:0:
195,380,62629,1,2,3:2:0:0:
292,358,62922,2,0,B|311:313|311:313|286:251,1,100,2|2,3:2|3:2,0:0:0:0:
250,174,63507,6,0,P|290:142|347:125,1,100,2|2,3:2|3:2,0:0:0:0:
380,102,63946,1,10,1:2:0:0:
473,66,64239,2,0,P|460:103|460:126,1,50,4|8,1:3|1:3,0:0:0:0:
470,167,64532,1,10,1:2:0:0:
470,167,64678,2,2,P|498:224|461:283,1,100,6|8,1:2|0:3,0:0:0:0:
470,303,65117,1,8,1:2:0:0:
375,335,65410,2,0,L|395:391,2,50,10|6|2,1:2|1:2|1:3,0:0:0:0:
327,319,65849,6,0,P|341:265|351:201,1,100,4|2,1:0|1:2,0:0:0:0:
315,183,66288,1,10,1:2:0:0:
221,146,66581,2,0,P|197:109|191:92,1,50,2|2,1:2|3:2,0:0:0:0:
213,59,66873,1,10,1:2:0:0:
213,59,67020,2,0,B|260:40|260:40|322:60,1,100,2|2,3:2|3:2,0:0:0:0:
402,23,67605,1,2,3:2:0:0:
482,82,67898,2,0,P|472:112|465:136,1,50,2|10,3:2|1:2,0:0:0:0:
434,167,68190,6,0,P|451:230|458:293,1,100,2|2,3:2|3:2,0:0:0:0:
429,307,68629,1,10,1:2:0:0:
336,344,68922,2,0,P|282:341|222:362,1,100,2|10,1:2|1:2,0:0:0:0:
191,370,69361,1,2,1:3:0:0:
93,347,69654,1,2,1:3:0:0:
118,250,69946,1,2,1:3:0:0:
215,274,70239,2,0,P|254:252|271:235,1,50,2|8,1:3|0:0,0:0:0:0:
297,218,70532,6,0,P|280:167|276:102,1,100,4|0,1:2|3:0,0:0:0:0:
287,72,70971,1,8,1:2:0:0:
205,14,71263,2,0,P|151:32|96:39,1,100,2|10,1:2|1:2,0:0:0:0:
59,48,71703,2,0,P|84:103|94:158,1,100,2|0,3:2|3:0,0:0:0:0:
66,184,72142,1,8,1:2:0:0:
15,270,72434,2,0,B|72:285|72:285|124:266,1,100,2|8,1:2|1:2,0:0:0:0:
157,253,72873,6,0,P|218:267|249:308,1,100,6|8,1:2|1:2,0:0:0:0:
258,340,73312,1,8,1:2:0:0:
356,321,73605,2,0,P|351:282|352:257,1,50,8|8,0:0|0:0,0:0:0:0:
339,227,73898,1,8,1:2:0:0:
339,227,74044,1,8,1:2:0:0:
116,113,74776,2,0,L|98:168,2,50,2|2|2,0:0|0:0|0:0,0:0:0:0:
87,71,75215,6,0,P|151:48|184:23,1,100,4|0,1:0|1:0,0:0:0:0:
226,28,75654,1,10,1:2:0:0:
326,30,75946,2,0,P|380:57|373:127,1,100,2|10,1:2|1:2,0:0:0:0:
379,141,76385,2,0,P|399:201|408:244,1,100,6|0,1:2|1:0,0:0:0:0:
388,283,76824,1,10,1:2:0:0:
420,377,77117,2,0,P|357:358|309:361,1,100,2|8,1:2|1:2,0:0:0:0:
274,369,77556,6,0,P|242:319|261:271,1,100,6|0,1:2|1:0,0:0:0:0:
277,240,77995,1,10,1:2:0:0:
234,149,78288,2,0,B|186:136|186:136|118:156,1,100,2|10,1:2|1:2,0:0:0:0:
97,180,78727,1,4,1:2:0:0:
37,260,79020,2,0,L|-12:222,2,50,2|10|2,1:2|1:2|1:2,0:0:0:0:
85,274,79459,1,8,0:3:0:0:
183,243,79751,1,10,1:2:0:0:
183,243,79898,6,0,P|171:308|163:364,1,100,6|0,1:0|1:0,0:0:0:0:
202,375,80337,1,10,1:2:0:0:
301,365,80629,2,0,P|361:335|412:336,1,100,2|10,1:2|1:2,0:0:0:0:
438,353,81068,2,0,P|483:323|486:264,1,100,6|0,1:2|1:0,0:0:0:0:
469,235,81507,1,10,1:2:0:0:
491,137,81800,2,0,B|436:122|436:122|374:147,1,100,2|8,1:2|1:2,0:0:0:0:
355,168,82239,6,0,P|312:191|250:189,1,100,6|0,1:2|1:0,0:0:0:0:
222,160,82678,1,10,1:2:0:0:
138,214,82971,2,0,P|108:155|135:112,1,100,2|10,1:2|0:0,0:0:0:0:
134,79,83410,2,0,P|192:63|233:34,1,100,2|0,1:3|1:0,0:0:0:0:
263,9,83849,1,12,1:2:0:0:
362,21,84142,2,0,P|346:66|341:89,1,50,10|10,1:2|1:2,0:0:0:0:
380,112,84434,1,10,1:2:0:0:
380,112,84581,1,4,1:0:0:0:
