osu file format v14

[General]
AudioFilename: Usotsuki Peter Pan.mp3
AudioLeadIn: 0
PreviewTime: 77004
Countdown: 0
SampleSet: Soft
StackLeniency: 0.3
Mode: 0
LetterboxInBreaks: 0
WidescreenStoryboard: 1

[Editor]
DistanceSpacing: 1.1
BeatDivisor: 4
GridSize: 8
TimelineZoom: 1

[Metadata]
Title:Usotsuki PeterPan
TitleUnicode:嘘つきピーターパン
Artist:suzumu
ArtistUnicode:スズム
Creator:No_Gu
Version:Insane
Source:
Tags:初音ミク Hatsune Miku ケビョウニンゲン Keibyou Ningen
BeatmapID:741333
BeatmapSetID:179307

[Difficulty]
HPDrainRate:6
CircleSize:4
OverallDifficulty:7
ApproachRate:8
SliderMultiplier:2.4
SliderTickRate:1

[Events]
//Background and Video events
Video,0,"pv.flv"
0,0,"BG.jpg",0,0
//Break Periods
2,16453,39504
2,101954,113004
2,151254,160254
//Storyboard Layer 0 (Background)
//Storyboard Layer 1 (Fail)
//Storyboard Layer 2 (Pass)
//Storyboard Layer 3 (Foreground)
//Storyboard Sound Samples

[TimingPoints]
2004,750,4,2,1,50,1,0
2004,-200,4,2,1,50,0,0
15129,-100,4,2,1,70,0,0
16254,750,4,2,1,70,1,0
41941,-100,4,2,1,20,0,0
42129,-100,4,2,1,70,0,0
43066,-100,4,2,1,20,0,0
43254,-100,4,2,1,70,0,0
49066,-100,4,2,1,20,0,0
49254,-100,4,2,1,70,0,0
59566,-100,4,2,1,20,0,0
59754,-100,4,2,1,70,0,0
67066,-100,4,2,1,20,0,0
67254,-100,4,2,1,70,0,0
70066,-100,4,2,1,20,0,0
70254,-100,4,2,1,70,0,0
77754,750,4,2,1,70,1,1
88629,-100,4,2,1,50,0,1
89566,-100,4,2,1,70,0,0
89754,-100,4,2,1,70,0,1
101754,750,4,2,1,70,1,0
113754,-100,4,2,1,50,0,0
124254,-200,4,2,1,35,0,0
124535,-200,4,2,1,5,0,0
124629,-200,4,2,1,35,0,0
124910,-200,4,2,1,5,0,0
125004,-200,4,2,1,50,0,0
125285,-200,4,2,1,5,0,0
125379,-200,4,2,1,35,0,0
125660,-200,4,2,1,5,0,0
125754,-100,4,2,1,35,0,0
126504,-100,4,2,1,13,0,0
127629,-100,4,2,1,35,0,0
129504,-100,4,2,1,13,0,0
130629,-100,4,2,1,35,0,0
132504,-100,4,2,1,13,0,0
133629,-100,4,2,1,35,0,0
134754,-100,4,2,1,70,0,0
140566,-100,4,2,1,20,0,0
140754,-100,4,2,1,70,0,0
143566,-100,4,2,1,20,0,0
143754,-100,4,2,1,70,0,0
146566,-100,4,2,1,20,0,0
146754,-100,4,2,1,70,0,0
151254,750,4,2,1,70,1,0
163254,-100,4,2,1,70,0,1
172066,-100,4,2,1,70,0,0
172254,-100,4,2,1,70,0,1
172441,-100,4,2,1,70,0,0
173754,-100,4,2,1,70,0,1
173941,-100,4,2,1,70,0,0
175254,-100,4,2,1,70,0,1
175441,-100,4,2,1,70,0,0
176004,-100,4,2,1,70,0,1
176191,-100,4,2,1,70,0,0
176754,-100,4,2,1,70,0,1
176941,-100,4,2,1,50,0,0
178254,-100,4,2,1,70,0,1
183129,-100,4,2,1,50,0,1
184066,-100,4,2,1,70,0,0
184254,-100,4,2,1,70,0,1
196254,-100,4,2,1,60,0,0
198879,-100,4,2,1,40,0,0
199629,-100,4,2,1,60,0,0
200066,-100,4,2,1,13,0,0
200941,-100,4,2,1,40,0,0
201504,-100,4,2,1,60,0,0
201566,-100,4,2,1,13,0,0
202066,-100,4,2,1,40,0,0
202254,-100,4,2,1,60,0,0
204566,-100,4,2,1,13,0,0
204879,-100,4,2,1,40,0,0
205629,-100,4,2,1,60,0,0
206066,-100,4,2,1,13,0,0
206754,-100,4,2,1,60,0,0
209066,-100,4,2,1,15,0,0
209754,-100,4,2,1,60,0,0
212066,-100,4,2,1,13,0,0
212754,-100,4,2,1,60,0,0
215066,-100,4,2,1,13,0,0
215379,-100,4,2,1,40,0,0
216316,-100,4,2,1,60,0,0
216879,-100,4,2,1,40,0,0
217254,-100,4,2,1,60,0,0

[Colours]
Combo1 : 128,255,128
Combo2 : 255,255,128
Combo3 : 255,128,128
Combo4 : 128,255,255

[HitObjects]
56,120,2004,6,0,P|88:112|136:120,1,60,2|0,0:0|0:0,0:0:0:0:
256,176,2754,2,0,P|288:184|336:176,1,60,2|0,0:0|0:0,0:0:0:0:
400,104,3504,1,2,0:0:0:0:
432,216,3879,2,0,L|424:280,2,60,0|2|0,0:0|0:0|0:0,0:0:0:0:
456,32,5004,6,0,P|424:16|384:16,1,60,2|0,0:0|0:0,0:0:0:0:
216,64,5754,2,0,P|186:83|166:118,1,60,2|0,0:0|0:0,0:0:0:0:
0,184,6504,2,0,L|8:248,1,60,2|0,0:0|0:0,0:0:0:0:
208,320,7254,2,0,L|200:256,1,60,2|0,0:0|0:0,0:0:0:0:
400,96,8004,5,2,0:0:0:0:
488,128,8379,1,0,0:0:0:0:
344,184,8754,1,2,0:0:0:0:
404,255,9129,1,0,0:0:0:0:
248,240,9504,1,2,0:0:0:0:
264,331,9879,1,0,0:0:0:0:
128,256,10254,1,2,0:0:0:0:
96,342,10629,1,0,0:0:0:0:
104,160,11004,6,0,P|96:120|80:96,1,60,2|0,0:0|0:0,0:0:0:0:
16,152,11754,1,2,0:0:0:0:
123,22,12129,1,0,0:0:0:0:
180,180,12504,1,2,0:0:0:0:
180,180,15129,5,2,0:0:0:0:
123,22,15504,1,0,0:0:0:0:
16,152,15879,1,2,0:0:0:0:
208,88,16066,6,0,L|264:96,2,30,2|2|4,0:0|0:0|3:2,0:0:0:0:
96,56,40254,6,0,P|72:112|88:168,1,120,4|2,3:2|0:0,0:0:0:0:
160,216,40816,1,0,0:0:0:0:
240,184,41004,2,0,L|304:192,1,60,8|0,0:0|0:0,0:0:0:0:
424,112,41379,2,0,L|385:163,1,60,2|0,3:0|0:0,0:0:0:0:
400,304,41754,2,0,L|374:244,2,60,2|8|0,0:0|0:0|3:0,0:0:0:0:
152,344,42504,1,8,0:0:0:0:
64,296,42691,2,0,P|32:288|-16:296,1,60,0|2,0:0|0:0,0:0:0:0:
152,248,43066,1,8,0:0:0:0:
152,248,43160,1,8,0:0:0:0:
152,248,43254,6,0,P|176:192|160:136,1,120,0|2,3:0|3:0,0:0:0:0:
88,88,43816,1,0,0:0:0:0:
248,128,44004,2,0,L|368:120,1,120,8|2,0:0|0:0,0:0:0:0:
472,176,44566,1,0,3:0:0:0:
376,232,44754,2,0,P|360:296|384:352,1,120,2|0,0:0|3:0,0:0:0:0:
288,192,45504,2,0,P|240:146|180:138,1,120,8|0,0:0|3:0,0:0:0:0:
104,200,46066,1,0,0:0:0:0:
24,144,46254,6,0,L|32:16,1,120,2|2,0:0|0:0,0:0:0:0:
16,248,46816,2,0,L|12:307,1,60,0|8,0:0|0:0,0:0:0:0:
376,344,47379,1,2,0:0:0:0:
368,248,47566,1,0,0:0:0:0:
288,304,47754,2,0,L|160:304,1,120,2|2,0:0|0:0,0:0:0:0:
368,248,48316,2,0,L|432:248,1,60,0|8,0:0|0:0,0:0:0:0:
232,40,48879,1,2,0:0:0:0:
160,104,49066,1,8,0:0:0:0:
160,104,49160,1,8,0:0:0:0:
160,104,49254,6,0,P|104:120|40:96,1,120,2|0,3:0|0:0,0:0:0:0:
320,184,50004,2,0,P|376:168|440:192,1,120,8|2,0:0|3:0,0:0:0:0:
480,264,50566,1,0,0:0:0:0:
408,320,50754,2,0,L|416:384,2,60,2|8|0,0:0|0:0|0:0,0:0:0:0:
320,184,51316,2,0,L|328:120,1,60,0|8,3:0|0:0,0:0:0:0:
288,48,51691,1,8,0:0:0:0:
208,24,51878,1,0,3:0:0:0:
128,48,52066,1,0,3:0:0:0:
88,120,52253,5,6,3:2:0:0:
96,144,52441,1,2,0:0:0:0:
104,168,52629,1,2,3:0:0:0:
112,192,52816,1,2,0:0:0:0:
120,216,53004,2,0,L|112:288,1,60,10|0,0:0|0:0,0:0:0:0:
200,312,53379,2,0,P|264:296|328:328,1,120,2|0,0:0|3:0,0:0:0:0:
256,384,53941,1,8,0:0:0:0:
113,275,54129,2,0,P|49:259|-15:291,1,120,0|10,3:0|0:0,0:0:0:0:
40,176,54691,2,0,P|48:152|48:112,1,60,0|2,0:0|0:0,0:0:0:0:
0,32,55066,1,0,0:0:0:0:
136,88,55254,6,0,L|256:72,1,120,2|0,0:0|3:0,0:0:0:0:
328,144,55816,1,0,0:0:0:0:
280,232,56004,2,0,L|161:247,1,120,10|0,0:0|3:0,0:0:0:0:
72,208,56566,1,0,0:0:0:0:
56,112,56754,2,0,P|56:80|64:48,2,60,2|0|0,3:0|0:0|0:0,0:0:0:0:
56,304,57504,2,0,B|48:344|32:368|32:368|56:352|96:360,1,120,8|0,0:0|3:0,0:0:0:0:
248,336,58066,1,2,0:0:0:0:
248,336,58160,1,2,0:0:0:0:
248,336,58254,6,0,P|312:328|368:360,1,120,2|2,3:0|0:0,0:0:0:0:
184,224,59004,2,0,L|192:96,1,120,8|2,0:0|3:0,0:0:0:0:
104,128,59566,1,8,0:0:0:0:
104,128,59660,1,8,0:0:0:0:
104,128,59754,2,0,L|40:120,2,60,2|0|2,0:0|0:0|0:0,0:0:0:0:
280,208,60504,2,0,L|408:192,1,120,8|2,0:0|3:0,0:0:0:0:
312,352,61254,6,0,P|248:360|200:328,1,120,2|2,0:0|0:0,0:0:0:0:
104,328,61816,1,0,0:0:0:0:
40,256,62004,2,0,L|56:136,1,120,10|2,0:0|3:0,0:0:0:0:
304,28,62754,1,2,3:0:0:0:
212,58,62941,1,8,0:0:0:0:
212,154,63129,1,4,0:0:0:0:
304,184,63316,1,0,3:0:0:0:
360,106,63503,1,10,0:0:0:0:
304,184,63691,1,10,0:0:0:0:
360,261,63878,1,0,3:2:0:0:
451,231,64066,1,0,3:2:0:0:
451,135,64253,5,4,3:2:0:0:
152,304,64629,1,2,0:0:0:0:
192,224,64816,2,0,P|160:216|112:224,1,60,0|8,0:0|0:0,0:0:0:0:
56,280,65191,1,0,0:0:0:0:
248,304,65379,1,2,0:0:0:0:
288,216,65566,1,0,0:0:0:0:
224,136,65754,2,0,L|216:64,2,60,0|8|0,0:0|0:0|3:0,0:0:0:0:
248,304,66504,1,8,0:0:0:0:
288,216,66691,1,2,0:0:0:0:
224,136,66879,1,2,0:0:0:0:
192,232,67066,1,8,0:0:0:0:
192,232,67160,1,8,0:0:0:0:
192,232,67254,6,0,P|128:240|80:208,1,120,0|2,3:0|3:0,0:0:0:0:
32,136,67816,1,0,0:0:0:0:
96,72,68004,2,0,L|88:8,1,60,8|0,0:0|0:0,0:0:0:0:
240,200,68379,2,0,L|248:264,1,60,2|0,0:0|3:0,0:0:0:0:
254,272,68660,1,0,0:0:0:0:
260,282,68754,2,0,L|268:346,1,60,0|0,0:0|0:0,0:0:0:0:
408,96,69129,2,0,L|400:32,1,60,2|0,0:0|0:0,0:0:0:0:
352,176,69504,6,0,P|288:192|232:168,1,120,8|2,0:0|0:0,0:0:0:0:
184,104,70066,1,8,0:0:0:0:
184,104,70160,1,8,0:0:0:0:
184,104,70254,2,0,L|176:232,1,120,0|2,3:0|0:0,0:0:0:0:
112,296,70816,1,2,0:0:0:0:
208,320,71004,2,0,P|272:304|336:320,1,120,8|2,0:0|0:0,0:0:0:0:
440,216,71754,2,0,P|432:184|432:152,1,60,0|2,0:0|0:0,0:0:0:0:
439,72,72129,2,0,P|447:43|461:16,1,60
351,104,72504,2,0,P|287:112|231:88,1,120,8|0,0:0|0:0,0:0:0:0:
184,16,73066,2,0,L|119:23,1,60,0|2,0:0|0:0,0:0:0:0:
64,296,73629,5,0,0:0:0:0:
144,256,73816,1,2,0:0:0:0:
224,304,74004,2,0,L|296:296,1,60,8|2,0:0|0:0,0:0:0:0:
336,360,74379,2,0,L|394:317,1,60,0|2,0:0|0:0,0:0:0:0:
456,352,74754,2,0,L|485:285,1,60,0|10,0:0|0:0,0:0:0:0:
392,104,75129,2,0,L|362:170,1,60,0|0,0:0|3:0,0:0:0:0:
320,240,75504,1,8,0:0:0:0:
244,268,75691,1,8,0:0:0:0:
164,269,75879,1,0,0:0:0:0:
88,244,76066,1,2,0:0:0:0:
25,194,76254,5,2,0:0:0:0:
25,194,77754,6,0,L|32:64,1,120,4|2,3:2|0:0,0:0:0:0:
336,32,78504,2,0,L|329:162,1,120,8|2,0:2|0:0,0:0:0:0:
248,120,79066,2,0,L|176:128,1,60,8|0,0:0|3:0,0:0:0:0:
408,192,79441,2,0,L|480:184,1,60,8|0,0:0|3:0,0:0:0:0:
256,296,79816,2,0,L|184:304,1,60,0|10,3:0|0:0,0:0:0:0:
24,96,80379,1,2,0:0:0:0:
80,24,80566,1,0,0:0:0:0:
112,112,80754,6,0,L|104:240,1,120,2|0,3:0|0:0,0:0:0:0:
224,208,81316,2,0,L|227:148,1,60,0|10,0:0|0:0,0:0:0:0:
304,80,81691,1,0,0:0:0:0:
392,128,81879,2,0,L|472:120,1,60,2|8,0:0|0:0,0:0:0:0:
224,208,82254,2,0,L|144:200,1,60,2|8,0:0|0:0,0:0:0:0:
384,312,82629,2,0,L|464:304,1,60,0|0,3:0|3:0,0:0:0:0:
240,344,83004,2,0,P|176:352|128:320,1,120,8|0,0:0|0:0,0:0:0:0:
112,232,83566,1,0,0:0:0:0:
216,136,83754,6,0,L|208:264,1,120,4|2,3:2|0:0,0:0:0:0:
456,200,84504,2,0,L|448:72,1,120,10|2,0:0|0:0,0:0:0:0:
368,16,85066,1,8,0:0:0:0:
288,80,85254,2,0,L|224:72,2,60,2|8|0,3:0|0:0|3:0,0:0:0:0:
296,208,85816,1,0,3:0:0:0:
168,240,86004,2,0,P|144:184|168:112,1,120,8|0,0:0|0:0,0:0:0:0:
228,72,86566,2,0,L|288:80,1,60,0|0,0:0|3:0,0:0:0:0:
480,248,87129,5,2,0:0:0:0:
248,352,87504,2,0,P|184:360|136:328,1,120,8|2,0:0|0:0,0:0:0:0:
120,240,88066,1,0,0:0:0:0:
216,208,88254,2,0,L|208:280,1,60,0|0,3:0|3:0,0:0:0:0:
256,112,88629,2,8,L|248:40,1,60
320,192,89004,2,8,L|392:192,1,60
464,232,89379,1,0,3:0:0:0:
384,280,89566,1,0,0:0:0:0:
456,136,89754,6,0,L|440:0,1,120,4|2,3:2|0:0,0:0:0:0:
216,200,90504,2,0,L|230:319,1,120,10|0,0:0|0:0,0:0:0:0:
136,360,91066,1,8,0:0:0:0:
56,312,91254,2,0,P|24:312|-16:320,1,60,2|8,3:0|0:0,0:0:0:0:
136,264,91629,2,0,P|127:233|109:196,1,60,0|0,3:0|3:0,0:0:0:0:
216,312,92004,2,0,P|243:296|274:269,1,60,10|0,0:0|0:0,0:0:0:0:
400,328,92379,2,0,L|408:256,1,60,0|8,0:0|0:0,0:0:0:0:
488,216,92754,6,0,L|472:72,1,120,2|0,3:0|3:0,0:0:0:0:
248,16,93504,2,0,P|224:72|240:128,1,120,10|2,0:0|0:0,0:0:0:0:
320,176,94066,1,8,0:0:0:0:
232,224,94254,2,0,L|168:216,2,60,2|8|0,0:0|0:0|3:0,0:0:0:0:
328,272,94816,2,0,L|392:264,1,60,0|8,3:0|0:0,0:0:0:0:
192,352,95379,1,0,3:0:0:0:
104,368,95566,1,0,3:0:0:0:
24,320,95754,6,0,P|8:264|16:200,1,120,4|2,3:2|0:0,0:0:0:0:
88,128,96316,1,0,0:0:0:0:
176,176,96504,2,0,L|304:168,1,120,8|2,0:0|0:0,0:0:0:0:
280,256,97066,2,0,L|288:320,1,60,8|0,0:0|3:0,0:0:0:0:
328,80,97441,2,0,L|320:16,1,60,8|0,0:0|0:0,0:0:0:0:
440,208,97816,2,0,L|448:272,1,60,0|8,3:0|0:0,0:0:0:0:
200,352,98379,1,2,0:0:0:0:
120,304,98566,1,2,0:0:0:0:
32,336,98754,6,0,L|16:200,1,120,4|2,3:2|0:0,0:0:0:0:
80,136,99316,1,0,0:0:0:0:
160,184,99504,2,0,P|224:192|272:160,1,120,8|0,0:0|0:0,0:0:0:0:
312,72,100066,1,8,0:0:0:0:
376,160,100254,2,0,L|368:232,1,60,0|0,3:0|0:0,0:0:0:0:
464,344,100629,2,0,L|405:301,1,60,2|0,0:0|3:0,0:0:0:0:
264,328,101004,2,8,L|330:298,1,60,10|8,0:0|0:0,0:0:0:0:
168,328,101379,2,0,P|136:328|104:320,1,60,2|0,3:0|3:0,0:0:0:0:
24,240,101754,5,4,3:2:0:0:
104,80,113754,5,2,0:0:0:0:
112,88,115254,5,2,0:0:0:0:
120,96,116754,5,2,0:0:0:0:
128,104,118254,5,2,0:0:0:0:
136,112,119754,5,2,0:0:0:0:
88,322,122754,5,2,0:0:0:0:
88,322,124254,6,0,P|109:314|136:314,1,45,2|0,0:0|0:0,0:0:0:0:
216,320,124629,2,0,P|238:323|261:337,1,45,0|0,0:0|0:0,0:0:0:0:
251,252,125004,2,0,P|253:231|262:206,1,45,2|0,0:0|0:0,0:0:0:0:
296,144,125379,2,0,P|308:126|328:109,1,45,2|0,0:0|0:0,0:0:0:0:
400,72,125754,5,8,0:0:0:0:
184,152,126129,1,2,0:0:0:0:
376,280,126504,2,8,L|412:278,12,20
214,303,127629,1,8,0:0:0:0:
60,251,128004,2,0,P|48:194|59:127,1,120,2|0,0:0|0:0,0:0:0:0:
108,60,128566,1,8,0:0:0:0:
148,140,128754,5,8,0:0:0:0:
336,272,129129,1,2,0:0:0:0:
456,72,129504,2,8,L|487:69,12,20
254,128,130629,1,8,0:0:0:0:
156,317,131004,1,2,0:0:0:0:
201,253,131191,1,0,0:0:0:0:
156,190,131379,1,8,0:0:0:0:
81,214,131566,1,8,0:0:0:0:
81,292,131754,6,0,L|207:286,1,120,8|2,0:0|0:0,0:0:0:0:
280,333,132316,1,8,0:0:0:0:
356,282,132504,2,8,L|360:258,12,20
161,358,133629,1,8,0:0:0:0:
48,181,134004,2,0,L|173:179,1,120,2|8,0:0|0:0,0:0:0:0:
242,235,134566,1,8,0:0:0:0:
328,192,134754,6,0,P|344:128|328:72,1,120,4|2,3:2|3:0,0:0:0:0:
64,216,135504,2,0,P|48:280|64:336,1,120,8|0,0:0|0:0,0:0:0:0:
152,368,136066,1,8,0:0:0:0:
232,320,136254,2,0,L|296:328,1,60,0|0,3:0|0:0,0:0:0:0:
288,248,136629,2,0,L|347:222,1,60,2|0,0:0|3:0,0:0:0:0:
296,160,137004,2,8,L|334:108,1,60,10|10,0:0|0:0,0:0:0:0:
264,72,137379,2,0,L|272:7,1,60,0|2,3:0|3:0,0:0:0:0:
192,24,137754,6,0,P|160:16|120:16,1,60,4|2,3:2|0:0,0:0:0:0:
64,168,138129,2,0,P|96:176|136:176,1,60,0|2,3:0|0:0,0:0:0:0:
208,136,138504,1,8,0:0:0:0:
280,208,138691,2,0,L|272:272,1,60,2|0,0:0|3:0,0:0:0:0:
344,336,139066,1,2,0:0:0:0:
432,296,139254,2,0,L|440:232,1,60,2|8,0:0|0:0,0:0:0:0:
352,64,139629,2,0,P|320:48|288:48,1,60,0|2,3:0|0:0,0:0:0:0:
224,104,140004,1,8,0:0:0:0:
296,208,140191,2,0,L|304:144,2,60,0|2|8,0:0|3:0|0:0,0:0:0:0:
216,184,140660,1,8,0:0:0:0:
216,184,140754,6,0,L|152:192,1,60,0|2,3:0|0:0,0:0:0:0:
64,344,141129,2,0,L|123:336,1,60,0|2,3:0|0:0,0:0:0:0:
256,368,141504,1,8,0:0:0:0:
384,336,141691,2,0,P|392:304|392:272,1,60,2|0,0:0|3:0,0:0:0:0:
344,160,142066,1,8,0:0:0:0:
216,184,142254,2,0,L|88:176,1,120,2|0,0:0|3:0,0:0:0:0:
32,104,142816,1,2,0:0:0:0:
8,200,143004,2,0,P|24:272|0:312,1,120,8|2,0:0|0:0,0:0:0:0:
104,288,143566,1,8,0:0:0:0:
104,288,143660,1,8,0:0:0:0:
104,288,143754,6,0,P|160:288|184:296,1,60,2|2,3:0|0:0,0:0:0:0:
248,240,144129,2,0,P|296:268|313:286,1,60,2|2,0:0|0:0,0:0:0:0:
392,272,144504,2,0,P|420:320|425:345,1,60,10|2,0:0|0:0,0:0:0:0:
400,168,144879,2,0,L|416:96,1,60,2|2,0:0|0:0,0:0:0:0:
264,40,145254,2,0,L|237:157,1,120,2|0,0:0|0:0,0:0:0:0:
176,224,145816,1,0,0:0:0:0:
112,160,146004,2,0,P|48:136|-8:160,1,120,8|0,0:0|0:0,0:0:0:0:
0,312,146566,1,8,0:0:0:0:
0,312,146660,1,8,0:0:0:0:
0,312,146754,6,0,P|64:336|120:312,1,120,2|0,3:0|0:0,0:0:0:0:
208,344,147316,1,2,0:0:0:0:
288,288,147504,2,0,L|280:224,1,60,8|2,0:0|0:0,0:0:0:0:
360,72,147879,2,0,L|368:136,1,60,0|2,0:0|0:0,0:0:0:0:
136,216,148254,1,0,3:0:0:0:
108,136,148441,1,8,0:0:0:0:
188,109,148629,1,0,0:0:0:0:
215,188,148816,1,0,3:0:0:0:
48,199,149004,1,8,0:0:0:0:
122,47,149191,1,8,0:0:0:0:
273,122,149379,1,2,3:0:0:0:
200,272,149566,1,2,3:0:0:0:
72,80,163254,6,0,L|64:200,1,120,4|2,3:2|0:0,0:0:0:0:
280,336,164004,2,0,P|304:272|288:216,1,120,8|0,0:0|0:0,0:0:0:0:
208,184,164566,1,8,0:0:0:0:
152,280,164754,2,0,L|216:272,1,60,2|8,3:0|0:0,0:0:0:0:
352,152,165129,2,0,L|416:144,1,60,0|0,3:0|3:0,0:0:0:0:
177,87,165504,2,0,L|57:101,1,120,10|2,0:0|2:0,0:0:0:0:
0,165,166066,1,8,0:0:0:0:
78,186,166254,5,2,3:0:0:0:
272,48,166629,1,0,3:0:0:0:
304,280,167004,1,10,0:0:0:0:
136,64,167379,2,0,P|128:32|128:0,1,60,2|8,0:0|0:0,0:0:0:0:
184,152,167754,2,0,L|176:232,1,60,2|8,0:0|0:0,0:0:0:0:
280,144,168129,2,0,L|313:217,1,60,0|0,3:0|3:0,0:0:0:0:
344,80,168504,2,0,L|474:173,1,120,10|0,0:0|3:0,0:0:0:0:
512,208,169066,1,0,3:0:0:0:
480,296,169254,6,0,P|424:320|360:304,1,120,4|2,3:2|0:0,0:0:0:0:
272,328,169816,1,0,0:0:0:0:
200,256,170004,2,0,L|216:128,1,120,8|2,0:0|0:0,0:0:0:0:
152,64,170566,1,8,0:0:0:0:
120,160,170754,1,2,3:0:0:0:
120,160,171129,5,2,3:0:0:0:
152,64,171316,1,0,3:0:0:0:
120,160,171504,1,10,0:0:0:0:
120,160,171879,5,2,0:0:0:0:
48,81,172066,1,8,0:0:0:0:
120,160,172254,6,0,L|248:152,1,120,4|4,3:2|3:2,0:0:0:0:
256,168,173754,2,0,L|136:175,1,120,4|4,3:2|3:2,0:0:0:0:
152,192,175254,6,0,L|280:184,1,120,4|0,3:2|0:0,0:0:0:0:
352,232,175816,1,0,0:0:0:0:
432,184,176004,2,0,P|448:128|440:64,1,120,4|0,3:2|0:0,0:0:0:0:
72,208,176754,1,4,3:2:0:0:
117,283,176941,1,8,0:0:0:0:
190,238,177129,1,8,0:0:0:0:
145,163,177316,1,8,0:0:0:0:
24,288,177504,1,8,0:0:0:0:
192,336,177691,1,8,0:0:0:0:
344,248,177879,1,8,0:0:0:0:
512,296,178066,1,8,0:0:0:0:
408,72,178254,6,0,B|384:96|384:96|336:104|304:72,1,120,4|2,3:2|0:0,0:0:0:0:
80,200,179004,2,0,B|104:176|104:176|152:168|184:200,1,120,8|2,0:0|0:0,0:0:0:0:
248,272,179566,1,0,0:0:0:0:
328,224,179754,2,0,P|336:192|336:160,1,60,0|8,0:0|0:0,0:0:0:0:
168,320,180129,2,0,P|160:352|160:384,1,60,0|0,0:0|3:0,0:0:0:0:
312,336,180504,2,0,L|448:344,1,120,8|2,0:0|0:0,0:0:0:0:
152,216,181254,6,0,L|77:329,1,120,0|2,3:0|3:0,0:0:0:0:
336,136,182004,2,0,L|274:14,1,120,8|0,0:0|0:0,0:0:0:0:
208,96,182566,1,8,0:0:0:0:
112,64,182754,2,0,L|40:72,1,60,0|0,3:0|3:0,0:0:0:0:
48,248,183129,1,8,0:0:0:0:
16,160,183316,1,8,0:0:0:0:
160,248,183504,1,8,0:0:0:0:
176,155,183691,1,8,0:0:0:0:
256,304,183879,1,0,3:0:0:0:
316,231,184066,1,0,3:0:0:0:
336,376,184254,6,0,P|392:352|472:368,1,120,4|2,3:2|0:0,0:0:0:0:
224,216,185004,2,0,P|200:160|216:80,1,120,10|0,0:0|0:0,0:0:0:0:
312,40,185566,1,8,0:0:0:0:
424,88,185754,2,0,L|488:80,1,60,2|8,0:0|0:0,0:0:0:0:
344,160,186129,2,0,L|280:152,1,60,0|0,3:0|3:0,0:0:0:0:
446,200,186504,2,0,P|462:264|446:320,1,120,10|0,0:0|0:0,0:0:0:0:
360,352,187066,1,8,0:0:0:0:
144,328,187254,6,0,L|264:320,1,120,2|0,3:0|3:0,0:0:0:0:
368,104,188004,2,0,L|248:112,1,120,8|0,0:0|0:0,0:0:0:0:
168,168,188566,1,8,0:0:0:0:
88,120,188754,2,0,P|80:88|80:48,1,60,0|8,3:0|0:0,0:0:0:0:
240,232,189129,2,0,P|248:264|248:304,1,60,0|0,3:0|3:0,0:0:0:0:
344,336,189504,2,0,P|400:312|472:328,1,120,8|2,0:0|3:0,0:0:0:0:
504,224,190066,1,0,3:0:0:0:
432,144,190254,6,0,L|424:16,1,120,4|2,3:2|0:0,0:0:0:0:
304,8,190816,1,0,0:0:0:0:
248,112,191004,2,0,L|128:120,1,120,8|2,0:0|0:0,0:0:0:0:
168,200,191566,2,0,L|160:272,1,60,8|0,0:0|3:0,0:0:0:0:
272,344,191941,2,0,L|280:272,1,60,8|0,0:0|3:0,0:0:0:0:
408,240,192316,2,0,L|400:312,1,60,0|8,3:0|0:0,0:0:0:0:
288,88,192879,1,2,0:0:0:0:
200,64,193066,1,2,0:0:0:0:
112,96,193254,6,0,P|96:168|112:216,1,120,4|2,3:2|0:0,0:0:0:0:
184,272,193816,1,0,0:0:0:0:
272,240,194004,2,0,L|400:248,1,120,8|0,0:0|0:0,0:0:0:0:
480,208,194566,1,8,0:0:0:0:
400,152,194754,1,2,3:0:0:0:
400,152,195129,1,2,0:0:0:0:
480,208,195316,1,0,3:0:0:0:
464,304,195504,2,8,L|488:368,1,60,10|8,0:0|0:0,0:0:0:0:
376,264,195879,2,0,P|344:256|312:256,1,60,2|0,3:0|3:0,0:0:0:0:
128,312,196254,6,0,L|136:184,1,120,4|2,3:2|0:0,0:0:0:0:
320,24,197004,1,8,0:0:0:0:
416,256,197379,1,0,0:0:0:0:
336,224,197566,1,10,0:0:0:0:
408,168,197754,2,0,L|408:104,1,60,0|8,3:0|0:0,0:0:0:0:
352,312,198129,2,0,L|352:376,1,60,2|0,3:0|3:0,0:0:0:0:
240,208,198504,2,0,P|176:200|112:232,1,120,10|2,0:0|0:0,0:0:0:0:
64,296,199066,1,8,0:0:0:0:
32,208,199254,5,8,0:0:0:0:
256,320,199629,1,0,3:0:0:0:
400,120,200004,2,8,L|392:96,13,20
384,208,200941,1,8,0:0:0:0:
312,256,201129,1,0,3:0:0:0:
28,122,201504,2,8,L|-1:115,6,20
98,166,202066,1,8,0:0:0:0:
152,104,202254,6,0,L|272:104,1,120,4|0,3:2|0:0,0:0:0:0:
344,168,202816,1,0,0:0:0:0:
432,128,203004,2,0,P|456:72|440:8,1,120,8|2,0:0|0:0,0:0:0:0:
424,224,203566,2,0,L|432:288,1,60,0|2,0:0|3:0,0:0:0:0:
288,344,203941,2,0,L|280:280,1,60,8|0,0:0|3:0,0:0:0:0:
210,168,204316,1,0,3:0:0:0:
319,90,204504,2,8,L|342:95,6,20
210,168,205066,1,8,0:0:0:0:
86,118,205254,6,0,P|70:54|94:-2,1,120,8|0,0:0|3:0,0:0:0:0:
208,216,206004,2,8,L|240:224,12,20,8|8|8|8|8|8|8|8|8|8|8|8|0,0:0|0:0|0:0|0:0|0:0|0:0|0:0|0:0|0:0|0:0|0:0|0:0|3:0,0:0:0:0:
72,88,206941,2,0,P|64:56|64:24,1,60,0|10,3:0|0:0,0:0:0:0:
88,208,207316,2,0,L|80:280,1,60,8|2,0:0|0:0,0:0:0:0:
168,336,207691,1,8,0:0:0:0:
272,304,207879,2,0,L|352:312,1,60,2|0,3:0|3:0,0:0:0:0:
479,160,208254,6,0,P|415:136|359:144,1,120,4|2,3:2|0:0,0:0:0:0:
130,300,209004,2,8,L|128:331,12,20,8|8|8|8|8|8|8|8|8|8|8|8|0,0:0|0:0|0:0|0:0|0:0|0:0|0:0|0:0|0:0|0:0|0:0|0:0|3:0,0:0:0:0:
181,209,209941,1,8,0:0:0:0:
110,131,210129,2,0,P|81:120|38:122,1,60,2|0,3:0|3:0,0:0:0:0:
209,111,210504,2,0,P|204:80|180:44,1,60,10|0,0:0|0:0,0:0:0:0:
278,184,210879,2,0,P|302:164|321:126,1,60,2|8,0:0|0:0,0:0:0:0:
258,284,211254,6,0,P|315:306|392:287,1,120,2|0,3:0|3:0,0:0:0:0:
457,102,212004,2,0,L|454:76,12,20,8|8|8|8|8|8|8|8|8|8|8|8|0,0:0|0:0|0:0|0:0|0:0|0:0|0:0|0:0|0:0|0:0|0:0|0:0|3:0,0:0:0:0:
406,186,212941,1,8,0:0:0:0:
311,158,213129,2,0,L|214:157,1,60,0|0,3:0|3:0,0:0:0:0:
146,325,213504,1,8,0:0:0:0:
48,293,213691,1,0,0:0:0:0:
48,191,213879,1,0,3:0:0:0:
146,159,214066,1,0,3:0:0:0:
205,242,214254,6,0,L|339:238,1,120,4|2,3:2|0:0,0:0:0:0:
412,288,214816,1,0,0:0:0:0:
483,222,215004,2,8,L|485:193,6,20
450,91,215566,1,8,0:0:0:0:
334,48,215754,2,0,P|279:30|216:35,1,120,8|8,0:0|0:0,0:0:0:0:
127,98,216316,2,0,L|59:93,1,60,0|8,0:0|0:0,0:0:0:0:
270,288,216879,2,0,L|338:283,1,60,8|8,0:0|0:0,0:0:0:0:
424,274,217254,5,4,0:0:0:0:
256,192,217441,12,2,220254,0:0:0:0:
256,272,221004,5,2,0:0:0:0:
256,272,221754,1,2,0:0:0:0:
256,272,222504,1,2,0:0:0:0:
256,272,223254,5,2,0:0:0:0:
256,272,224004,1,2,0:0:0:0:
256,272,224754,1,2,0:0:0:0:
256,272,225504,1,2,0:0:0:0:
