osu file format v14

[General]
AudioFilename: Usotsuki Peter Pan.mp3
AudioLeadIn: 0
PreviewTime: 77004
Countdown: 0
SampleSet: Soft
StackLeniency: 0.3
Mode: 0
LetterboxInBreaks: 0
WidescreenStoryboard: 1

[Editor]
DistanceSpacing: 1.2
BeatDivisor: 4
GridSize: 8
TimelineZoom: 1

[Metadata]
Title:Usotsuki PeterPan
TitleUnicode:嘘つきピーターパン
Artist:suzumu
ArtistUnicode:スズム
Creator:No_Gu
Version:Hard
Source:
Tags:初音ミク Hatsune Miku ケビョウニンゲン Keibyou Ningen
BeatmapID:431113
BeatmapSetID:179307

[Difficulty]
HPDrainRate:5
CircleSize:4
OverallDifficulty:6
ApproachRate:7
SliderMultiplier:2
SliderTickRate:1

[Events]
//Background and Video events
Video,0,"pv.flv"
0,0,"BG.jpg",0,0
//Break Periods
2,16454,39354
2,101954,112854
2,151254,160254
//Storyboard Layer 0 (Background)
//Storyboard Layer 1 (Fail)
//Storyboard Layer 2 (Pass)
//Storyboard Layer 3 (Foreground)
//Storyboard Sound Samples

[TimingPoints]
2004,750,4,2,1,50,1,0
2004,-200,4,2,1,50,0,0
15129,-100,4,2,1,70,0,0
16254,750,4,2,1,70,1,0
41941,-100,4,2,1,20,0,0
42129,-100,4,2,1,70,0,0
43066,-100,4,2,1,20,0,0
43254,-100,4,2,1,70,0,0
49066,-100,4,2,1,20,0,0
49254,-100,4,2,1,70,0,0
59566,-100,4,2,1,20,0,0
59754,-100,4,2,1,70,0,0
67066,-100,4,2,1,20,0,0
67254,-100,4,2,1,70,0,0
70066,-100,4,2,1,20,0,0
70254,-100,4,2,1,70,0,0
77754,750,4,2,1,70,1,1
88629,-100,4,2,1,50,0,1
89566,-100,4,2,1,70,0,0
89754,-100,4,2,1,70,0,1
101754,750,4,2,1,70,1,0
113754,-100,4,2,1,50,0,0
124254,-200,4,2,1,35,0,0
124535,-200,4,2,1,5,0,0
124629,-200,4,2,1,35,0,0
124910,-200,4,2,1,5,0,0
125004,-200,4,2,1,50,0,0
125285,-200,4,2,1,5,0,0
125379,-200,4,2,1,35,0,0
125660,-200,4,2,1,5,0,0
125754,-100,4,2,1,35,0,0
126504,-100,4,2,1,13,0,0
127629,-100,4,2,1,35,0,0
129504,-100,4,2,1,13,0,0
130629,-100,4,2,1,35,0,0
132504,-100,4,2,1,13,0,0
133629,-100,4,2,1,35,0,0
134754,-100,4,2,1,70,0,0
140566,-100,4,2,1,20,0,0
140754,-100,4,2,1,70,0,0
143566,-100,4,2,1,20,0,0
143754,-100,4,2,1,70,0,0
146566,-100,4,2,1,20,0,0
146754,-100,4,2,1,70,0,0
151254,750,4,2,1,70,1,0
163254,-100,4,2,1,70,0,1
172066,-100,4,2,1,70,0,0
172254,-100,4,2,1,70,0,1
172441,-100,4,2,1,70,0,0
173754,-100,4,2,1,70,0,1
173941,-100,4,2,1,70,0,0
175254,-100,4,2,1,70,0,1
175441,-100,4,2,1,70,0,0
176004,-100,4,2,1,70,0,1
176191,-100,4,2,1,70,0,0
176754,-100,4,2,1,70,0,1
176941,-100,4,2,1,50,0,0
178254,-100,4,2,1,70,0,1
183129,-100,4,2,1,50,0,1
184066,-100,4,2,1,70,0,0
184254,-100,4,2,1,70,0,1
196254,-100,4,2,1,60,0,0
198879,-100,4,2,1,40,0,0
199629,-100,4,2,1,60,0,0
200066,-100,4,2,1,13,0,0
200941,-100,4,2,1,40,0,0
201504,-100,4,2,1,60,0,0
201566,-100,4,2,1,13,0,0
202066,-100,4,2,1,40,0,0
202254,-100,4,2,1,60,0,0
204566,-100,4,2,1,13,0,0
204879,-100,4,2,1,40,0,0
205629,-100,4,2,1,60,0,0
206066,-100,4,2,1,13,0,0
206754,-100,4,2,1,60,0,0
209066,-100,4,2,1,15,0,0
209754,-100,4,2,1,60,0,0
212066,-100,4,2,1,13,0,0
212754,-100,4,2,1,60,0,0
215066,-100,4,2,1,13,0,0
215379,-100,4,2,1,40,0,0
216316,-100,4,2,1,60,0,0
216879,-100,4,2,1,40,0,0
217254,-100,4,2,1,60,0,0

[Colours]
Combo1 : 128,255,128
Combo2 : 255,255,128
Combo3 : 255,128,128
Combo4 : 128,255,255

[HitObjects]
72,88,2004,6,0,L|136:80,1,50,2|0,0:0|0:0,0:0:0:0:
208,32,2754,2,0,L|216:96,1,50,2|0,0:0|0:0,0:0:0:0:
264,168,3504,2,0,L|200:176,1,50,2|0,0:0|0:0,0:0:0:0:
128,224,4254,2,0,L|120:160,1,50,2|0,0:0|0:0,0:0:0:0:
64,296,5004,6,0,P|112:320|168:304,1,100,2|2,0:0|0:0,0:0:0:0:
256,296,6129,1,0,0:0:0:0:
352,336,6504,2,0,L|424:328,1,50,2|0,0:0|0:0,0:0:0:0:
336,232,7254,2,0,L|408:224,1,50,2|0,0:0|0:0,0:0:0:0:
240,192,8004,6,0,P|224:144|240:88,1,100,2|2,0:0|0:0,0:0:0:0:
312,40,9129,1,0,0:0:0:0:
400,80,9504,2,0,L|472:72,1,50,2|0,0:0|0:0,0:0:0:0:
384,160,10254,2,0,L|312:152,1,50,2|0,0:0|0:0,0:0:0:0:
248,224,11004,5,2,0:0:0:0:
162,196,11379,1,0,0:0:0:0:
162,106,11754,1,2,0:0:0:0:
248,78,12129,1,0,0:0:0:0:
300,151,12504,1,2,0:0:0:0:
300,151,15129,5,2,0:0:0:0:
248,78,15504,1,0,0:0:0:0:
162,106,15879,1,2,0:0:0:0:
162,196,16254,5,4,3:2:0:0:
72,48,40254,6,0,P|48:96|64:152,1,100,4|2,3:2|0:0,0:0:0:0:
152,256,41004,2,0,L|272:248,1,100,8|0,0:0|0:0,0:0:0:0:
320,288,41566,1,2,0:0:0:0:
392,256,41754,2,0,P|408:208|392:152,1,100,0|0,0:0|3:0,0:0:0:0:
288,56,42504,1,8,0:0:0:0:
240,192,42879,1,2,0:0:0:0:
384,64,43254,6,0,P|440:56|504:80,1,100,2|0,3:0|0:0,0:0:0:0:
512,136,43816,1,0,0:0:0:0:
504,208,44004,2,0,L|496:312,1,100,8|2,0:0|0:0,0:0:0:0:
344,264,44754,2,0,L|336:160,2,100,0|0|8,0:0|3:0|0:0,0:0:0:0:
208,336,45879,1,0,0:0:0:0:
208,336,46066,1,0,0:0:0:0:
208,336,46254,6,0,P|152:320|96:344,1,100,0|2,3:0|0:0,0:0:0:0:
24,264,47004,1,8,0:0:0:0:
32,152,47379,1,2,0:0:0:0:
128,88,47754,2,0,L|232:96,1,100,0|2,0:0|0:0,0:0:0:0:
408,184,48504,2,0,L|304:192,1,100,8|2,0:0|0:0,0:0:0:0:
240,248,49066,1,0,0:0:0:0:
240,248,49254,2,0,P|224:296|240:344,1,100,0|2,3:0|0:0,0:0:0:0:
224,152,50004,2,0,P|240:104|224:56,1,100,8|2,0:0|0:0,0:0:0:0:
48,152,50754,6,0,L|56:208,1,50,0|8,3:0|0:0,0:0:0:0:
160,344,51316,2,0,L|168:288,1,50,0|8,3:0|0:0,0:0:0:0:
232,224,51691,1,8,0:0:0:0:
312,280,51879,2,0,P|344:280|368:272,1,50,0|0,3:0|3:0,0:0:0:0:
448,280,52254,6,0,P|432:232|448:168,1,100,4|0,3:2|0:0,0:0:0:0:
352,32,53004,2,0,P|368:80|352:144,1,100,8|0,0:0|0:0,0:0:0:0:
288,160,53566,1,2,0:0:0:0:
216,128,53754,2,0,L|88:136,1,100,0|0,0:0|3:0,0:0:0:0:
56,296,54504,2,0,L|184:288,1,100,8|0,0:0|0:0,0:0:0:0:
224,328,55066,1,0,0:0:0:0:
288,288,55254,6,0,P|336:280|384:312,1,100,0|2,3:0|0:0,0:0:0:0:
440,352,55816,1,0,0:0:0:0:
440,352,56004,2,0,L|448:224,1,100,8|0,0:0|0:0,0:0:0:0:
320,152,56754,2,0,L|312:24,1,100
192,16,57504,1,8,0:0:0:0:
72,40,57879,1,2,0:0:0:0:
8,144,58254,6,0,P|0:192|16:240,1,100,0|2,3:0|0:0,0:0:0:0:
72,296,58816,1,0,0:0:0:0:
72,296,59004,2,0,L|200:288,1,100,8|2,0:0|0:0,0:0:0:0:
296,336,59754,1,0,0:0:0:0:
424,312,60129,1,2,0:0:0:0:
480,192,60504,2,0,P|464:136|480:80,1,100,8|2,0:0|0:0,0:0:0:0:
336,24,61254,5,0,3:0:0:0:
208,80,61629,1,2,0:0:0:0:
328,56,62004,1,8,0:0:0:0:
220,145,62379,1,2,0:0:0:0:
320,88,62754,1,0,3:0:0:0:
241,203,63129,1,0,3:0:0:0:
312,120,63504,2,8,L|320:176,1,50
424,200,63879,2,0,L|416:256,1,50,0|0,3:0|3:0,0:0:0:0:
368,336,64254,6,0,P|320:320|272:336,1,100,4|0,3:2|0:0,0:0:0:0:
200,368,64816,1,0,0:0:0:0:
200,368,65004,2,0,L|192:240,1,100,8|0,0:0|0:0,0:0:0:0:
128,224,65566,1,0,0:0:0:0:
128,224,65754,2,0,L|136:104,1,100,0|2,0:0|0:0,0:0:0:0:
248,48,66504,2,0,P|296:32|344:48,1,100,8|0,0:0|0:0,0:0:0:0:
432,192,67254,6,0,L|320:200,1,100,0|0,3:0|3:0,0:0:0:0:
272,256,67816,1,0,0:0:0:0:
272,256,68004,2,0,P|256:312|272:352,1,100,8|0,0:0|0:0,0:0:0:0:
184,344,68566,1,0,0:0:0:0:
184,344,68754,2,0,L|72:352,1,100,0|0,0:0|3:0,0:0:0:0:
16,256,69504,1,8,0:0:0:0:
32,144,69879,1,2,0:0:0:0:
136,88,70254,6,0,P|184:72|240:80,1,100,0|0,3:0|0:0,0:0:0:0:
288,136,70816,1,0,0:0:0:0:
288,136,71004,2,0,L|280:256,1,100,8|2,0:0|0:0,0:0:0:0:
384,328,71754,2,0,P|432:352|488:336,1,100
264,352,72504,2,0,P|220:328|172:336,1,100,8|0,0:0|0:0,0:0:0:0:
48,368,73254,5,2,3:0:0:0:
8,248,73629,2,0,L|16:136,1,100,0|8,0:0|0:0,0:0:0:0:
144,48,74379,1,0,0:0:0:0:
144,48,74566,1,0,0:0:0:0:
144,48,74754,2,0,L|216:40,1,50,0|8,3:0|0:0,0:0:0:0:
256,120,75129,2,0,L|206:125,1,50,0|0,3:0|3:0,0:0:0:0:
328,168,75504,2,8,P|336:200|336:224,1,50
320,296,75879,2,0,P|312:328|312:352,1,50
400,336,76254,5,2,0:0:0:0:
400,336,77754,6,0,L|296:328,1,100,4|0,3:2|0:0,0:0:0:0:
160,360,78504,2,0,P|144:304|168:256,1,100,8|0,0:0|0:0,0:0:0:0:
200,200,79066,2,0,P|216:144|192:96,1,100,8|8,0:0|0:0,0:0:0:0:
136,64,79629,2,0,L|72:72,2,50,0|0|8,3:0|3:0|0:0,0:0:0:0:
280,48,80379,1,0,0:0:0:0:
400,128,80754,6,0,P|416:184|400:232,1,100,2|0,3:0|3:0,0:0:0:0:
344,272,81316,1,0,0:0:0:0:
344,272,81504,2,0,L|232:264,1,100,8|0,0:0|0:0,0:0:0:0:
176,304,82066,2,8,P|192:256|184:208,1,100
120,168,82629,2,0,L|128:96,2,50,0|0|8,3:0|3:0|0:0,0:0:0:0:
80,352,83379,1,0,0:0:0:0:
256,296,83754,6,0,P|320:280|384:312,1,100,4|0,3:2|3:0,0:0:0:0:
464,360,84504,2,0,L|472:256,1,100,8|0,0:0|0:0,0:0:0:0:
472,184,85066,1,8,0:0:0:0:
472,184,85254,2,0,P|456:136|480:80,1,100,0|0,3:0|3:0,0:0:0:0:
384,88,85816,1,0,3:0:0:0:
384,88,86004,2,0,L|272:80,1,100,8|0,0:0|0:0,0:0:0:0:
168,40,86754,5,0,3:0:0:0:
64,96,87129,1,0,3:0:0:0:
176,120,87504,2,0,P|184:176|160:224,1,100,8|0,0:0|0:0,0:0:0:0:
104,248,88066,2,8,L|-8:240,1,100,8|0,0:0|3:0,0:0:0:0:
32,328,88629,2,8,L|96:320,1,50
152,344,89004,2,8,L|216:336,1,50
272,360,89379,1,0,3:0:0:0:
344,352,89566,1,0,0:0:0:0:
408,312,89754,6,0,P|424:248|408:208,1,100,4|0,3:2|3:0,0:0:0:0:
336,80,90504,2,0,P|320:144|336:184,1,100,8|0,0:0|0:0,0:0:0:0:
248,168,91066,2,8,P|200:184|144:168,1,100
88,120,91629,2,0,L|96:56,2,50,0|0|8,3:0|3:0|0:0,0:0:0:0:
40,288,92379,2,0,L|32:224,2,50,0|8|0,3:0|0:0|3:0,0:0:0:0:
160,352,93129,5,0,3:0:0:0:
288,304,93504,2,0,P|336:288|408:320,1,100,8|0,0:0|0:0,0:0:0:0:
456,352,94066,2,8,L|464:248,1,100
504,184,94629,2,0,L|496:128,2,50,0|0|8,3:0|3:0|0:0,0:0:0:0:
352,104,95379,1,0,3:0:0:0:
352,104,95566,1,0,3:0:0:0:
352,104,95754,6,0,P|296:96|248:120,1,100,4|0,3:2|0:0,0:0:0:0:
152,216,96504,2,0,P|96:224|48:200,1,100,8|0,0:0|0:0,0:0:0:0:
16,144,97066,2,0,L|24:88,1,50,8|0,0:0|3:0,0:0:0:0:
152,40,97629,1,0,0:0:0:0:
280,96,98004,2,8,L|392:88,1,100,8|0,0:0|0:0,0:0:0:0:
448,136,98566,1,0,0:0:0:0:
448,136,98754,6,0,P|464:192|440:256,1,100,4|0,3:2|3:0,0:0:0:0:
336,312,99504,2,0,L|232:304,1,100,8|0,0:0|0:0,0:0:0:0:
168,336,100066,1,8,0:0:0:0:
96,312,100254,2,0,P|72:256|104:176,1,150,0|0,3:0|3:0,0:0:0:0:
176,144,101004,2,8,L|168:88,1,50
256,144,101379,2,0,L|264:88,1,50,0|0,3:0|0:0,0:0:0:0:
328,184,101754,5,4,3:2:0:0:
104,304,113754,5,2,0:0:0:0:
112,296,115254,5,2,0:0:0:0:
120,288,116754,5,2,0:0:0:0:
128,280,118254,5,2,0:0:0:0:
136,272,119754,5,2,0:0:0:0:
96,72,122754,5,2,0:0:0:0:
96,72,124254,6,0,L|160:64,3,50,2|2|2|2,0:0|0:0|0:0|0:0,0:0:0:0:
264,48,125754,5,8,0:0:0:0:
360,120,126129,1,2,0:0:0:0:
352,240,126504,2,8,L|360:264,12,16.6666666666667
240,208,127629,1,8,0:0:0:0:
128,248,128004,2,0,P|116:191|128:144,1,100,2|0,0:0|0:0,0:0:0:0:
160,80,128566,1,8,0:0:0:0:
240,96,128754,5,8,0:0:0:0:
328,176,129129,1,2,0:0:0:0:
424,104,129504,2,8,L|448:96,12,16.6666666666667
408,224,130629,1,8,0:0:0:0:
296,272,131004,1,2,0:0:0:0:
200,200,131379,1,8,0:0:0:0:
200,200,131566,1,8,0:0:0:0:
200,200,131754,6,0,L|192:96,1,100,8|2,0:0|0:0,0:0:0:0:
128,56,132316,1,0,0:0:0:0:
56,88,132504,2,8,L|32:80,12,16.6666666666667
88,200,133629,1,8,0:0:0:0:
176,280,134004,2,0,L|288:272,1,100,2|8,0:0|0:0,0:0:0:0:
352,296,134566,1,8,0:0:0:0:
416,256,134754,6,0,P|432:208|416:152,1,100,4|2,3:2|3:0,0:0:0:0:
272,88,135504,2,0,P|256:136|272:192,1,100,8|2,0:2|3:0,0:0:0:0:
192,200,136066,1,8,0:0:0:0:
192,200,136254,2,0,P|136:216|72:192,1,100,0|0,3:0|0:0,0:0:0:0:
40,152,136816,1,0,3:0:0:0:
40,152,137004,2,8,L|32:80,1,50
136,128,137379,2,0,L|144:56,1,50,0|0,3:0|0:0,0:0:0:0:
240,112,137754,6,0,P|296:96|352:112,1,100,4|0,3:2|0:0,0:0:0:0:
416,200,138504,2,0,P|472:216|528:200,1,100,8|0,0:0|0:0,0:0:0:0:
296,216,139254,2,0,L|288:336,1,100,0|0,3:0|0:0,0:0:0:0:
128,184,140004,2,0,L|136:64,1,100,8|0,0:0|0:0,0:0:0:0:
184,24,140566,1,0,0:0:0:0:
248,72,140754,6,0,P|296:80|344:64,1,100,0|0,3:0|0:0,0:0:0:0:
400,120,141316,1,0,0:0:0:0:
400,120,141504,2,0,P|376:168|392:232,1,100,8|0,0:0|0:0,0:0:0:0:
464,328,142254,2,0,L|360:336,1,100,0|0,3:0|0:0,0:0:0:0:
240,320,143004,1,8,0:0:0:0:
216,200,143379,1,0,0:0:0:0:
320,128,143754,6,0,P|328:88|304:24,1,100,0|0,3:0|0:0,0:0:0:0:
240,48,144316,2,0,L|176:40,1,50,0|8,0:0|0:0,0:0:0:0:
40,144,144879,2,0,L|160:136,1,100,0|0,0:0|3:0,0:0:0:0:
248,208,145629,2,0,P|264:272|248:312,1,100,0|8,0:0|0:0,0:0:0:0:
144,256,146379,1,0,0:0:0:0:
368,264,146754,6,0,L|496:264,1,100,0|0,3:0|0:0,0:0:0:0:
512,112,147504,2,0,P|448:96|408:120,1,100,8|0,0:0|0:0,0:0:0:0:
256,96,148254,2,0,L|248:32,1,50,0|8,3:0|0:0,0:0:0:0:
152,184,148816,2,0,L|144:248,1,50,0|8,3:0|0:0,0:0:0:0:
64,184,149191,2,0,L|57:134,1,50,8|0,0:0|0:0,0:0:0:0:
48,56,149566,5,2,3:0:0:0:
72,80,163254,6,0,L|64:184,1,100,4|2,3:2|0:0,0:0:0:0:
224,304,164004,2,0,P|240:256|232:208,1,100,8|0,0:0|0:0,0:0:0:0:
176,160,164566,1,8,0:0:0:0:
344,104,164941,1,8,0:0:0:0:
288,48,165129,2,0,P|336:24|384:32,1,100,0|8,3:0|0:0,0:0:0:0:
480,184,165879,1,0,0:0:0:0:
480,184,166066,1,8,0:0:0:0:
480,184,166254,6,0,L|472:296,1,100,0|0,3:0|3:0,0:0:0:0:
320,352,167004,2,0,L|312:240,1,100,8|0,0:0|0:0,0:0:0:0:
256,200,167566,2,8,P|200:192|160:216,1,100
112,272,168129,2,0,L|48:264,2,50,0|0|8,3:0|3:0|0:0,0:0:0:0:
272,336,168879,1,0,3:0:0:0:
272,336,169066,1,0,3:0:0:0:
272,336,169254,6,0,P|328:320|400:344,1,100,4|0,3:2|0:0,0:0:0:0:
480,240,170004,2,0,P|496:184|480:136,1,100,8|0,0:0|0:0,0:0:0:0:
416,104,170566,1,8,0:0:0:0:
416,104,170754,2,0,L|280:112,1,100,0|0,3:0|3:0,0:0:0:0:
184,192,171504,2,0,L|48:184,1,100,8|0,0:0|3:0,0:0:0:0:
24,240,172066,1,8,0:0:0:0:
24,240,172254,5,4,3:2:0:0:
96,64,172629,1,4,3:2:0:0:
64,312,173754,5,4,3:2:0:0:
87,123,174129,1,4,3:2:0:0:
111,375,175254,5,4,3:2:0:0:
84,186,176004,1,4,3:2:0:0:
264,248,176754,2,0,L|336:240,1,50,4|8,3:2|0:0,0:0:0:0:
392,312,177129,2,8,L|334:317,1,50
456,256,177504,2,8,P|464:232|464:200,1,50
440,136,177879,2,8,P|432:112|432:80,1,50
392,24,178254,6,0,L|280:32,1,100,4|0,3:2|3:0,0:0:0:0:
160,120,179004,2,0,P|112:96|64:104,1,100,8|0,0:0|0:0,0:0:0:0:
24,232,179754,2,0,L|16:176,2,50,0|8|0,3:0|0:0|3:0,0:0:0:0:
112,320,180504,1,8,0:0:0:0:
232,304,180879,1,0,0:0:0:0:
272,184,181254,6,0,P|320:168|376:176,1,100,0|0,3:0|3:0,0:0:0:0:
456,272,182004,1,8,0:0:0:0:
504,152,182379,2,0,L|496:88,2,50,0|0|0,0:0|0:0|3:0,0:0:0:0:
368,56,183129,2,8,L|296:64,1,50
240,96,183504,2,8,L|168:88,1,50
136,160,183879,2,8,L|64:168,1,50
16,216,184254,6,0,P|8:280|24:320,1,100,4|0,3:2|0:0,0:0:0:0:
176,352,185004,2,0,L|296:344,1,100,8|0,0:0|0:0,0:0:0:0:
352,368,185566,1,8,0:0:0:0:
424,336,185754,2,0,L|432:264,2,50,0|8|0,3:0|0:0|3:0,0:0:0:0:
488,208,186504,2,8,P|448:184|392:192,1,100
336,144,187066,1,8,0:0:0:0:
336,144,187254,6,0,L|208:152,1,100,0|0,3:0|3:0,0:0:0:0:
120,240,188004,2,0,P|104:296|136:352,1,100,8|0,0:0|3:0,0:0:0:0:
192,320,188566,1,8,0:0:0:0:
264,344,188754,2,0,L|328:336,2,50,0|8|0,3:0|0:0|3:0,0:0:0:0:
440,360,189504,2,0,P|424:312|440:248,2,100,8|0|4,0:0|3:0|3:2,0:0:0:0:
496,192,190629,5,0,0:0:0:0:
320,176,191004,2,0,L|208:184,1,100,8|0,0:0|3:0,0:0:0:0:
96,256,191754,2,0,P|40:200|96:104,1,200,0|8,3:0|0:0,0:0:0:0:
224,56,192879,1,0,0:0:0:0:
224,56,193066,1,0,0:0:0:0:
224,56,193254,6,0,P|280:64|336:48,1,100,4|0,3:2|3:0,0:0:0:0:
432,160,194004,2,0,L|424:264,1,100,8|0,0:0|0:0,0:0:0:0:
312,352,194754,2,0,P|240:320|176:352,1,150,0|0,3:0|3:0,0:0:0:0:
104,360,195504,2,0,L|96:304,2,50,8|8|0,0:0|0:0|3:0,0:0:0:0:
64,152,196254,6,0,P|120:168|184:144,1,100,4|0,3:2|0:0,0:0:0:0:
248,64,197004,1,8,0:0:0:0:
304,176,197379,2,0,L|296:240,2,50,0|8|0,3:0|0:0|3:0,0:0:0:0:
368,112,197941,1,8,0:0:0:0:
392,200,198129,1,0,3:0:0:0:
248,64,198504,1,8,0:0:0:0:
184,256,198879,1,8,0:0:0:0:
184,256,199066,1,8,0:0:0:0:
184,256,199254,5,8,0:0:0:0:
296,296,199629,1,0,3:0:0:0:
408,256,200004,2,8,L|432:264,12,16.6666666666667
336,224,200941,5,8,0:0:0:0:
336,224,201129,1,0,3:0:0:0:
160,168,201504,2,8,L|136:176,6,16.6666666666667
240,208,202066,1,8,0:0:0:0:
304,152,202254,6,0,P|320:104|296:48,1,100,4|0,3:2|0:0,0:0:0:0:
168,248,203004,2,0,P|152:296|176:352,1,100,8|0,0:2|0:0,0:0:0:0:
320,336,203754,2,0,L|424:344,1,100,0|0,3:0|0:0,0:0:0:0:
480,296,204316,1,0,3:0:0:0:
424,240,204504,2,8,L|432:216,6,16.6666666666667
352,240,205066,1,8,0:0:0:0:
280,264,205254,6,0,P|216:248|168:264,1,100,8|0,0:0|3:0,0:0:0:0:
64,336,206004,2,8,L|56:360,12,16.6666666666667,8|8|8|8|8|8|8|8|8|8|8|8|0,0:0|0:0|0:0|0:0|0:0|0:0|0:0|0:0|0:0|0:0|0:0|0:0|3:0,0:0:0:0:
128,184,207129,2,0,L|120:128,2,50,8|8|8,0:0|0:0|0:0,0:0:0:0:
192,232,207691,1,8,0:0:0:0:
264,200,207879,2,0,P|288:200|328:216,1,50,8|0,3:0|3:0,0:0:0:0:
384,256,208254,6,0,L|392:152,1,100,4|2,3:2|0:0,0:0:0:0:
312,312,209004,2,8,L|320:336,12,16.6666666666667,8|8|8|8|8|8|8|8|8|8|8|8|0,0:0|0:0|0:0|0:0|0:0|0:0|0:0|0:0|0:0|0:0|0:0|0:0|3:0,0:0:0:0:
240,280,209941,1,8,0:0:0:0:
168,312,210129,2,0,L|104:304,2,50,0|0|8,3:0|3:0|0:0,0:0:0:0:
328,208,210879,1,2,0:0:0:0:
208,64,211254,6,0,P|192:128|216:176,1,100,0|0,3:0|3:0,0:0:0:0:
432,128,212004,2,0,L|456:136,12,16.6666666666667,8|8|8|8|8|8|8|8|8|8|8|8|0,0:0|0:0|0:0|0:0|0:0|0:0|0:0|0:0|0:0|0:0|0:0|0:0|3:0,0:0:0:0:
360,168,212941,1,8,0:0:0:0:
432,208,213129,2,0,L|424:264,1,50,0|0,3:0|3:0,0:0:0:0:
408,336,213504,1,8,0:0:0:0:
288,368,213879,1,0,3:0:0:0:
168,328,214254,6,0,P|120:312|64:328,1,100,4|2,3:2|0:0,0:0:0:0:
240,216,215004,2,8,L|232:192,6,16.6666666666667
304,256,215566,1,8,0:0:0:0:
368,216,215754,2,0,L|472:224,2,100,8|8|8,0:0|0:0|0:0,0:0:0:0:
184,88,216879,2,0,L|176:32,2,50,8|8|4,0:0|0:0|3:2,0:0:0:0:
256,192,217441,12,2,220254,0:0:0:0:
256,272,221004,5,2,0:0:0:0:
256,272,221754,1,2,0:0:0:0:
256,272,222504,1,2,0:0:0:0:
256,272,223254,5,2,0:0:0:0:
256,272,224004,1,2,0:0:0:0:
256,272,224754,1,2,0:0:0:0:
256,272,225504,1,2,0:0:0:0:
