osu file format v14

[General]
AudioFilename: TokyoTeddyBear.mp3
AudioLeadIn: 0
PreviewTime: 50889
Countdown: 0
SampleSet: Soft
StackLeniency: 0.4
Mode: 0
LetterboxInBreaks: 0
WidescreenStoryboard: 1

[Editor]
Bookmarks: 81,4786,14198,21257,23610,33022,42433,50963,51845,70669,80081,88904,98757,107433,127139,137041,146453,153365,174688,184100,193512
DistanceSpacing: 0.4
BeatDivisor: 4
GridSize: 4
TimelineZoom: 3.1

[Metadata]
Title:Tokyo Teddy Bear
TitleUnicode:東京テディベア
Artist:suzumu
ArtistUnicode:スズム
Creator:Ryuusei Aika
Version:Kalibe's Extra
Source:
Tags:Lunala Rin_Sa HootOwlStar KittyAdventure Ellyu handsome muscle Nyquill deetz Byakuya Kalibe z1085684963 Shanipika ボーカロイド VOCALOID Neru 押入れP Japanese Rock Male Vocal 鏡音レン Kagamine Len 世界征服 Sekai seifuku やば、豆腐買うの忘れた
BeatmapID:2023996
BeatmapSetID:961941

[Difficulty]
HPDrainRate:7
CircleSize:4
OverallDifficulty:9
ApproachRate:9.3
SliderMultiplier:1.65
SliderTickRate:1

[Events]
//Background and Video events
0,0,"teddy.jpg",0,0
//Break Periods
2,137045,145262
//Storyboard Layer 0 (Background)
//Storyboard Layer 1 (Fail)
//Storyboard Layer 2 (Pass)
//Storyboard Layer 3 (Foreground)
//Storyboard Layer 4 (Overlay)
//Storyboard Sound Samples

[TimingPoints]
81,294.117647058824,4,2,1,30,1,0
81,-100,4,2,1,30,0,0
4786,-111.111111111111,4,2,1,30,0,0
8169,-333.333333333332,4,2,1,30,0,0
9786,-500,4,2,1,30,0,0
11551,-125,4,2,1,30,0,0
13389,-83.3333333333333,4,2,1,30,0,0
14198,-125,4,2,1,30,0,0
15081,-166.666666666667,4,2,1,30,0,0
15963,-125,4,2,1,30,0,0
17139,-111.111111111111,4,2,1,30,0,0
18316,-100,4,2,1,30,0,0
18904,-111.111111111111,4,2,1,30,0,0
19051,-125,4,2,1,30,0,0
19198,-142.857142857143,4,2,1,30,0,0
19345,-166.666666666667,4,2,1,30,0,0
19492,-200,4,2,1,30,0,0
19639,-250,4,2,1,30,0,0
19786,-333.333333333333,4,2,1,30,0,0
19933,-111.111111111111,4,2,1,30,0,0
20669,-111.111111111111,4,2,1,55,0,0
20963,-1000,4,2,1,55,0,0
21257,-100,4,2,2,55,0,0
23169,-142.857142857143,4,2,2,55,0,0
23316,-142.857142857143,4,2,2,55,0,0
23610,-100,4,2,2,55,0,0
25963,-100,4,2,2,55,0,0
26110,-100,4,2,2,55,0,0
26257,-100,4,2,2,55,0,0
26404,-100,4,2,2,55,0,0
28316,-111.111111111111,4,2,2,55,0,0
28904,-99.9999999999999,4,2,2,55,0,0
30669,-83.3333333333333,4,2,2,55,0,0
33022,-125,4,2,2,55,0,0
33316,-125,4,2,2,50,0,0
40081,-125,4,2,2,55,0,0
41992,-250,4,2,2,55,0,0
42139,-100,4,2,2,50,0,0
42286,-166.666666666667,4,2,2,50,0,0
46992,-100,4,2,2,50,0,0
50669,-100,4,2,2,50,0,0
50963,-83.3333333333333,4,2,2,50,0,0
51698,-100,4,2,2,60,0,0
52139,-100,4,2,2,60,0,0
52433,-100,4,2,2,60,0,0
53316,-100,4,2,2,60,0,0
53610,-100,4,2,2,60,0,0
54492,-100,4,2,2,60,0,0
54786,-100,4,2,2,60,0,0
56845,-100,4,2,2,60,0,0
57139,-100,4,2,2,60,0,0
58022,-100,4,2,2,60,0,0
58316,-100,4,2,2,60,0,0
59198,-100,4,2,2,60,0,0
60081,-100,4,2,2,60,0,0
60522,-74.6268656716418,4,2,2,60,0,0
60963,-135.135135135135,4,2,2,60,0,0
61257,-100,4,2,2,60,0,0
61551,-100,4,2,2,60,0,0
61845,-100,4,2,2,60,0,0
62728,-100,4,2,2,60,0,0
63022,-100,4,2,2,60,0,0
63904,-100,4,2,2,60,0,0
64198,-100,4,2,2,60,0,0
70669,-100,4,2,2,55,0,0
73022,-100,4,2,2,55,0,0
73169,-100,4,2,2,55,0,0
73316,-100,4,2,2,55,0,0
73463,-100,4,2,2,55,0,0
79345,-71.4285714285714,4,2,2,55,0,0
80081,-333.333333333333,4,2,2,55,0,0
80154,-333.333333333333,4,2,2,30,0,0
88904,-58.8235294117647,4,2,2,65,0,0
89345,-83.3333333333333,4,2,2,60,0,0
89639,-100,4,2,2,60,0,0
94443,-100,4,2,2,65,0,0
96404,-76.9230769230769,4,2,2,65,0,0
96845,-100,4,2,2,65,0,0
98316,-100,4,2,2,50,0,0
98757,-333.333333333333,4,2,2,50,0,0
103463,-100,4,2,2,50,0,0
107139,-100,4,2,2,50,0,0
108169,-83.3333333333333,4,2,2,60,0,0
108610,-100,4,2,2,60,0,0
108904,-100,4,2,2,60,0,0
109786,-100,4,2,2,60,0,0
110081,-100,4,2,2,60,0,0
110963,-100,4,2,2,60,0,0
111257,-100,4,2,2,60,0,0
113316,-100,4,2,2,60,0,0
113610,-100,4,2,2,60,0,0
114492,-100,4,2,2,60,0,0
114786,-100,4,2,2,60,0,0
116992,-74.6268656716418,4,2,2,60,0,0
117581,-135.135135135135,4,2,2,60,0,0
117728,-100,4,2,2,60,0,0
118022,-100,4,2,2,60,0,0
118316,-100,4,2,2,60,0,0
119198,-100,4,2,2,60,0,0
119492,-100,4,2,2,60,0,0
120375,-100,4,2,2,60,0,0
120669,-100,4,2,2,60,0,0
126992,-80,4,2,2,55,0,0
130963,-79.5544948289578,4,2,2,70,0,0
131636,-82.6446280991736,4,2,2,55,0,0
131939,-116.279069767442,4,2,2,70,0,0
132796,-86.9565217391304,4,2,2,55,0,0
133274,-83.3333333333333,4,2,2,70,0,0
134039,-80.6451612903226,4,2,2,55,0,0
135375,-142.857142857143,4,2,2,30,0,0
136698,-100,4,2,0,45,0,0
137581,-100,4,2,0,25,0,0
139934,-500,4,2,0,25,0,0
145816,-142.857142857143,4,2,2,30,0,0
152875,-76.9230769230769,4,2,2,65,0,0
155228,-76.9230769230769,4,2,2,50,0,0
155669,-95.2380952380952,4,2,2,60,0,0
163904,-95.2380952380952,4,2,2,70,0,0
164198,-74.6268656716418,4,2,2,70,0,0
164492,-135.135135135135,4,2,2,70,0,0
164786,-86.9565217391304,4,2,2,70,0,0
166257,-86.9565217391304,4,2,2,75,0,0
166992,-86.9565217391304,4,2,2,80,0,0
167434,-86.9565217391304,4,2,2,75,0,0
168610,-86.9565217391304,4,2,2,65,0,0
171698,-80,4,2,2,65,0,0
172286,-74.0740740740741,4,2,2,65,0,0
174198,-100,4,2,2,55,0,0
183316,-100,4,2,2,55,0,0
183610,-100,4,2,2,55,0,0
190669,-100,4,2,2,55,0,0
190963,-83.3333333333333,4,2,2,55,0,0
191698,-125,4,2,2,55,0,0
192433,-125,4,2,2,55,0,0
192727,-66.6666666666667,4,2,2,55,0,0

[Colours]
Combo1 : 108,83,102
Combo2 : 120,39,70

[HitObjects]
381,149,4786,5,8,0:3:0:0:
476,281,4933,2,0,B|466:299|466:299|450:282|483:237,1,74.2499977340699
474,249,5522,1,2,0:3:0:0:
320,317,5669,5,8,0:3:0:0:
320,317,5816,2,0,B|235:312|266:358|178:343,2,148.49999546814,2|0|4,0:0|0:0|3:0,0:0:0:0:
341,310,6845,2,0,P|304:304|268:308,1,74.2499977340699
5,242,7139,6,0,P|51:250|104:161,1,148.49999546814,8|0,0:3|0:0,0:0:0:0:
202,49,7581,2,0,P|248:41|301:130,1,148.49999546814,2|0,0:3|0:0,0:0:0:0:
202,49,8022,1,0,0:0:0:0:
304,113,8169,6,0,P|350:121|398:58,1,123.74999622345,4|0,0:3|0:0,0:0:0:0:
397,68,9492,1,2,0:3:0:0:
357,234,9639,5,8,0:3:0:0:
432,244,9786,2,0,L|429:224,1,16.5,2|0,0:1|0:0,0:0:0:0:
290,293,10081,2,0,L|284:325,1,33
181,377,10522,5,2,0:3:0:0:
181,377,10816,1,0,0:0:0:0:
130,318,10963,1,0,0:0:0:0:
56,350,11110,1,4,0:3:0:0:
56,350,11551,2,0,B|117:346|117:346|118:356|118:356|192:351,1,132,0|2,0:0|0:1,0:0:0:0:
418,184,12139,5,4,0:3:0:0:
367,296,12286,1,0,3:3:0:0:
418,184,12433,1,2,0:1:0:0:
305,191,12581,5,0,0:0:0:0:
461,270,12728,1,0,0:0:0:0:
313,377,12875,2,0,P|297:365|303:313,2,66,4|4|4,0:1|0:0|0:0,0:0:0:0:
211,228,13316,5,0,0:0:0:0:
211,228,13389,2,0,B|197:216|197:216|107:231,1,98.9999969787599,4|4,0:0|0:0,0:0:0:0:
128,253,13610,2,0,B|114:273|114:273|30:267,2,98.9999969787599,4|6|4,0:0|0:0|0:0,0:0:0:0:
376,177,14051,5,4,0:0:0:0:
376,177,14125,1,4,0:0:0:0:
376,177,14198,2,0,L|461:159,1,66,4|8,0:0|0:0,0:0:0:0:
487,104,14492,1,2,0:0:0:0:
417,80,14639,1,8,0:0:0:0:
456,11,14786,2,0,L|373:0,1,66,2|8,3:2|0:0,0:0:0:0:
337,111,15081,5,0,3:3:0:0:
337,111,15228,2,0,L|232:132,1,98.9999969787599,8|8,0:0|0:0,0:0:0:0:
184,82,15669,2,0,L|120:74,1,57.7499982376099,0|8,3:0|0:0,0:0:0:0:
64,118,15963,1,0,3:0:0:0:
131,158,16110,1,8,0:0:0:0:
71,204,16257,2,0,L|1:225,1,66,2|8,3:2|0:0,0:0:0:0:
263,273,16551,6,0,P|275:234|204:194,1,132,2|0,3:2|3:0,0:0:0:0:
78,314,16992,2,0,P|143:324|206:341,1,132,8|8,0:0|0:0,0:0:0:0:
206,341,17433,1,0,3:0:0:0:
354,231,17581,6,0,B|317:221|293:259|293:259|338:344,1,148.49999546814,8|8,0:0|0:0,0:0:0:0:
426,266,18022,2,0,B|444:236|444:236|430:192,1,74.2499977340699,0|8,3:0|0:0,0:0:0:0:
303,117,18316,2,0,L|399:130,1,82.5,2|8,0:0|0:0,0:0:0:0:
215,201,18610,2,0,B|203:163|203:163|226:123,1,82.5,0|8,3:0|0:0,0:0:0:0:
306,28,18904,5,0,3:0:0:0:
374,41,19051,1,8,0:0:0:0:
292,100,19198,5,2,3:2:0:0:
395,117,19345,1,8,0:0:0:0:
227,177,19492,5,0,3:0:0:0:
338,252,19639,1,8,0:0:0:0:
227,177,19786,1,0,3:0:0:0:
200,379,19933,6,0,B|206:294|258:337|259:230,1,148.49999546814,8|8,0:0|0:0,0:0:0:0:
148,196,20375,2,0,B|136:190|136:190|71:207,1,74.2499977340699,2|10,3:2|3:2,0:0:0:0:
342,100,20669,2,0,B|396:85|449:124|449:124|417:120|407:131,1,148.49999546814,2|0,0:0|1:0,0:0:0:0:
422,131,21183,5,0,0:0:0:0:
422,131,21257,2,0,B|407:101|407:101|512:76,1,123.75,12|0,0:1|0:0,0:0:0:0:
512,76,21551,1,8,1:2:0:0:
350,188,21698,2,0,B|248:177|290:225|185:208,1,165,12|4,0:0|1:3,0:0:0:0:
122,176,22139,6,0,B|106:182|106:182|109:242,1,41.25,0|0,1:0|0:0,0:0:0:0:
250,325,22286,2,0,B|290:337|290:337|307:255|307:255|267:238,1,165,4|4,0:1|0:3,0:0:0:0:
250,325,22728,5,8,0:1:0:0:
432,241,22875,1,8,0:1:0:0:
432,241,22948,1,8,0:0:0:0:
432,241,23022,1,8,0:1:0:0:
213,88,23169,2,0,L|205:124,1,28.874999118805,6|0,0:0|0:0,0:0:0:0:
203,100,23512,6,0,L|197:127,1,19.2499994125366,2|2,0:0|0:0,0:0:0:0:
286,114,23610,6,0,B|353:107|353:107|378:129|378:129|455:121,2,165,4|8|4,0:1|0:1|1:3,0:0:0:0:
129,224,24345,2,0,B|112:211|112:211|50:227,1,82.5,2|12,1:2|0:1,0:0:0:0:
52,226,24566,1,0,0:0:0:0:
52,226,24639,2,0,B|138:216|116:278|225:244,1,165,2|4,1:2|1:3,0:0:0:0:
405,114,25081,1,12,0:1:0:0:
358,173,25228,1,2,3:0:0:0:
326,245,25375,1,12,1:2:0:0:
275,190,25522,1,4,0:3:0:0:
205,158,25669,1,12,0:1:0:0:
59,317,25816,5,4,1:3:0:0:
59,317,25889,1,0,0:0:0:0:
59,317,25963,2,0,P|98:308|123:274,1,82.5,4|2,1:0|1:2,0:0:0:0:
299,335,26257,1,8,0:1:0:0:
228,276,26404,1,4,1:3:0:0:
149,369,26551,5,4,1:3:0:0:
425,241,26698,2,0,B|418:228|418:228|344:248,1,82.5,4|12,1:3|0:1,0:0:0:0:
352,245,26919,1,0,0:0:0:0:
352,245,26992,6,0,P|389:309|471:293,1,165,4|2,1:3|1:3,0:0:0:0:
222,214,27433,1,12,0:1:0:0:
338,163,27581,6,0,P|262:147|221:213,1,165,6|4,0:3|0:3,0:0:0:0:
474,97,28022,2,0,B|489:71|489:71|471:7,1,82.5,12|0,0:1|0:0,0:0:0:0:
474,20,28242,1,0,0:0:0:0:
474,20,28316,6,0,L|384:8,1,74.2499977340699,4|0,1:0|0:0,0:0:0:0:
103,91,28610,2,0,L|203:78,1,74.2499977340699,8|2,0:1|0:0,0:0:0:0:
176,81,28831,1,2,0:3:0:0:
176,81,28904,2,0,L|167:138,1,41.25,4|0,1:3|0:0,0:0:0:0:
266,161,29051,1,4,1:3:0:0:
102,296,29198,5,12,0:1:0:0:
187,214,29345,2,0,B|221:242|194:276|194:276|96:298,1,165,4|4,1:3|1:3,0:0:0:0:
23,204,29713,1,0,0:0:0:0:
27,200,29786,2,0,L|119:216,1,82.5,12|4,0:1|1:3,0:0:0:0:
287,339,30081,5,12,0:0:0:0:
385,194,30228,1,2,0:0:0:0:
385,194,30301,1,2,0:3:0:0:
385,194,30375,2,0,L|394:264,1,41.25,12|0,0:1|0:0,0:0:0:0:
427,307,30522,2,0,L|416:247,1,41.25,4|0,1:3|0:0,0:0:0:0:
445,143,30669,6,0,B|407:140|407:140|344:170|344:170|298:163,1,148.49999546814,4|0,1:0|0:0,0:0:0:0:
289,161,30963,1,8,0:1:0:0:
366,52,31110,2,0,L|355:-16,2,49.4999984893799,4|0|6,1:3|0:0|1:0,0:0:0:0:
440,130,31404,5,8,0:0:0:0:
273,35,31551,1,8,0:1:0:0:
124,147,31698,2,0,P|83:158|19:70,1,148.49999546814,4|0,1:2|0:0,0:0:0:0:
25,60,31992,5,4,1:3:0:0:
118,20,32139,5,8,0:1:0:0:
234,119,32286,5,8,0:1:0:0:
237,122,32360,5,8,0:0:0:0:
241,124,32433,5,2,0:3:0:0:
311,151,32581,5,4,0:3:0:0:
397,250,32728,5,12,0:1:0:0:
497,212,32875,5,8,0:1:0:0:
431,47,33022,5,12,0:1:0:0:
431,47,33316,2,0,L|419:121,1,66,8|4,0:1|0:3,0:0:0:0:
282,237,33610,2,0,B|213:216|213:216|236:149,1,132,4|8,1:2|0:1,0:0:0:0:
162,28,34051,2,0,B|137:8|137:8|50:24,1,99,2|0,1:2|0:0,0:0:0:0:
50,25,34345,1,4,1:3:0:0:
95,165,34492,2,0,L|104:125,1,33,8|0,0:1|0:0,0:0:0:0:
278,28,34713,5,2,1:0:0:0:
278,28,34786,2,0,L|367:50,1,66,4|4,0:3|1:3,0:0:0:0:
221,117,35081,1,8,0:1:0:0:
473,104,35228,5,2,0:3:0:0:
473,104,35301,1,2,0:3:0:0:
473,104,35375,2,0,L|390:124,1,66,4|0,0:3|1:0,0:0:0:0:
500,246,35669,1,8,0:1:0:0:
434,327,35816,2,0,P|429:283|430:170,1,132,4|4,1:3|0:3,0:0:0:0:
246,222,36257,5,8,0:1:0:0:
189,277,36404,2,0,P|164:292|74:241,1,132,2|4,1:2|0:3,0:0:0:0:
0,160,36845,2,0,L|68:146,1,66,4|8,1:2|0:1,0:0:0:0:
64,146,37066,1,8,1:2:0:0:
64,146,37139,1,4,1:3:0:0:
124,94,37286,1,4,0:3:0:0:
86,25,37433,1,8,0:1:0:0:
31,79,37581,1,2,1:0:0:0:
31,79,37654,1,2,0:3:0:0:
31,79,37728,1,4,1:0:0:0:
159,167,37875,5,4,0:3:0:0:
159,167,38022,2,0,B|235:158|218:193|298:179,1,132,8|2,0:1|1:3,0:0:0:0:
356,326,38463,2,0,P|358:293|378:267,1,66,4|8,0:3|0:1,0:0:0:0:
512,155,38757,2,0,L|444:165,1,66,2|2,1:2|0:3,0:0:0:0:
446,164,39051,1,4,1:3:0:0:
238,60,39198,2,0,L|312:73,1,66,8|8,1:0|0:1,0:0:0:0:
331,56,39419,2,0,L|324:89,1,33,8|12,1:2|1:2,0:0:0:0:
77,147,39639,5,12,1:0:0:0:
98,142,39713,1,8,1:0:0:0:
121,136,39786,1,8,1:3:0:0:
250,254,39933,1,8,1:0:0:0:
285,261,40007,1,8,1:0:0:0:
321,269,40081,1,4,1:0:0:0:
423,366,40375,5,8,1:0:0:0:
236,220,40522,2,0,P|216:203|170:199,1,66,4|0,1:2|0:0,0:0:0:0:
249,354,40816,5,4,1:2:0:0:
426,166,40963,2,0,P|446:149|492:145,1,66,8|4,0:1|1:0,0:0:0:0:
484,143,41404,5,4,0:3:0:0:
333,109,41551,5,8,1:0:0:0:
208,81,41698,5,8,1:0:0:0:
217,81,41772,1,2,0:1:0:0:
212,86,41845,1,12,1:0:0:0:
130,76,41992,6,0,L|136:46,1,16.5,4|0,1:2|0:0,0:0:0:0:
9,152,42286,6,0,P|54:151|163:161,1,148.49999546814,4|2,1:2|1:0,0:0:0:0:
231,220,42875,1,4,0:3:0:0:
452,250,43022,6,0,P|428:254|347:281,1,98.9999969787599,12|2,0:1|0:3,0:0:0:0:
209,341,43463,2,0,P|234:366|302:359,1,98.9999969787599,2|0,1:0|0:0,0:0:0:0:
273,290,43904,1,2,1:2:0:0:
72,221,44051,5,2,1:1:0:0:
72,221,44125,1,2,1:0:0:0:
72,221,44198,2,0,P|47:246|54:314,1,98.9999969787599,12|2,0:1|0:0,0:0:0:0:
178,168,44639,2,0,P|141:159|72:137,1,98.9999969787599,4|0,0:3|0:3,0:0:0:0:
193,276,45081,2,0,L|254:261,1,49.4999984893799,4|2,0:3|1:0,0:0:0:0:
241,264,45301,1,2,1:0:0:0:
241,264,45375,6,0,L|232:326,1,49.4999984893799,12|0,0:1|0:0,0:0:0:0:
108,233,45669,1,2,1:2:0:0:
351,175,45816,6,0,L|454:194,2,98.9999969787599,4|8|4,0:3|0:0|1:3,0:0:0:0:
351,175,46478,1,4,1:3:0:0:
351,175,46551,1,12,0:1:0:0:
482,175,46698,5,8,0:1:0:0:
286,245,46845,1,8,0:1:0:0:
365,149,46992,5,8,0:1:0:0:
505,283,47139,2,0,B|410:273|444:328|337:305,1,165,4|8,0:0|1:0,0:0:0:0:
345,306,47581,1,2,0:3:0:0:
122,246,47728,2,0,B|153:222|153:222|205:230,1,82.5,2|4,1:0|1:3,0:0:0:0:
195,228,47948,1,0,0:0:0:0:
195,228,48022,2,0,L|200:286,1,41.25,8|0,1:0|0:0,0:0:0:0:
101,336,48169,6,0,B|10:396|-45:352|-11:304|23:325,1,165,2|2,1:2|1:0,0:0:0:0:
217,248,48610,2,0,B|273:237|273:237|304:265|310:298,1,123.75,8|0,0:1|0:0,0:0:0:0:
289,310,48904,1,2,1:0:0:0:
73,230,49051,2,0,B|56:207|56:207|85:143,1,82.5,4|10,1:3|1:0,0:0:0:0:
85,67,49345,6,0,P|103:146|188:146,1,165,2|4,1:0|1:3,0:0:0:0:
359,275,49786,2,0,P|386:253|376:199,1,82.5,12|2,1:0|1:2,0:0:0:0:
283,199,50081,5,2,1:0:0:0:
331,365,50228,1,4,1:3:0:0:
471,251,50375,1,12,1:0:0:0:
359,275,50522,5,4,1:3:0:0:
359,275,50595,1,0,0:0:0:0:
359,275,50669,2,0,L|218:295,1,123.75,4|2,1:0|1:0,0:0:0:0:
274,272,50963,6,0,L|323:265,1,49.4999984893799,4|2,1:2|1:0,0:0:0:0:
375,161,51110,5,8,0:0:0:0:
361,150,51183,1,8,0:0:0:0:
332,151,51257,1,8,1:0:0:0:
302,169,51331,1,2,1:0:0:0:
296,204,51404,1,6,0:0:0:0:
324,240,51478,1,2,1:2:0:0:
359,275,51551,1,8,1:3:0:0:
315,338,51625,1,8,1:0:0:0:
315,338,51698,6,0,B|304:295|349:281|349:281|440:302,1,165,12|2,1:0|1:0,0:0:0:0:
172,174,52139,2,0,L|70:189,1,82.5,8|2,1:1|0:3,0:0:0:0:
90,186,52360,1,2,0:3:0:0:
74,193,52433,5,6,1:3:0:0:
309,111,52581,2,0,B|328:146|328:146|311:197,1,82.5,2|2,1:3|1:1,0:0:0:0:
39,169,52875,6,0,B|130:164|107:205|202:189,1,165,8|0,1:0|0:0,0:0:0:0:
275,9,53316,2,0,L|368:24,1,82.5,2|2,1:0|0:3,0:0:0:0:
384,3,53536,1,2,0:3:0:0:
222,113,53683,1,0,0:0:0:0:
222,113,53757,2,0,L|210:66,2,41.25,2|0|2,1:3|0:0|1:0,0:0:0:0:
445,209,54051,6,0,P|445:163|342:147,1,165,8|2,1:0|0:3,0:0:0:0:
445,209,54492,1,2,1:0:0:0:
281,64,54639,1,2,0:3:0:0:
281,64,54713,1,2,0:3:0:0:
281,64,54786,2,0,P|249:84|242:132,1,82.5,2|0,1:0|1:2,0:0:0:0:
281,64,55081,5,8,0:1:0:0:
144,254,55228,2,0,P|184:268|277:189,1,165,12|2,1:0|1:3,0:0:0:0:
144,254,55669,1,8,1:0:0:0:
359,332,55816,5,2,1:3:0:0:
359,332,55889,1,0,0:0:0:0:
359,332,55963,2,0,L|367:263,1,41.25,2|2,1:0|1:0,0:0:0:0:
480,179,56110,1,4,1:3:0:0:
458,175,56183,1,2,0:3:0:0:
429,193,56257,1,8,1:0:0:0:
487,307,56404,6,0,L|479:266,1,41.25,8|8,1:0|1:2,0:0:0:0:
273,203,56551,6,0,B|238:176|196:197|196:197|172:247|103:238,1,165,4|8,1:0|0:1,0:0:0:0:
296,106,56992,1,2,1:3:0:0:
43,44,57139,6,0,L|144:55,1,82.5,4|2,0:3|1:2,0:0:0:0:
125,52,57360,1,0,0:0:0:0:
125,52,57433,2,0,L|109:114,1,41.25,8|2,1:0|0:1,0:0:0:0:
295,190,57581,6,0,B|339:178|339:178|404:202|404:202|458:187,1,165,8|2,1:0|0:0,0:0:0:0:
201,147,58022,2,0,B|177:181|177:181|195:228,1,82.5,8|2,1:0|0:3,0:0:0:0:
191,219,58242,1,2,1:0:0:0:
202,235,58316,5,4,1:3:0:0:
474,100,58463,2,0,L|400:112,1,41.25,2|0,1:3|0:0,0:0:0:0:
419,116,58610,1,8,0:1:0:0:
225,7,58757,2,0,L|289:19,1,41.25,12|0,0:1|0:0,0:0:0:0:
340,60,58904,5,2,0:1:0:0:
301,43,58978,1,2,0:1:0:0:
260,48,59051,1,2,0:1:0:0:
225,70,59125,1,2,0:1:0:0:
192,138,59198,5,12,1:0:0:0:
285,165,59492,5,2,1:1:0:0:
246,182,59566,1,2,1:1:0:0:
205,177,59639,1,2,1:1:0:0:
170,155,59713,1,2,1:1:0:0:
137,87,59786,5,12,1:2:0:0:
192,138,60081,5,2,1:0:0:0:
153,121,60154,1,0,0:0:0:0:
112,126,60228,1,4,1:3:0:0:
77,148,60301,1,0,0:0:0:0:
44,216,60375,5,8,1:0:0:0:
44,216,60522,2,0,P|82:229|123:234,1,55.2749973853685,2|2,1:2|1:0,0:0:0:0:
166,335,60669,6,0,B|174:321|174:321|175:299|175:299|183:281,1,55.2749973853685,12|2,0:1|1:1,0:0:0:0:
333,137,60816,2,0,B|335:157|335:157|344:176|344:176|348:213,1,55.2749973853685,8|8,1:2|1:2,0:0:0:0:
434,251,60963,5,8,0:1:0:0:
434,251,61036,1,0,0:0:0:0:
434,251,61110,2,0,L|426:286,1,30.5250007452393,4|2,1:2|1:0,0:0:0:0:
483,378,61257,6,0,P|442:318|340:321,1,165,4|8,1:3|0:1,0:0:0:0:
261,376,61698,1,2,0:3:0:0:
28,205,61845,6,0,L|119:223,1,82.5,2|4,1:0|1:3,0:0:0:0:
108,221,62066,1,0,0:0:0:0:
108,221,62139,2,0,L|93:275,1,41.25,8|0,0:1|0:0,0:0:0:0:
261,376,62286,6,0,B|247:321|247:321|280:287|280:287|256:225,1,165,8|0,1:0|1:0,0:0:0:0:
455,48,62728,2,0,B|476:86|476:86|452:131,1,82.5,4|2,1:3|0:3,0:0:0:0:
494,201,63022,5,2,1:0:0:0:
203,65,63169,2,0,L|307:83,1,82.5,4|8,1:3|0:1,0:0:0:0:
284,79,63389,1,0,1:0:0:0:
301,79,63463,2,0,B|211:79|232:121|128:102,1,165,8|2,1:0|0:3,0:0:0:0:
251,200,63904,1,8,1:0:0:0:
172,21,64051,2,0,P|161:15|122:8,2,41.25,2|2|2,0:3|0:3|1:0,0:0:0:0:
28,136,64345,1,4,1:3:0:0:
140,104,64492,1,8,0:0:0:0:
286,186,64639,6,0,P|284:253|187:271,1,165,12|2,1:0|0:3,0:0:0:0:
391,161,65081,2,0,L|496:180,1,82.5,8|2,0:1|0:3,0:0:0:0:
472,175,65301,1,0,0:0:0:0:
472,175,65375,2,0,L|464:107,1,41.25,2|0,1:0|0:0,0:0:0:0:
354,83,65522,2,0,L|345:21,1,41.25,4|2,1:2|1:0,0:0:0:0:
243,0,65669,1,8,0:1:0:0:
275,176,65816,5,12,1:0:0:0:
275,176,65889,1,0,1:0:0:0:
275,176,65963,2,0,B|245:207|245:207|139:191,1,123.75,4|2,0:3|0:3,0:0:0:0:
86,140,66257,2,0,B|71:144|71:144|64:221,1,82.5,8|0,1:0|0:0,0:0:0:0:
292,60,66551,1,2,1:0:0:0:
185,18,66698,2,0,L|133:0,2,41.25,4|0|8,1:3|0:0|0:1,0:0:0:0:
373,80,66992,6,0,P|330:75|214:116,1,165,4|2,1:0|1:0,0:0:0:0:
426,310,67433,2,0,P|441:277|436:222,1,82.5,8|0,0:1|0:0,0:0:0:0:
242,286,67728,1,2,1:0:0:0:
255,207,67875,2,0,P|240:240|245:295,1,82.5,6|8,1:3|0:1,0:0:0:0:
319,255,68169,6,0,L|359:250,1,41.25,12|0,0:1|0:0,0:0:0:0:
274,75,68316,2,0,L|355:64,1,82.5,4|2,0:3|1:3,0:0:0:0:
155,181,68610,1,8,1:1:0:0:
371,262,68757,5,2,0:3:0:0:
371,262,68831,1,2,1:3:0:0:
371,262,68904,1,4,1:0:0:0:
254,175,69051,1,0,1:2:0:0:
417,187,69198,5,8,1:0:0:0:
198,297,69345,2,0,L|173:358,2,41.25,8|8|8,0:0|0:0|0:0,0:0:0:0:
443,196,69639,2,0,L|478:256,2,41.25,4|4|8,0:3|0:3|1:0,0:0:0:0:
153,104,69933,2,0,L|170:66,1,41.25,4|0,1:3|0:0,0:0:0:0:
288,21,70081,5,8,1:0:0:0:
308,30,70154,1,8,1:0:0:0:
314,66,70228,1,8,1:0:0:0:
289,94,70301,1,8,1:0:0:0:
251,120,70375,1,8,1:2:0:0:
216,162,70448,1,8,1:2:0:0:
217,219,70522,1,6,0:0:0:0:
261,286,70595,1,0,0:0:0:0:
261,286,70669,6,0,B|296:284|324:311|324:311|344:258|366:203,1,165,4|8,0:1|0:1,0:0:0:0:
495,100,71110,2,0,L|437:112,1,41.25,0|2,1:0|0:3,0:0:0:0:
436,127,71257,1,4,1:3:0:0:
281,202,71404,5,2,1:2:0:0:
332,345,71551,1,12,0:1:0:0:
281,202,71698,2,0,B|375:196|348:245|449:226,1,165,2|4,1:2|1:3,0:0:0:0:
197,155,72139,2,0,B|174:188|174:188|189:243,1,82.5,12|0,0:1|1:3,0:0:0:0:
21,344,72433,5,12,1:2:0:0:
138,301,72581,1,4,0:3:0:0:
138,301,72654,1,2,0:3:0:0:
138,301,72728,1,12,0:1:0:0:
280,177,72875,5,4,1:3:0:0:
146,74,73022,2,0,B|161:62|161:62|230:72,1,82.5,4|2,1:0|1:2,0:0:0:0:
302,83,73316,1,8,0:1:0:0:
60,261,73463,1,4,1:3:0:0:
60,261,73536,1,2,0:3:0:0:
60,261,73610,2,0,L|68:212,1,41.25,4|0,1:3|0:0,0:0:0:0:
33,155,73757,2,0,L|45:108,1,41.25,4|0,1:3|0:0,0:0:0:0:
231,145,73904,5,12,0:1:0:0:
60,261,74051,2,0,B|111:255|111:255|141:272|141:272|202:266,1,123.75,4|0,1:3|1:0,0:0:0:0:
192,265,74345,1,2,0:3:0:0:
401,174,74492,5,12,0:1:0:0:
335,384,74639,2,0,P|334:348|352:235,1,123.75,6|0,0:3|1:0,0:0:0:0:
357,255,74933,2,0,P|335:255|272:247,1,82.5,4|12,0:3|0:1,0:0:0:0:
439,62,75228,1,0,0:0:0:0:
439,62,75301,1,0,1:0:0:0:
439,62,75375,6,0,B|389:53|371:101|371:101|402:178,1,165,4|8,1:0|0:1,0:0:0:0:
480,323,75816,2,0,L|487:279,1,41.25,2|2,0:0|0:3,0:0:0:0:
502,191,75963,5,4,1:3:0:0:
384,253,76110,1,4,1:3:0:0:
234,84,76257,5,12,0:1:0:0:
400,173,76404,2,0,B|396:147|376:141|376:141|265:166,1,123.75,4|0,1:3|0:0,0:0:0:0:
279,158,76698,2,0,L|279:216,1,41.25,4|0,1:3|0:0,0:0:0:0:
123,352,76845,5,12,0:1:0:0:
200,247,76992,1,4,1:3:0:0:
199,384,77139,5,12,0:0:0:0:
129,221,77286,1,2,0:0:0:0:
283,361,77433,5,12,0:1:0:0:
66,272,77581,1,4,1:3:0:0:
313,292,77728,6,0,P|320:266|323:208,1,82.5,4|6,1:0|0:0,0:0:0:0:
299,194,77948,2,0,L|363:186,1,41.25,2|12,0:0|0:1,0:0:0:0:
213,257,78169,1,4,1:3:0:0:
392,318,78316,2,0,B|345:310|345:310|291:344|291:344|207:340,1,165,6|12,1:0|0:1,0:0:0:0:
57,381,78757,6,0,L|66:313,1,41.25,4|2,1:3|0:3,0:0:0:0:
66,312,78904,1,4,1:3:0:0:
241,243,79051,6,0,L|229:168,1,41.25,4|0,1:3|0:0,0:0:0:0:
222,129,79198,1,8,0:1:0:0:
433,102,79345,5,8,0:1:0:0:
433,102,79419,1,8,0:0:0:0:
433,102,79492,2,0,P|431:78|399:35,1,57.7499982376099,6|0,0:3|0:0,0:0:0:0:
282,34,79639,6,0,P|268:21|220:13,1,57.7499982376099,4|0,0:3|0:0,0:0:0:0:
60,100,79786,6,0,B|1:134|72:187|145:134|115:38|62:8,1,230.99999295044,12|8,0:1|0:1,0:0:0:0:
67,11,81110,5,0,0:3:0:0:
170,78,81404,5,0,0:0:0:0:
170,78,81551,2,0,L|234:84,1,61.8749981117249
395,108,82433,5,2,0:0:0:0:
395,108,83316,1,0,0:0:0:0:
501,12,83463,6,0,B|404:6|446:50|351:35,1,148.49999546814,0|0,1:1|0:0,0:0:0:0:
357,36,84786,1,2,0:0:0:0:
91,159,85669,5,0,0:0:0:0:
91,159,85816,1,4,0:3:0:0:
91,159,86257,2,0,L|79:209,1,49.4999984893799
272,370,87139,5,2,0:0:0:0:
410,327,88022,5,0,0:0:0:0:
410,327,88169,1,0,0:0:0:0:
407,100,88904,6,0,B|425:97|425:97|459:111|459:111|485:108,1,70.1250013375282,4|0,1:0|0:0,0:0:0:0:
474,108,89051,2,0,B|458:106|458:106|424:120|424:120|406:117,1,70.1250013375282,4|0,1:0|0:0,0:0:0:0:
474,109,89345,6,0,B|442:84|409:111|409:111|368:149|368:149|333:180|295:146,1,197.99999395752,8|8,0:1|1:2,0:0:0:0:
287,145,89713,1,2,0:0:0:0:
292,146,89786,1,12,0:1:0:0:
117,63,89933,6,0,L|180:55,1,41.25,2|2,1:2|0:0,0:0:0:0:
158,58,90081,1,8,0:1:0:0:
177,54,90154,1,0,0:0:0:0:
158,48,90228,1,0,0:0:0:0:
128,63,90301,1,0,0:0:0:0:
112,107,90375,1,8,0:1:0:0:
139,148,90448,1,2,1:3:0:0:
186,181,90522,1,10,1:2:0:0:
196,219,90595,1,2,1:2:0:0:
186,245,90669,5,8,1:0:0:0:
160,250,90742,1,2,1:3:0:0:
153,234,90816,1,8,1:2:0:0:
169,221,90889,1,2,1:2:0:0:
201,216,90963,1,8,1:0:0:0:
245,243,91036,1,2,1:2:0:0:
269,294,91110,2,0,L|250:361,1,41.25,2|2,1:2|1:3,0:0:0:0:
336,222,91257,5,8,1:0:0:0:
380,182,91331,1,2,1:2:0:0:
453,174,91404,1,2,1:2:0:0:
512,232,91478,1,2,1:2:0:0:
512,232,91551,2,0,L|499:283,1,41.25,8|2,1:0|1:3,0:0:0:0:
388,363,91698,6,0,B|396:386|396:386|434:373|434:373|409:270,1,165,8|2,1:0|1:2,0:0:0:0:
410,275,92066,1,2,1:3:0:0:
410,275,92139,1,12,1:0:0:0:
224,127,92286,6,0,L|284:134,1,41.25,4|2,1:3|1:2,0:0:0:0:
380,188,92433,1,8,1:0:0:0:
341,169,92507,1,2,1:3:0:0:
281,177,92581,1,2,1:2:0:0:
223,224,92654,1,2,1:2:0:0:
223,224,92728,2,0,L|213:282,1,41.25,8|2,1:0|1:3,0:0:0:0:
96,351,92875,5,10,1:2:0:0:
26,335,92948,1,2,1:2:0:0:
3,326,93022,2,0,L|18:257,1,41.25,8|2,1:0|1:3,0:0:0:0:
95,206,93169,1,4,1:3:0:0:
112,202,93242,1,2,1:2:0:0:
148,192,93316,2,0,L|133:117,1,41.25,8|2,1:0|1:0,0:0:0:0:
29,77,93463,2,0,L|89:87,1,41.25,4|2,1:3|1:0,0:0:0:0:
252,190,93610,5,8,1:0:0:0:
223,224,93683,1,2,1:2:0:0:
160,246,93757,1,2,1:2:0:0:
86,238,93831,1,2,1:2:0:0:
37,177,93904,1,8,1:0:0:0:
318,271,94051,6,12,B|414:262|386:310|487:285,1,165,12|2,1:0|1:0,1:1:0:0:
487,295,94419,1,2,1:2:0:0:
487,295,94492,2,0,L|478:226,1,41.25,14|2,1:2|1:0,0:0:0:0:
371,192,94639,2,0,L|362:118,1,41.25,2|2,1:2|1:0,0:0:0:0:
481,254,94786,5,8,1:1:0:0:
447,230,94860,1,2,1:3:0:0:
406,230,94933,1,8,1:2:0:0:
368,248,95007,1,2,1:2:0:0:
339,289,95081,1,12,1:1:0:0:
305,323,95154,1,2,1:0:0:0:
260,348,95228,1,8,1:1:0:0:
208,342,95301,1,2,1:0:0:0:
157,289,95375,1,10,1:2:0:0:
65,176,95522,5,14,1:2:0:0:
65,176,95595,1,0,0:0:0:0:
65,176,95669,2,0,L|126:193,1,41.25,8|2,1:0|1:0,0:0:0:0:
226,123,95816,2,0,L|169:141,1,41.25,6|8,1:2|1:0,0:0:0:0:
49,192,95963,5,10,1:2:0:0:
237,105,96110,1,8,1:0:0:0:
10,41,96257,1,8,1:0:0:0:
10,41,96331,1,2,1:2:0:0:
10,41,96404,6,0,B|62:16|62:16|124:62|88:136,1,160.874992635727,12|0,1:0|0:0,0:0:0:0:
185,172,96698,2,0,P|179:198|167:222,1,53.6249975452424,8|2,1:0|1:0,0:0:0:0:
96,284,96845,5,14,1:2:0:0:
139,259,96919,1,2,1:2:0:0:
188,262,96992,1,2,1:0:0:0:
226,293,97066,1,2,1:2:0:0:
239,340,97139,5,8,1:0:0:0:
203,305,97213,1,2,1:2:0:0:
154,298,97286,1,2,1:0:0:0:
106,311,97360,1,2,1:2:0:0:
76,350,97433,5,10,1:2:0:0:
119,325,97507,1,2,1:2:0:0:
168,319,97581,1,8,1:0:0:0:
210,344,97654,1,2,1:2:0:0:
219,359,97728,5,10,1:2:0:0:
271,364,97801,1,2,1:0:0:0:
320,343,97875,1,8,1:0:0:0:
338,292,97948,1,10,1:2:0:0:
327,278,98022,5,8,1:0:0:0:
361,233,98095,1,10,1:2:0:0:
416,218,98169,1,8,1:0:0:0:
469,239,98242,1,10,1:2:0:0:
512,317,98316,5,8,1:0:0:0:
201,208,98757,6,0,P|171:205|73:189,1,123.74999622345,4|12,1:2|0:1,0:0:0:0:
145,226,99786,1,2,0:3:0:0:
322,142,99933,2,0,P|340:138|404:132,1,74.2499977340699,2|2,1:0|1:2,0:0:0:0:
489,174,100522,5,2,1:1:0:0:
489,174,100595,1,0,0:0:0:0:
489,174,100669,2,0,P|471:170|407:164,1,74.2499977340699,12|4,0:1|0:3,0:0:0:0:
300,125,101257,2,0,P|288:125|248:133,1,49.4999984893799,4|4,0:0|0:3,0:0:0:0:
188,166,101698,1,2,1:0:0:0:
103,40,101845,2,0,P|96:54|90:93,1,49.4999984893799,12|2,0:1|1:2,0:0:0:0:
10,171,102286,6,0,L|35:164,1,24.74999924469,4|4,0:3|0:0,0:0:0:0:
227,266,102581,2,0,L|213:237,1,24.74999924469,8|2,0:0|1:0,0:0:0:0:
98,232,102875,5,4,1:3:0:0:
98,232,102948,1,4,1:3:0:0:
98,232,103022,1,12,0:1:0:0:
226,163,103169,1,8,0:1:0:0:
225,266,103316,5,8,0:1:0:0:
88,103,103463,2,0,B|145:108|145:108|181:76|181:76|258:82,1,165,8|4,0:1|1:3,0:0:0:0:
82,205,103904,2,0,L|-12:223,1,82.5,8|2,1:0|0:3,0:0:0:0:
0,220,104198,1,2,1:0:0:0:
209,155,104345,2,0,L|218:212,2,41.25,4|0|8,1:3|0:0|1:0,0:0:0:0:
339,190,104639,6,0,B|429:180|412:231|502:211,1,165,2|2,1:2|1:0,0:0:0:0:
358,361,105081,2,0,P|371:287|371:241,1,82.5,8|2,0:1|0:3,0:0:0:0:
470,345,105375,1,2,1:0:0:0:
247,270,105522,2,0,L|194:282,2,41.25,4|0|10,1:3|0:0|1:0,0:0:0:0:
130,315,105816,5,2,1:0:0:0:
263,191,105963,1,4,0:0:0:0:
280,357,106110,5,4,1:3:0:0:
159,202,106257,2,0,P|121:197|68:200,1,82.5,12|2,1:0|1:2,0:0:0:0:
76,198,106478,1,0,0:0:0:0:
76,198,106551,1,2,1:0:0:0:
343,80,106698,2,0,L|350:132,1,41.25,4|0,1:3|1:0,0:0:0:0:
368,154,106845,1,12,1:0:0:0:
257,81,106992,1,4,1:3:0:0:
435,82,107139,5,4,1:0:0:0:
240,182,107286,1,0,1:0:0:0:
468,220,107433,5,4,1:2:0:0:
233,66,107581,1,8,0:0:0:0:
211,54,107654,1,8,0:0:0:0:
172,65,107728,1,8,1:0:0:0:
200,89,107801,1,2,1:0:0:0:
252,84,107875,1,6,0:0:0:0:
296,47,107948,1,2,1:2:0:0:
345,23,108022,1,8,1:3:0:0:
410,47,108095,1,8,1:0:0:0:
410,47,108169,6,0,B|432:73|408:103|408:103|341:129|341:129|296:114|300:86,1,197.99999395752,12|2,1:0|1:0,0:0:0:0:
67,184,108610,2,0,L|183:200,1,82.5,8|2,1:1|0:3,0:0:0:0:
148,195,108831,1,2,0:3:0:0:
148,195,108904,2,0,L|151:242,1,41.25,6|0,1:3|0:0,0:0:0:0:
76,325,109051,1,2,1:3:0:0:
242,200,109198,1,2,1:1:0:0:
427,324,109345,6,0,B|449:330|449:330|456:292|456:292|338:265,1,165,8|0,1:0|0:0,0:0:0:0:
244,91,109786,2,0,B|222:126|222:126|236:177,1,82.5,2|2,1:0|0:3,0:0:0:0:
51,353,110081,1,2,1:0:0:0:
200,286,110228,1,2,1:3:0:0:
200,286,110301,1,0,0:0:0:0:
200,286,110375,1,2,1:0:0:0:
35,268,110522,6,0,B|126:262|105:315|201:287,1,165,8|0,1:0|0:0,0:0:0:0:
470,157,110963,2,0,L|334:183,1,123.75,2|2,1:0|0:3,0:0:0:0:
313,167,111257,2,0,L|322:230,1,41.25,2|0,1:0|0:0,0:0:0:0:
468,278,111404,1,0,1:2:0:0:
478,260,111478,1,0,0:0:0:0:
472,236,111551,1,8,0:1:0:0:
348,180,111698,5,12,1:0:0:0:
227,125,111845,1,4,0:3:0:0:
389,100,111992,5,0,1:2:0:0:
166,227,112139,2,0,P|136:232|62:251,1,82.5,8|0,1:0|1:2,0:0:0:0:
85,243,112360,1,0,0:0:0:0:
85,243,112433,2,0,L|73:303,1,41.25,2|0,1:0|0:0,0:0:0:0:
308,104,112581,1,4,1:3:0:0:
305,80,112654,1,2,0:3:0:0:
302,52,112728,1,8,1:0:0:0:
139,128,112875,6,0,P|151:132|195:140,1,41.25,8|12,1:0|1:2,0:0:0:0:
385,256,113022,6,0,P|344:183|267:212,1,165,0|8,0:0|0:1,0:0:0:0:
385,256,113463,1,2,1:3:0:0:
155,349,113610,2,0,P|180:340|259:338,1,82.5,4|2,0:3|1:2,0:0:0:0:
315,347,113831,1,0,0:0:0:0:
327,353,113904,1,8,1:0:0:0:
168,261,114051,5,8,1:0:0:0:
256,112,114198,1,2,1:0:0:0:
259,237,114345,5,2,0:0:0:0:
68,123,114492,1,8,1:0:0:0:
68,123,114566,1,0,0:0:0:0:
68,123,114639,2,0,L|117:133,1,41.25,2|2,0:3|1:0,0:0:0:0:
192,178,114786,5,4,1:3:0:0:
137,53,114933,1,0,1:2:0:0:
54,207,115081,5,8,0:1:0:0:
245,98,115228,1,12,0:1:0:0:
419,249,115375,5,2,0:1:0:0:
381,242,115448,1,2,0:1:0:0:
346,276,115522,1,2,0:1:0:0:
306,284,115595,1,2,0:1:0:0:
236,263,115669,5,12,1:0:0:0:
0,186,115963,5,2,1:1:0:0:
38,179,116036,1,2,1:1:0:0:
73,213,116110,1,2,1:1:0:0:
113,221,116183,1,2,1:1:0:0:
183,200,116257,5,12,1:2:0:0:
353,0,116551,5,2,1:0:0:0:
343,37,116625,1,0,0:0:0:0:
297,54,116698,1,4,1:3:0:0:
273,87,116772,1,0,0:0:0:0:
262,159,116845,5,8,1:0:0:0:
262,159,116992,2,0,B|268:179|268:179|263:204|263:204|270:226,1,55.2749973853685,2|2,1:2|1:0,0:0:0:0:
351,352,117139,6,0,P|334:336|276:345,1,55.2749973853685,12|2,0:1|1:1,0:0:0:0:
115,243,117286,2,0,P|132:227|190:236,1,55.2749973853685,8|8,1:2|1:2,0:0:0:0:
362,129,117433,5,8,0:1:0:0:
362,129,117507,1,0,0:0:0:0:
362,129,117581,2,0,L|401:134,1,30.5250007452393,4|2,1:2|1:0,0:0:0:0:
447,222,117728,6,0,B|457:130|405:163|428:54,1,165,0|8,0:0|0:1,0:0:0:0:
333,282,118169,1,2,0:3:0:0:
288,159,118316,2,0,L|188:178,1,82.5,2|4,1:0|1:3,0:0:0:0:
183,166,118536,1,0,0:0:0:0:
183,166,118610,2,0,L|173:220,1,41.25,8|0,0:1|0:0,0:0:0:0:
226,289,118757,5,8,1:0:0:0:
245,384,118904,1,2,1:0:0:0:
119,287,119051,5,0,1:0:0:0:
267,208,119198,2,0,B|281:169|281:169|259:117,1,82.5,4|2,1:3|0:3,0:0:0:0:
265,131,119419,1,2,0:3:0:0:
265,131,119492,2,0,P|306:128|376:112,1,82.5,2|4,1:0|1:3,0:0:0:0:
299,324,119786,5,8,0:1:0:0:
446,130,119933,2,0,P|380:129|380:230,1,165,8|2,1:0|0:3,0:0:0:0:
420,380,120375,2,0,P|428:359|429:279,1,82.5,8|2,1:0|0:3,0:0:0:0:
432,299,120595,1,2,0:3:0:0:
432,299,120669,2,0,P|449:316|524:309,1,82.5,2|4,1:0|1:3,0:0:0:0:
274,325,120963,5,8,0:0:0:0:
512,181,121110,2,0,B|476:159|432:179|432:179|396:228|345:209,1,165,8|2,1:0|0:3,0:0:0:0:
153,96,121551,6,0,P|184:99|257:115,1,82.5,8|2,0:1|0:3,0:0:0:0:
234,108,121772,1,0,0:0:0:0:
234,108,121845,2,0,L|225:159,1,41.25,2|0,1:0|0:0,0:0:0:0:
74,53,121992,1,4,1:2:0:0:
87,28,122066,1,0,0:0:0:0:
117,19,122139,1,8,0:1:0:0:
388,33,122286,6,0,L|378:89,1,41.25,12|0,1:0|1:0,0:0:0:0:
273,254,122433,2,0,B|216:194|274:119|334:146|301:184,1,165,4|8,0:3|1:0,0:0:0:0:
476,305,122875,1,0,0:0:0:0:
476,305,122948,1,0,0:0:0:0:
476,305,123022,2,0,P|441:300|371:303,1,82.5,2|4,1:0|1:3,0:0:0:0:
218,187,123316,5,8,0:1:0:0:
33,371,123463,2,0,P|29:332|93:277,1,123.75,4|2,1:0|0:3,0:0:0:0:
83,264,123757,2,0,L|168:283,1,82.5,2|8,1:0|0:1,0:0:0:0:
329,115,124051,1,2,0:3:0:0:
233,149,124198,1,2,1:0:0:0:
412,227,124345,5,6,1:3:0:0:
509,275,124492,1,4,1:3:0:0:
409,136,124639,5,12,0:1:0:0:
302,312,124786,2,0,B|210:321|239:361|134:347,1,165,4|8,0:3|1:1,0:0:0:0:
379,217,125228,1,2,0:3:0:0:
379,217,125301,1,2,1:3:0:0:
379,217,125375,2,0,L|391:268,1,41.25,4|0,1:0|0:0,0:0:0:0:
259,163,125522,2,0,L|239:220,1,41.25
56,332,125669,5,8,1:0:0:0:
50,284,125742,1,2,1:3:0:0:
17,258,125816,1,8,0:0:0:0:
9,214,125889,1,8,0:0:0:0:
9,214,125963,2,0,P|31:213|114:195,1,82.5,8|4,0:0|0:3,0:0:0:0:
118,215,126183,2,0,P|118:194|110:159,1,41.25,4|8,0:3|1:0,0:0:0:0:
394,265,126404,5,4,1:3:0:0:
394,265,126478,1,2,1:3:0:0:
394,265,126551,1,8,1:0:0:0:
349,245,126625,1,8,1:0:0:0:
301,252,126698,1,8,1:0:0:0:
264,285,126772,1,8,1:0:0:0:
224,314,126845,1,8,1:2:0:0:
174,309,126919,1,8,1:2:0:0:
115,263,126992,6,0,B|126:221|126:221|114:204|114:204|142:91,1,154.6875,4|0,1:0|0:0,0:0:0:0:
269,62,127286,5,2,0:0:0:0:
269,62,127360,1,2,0:0:0:0:
269,62,127433,2,0,L|352:50,1,51.5625,2|2,1:0|1:3,0:0:0:0:
345,68,127581,1,4,1:3:0:0:
161,194,127728,2,0,B|205:173|205:173|272:186,1,103.125,12|6,0:1|0:0,0:0:0:0:
331,232,127948,1,2,0:0:0:0:
338,238,128022,2,0,P|344:220|356:158,1,51.5625,10|0,1:2|1:0,0:0:0:0:
432,361,128169,6,0,B|372:349|372:349|350:318|350:318|289:309,1,154.6875,2|2,1:2|0:3,0:0:0:0:
315,324,128463,2,0,L|227:312,1,51.5625,2|2,0:0|1:2,0:0:0:0:
92,383,128610,1,4,1:3:0:0:
82,361,128683,1,2,0:0:0:0:
94,338,128757,1,2,1:2:0:0:
26,184,128904,6,0,P|39:184|68:225,1,51.5625,12|2,0:1|0:3,0:0:0:0:
166,301,129051,1,2,1:2:0:0:
172,307,129198,6,0,P|172:294|213:265,1,51.5625,2|0,1:0|1:3,0:0:0:0:
361,181,129345,1,10,1:2:0:0:
394,198,129419,1,2,1:3:0:0:
370,220,129492,1,4,1:2:0:0:
318,224,129566,1,2,1:2:0:0:
275,196,129639,1,2,1:2:0:0:
231,167,129713,1,2,1:3:0:0:
177,177,129786,5,8,1:2:0:0:
196,159,129860,1,2,1:3:0:0:
220,151,129933,1,2,1:0:0:0:
245,151,130007,1,2,1:2:0:0:
245,151,130081,6,0,P|251:125|246:39,1,103.125,12|2,0:1|1:0,0:0:0:0:
335,0,130301,1,2,1:0:0:0:
345,7,130375,2,0,P|350:24|360:91,1,51.5625,4|0,1:3|1:0,0:0:0:0:
356,57,130522,6,0,B|254:33|279:131|155:83,1,206.25,2|2,1:0|0:0,0:0:0:0:
0,229,130963,2,0,P|20:232|72:247,1,68.75,2|2,1:0|0:0,0:0:0:0:
163,297,131155,5,2,0:0:0:0:
163,297,131251,2,0,P|180:276|231:269,1,68.75,12|2,0:1|0:0,0:0:0:0:
353,355,131443,5,2,0:0:0:0:
412,274,131539,2,0,P|395:253|344:246,1,68.75,8|2,0:0|0:0,0:0:0:0:
323,245,131686,6,0,P|340:235|385:233,1,51.5625,8|0,0:1|0:0,0:0:0:0:
210,161,131939,5,2,0:0:0:0:
210,161,132081,2,0,P|210:177|198:237,1,68.75,2|2,0:0|0:0,0:0:0:0:
64,172,132367,2,0,P|79:176|137:184,1,68.75,2|6,0:0|0:0,0:0:0:0:
297,171,132653,5,2,0:0:0:0:
418,288,132796,2,0,P|414:273|409:209,1,51.5625,8|0,0:1|0:0,0:0:0:0:
230,307,132955,2,0,P|234:292|239:228,1,51.5625,2|0,0:0|0:0,0:0:0:0:
289,361,133114,5,2,1:2:0:0:
440,155,133274,2,0,B|397:144|397:144|341:178|341:178|290:169,1,154.6875,2|0,0:0|0:0,0:0:0:0:
273,165,133580,1,2,1:2:0:0:
418,288,133733,1,2,0:0:0:0:
451,139,133886,6,0,B|425:129|425:129|396:131,1,51.5625,8|0,1:0|1:0,0:0:0:0:
299,249,134039,2,0,B|271:261|271:261|238:258,1,51.5625,2|0,1:2|0:0,0:0:0:0:
102,198,134187,5,10,1:2:0:0:
130,108,134336,1,0,1:2:0:0:
303,27,134484,5,8,1:0:0:0:
337,17,134558,1,2,1:2:0:0:
372,22,134633,1,2,1:2:0:0:
400,43,134707,1,2,1:0:0:0:
452,88,134781,5,10,1:2:0:0:
414,71,134855,1,2,1:2:0:0:
377,89,134930,1,2,1:2:0:0:
356,125,135004,1,2,1:0:0:0:
302,184,135078,5,12,1:0:0:0:
260,204,135152,1,2,1:2:0:0:
215,191,135227,1,2,1:2:0:0:
191,151,135301,1,2,1:0:0:0:
191,151,135375,6,0,B|318:135|277:231|409:204,1,230.99999295044,4|0,1:2|0:0,0:0:0:0:
401,220,136404,6,0,P|351:244|399:207,1,173.24999471283
414,375,145816,6,0,P|395:376|351:386,1,57.7499982376099,2|0,0:0|1:0,0:0:0:0:
414,375,146110,1,0,0:0:0:0:
226,272,146257,2,0,P|253:278|306:285,1,57.7499982376099,2|0,0:0|0:0,0:0:0:0:
282,282,146477,1,0,0:0:0:0:
282,282,146551,2,0,P|304:282|346:275,1,57.7499982376099,0|0,0:0|3:0,0:0:0:0:
133,352,146845,5,0,0:0:0:0:
123,238,146992,2,0,P|127:265|133:367,1,115.49999647522,2|0,0:0|0:0,0:0:0:0:
310,205,147433,2,0,P|317:184|322:131,1,57.7499982376099,0|0,0:0|1:0,0:0:0:0:
227,166,147727,5,0,0:0:0:0:
428,289,147875,2,0,P|439:235|377:205,2,115.49999647522,0|2|0,0:0|0:0|0:0,0:0:0:0:
337,341,148610,2,0,P|305:335|268:333,1,57.7499982376099,0|2,1:0|0:3,0:0:0:0:
279,333,148830,1,0,0:0:0:0:
279,333,148904,2,0,P|255:335|212:347,1,57.7499982376099,0|0,0:0|1:0,0:0:0:0:
25,130,149345,6,0,B|78:113|78:113|143:158,1,115.49999647522,2|2,0:0|0:3,0:0:0:0:
76,260,149786,2,0,L|60:195,1,57.7499982376099,0|2,1:0|0:3,0:0:0:0:
279,85,150080,2,0,L|290:29,1,57.7499982376099,2|0,0:0|0:0,0:0:0:0:
290,28,150301,1,0,0:0:0:0:
290,28,150375,1,2,0:3:0:0:
251,162,150522,6,0,P|279:135|370:127,1,115.49999647522
421,199,150963,2,0,P|437:204|494:237,1,57.7499982376099
421,199,151257,1,2,0:0:0:0:
277,289,151404,2,0,P|290:263|300:236,1,57.7499982376099,2|0,0:3|0:0,0:0:0:0:
411,279,151698,6,0,B|436:328|436:328|387:366,1,115.49999647522,0|0,1:0|0:0,0:0:0:0:
314,277,152139,1,0,0:0:0:0:
314,277,152286,1,2,0:3:0:0:
115,346,152433,5,2,0:0:0:0:
164,237,152580,2,0,L|228:227,1,57.7499982376099
475,47,152875,6,0,P|407:56|416:146,1,160.874992635727,4|0,1:2|0:0,0:0:0:0:
270,65,153169,2,0,P|290:47|335:50,1,53.6249975452424,4|0,1:3|0:0,0:0:0:0:
403,135,153316,5,2,1:0:0:0:
200,272,153463,1,2,1:3:0:0:
200,272,153536,1,2,1:0:0:0:
200,272,153610,2,0,P|271:272|295:185,1,160.874992635727,6|0,1:2|0:0,0:0:0:0:
238,93,153904,6,0,B|229:110|229:110|225:135|225:135|214:156,1,53.6249975452424,8|0,1:0|0:0,0:0:0:0:
386,228,154051,6,0,B|395:245|395:245|399:270|399:270|410:291,1,53.6249975452424,8|0,1:2|0:0,0:0:0:0:
202,384,154198,5,4,0:0:0:0:
335,333,154345,1,10,1:2:0:0:
165,282,154492,5,8,1:1:0:0:
55,232,154639,1,2,1:0:0:0:
166,62,154786,6,0,B|184:43|224:43|224:43|263:94,1,107.249995090485,12|2,0:1|1:2,0:0:0:0:
329,183,155007,2,0,B|352:202|387:202|387:202|427:150,1,107.249995090485,12|0,0:1|1:0,0:0:0:0:
512,72,155227,2,0,L|449:83,1,53.6249975452424,12|0,0:1|0:0,0:0:0:0:
240,163,155375,6,0,L|204:158,1,26.8124987726212
224,171,155448,6,0,L|197:174,1,26.8124987726212
177,165,155522,6,0,L|129:156,1,26.8124987726212
111,198,155595,6,2,L|84:203,1,26.8124987726212
0,259,155669,6,0,P|76:245|108:342,1,173.24999471283,12|6,1:1|1:3,0:0:0:0:
412,222,156110,2,0,L|307:237,1,86.6249973564149,2|2,1:3|1:1,0:0:0:0:
149,21,156404,5,8,1:0:0:0:
149,21,156477,1,0,0:0:0:0:
149,21,156551,2,0,P|187:15|230:103,1,129.937496034622,4|0,0:3|1:0,0:0:0:0:
217,97,156845,1,2,1:0:0:0:
463,160,156992,5,0,0:0:0:0:
336,114,157139,1,2,1:0:0:0:
482,239,157286,2,0,L|496:294,2,43.3124986782074,2|0|2,1:3|0:0|1:0,0:0:0:0:
115,319,157580,6,0,B|208:307|185:370|291:346,1,173.24999471283,8|0,1:0|1:0,0:0:0:0:
36,275,158022,2,0,B|11:311|11:311|21:360,1,86.6249973564149,2|2,1:0|1:3,0:0:0:0:
224,170,158316,2,0,L|214:68,1,86.6249973564149,2|2,1:0|1:3,0:0:0:0:
232,59,158536,2,0,L|182:68,1,43.3124986782074,0|8,0:0|0:1,0:0:0:0:
401,0,158757,6,0,B|390:39|390:39|406:81|406:81|394:127,1,129.937496034622,12|0,1:0|0:0,0:0:0:0:
389,141,159051,1,2,1:3:0:0:
251,349,159198,2,0,B|225:354|206:323|206:323|240:240,1,129.937496034622,8|0,1:0|0:0,0:0:0:0:
197,158,159492,2,0,L|243:166,1,43.3124986782074,2|2,1:0|1:0,0:0:0:0:
320,276,159639,2,0,L|367:269,1,43.3124986782074,4|2,1:3|0:3,0:0:0:0:
458,210,159786,1,8,1:0:0:0:
240,153,159933,6,0,L|189:145,1,43.3124986782074,12|0,1:0|0:0,0:0:0:0:
124,254,160080,6,0,B|98:254|78:283|78:283|82:212|31:177,1,173.24999471283,4|8,0:3|0:1,0:0:0:0:
124,254,160522,1,2,1:3:0:0:
7,376,160669,2,0,P|40:367|119:356,1,86.6249973564149,0|2,0:0|0:3,0:0:0:0:
173,381,160889,1,0,0:0:0:0:
173,381,160963,2,0,L|184:327,1,43.3124986782074,8|2,1:0|0:1,0:0:0:0:
272,248,161110,2,0,L|261:186,1,43.3124986782074,8|0,1:0|0:0,0:0:0:0:
247,92,161257,5,4,0:3:0:0:
472,186,161404,2,0,B|433:171|433:171|385:189,1,86.6249973564149,2|8,0:0|1:0,0:0:0:0:
426,303,161698,5,8,1:0:0:0:
426,303,161772,1,2,1:0:0:0:
426,303,161845,2,0,L|437:242,1,43.3124986782074,4|0,1:3|1:0,0:0:0:0:
283,156,161992,2,0,L|294:217,1,43.3124986782074,2|0,1:3|0:0,0:0:0:0:
198,351,162139,5,8,0:1:0:0:
321,281,162286,1,8,0:1:0:0:
85,177,162433,5,2,0:1:0:0:
110,207,162507,1,2,0:1:0:0:
89,240,162580,1,2,0:1:0:0:
51,231,162654,1,2,0:1:0:0:
48,191,162727,1,12,1:0:0:0:
300,127,163022,5,2,1:1:0:0:
325,97,163095,1,2,1:1:0:0:
304,65,163169,1,2,1:1:0:0:
266,73,163242,1,2,1:1:0:0:
263,114,163316,1,12,1:2:0:0:
463,290,163610,5,2,1:0:0:0:
488,319,163683,1,0,1:0:0:0:
467,352,163757,1,4,1:3:0:0:
429,343,163830,1,0,1:0:0:0:
426,303,163904,1,8,1:0:0:0:
85,177,164198,6,0,P|108:162|134:155,1,55.2749973853685,12|2,0:1|1:1,0:0:0:0:
304,65,164345,2,0,P|330:71|353:86,1,55.2749973853685,8|8,1:2|1:2,0:0:0:0:
472,150,164492,5,8,0:1:0:0:
472,150,164566,1,0,1:0:0:0:
472,150,164639,2,0,L|464:96,1,30.5250007452393,4|2,1:2|1:0,0:0:0:0:
238,212,164786,6,0,L|139:234,1,94.8750018095971,4|0,0:1|0:0,0:0:0:0:
339,110,165080,5,8,0:1:0:0:
145,232,165227,1,2,1:3:0:0:
340,292,165375,5,2,1:0:0:0:
131,109,165522,1,4,1:3:0:0:
105,100,165595,1,0,1:0:0:0:
80,104,165669,1,8,0:1:0:0:
198,384,165816,6,0,B|222:340|222:340|205:288,1,94.8750018095971,8|4,1:0|0:3,0:0:0:0:
93,340,166110,1,4,1:3:0:0:
265,167,166257,5,4,1:3:0:0:
446,252,166404,1,0,0:0:0:0:
482,119,166551,6,0,P|464:127|403:136,1,47.4375009047985,2|0,1:0|1:0,0:0:0:0:
295,288,166698,1,4,1:3:0:0:
306,272,166772,1,0,1:0:0:0:
302,251,166845,1,8,0:1:0:0:
458,223,166992,6,0,B|355:234|390:162|275:169,1,189.750003619194,12|2,1:0|0:3,0:0:0:0:
48,258,167433,5,8,1:0:0:0:
194,119,167580,1,2,0:3:0:0:
158,339,167727,5,2,1:0:0:0:
60,102,167875,1,4,1:3:0:0:
60,102,167948,1,0,1:0:0:0:
60,102,168022,2,0,P|54:127|35:167,1,47.4375009047985,8|2,0:0|1:0,0:0:0:0:
155,200,168169,2,0,P|163:228|180:265,1,47.4375009047985,8|0,1:0|0:0,0:0:0:0:
158,339,168316,6,0,P|113:348|52:370,1,94.8750018095971,4|2,0:3|1:3,0:0:0:0:
363,182,168610,2,0,P|399:183|521:218,1,142.312502714396,8|0,0:1|0:0,0:0:0:0:
414,320,168904,2,0,P|401:302|399:240,1,47.4375009047985,2|0,1:0|0:0,0:0:0:0:
303,120,169051,2,0,P|290:138|288:200,1,47.4375009047985,2|0,1:3|0:0,0:0:0:0:
125,233,169198,5,8,0:1:0:0:
125,233,169272,1,0,1:0:0:0:
125,233,169345,2,0,L|190:223,1,47.4375009047985,12|2,1:0|1:0,0:0:0:0:
429,89,169492,6,0,B|450:130|450:130|432:181,1,94.8750018095971,4|0,1:3|0:0,0:0:0:0:
211,382,169786,2,0,B|190:341|190:341|208:290,1,94.8750018095971,8|2,1:0|0:3,0:0:0:0:
331,182,170080,1,2,1:0:0:0:
365,269,170227,2,0,L|381:334,2,47.4375009047985,4|0|8,1:3|0:0|0:1,0:0:0:0:
112,101,170522,6,0,B|69:191|69:191|100:236|158:211,1,189.750003619194,4|2,1:0|1:0,0:0:0:0:
338,21,170963,1,8,0:1:0:0:
197,98,171110,1,2,0:3:0:0:
283,227,171257,1,2,1:0:0:0:
283,227,171330,1,0,0:0:0:0:
283,227,171404,2,0,L|296:159,1,47.4375009047985,6|0,1:3|0:0,0:0:0:0:
301,150,171551,1,4,1:3:0:0:
150,215,171698,5,12,0:1:0:0:
489,316,171845,2,0,B|404:309|426:371|324:350,1,154.6875,4|0,0:3|0:0,0:0:0:0:
345,359,172139,1,8,1:1:0:0:
507,203,172286,5,2,0:3:0:0:
507,203,172360,1,2,1:3:0:0:
507,203,172433,2,0,P|495:210|426:215,1,55.687500212431,4|0,1:0|0:0,0:0:0:0:
372,145,172580,2,0,P|354:137|301:132,1,55.687500212431,4|0,1:2|0:0,0:0:0:0:
180,225,172727,2,0,P|162:233|109:238,1,55.687500212431,8|0,1:0|0:0,0:0:0:0:
26,146,172875,5,0,0:0:0:0:
26,146,172948,1,8,0:0:0:0:
26,146,173022,2,0,L|37:69,1,55.687500212431,8|4,0:0|0:3,0:0:0:0:
155,21,173169,1,4,0:3:0:0:
351,220,173316,6,0,L|339:148,1,55.687500212431,8|0,1:0|0:0,0:0:0:0:
218,91,173463,1,2,1:0:0:0:
502,113,173610,5,8,1:0:0:0:
458,90,173683,1,8,1:0:0:0:
409,96,173757,1,8,1:0:0:0:
370,126,173830,1,8,1:0:0:0:
342,166,173904,1,8,1:2:0:0:
309,203,173977,1,8,1:2:0:0:
260,215,174051,1,2,1:2:0:0:
212,197,174125,1,0,0:0:0:0:
116,94,174198,6,0,L|247:116,1,123.75,4|0,0:1|1:0,0:0:0:0:
238,114,174492,1,8,0:1:0:0:
26,258,174639,2,0,L|40:202,1,41.25,0|2,1:0|0:3,0:0:0:0:
56,203,174786,1,4,1:3:0:0:
121,235,174933,1,2,1:2:0:0:
91,309,175080,1,12,0:1:0:0:
457,196,175227,6,0,B|363:189|396:241|299:226,1,165,2|4,1:2|1:3,0:0:0:0:
299,226,175595,1,0,1:0:0:0:
299,226,175669,1,12,0:1:0:0:
455,186,175816,1,0,1:0:0:0:
422,315,175963,6,0,L|436:239,1,41.25,12|2,1:2|1:0,0:0:0:0:
327,153,176110,2,0,L|334:112,1,41.25,4|2,0:3|1:3,0:0:0:0:
431,25,176257,2,0,L|520:13,1,82.5,12|4,0:1|1:3,0:0:0:0:
512,13,176477,1,2,1:0:0:0:
512,13,176551,1,4,1:0:0:0:
246,117,176698,5,2,1:2:0:0:
197,21,176845,2,0,B|156:19|156:19|111:35,1,82.5,8|4,0:1|1:3,0:0:0:0:
4,247,177139,5,4,1:3:0:0:
143,143,177286,1,4,1:3:0:0:
184,278,177433,5,12,0:1:0:0:
23,81,177580,2,0,P|26:138|23:169,1,82.5,4|4,1:3|0:0,0:0:0:0:
312,48,177875,1,2,1:3:0:0:
312,48,177948,1,2,1:0:0:0:
312,48,178022,2,0,B|319:68|319:68|314:97,1,41.25,12|0,0:1|1:0,0:0:0:0:
136,204,178169,2,0,B|132:184|132:184|139:164,1,41.25,6|0,0:3|1:0,0:0:0:0:
218,93,178316,5,12,0:0:0:0:
468,218,178463,1,8,1:2:0:0:
441,205,178536,1,2,1:0:0:0:
408,212,178610,1,12,0:1:0:0:
418,367,178757,5,0,0:0:0:0:
418,367,178830,1,0,1:0:0:0:
418,367,178904,2,0,B|437:330|437:330|420:278,1,82.5,4|0,1:0|1:0,0:0:0:0:
160,186,179198,2,0,B|141:223|141:223|158:275,1,82.5,8|2,0:1|1:2,0:0:0:0:
153,261,179419,1,2,1:3:0:0:
153,261,179492,2,0,L|70:279,1,82.5,4|4,1:3|1:3,0:0:0:0:
298,281,179786,5,12,0:1:0:0:
116,90,179933,2,0,P|132:144|253:143,1,165,4|4,1:3|1:3,0:0:0:0:
228,163,180301,1,0,0:0:0:0:
228,163,180375,1,12,0:1:0:0:
354,86,180522,1,4,1:3:0:0:
415,195,180669,5,12,1:2:0:0:
249,92,180816,1,2,0:0:0:0:
249,92,180889,1,2,1:0:0:0:
249,92,180963,1,12,0:1:0:0:
415,195,181110,1,4,1:3:0:0:
165,350,181257,6,0,P|179:343|220:335,1,41.25,4|2,1:0|0:0,0:0:0:0:
324,232,181404,2,0,P|299:227|265:227,1,41.25,6|2,0:0|0:0,0:0:0:0:
178,255,181551,5,12,0:1:0:0:
322,378,181698,1,4,1:3:0:0:
340,356,181772,1,0,0:0:0:0:
336,330,181845,1,6,1:0:0:0:
487,226,181992,2,0,B|504:262|504:262|486:310,1,82.5,12|12,0:0|0:1,0:0:0:0:
18,232,182286,6,0,B|113:216|89:276|195:251,1,165,4|4,1:3|1:3,0:0:0:0:
301,161,182727,1,8,0:1:0:0:
193,97,182875,5,8,0:1:0:0:
193,97,182948,1,8,0:0:0:0:
193,97,183022,1,6,0:3:0:0:
172,167,183169,1,4,0:3:0:0:
403,271,183316,5,12,0:1:0:0:
427,200,183463,2,0,P|438:195|486:194,1,41.25,8|8,0:1|1:2,0:0:0:0:
355,365,183610,6,0,P|326:345|225:344,1,123.75,4|0,0:1|0:0,0:0:0:0:
220,348,183904,1,8,0:1:0:0:
319,251,184051,1,0,0:0:0:0:
214,82,184198,2,0,L|324:97,1,82.5,4|2,1:3|1:2,0:0:0:0:
296,94,184419,1,0,0:0:0:0:
296,94,184492,1,8,1:0:0:0:
505,98,184639,6,0,B|444:115|444:115|425:150|425:150|361:168,1,165,2|4,1:2|1:3,0:0:0:0:
282,235,185007,1,0,0:0:0:0:
270,243,185080,2,0,B|252:204|252:204|277:156,1,82.5,12|2,0:1|1:0,0:0:0:0:
485,232,185375,1,12,1:2:0:0:
378,309,185522,2,0,L|362:347,2,41.25,4|2|12,1:3|0:3|0:1,0:0:0:0:
174,156,185816,5,0,0:0:0:0:
174,156,185889,1,0,0:0:0:0:
174,156,185963,2,0,L|61:181,1,82.5,4|0,1:0|0:0,0:0:0:0:
224,31,186257,5,8,0:1:0:0:
120,79,186404,1,2,1:0:0:0:
302,158,186551,5,4,1:3:0:0:
418,226,186698,1,4,1:3:0:0:
393,127,186845,5,8,1:0:0:0:
200,324,186992,2,0,P|246:331|313:237,1,165,4|2,1:3|1:3,0:0:0:0:
320,254,187360,1,0,1:0:0:0:
320,254,187433,2,0,P|343:283|402:290,1,82.5,8|6,1:1|1:3,0:0:0:0:
118,197,187727,2,0,P|99:198|8:218,1,82.5,0|4,1:0|1:3,0:0:0:0:
36,208,187948,1,2,1:0:0:0:
36,208,188022,2,0,P|42:243|40:301,1,82.5,12|2,0:1|1:2,0:0:0:0:
400,164,188316,6,0,L|412:32,1,123.75,4|0,1:0|0:0,0:0:0:0:
411,40,188610,1,8,0:1:0:0:
297,211,188757,1,0,0:0:0:0:
297,211,188830,1,0,0:0:0:0:
297,211,188904,2,0,L|313:162,1,41.25,4|0,1:3|1:0,0:0:0:0:
473,260,189051,2,0,L|457:211,1,41.25,4|0,1:3|0:0,0:0:0:0:
358,261,189198,5,8,1:0:0:0:
512,51,189345,2,0,B|451:63|451:63|430:93|430:93|357:108,1,165,4|4,1:3|1:3,0:0:0:0:
83,225,189786,2,0,B|122:217|122:217|174:242,1,82.5,12|4,0:1|1:3,0:0:0:0:
160,235,190007,1,0,1:0:0:0:
160,235,190080,5,12,0:0:0:0:
92,347,190227,2,0,L|108:290,1,41.25,0|2,1:0|1:0,0:0:0:0:
231,127,190375,5,12,0:1:0:0:
346,276,190522,2,0,L|332:204,1,41.25
500,107,190669,6,0,B|463:90|440:101|440:101|418:131|371:138,1,123.75,4|2,1:0|0:0,0:0:0:0:
410,149,190963,2,0,P|390:158|362:164,1,49.4999984893799,12|0,0:1|0:0,0:0:0:0:
225,267,191110,2,0,P|203:255|179:250,1,49.4999984893799,4|0,1:3|0:0,0:0:0:0:
86,173,191257,1,2,0:0:0:0:
208,62,191404,5,12,0:0:0:0:
208,62,191477,1,0,0:0:0:0:
208,62,191551,2,0,L|180:122,1,49.4999984893799,12|2,0:1|0:0,0:0:0:0:
334,252,191698,6,0,B|356:312|336:295|355:357,1,99,4|0,1:3|0:0,0:0:0:0:
340,369,191992,5,4,1:3:0:0:
305,327,192066,1,2,1:2:0:0:
312,267,192139,1,8,0:1:0:0:
350,224,192213,1,2,1:2:0:0:
397,174,192286,1,8,0:1:0:0:
401,126,192360,1,10,1:2:0:0:
367,63,192433,1,6,0:3:0:0:
367,63,192507,2,0,L|293:55,1,66,0|2,0:0|1:0,0:0:0:0:
158,87,192727,6,0,B|151:99|151:99|152:116,6,30.937501180172,12|0|0|0|0|0|0,0:1|0:0|0:0|0:0|0:0|0:0|0:0,0:0:0:0:
