osu file format v14

[General]
AudioFilename: TokyoTeddyBear.mp3
AudioLeadIn: 0
PreviewTime: 50889
Countdown: 0
SampleSet: Soft
StackLeniency: 0.3
Mode: 0
LetterboxInBreaks: 0
WidescreenStoryboard: 1

[Editor]
DistanceSpacing: 0.7
BeatDivisor: 6
GridSize: 4
TimelineZoom: 5.799997

[Metadata]
Title:Tokyo Teddy Bear
TitleUnicode:東京テディベア
Artist:suzumu
ArtistUnicode:スズム
Creator:Ryuusei Aika
Version:End
Source:
Tags:Lunala Rin_Sa HootOwlStar KittyAdventure Ellyu handsome muscle Nyquill deetz Byakuya Kalibe z1085684963 Shanipika ボーカロイド VOCALOID Neru 押入れP Japanese Rock Male Vocal 鏡音レン Kagamine Len 世界征服 Sekai seifuku やば、豆腐買うの忘れた
BeatmapID:2016168
BeatmapSetID:961941

[Difficulty]
HPDrainRate:4
CircleSize:4
OverallDifficulty:9
ApproachRate:9.7
SliderMultiplier:1.92
SliderTickRate:0.5

[Events]
//Background and Video events
0,0,"bear.jpg",0,0
//Break Periods
2,80281,88316
2,136551,145321
//Storyboard Layer 0 (Background)
//Storyboard Layer 1 (Fail)
//Storyboard Layer 2 (Pass)
//Storyboard Layer 3 (Foreground)
//Storyboard Layer 4 (Overlay)
//Storyboard Sound Samples

[TimingPoints]
81,294.117647058824,4,2,1,30,1,0
81,-100,4,2,1,30,0,0
4786,-200,4,2,1,30,0,0
7139,-100,4,2,1,30,0,0
7433,-100,4,2,1,30,0,0
7581,-400,4,2,1,30,0,0
8022,-400,4,2,1,30,0,0
8169,-400,4,2,1,30,0,0
8757,-200,4,2,1,30,0,0
9345,-200,4,2,1,30,0,0
9492,-200,4,2,1,30,0,0
10448,-200,4,2,1,30,0,0
10522,-100,4,2,1,30,0,0
10558,-100,4,2,1,30,0,0
11110,-100,4,2,1,30,0,0
11183,-133.333333333333,4,2,1,30,0,0
11845,-200,4,2,1,30,0,0
12581,-200,4,2,1,30,0,0
12875,-200,4,2,1,30,0,0
13316,-200,4,2,1,30,0,0
13389,-133.333333333333,4,2,1,30,0,0
13610,-400,4,2,1,30,0,0
13683,-400,4,2,1,30,0,0
13757,-133.333333333333,4,2,1,30,0,0
14198,-100,4,2,1,30,0,0
14345,-100,4,2,1,30,0,0
14492,-125,4,2,1,30,0,0
14639,-125,4,2,1,30,0,0
14786,-166.666666666667,4,2,1,30,0,0
14933,-166.666666666667,4,2,1,30,0,0
15081,-250,4,2,1,30,0,0
15595,-250,4,2,1,30,0,0
15816,-149.253731343284,4,2,1,30,0,0
16036,-149.253731343284,4,2,1,5,0,0
16110,-133.333333333333,4,2,1,30,0,0
16257,-133.333333333333,4,2,1,30,0,0
16404,-133.333333333333,4,2,1,30,0,0
16551,-100,4,2,1,30,0,0
16992,-200,4,2,1,30,0,0
17286,-200,4,2,1,30,0,0
17433,-133.333333333333,4,2,1,30,0,0
17544,-133.333333333333,4,2,1,30,0,0
17581,-100,4,2,1,30,0,0
17801,-100,4,2,1,30,0,0
18022,-100,4,2,1,30,0,0
18316,-133.333333333333,4,2,1,30,0,0
18463,-133.333333333333,4,2,1,30,0,0
18610,-133.333333333333,4,2,1,30,0,0
18757,-133.333333333333,4,2,1,30,0,0
18904,-133.333333333333,4,2,1,30,0,0
19982,-133.333333333333,4,2,1,30,0,0
20228,-133.333333333333,4,2,1,30,0,0
20277,-133.333333333333,4,2,1,30,0,0
20375,-133.333333333333,4,2,1,30,0,0
20473,-133.333333333333,4,2,1,30,0,0
20669,-133.333333333333,4,2,1,55,0,0
20767,-133.333333333333,4,2,1,55,0,0
20963,-100,4,2,1,55,0,0
21110,-100,4,2,1,55,0,0
21257,-66.6666666666667,4,2,2,55,0,0
21698,-57.1428571428571,4,2,2,55,0,0
22286,-50,4,2,2,55,0,0
22507,-50,4,2,2,55,0,0
22581,-500,4,2,2,55,0,0
22654,-500,4,2,2,55,0,0
22728,-166.666666666667,4,2,2,55,0,0
22875,-100,4,2,2,55,0,0
23022,-71.4285714285714,4,2,2,55,0,0
23095,-71.4285714285714,4,2,2,55,0,0
23169,-333.333333333333,4,2,2,55,0,0
23463,-333.333333333333,4,2,2,55,0,0
23512,-333.333333333333,4,2,2,55,0,0
23610,-100,4,2,2,55,0,0
23683,-100,4,2,2,55,0,0
23904,-100,4,2,2,55,0,0
23978,-100,4,2,2,55,0,0
24198,-66.6666666666667,4,2,2,55,0,0
24713,-66.6666666666667,4,2,2,55,0,0
24786,-66.6666666666667,4,2,2,55,0,0
26036,-66.6666666666667,4,2,2,5,0,0
26110,-66.6666666666667,4,2,2,55,0,0
26331,-66.6666666666667,4,2,2,5,0,0
26404,-66.6666666666667,4,2,2,55,0,0
26478,-66.6666666666667,4,2,2,55,0,0
26551,-66.6666666666667,4,2,2,55,0,0
26919,-66.6666666666667,4,2,2,55,0,0
26992,-100,4,2,2,55,0,0
27066,-100,4,2,2,55,0,0
27139,-100,4,2,2,55,0,0
27213,-100,4,2,2,55,0,0
27286,-100,4,2,2,55,0,0
27360,-100,4,2,2,55,0,0
27433,-100,4,2,2,55,0,0
28169,-100,4,2,2,55,0,0
28316,-100,4,2,2,55,0,0
28389,-100,4,2,2,55,0,0
28463,-100,4,2,2,55,0,0
28536,-100,4,2,2,55,0,0
28610,-100,4,2,2,55,0,0
28683,-100,4,2,2,55,0,0
28757,-100,4,2,2,55,0,0
28904,-100,4,2,2,55,0,0
28978,-100,4,2,2,55,0,0
29051,-100,4,2,2,55,0,0
29419,-100,4,2,2,55,0,0
29639,-100,4,2,2,55,0,0
30669,-57.1428571428571,4,2,2,55,0,0
30742,-57.1428571428571,4,2,2,55,0,0
30816,-100,4,2,2,55,0,0
30889,-100,4,2,2,55,0,0
30963,-100,4,2,2,55,0,0
31183,-100,4,2,2,55,0,0
31257,-66.6666666666667,4,2,2,55,0,0
31331,-66.6666666666667,4,2,2,55,0,0
31404,-66.6666666666667,4,2,2,55,0,0
31551,-50,4,2,2,55,0,0
31625,-50,4,2,2,55,0,0
31698,-50,4,2,2,55,0,0
31845,-100,4,2,2,55,0,0
31956,-100,4,2,2,55,0,0
31992,-100,4,2,2,55,0,0
33169,-100,4,2,2,55,0,0
33316,-100,4,2,2,50,0,0
33757,-100,4,2,2,50,0,0
33904,-100,4,2,2,50,0,0
34051,-83.3333333333333,4,2,2,50,0,0
34272,-83.3333333333333,4,2,2,50,0,0
34345,-83.3333333333333,4,2,2,50,0,0
36257,-100,4,2,2,50,0,0
38757,-83.3333333333333,4,2,2,50,0,0
39198,-133.333333333333,4,2,2,50,0,0
39492,-83.3333333333333,4,2,2,50,0,0
40081,-66.6666666666667,4,2,2,55,0,0
41331,-66.6666666666667,4,2,2,55,0,0
41404,-66.6666666666667,4,2,2,55,0,0
41478,-66.6666666666667,4,2,2,55,0,0
41845,-100,4,2,2,55,0,0
41992,-133.333333333333,4,2,2,55,0,0
42139,-133.333333333333,4,2,2,50,0,0
42213,-133.333333333333,4,2,2,50,0,0
42286,-100,4,2,2,50,0,0
42948,-100,4,2,2,50,0,0
43022,-100,4,2,2,50,0,0
43610,-100,4,2,2,50,0,0
43904,-100,4,2,2,50,0,0
43978,-100,4,2,2,50,0,0
44051,-100,4,2,2,50,0,0
44125,-100,4,2,2,50,0,0
44198,-100,4,2,2,50,0,0
44639,-133.333333333333,4,2,2,50,0,0
45228,-133.333333333333,4,2,2,50,0,0
45375,-133.333333333333,4,2,2,50,0,0
45816,-100,4,2,2,50,0,0
46257,-133.333333333333,4,2,2,50,0,0
47103,-133.333333333333,4,2,2,50,0,0
47139,-83.3333333333333,4,2,2,50,0,0
47360,-83.3333333333333,4,2,2,50,0,0
47433,-83.3333333333333,4,2,2,50,0,0
47948,-83.3333333333333,4,2,2,50,0,0
48022,-83.3333333333333,4,2,2,50,0,0
48169,-50,4,2,2,50,0,0
49125,-50,4,2,2,50,0,0
49198,-50,4,2,2,50,0,0
49345,-66.6666666666667,4,2,2,50,0,0
49566,-66.6666666666667,4,2,2,50,0,0
49639,-66.6666666666667,4,2,2,50,0,0
49713,-66.6666666666667,4,2,2,50,0,0
49786,-66.6666666666667,4,2,2,50,0,0
50301,-66.6666666666667,4,2,2,50,0,0
50375,-66.6666666666667,4,2,2,50,0,0
50522,-50,4,2,2,50,0,0
50742,-50,4,2,2,50,0,0
50889,-50,4,2,2,50,0,0
51036,-50,4,2,2,50,0,0
51110,-50,4,2,2,50,0,0
51331,-50,4,2,2,50,0,0
51404,-50,4,2,2,50,0,0
51698,-66.6666666666667,4,2,2,60,0,0
52139,-83.3333333333333,4,2,2,60,0,0
55228,-100,4,2,2,60,0,0
56551,-66.6666666666667,4,2,2,60,0,0
56845,-83.3333333333333,4,2,2,60,0,0
57875,-83.3333333333333,4,2,2,60,0,0
57948,-83.3333333333333,4,2,2,60,0,0
59198,-66.6666666666667,4,2,2,60,0,0
59492,-83.3333333333333,4,2,2,60,0,0
59786,-66.6666666666667,4,2,2,60,0,0
60669,-83.3333333333333,4,2,2,60,0,0
64051,-83.3333333333333,4,2,2,60,0,0
64198,-100,4,2,2,60,0,0
65963,-66.6666666666667,4,2,2,60,0,0
66257,-83.3333333333333,4,2,2,60,0,0
67360,-83.3333333333333,4,2,2,60,0,0
67433,-83.3333333333333,4,2,2,60,0,0
68536,-83.3333333333333,4,2,2,60,0,0
68610,-83.3333333333333,4,2,2,60,0,0
70669,-83.3333333333333,4,2,2,55,0,0
70889,-83.3333333333333,4,2,2,55,0,0
70963,-83.3333333333333,4,2,2,55,0,0
71036,-83.3333333333333,4,2,2,55,0,0
71110,-83.3333333333333,4,2,2,55,0,0
71257,-57.1428571428571,4,2,2,55,0,0
71331,-57.1428571428571,4,2,2,55,0,0
71404,-57.1428571428571,4,2,2,55,0,0
71478,-57.1428571428571,4,2,2,55,0,0
71551,-57.1428571428571,4,2,2,55,0,0
71772,-57.1428571428571,4,2,2,55,0,0
71845,-57.1428571428571,4,2,2,55,0,0
72654,-57.1428571428571,4,2,2,55,0,0
72728,-57.1428571428571,4,2,2,55,0,0
73095,-57.1428571428571,4,2,2,5,0,0
73169,-57.1428571428571,4,2,2,55,0,0
73242,-57.1428571428571,4,2,2,5,0,0
73316,-57.1428571428571,4,2,2,55,0,0
73389,-57.1428571428571,4,2,2,5,0,0
73463,-57.1428571428571,4,2,2,55,0,0
73904,-66.6666666666667,4,2,2,55,0,0
73978,-66.6666666666667,4,2,2,55,0,0
74051,-100,4,2,2,55,0,0
74125,-100,4,2,2,55,0,0
74198,-100,4,2,2,55,0,0
74272,-100,4,2,2,55,0,0
74345,-66.6666666666667,4,2,2,55,0,0
74419,-66.6666666666667,4,2,2,55,0,0
74492,-66.6666666666667,4,2,2,55,0,0
74860,-66.6666666666667,4,2,2,55,0,0
74933,-66.6666666666667,4,2,2,55,0,0
75007,-66.6666666666667,4,2,2,55,0,0
75081,-83.3333333333333,4,2,2,55,0,0
75301,-83.3333333333333,4,2,2,55,0,0
75375,-83.3333333333333,4,2,2,55,0,0
75448,-83.3333333333333,4,2,2,55,0,0
75522,-83.3333333333333,4,2,2,55,0,0
75595,-83.3333333333333,4,2,2,55,0,0
75669,-83.3333333333333,4,2,2,55,0,0
75742,-83.3333333333333,4,2,2,55,0,0
75816,-83.3333333333333,4,2,2,55,0,0
75889,-83.3333333333333,4,2,2,55,0,0
76036,-83.3333333333333,4,2,2,55,0,0
76110,-83.3333333333333,4,2,2,55,0,0
76478,-83.3333333333333,4,2,2,55,0,0
76551,-83.3333333333333,4,2,2,55,0,0
77360,-83.3333333333333,4,2,2,55,0,0
77433,-83.3333333333333,4,2,2,55,0,0
77801,-83.3333333333333,4,2,2,55,0,0
77875,-50,4,2,2,55,0,0
77948,-50,4,2,2,55,0,0
78022,-50,4,2,2,55,0,0
78242,-50,4,2,2,55,0,0
78316,-57.1428571428571,4,2,2,55,0,0
78389,-57.1428571428571,4,2,2,55,0,0
78463,-57.1428571428571,4,2,2,55,0,0
78610,-50,4,2,2,55,0,0
78683,-50,4,2,2,55,0,0
78757,-50,4,2,2,55,0,0
79125,-50,4,2,2,55,0,0
79198,-66.6666666666667,4,2,2,55,0,0
79272,-66.6666666666667,4,2,2,55,0,0
79345,-66.6666666666667,4,2,2,55,0,0
79566,-66.6666666666667,4,2,2,55,0,0
79786,-66.6666666666667,4,2,2,55,0,0
80154,-66.6666666666667,4,2,2,30,0,0
88904,-25,4,2,2,65,0,1
89002,-25,4,2,2,65,0,1
89051,-25,4,2,2,65,0,1
89149,-25,4,2,2,65,0,1
89198,-25,4,2,2,65,0,0
89345,-25,4,2,2,60,0,1
91698,-66.6666666666667,4,2,2,60,0,0
91919,-66.6666666666667,4,2,2,60,0,0
91992,-66.6666666666667,4,2,2,60,0,0
92139,-100,4,2,2,60,0,1
92728,-100,4,2,2,60,0,1
93904,-50,4,2,2,60,0,1
94014,-50,4,2,2,60,0,1
94051,-66.6666666666667,4,2,2,60,0,0
94272,-66.6666666666667,4,2,2,60,0,0
94345,-500,4,2,2,60,0,1
94443,-500,4,2,2,65,0,1
94492,-250,4,2,2,65,0,1
94639,-166.666666666667,4,2,2,65,0,1
94786,-125,4,2,2,65,0,1
94933,-100,4,2,2,65,0,1
95081,-83.3333333333333,4,2,2,65,0,1
95228,-71.4285714285714,4,2,2,65,0,1
95522,-62.5,4,2,2,65,0,1
95816,-55.5555555555556,4,2,2,65,0,1
95963,-50,4,2,2,65,0,1
96257,-66.6666666666667,4,2,2,65,0,1
96478,-66.6666666666667,4,2,2,65,0,1
96551,-66.6666666666667,4,2,2,65,0,1
96698,-100,4,2,2,65,0,1
96845,-250,4,2,2,65,0,1
96992,-83.3333333333333,4,2,2,65,0,1
97139,-166.666666666667,4,2,2,65,0,1
97286,-71.4285714285714,4,2,2,65,0,1
97433,-125,4,2,2,65,0,1
97581,-62.5,4,2,2,65,0,1
98316,-100,4,2,2,50,0,0
98334,-100,4,2,2,50,0,0
98757,-100,4,2,2,50,0,0
100301,-100,4,2,2,50,0,0
100375,-100,4,2,2,50,0,0
100448,-100,4,2,2,50,0,0
100522,-100,4,2,2,50,0,0
100595,-100,4,2,2,50,0,0
100669,-100,4,2,2,50,0,0
101110,-133.333333333333,4,2,2,50,0,0
101845,-100,4,2,2,50,0,0
102286,-133.333333333333,4,2,2,50,0,0
103536,-133.333333333333,4,2,2,50,0,0
103610,-83.3333333333333,4,2,2,50,0,0
103831,-83.3333333333333,4,2,2,50,0,0
103904,-83.3333333333333,4,2,2,50,0,0
104272,-83.3333333333333,4,2,2,50,0,0
104345,-83.3333333333333,4,2,2,50,0,0
104566,-83.3333333333333,4,2,2,50,0,0
104639,-83.3333333333333,4,2,2,50,0,0
105375,-133.333333333333,4,2,2,50,0,0
105448,-133.333333333333,4,2,2,50,0,0
105522,-133.333333333333,4,2,2,50,0,0
105816,-66.6666666666667,4,2,2,50,0,0
106036,-66.6666666666667,4,2,2,50,0,0
106110,-83.3333333333333,4,2,2,50,0,0
106183,-83.3333333333333,4,2,2,50,0,0
106257,-83.3333333333333,4,2,2,50,0,0
106551,-66.6666666666667,4,2,2,50,0,0
106919,-66.6666666666667,4,2,2,50,0,0
106992,-57.1428571428571,4,2,2,50,0,0
107066,-57.1428571428571,4,2,2,50,0,0
107139,-57.1428571428571,4,2,2,50,0,0
107213,-57.1428571428571,4,2,2,50,0,0
107286,-57.1428571428571,4,2,2,50,0,0
108169,-66.6666666666667,4,2,2,60,0,0
108610,-83.3333333333333,4,2,2,60,0,0
109492,-83.3333333333333,4,2,2,60,0,0
109639,-83.3333333333333,4,2,2,60,0,0
109786,-83.3333333333333,4,2,2,60,0,0
111110,-83.3333333333333,4,2,2,60,0,0
111257,-83.3333333333333,4,2,2,60,0,0
111919,-83.3333333333333,4,2,2,60,0,0
111992,-83.3333333333333,4,2,2,60,0,0
112507,-83.3333333333333,4,2,2,60,0,0
112581,-83.3333333333333,4,2,2,60,0,0
113022,-83.3333333333333,4,2,2,60,0,0
113242,-83.3333333333333,4,2,2,60,0,0
114198,-83.3333333333333,4,2,2,60,0,0
114345,-83.3333333333333,4,2,2,60,0,0
114492,-83.3333333333333,4,2,2,60,0,0
116845,-100,4,2,2,60,0,0
117286,-83.3333333333333,4,2,2,60,0,0
117507,-83.3333333333333,4,2,2,60,0,0
117581,-83.3333333333333,4,2,2,60,0,0
118904,-83.3333333333333,4,2,2,60,0,0
119051,-83.3333333333333,4,2,2,60,0,0
121331,-83.3333333333333,4,2,2,60,0,0
121404,-83.3333333333333,4,2,2,60,0,0
121992,-125,4,2,2,60,0,0
122066,-125,4,2,2,60,0,0
122139,-125,4,2,2,60,0,0
122433,-83.3333333333333,4,2,2,60,0,0
122581,-83.3333333333333,4,2,2,60,0,0
122728,-83.3333333333333,4,2,2,60,0,0
123610,-83.3333333333333,4,2,2,60,0,0
123757,-83.3333333333333,4,2,2,60,0,0
125375,-66.6666666666667,4,2,2,60,0,0
125669,-50,4,2,2,60,0,0
125816,-40,4,2,2,60,0,0
126845,-50,4,2,2,60,0,0
126992,-50,4,2,2,55,0,1
128169,-100,4,2,2,55,0,1
128463,-66.6666666666667,4,2,2,55,0,1
128904,-100,4,2,2,55,0,1
129125,-100,4,2,2,55,0,0
129345,-66.6666666666667,4,2,2,55,0,1
129492,-100,4,2,2,55,0,1
129639,-133.333333333333,4,2,2,55,0,1
129786,-200,4,2,2,55,0,1
130375,-200,4,2,2,55,0,0
130522,-100,4,2,2,55,0,1
130767,-100,4,2,2,55,0,1
130963,-98.0392156862745,4,2,2,70,0,1
131539,-98.0392156862745,4,2,2,55,0,0
131636,-103.092783505155,4,2,2,55,0,1
131939,-97.0873786407767,4,2,2,70,0,1
132367,-72.992700729927,4,2,2,70,0,1
132510,-87.719298245614,4,2,2,70,0,1
132653,-109.289617486339,4,2,2,70,0,1
132796,-81.3008130081301,4,2,2,70,0,1
133035,-58.1395348837209,4,2,2,70,0,1
133274,-68.4931506849315,4,2,2,70,0,1
133376,-138.888888888889,4,2,2,70,0,1
133401,-138.888888888889,4,2,2,70,0,1
133478,-74.6268656716418,4,2,2,70,0,1
133580,-74.6268656716418,4,2,2,70,0,1
133733,-99.009900990099,4,2,2,70,0,1
133784,-69.4444444444444,4,2,2,70,0,1
133860,-57.8034682080925,4,2,2,70,0,1
134013,-100,4,2,2,55,0,1
134088,-43.859649122807,4,2,2,55,0,1
134138,-43.859649122807,4,2,2,55,0,1
134187,-48.0769230769231,4,2,2,55,0,1
134237,-48.0769230769231,4,2,2,55,0,1
134286,-56.1797752808989,4,2,2,55,0,1
134385,-56.1797752808989,4,2,2,55,0,1
134435,-56.1797752808989,4,2,2,55,0,1
134534,-101.010101010101,4,2,2,55,0,1
134905,-101.010101010101,4,2,2,55,0,1
134979,-101.010101010101,4,2,2,55,0,1
135375,-100,4,2,2,30,0,1
136551,-100,4,2,2,30,0,0
136698,-100,4,2,0,45,0,0
138071,-100,4,2,0,25,0,0
145814,-100,4,2,2,30,0,0
145961,-200,4,2,2,30,0,0
146549,-200,4,2,2,30,0,0
146696,-200,4,2,2,30,0,0
146990,-200,4,2,2,30,0,0
147137,-200,4,2,2,30,0,0
147726,-200,4,2,2,30,0,0
148020,-200,4,2,2,30,0,0
149343,-200,4,2,2,30,0,0
149490,-200,4,2,2,30,0,0
150079,-200,4,2,2,30,0,0
150373,-200,4,2,2,30,0,0
151255,-200,4,2,2,30,0,0
151402,-200,4,2,2,30,0,0
151696,-200,4,2,2,30,0,0
152137,-200,4,2,2,30,0,0
152432,-200,4,2,2,30,0,0
152579,-200,4,2,2,30,0,0
152873,-66.6666666666667,4,2,2,65,0,0
153608,-83.3333333333333,4,2,2,65,0,0
153902,-66.6666666666667,4,2,2,65,0,0
154049,-71.4285714285714,4,2,2,65,0,0
154196,-76.9230769230769,4,2,2,65,0,0
154343,-83.3333333333333,4,2,2,65,0,0
154490,-76.9230769230769,4,2,2,65,0,0
154637,-83.3333333333333,4,2,2,65,0,0
154784,-33.3333333333333,4,2,2,65,0,0
155226,-33.3333333333333,4,2,2,50,0,0
155373,-500,4,2,2,50,0,0
155667,-66.6666666666667,4,2,2,60,0,0
155726,-33.3333333333333,4,2,2,50,0,0
155814,-66.6666666666667,4,2,2,60,0,0
155887,-66.6666666666667,4,2,2,60,0,0
156476,-66.6666666666667,4,2,2,60,0,0
156696,-66.6666666666667,4,2,2,60,0,0
157726,-66.6666666666667,4,2,2,60,0,0
157873,-66.6666666666667,4,2,2,60,0,0
158682,-66.6666666666667,4,2,2,60,0,0
158755,-66.6666666666667,4,2,2,60,0,0
158829,-66.6666666666667,4,2,2,60,0,0
158902,-66.6666666666667,4,2,2,60,0,0
159123,-66.6666666666667,4,2,2,60,0,0
159196,-66.6666666666667,4,2,2,60,0,0
159270,-66.6666666666667,4,2,2,60,0,0
159343,-66.6666666666667,4,2,2,60,0,0
160005,-66.6666666666667,4,2,2,60,0,0
160226,-66.6666666666667,4,2,2,60,0,0
160299,-66.6666666666667,4,2,2,60,0,0
162873,-57.1428571428571,4,2,2,60,0,0
163902,-57.1428571428571,4,2,2,70,0,0
164196,-66.6666666666667,4,2,2,70,0,0
164386,-66.6666666666667,4,2,2,70,0,0
164423,-66.6666666666667,4,2,2,70,0,0
164460,-66.6666666666667,4,2,2,70,0,0
164496,-66.6666666666667,4,2,2,70,0,0
164533,-66.6666666666667,4,2,2,70,0,0
164570,-66.6666666666667,4,2,2,70,0,0
164786,-57.1428571428571,4,2,2,70,0,0
164938,-57.1428571428571,4,2,2,70,0,0
165080,-57.1428571428571,4,2,2,70,0,0
166257,-57.1428571428571,4,2,2,75,0,0
166761,-57.1428571428571,4,2,2,75,0,0
166992,-57.1428571428571,4,2,2,80,0,0
167066,-57.1428571428571,4,2,2,80,0,0
167291,-57.1428571428571,4,2,2,80,0,0
167433,-57.1428571428571,4,2,2,75,0,0
168610,-57.1428571428571,4,2,2,65,0,0
169492,-50,4,2,2,65,0,0
169786,-50,4,2,2,65,0,0
171772,-50,4,2,2,65,0,0
171845,-50,4,2,2,65,0,0
171992,-50,4,2,2,65,0,0
173463,-50,4,2,2,65,0,0
173610,-50,4,2,2,65,0,0
174196,-83.3333333333333,4,2,2,55,0,0
174784,-57.1428571428571,4,2,2,55,0,0
176549,-66.6666666666667,4,2,2,55,0,0
176623,-66.6666666666667,4,2,2,55,0,0
176696,-50,4,2,2,55,0,0
176770,-50,4,2,2,55,0,0
176843,-40,4,2,2,55,0,0
176917,-40,4,2,2,55,0,0
176990,-40,4,2,2,55,0,0
177432,-66.6666666666667,4,2,2,55,0,0
177873,-83.3333333333333,4,2,2,55,0,0
178020,-57.1428571428571,4,2,2,55,0,0
178314,-83.3333333333333,4,2,2,55,0,0
178976,-83.3333333333333,4,2,2,55,0,0
179049,-83.3333333333333,4,2,2,55,0,0
179490,-57.1428571428571,4,2,2,55,0,0
179637,-83.3333333333333,4,2,2,55,0,0
180005,-83.3333333333333,4,2,2,55,0,0
180079,-83.3333333333333,4,2,2,55,0,0
181402,-57.1428571428571,4,2,2,55,0,0
181770,-57.1428571428571,4,2,2,55,0,0
181843,-57.1428571428571,4,2,2,55,0,0
181990,-40,4,2,2,55,0,0
182284,-83.3333333333333,4,2,2,55,0,0
182505,-83.3333333333333,4,2,2,55,0,0
182579,-83.3333333333333,4,2,2,55,0,0
182726,-62.5,4,2,2,55,0,0
182873,-50,4,2,2,55,0,0
183387,-80,4,2,2,55,0,0
183461,-66.6666666666667,4,2,2,55,0,0
183534,-50,4,2,2,55,0,0
183610,-66.6666666666667,4,2,2,55,0,1
183755,-66.6666666666667,4,2,2,55,0,1
183902,-66.6666666666667,4,2,2,55,0,1
184123,-66.6666666666667,4,2,2,55,0,1
184196,-66.6666666666667,4,2,2,55,0,1
184784,-66.6666666666667,4,2,2,55,0,1
184932,-66.6666666666667,4,2,2,55,0,1
185005,-66.6666666666667,4,2,2,55,0,1
185079,-66.6666666666667,4,2,2,55,0,1
185299,-66.6666666666667,4,2,2,55,0,1
185373,-66.6666666666667,4,2,2,55,0,1
185814,-66.6666666666667,4,2,2,55,0,1
185961,-66.6666666666667,4,2,2,55,0,1
186182,-66.6666666666667,4,2,2,55,0,1
186255,-66.6666666666667,4,2,2,55,0,1
186770,-66.6666666666667,4,2,2,55,0,1
186843,-66.6666666666667,4,2,2,55,0,1
187726,-50,4,2,2,55,0,1
188314,-66.6666666666667,4,2,2,55,0,1
188829,-66.6666666666667,4,2,2,55,0,1
188902,-66.6666666666667,4,2,2,55,0,1
190520,-66.6666666666667,4,2,2,55,0,1
190667,-66.6666666666667,4,2,2,55,0,1
191696,-40,4,2,2,55,0,1
192727,-133.333333333333,4,2,2,55,0,0
192873,-133.333333333333,4,2,2,55,0,0
193020,-133.333333333333,4,2,2,55,0,0
195373,-133.333333333333,4,2,2,5,0,0

[Colours]
Combo1 : 108,83,102
Combo2 : 120,39,70

[HitObjects]
16,328,4786,6,0,L|19:385,1,48,8|0,0:3|0:0,0:0:0:0:
24,364,5522,5,2,0:3:0:0:
124,352,5669,1,8,0:3:0:0:
224,340,5816,1,2,0:0:0:0:
284,288,6404,6,0,L|288:272,1,12,4|0,3:0|0:0,0:0:0:0:
504,24,7139,6,0,P|456:76|488:224,1,192,8|0,0:3|0:0,0:0:0:0:
412,252,7581,6,0,P|360:228|344:228,1,72,2|0,0:3|0:0,0:0:0:0:
356,308,8169,1,4,0:3:0:0:
420,352,8757,6,0,B|452:308|504:320|504:320|516:352|492:372|492:372|500:344|488:320,1,192,2|0,0:0|0:0,0:0:0:0:
288,136,9492,5,2,0:3:0:0:
369,219,9639,1,8,0:3:0:0:
401,107,9786,1,2,0:1:0:0:
456,48,10228,6,0,P|496:44|536:32,1,72,8|0,0:3|0:0,0:0:0:0:
380,32,10522,6,0,P|364:24|340:20,1,24,2|0,0:3|0:0,0:0:0:0:
72,312,11110,5,4,0:3:0:0:
60,300,11183,2,0,B|200:312|148:204|292:220,1,252.000009613037
232,88,11845,6,0,P|240:156|216:176,1,96,2|4,0:1|0:3,0:0:0:0:
152,204,12286,1,0,3:3:0:0:
216,248,12433,1,2,0:1:0:0:
80,228,12581,5,0,0:0:0:0:
228,324,12875,5,4,0:1:0:0:
112,356,13022,2,0,L|160:360,1,48,4|4,0:0|0:0,0:0:0:0:
360,352,13316,5,0,0:0:0:0:
284,376,13389,2,0,L|384:384,1,72.0000027465821,4|4,0:0|0:0,0:0:0:0:
436,324,13610,2,0,L|440:344,1,12,4|0,0:0|0:0,0:0:0:0:
456,212,13757,6,0,B|440:244|440:244|456:316|456:316|436:356,1,144.000005493164,6|4,0:0|0:0,0:0:0:0:
500,152,14125,1,4,0:0:0:0:
492,140,14198,6,0,B|464:100|464:100|516:112,1,96,4|8,0:0|0:0,0:0:0:0:
388,108,14492,2,0,B|352:91|352:91|393:78,1,76.8,2|8,0:0|0:0,0:0:0:0:
288,136,14786,6,0,B|258:138|258:138|280:115,1,57.5999982421876,2|8,3:2|0:0,0:0:0:0:
216,204,15081,2,0,B|200:214|200:214|205:194,1,38.4,0|8,3:3|0:0,0:0:0:0:
12,304,15595,5,0,0:0:0:0:
136,352,15816,2,0,P|200:336|240:340,1,96.0000036621095,8|0,0:0|0:0,0:0:0:0:
305,309,16110,6,0,P|309:349|293:389,1,72.0000027465821,8|2,0:0|3:2,0:0:0:0:
229,337,16404,1,8,0:0:0:0:
156,116,16551,6,0,P|192:236|252:260,1,192,2|0,3:2|3:0,0:0:0:0:
316,228,16992,6,0,P|308:180|336:128,1,96,8|8,0:0|0:0,0:0:0:0:
400,108,17433,6,0,P|424:140|448:152,1,54.0000020599366,0|0,3:0|0:0,0:0:0:0:
444,164,17581,6,0,L|455:20,1,144.000005493164,8|0,0:0|0:0,0:0:0:0:
472,12,17875,5,8,0:0:0:0:
488,92,18022,1,0,3:0:0:0:
344,320,18316,6,0,B|348:288|348:288|344:280|344:280|348:249,1,72.0000027465821,2|8,0:0|0:0,0:0:0:0:
424,236,18610,2,0,B|420:268|420:268|424:276|424:276|419:306,1,72.0000027465821,0|8,3:0|0:0,0:0:0:0:
392,380,18904,6,0,P|328:344|252:360,1,144.000005493164,0|2,3:0|3:2,0:0:0:0:
196,308,19345,1,8,0:0:0:0:
260,354,19492,5,0,3:0:0:0:
120,304,19639,1,8,0:0:0:0:
24,196,19786,2,0,P|44:224|56:276,1,72.0000027465821,0|8,3:0|0:0,0:0:0:0:
48,336,19982,6,0,P|39:358|33:381,1,48.0000018310548,0|0,0:0|3:0,0:0:0:0:
176,220,20228,6,0,P|168:204|164:188,1,24.0000009155274,8|0,0:0|0:0,0:0:0:0:
164,148,20375,1,2,3:2:0:0:
204,116,20473,6,0,P|220:88|224:60,4,48.0000018310548,0|0|2|0|0,0:0|0:0|0:0|0:0|0:0,0:0:0:0:
48,76,20963,6,0,L|160:64,1,96,0|0,1:0|0:0,0:0:0:0:
244,328,21257,6,0,B|296:364|356:348|336:316|400:292|472:340,1,216.000008239746,12|0,0:1|0:0,0:0:0:0:
512,380,21551,1,8,1:2:0:0:
300,140,21698,6,0,B|313:212|375:248|385:205|458:238|478:337,1,252.000002403259,12|0,0:0|0:0,0:0:0:0:
512,380,21992,1,4,1:3:0:0:
152,324,22139,1,0,1:0:0:0:
496,24,22286,6,0,B|448:92|469:171|511:145|543:229|480:324,1,288,4|0,0:1|0:0,0:0:0:0:
512,380,22581,6,0,L|528:376,1,9.6,4|2,0:3|3:1,0:0:0:0:
404,236,22728,6,0,L|432:228,1,28.7999991210938,8|0,0:1|1:0,0:0:0:0:
292,364,22875,6,0,L|348:349,1,48,8|8,0:1|0:0,0:0:0:0:
196,140,23022,6,0,L|307:112,1,67.1999979492188,8|0,0:1|0:0,0:0:0:0:
360,172,23169,6,0,L|300:188,1,57.5999982421876,6|0,0:0|0:0,0:0:0:0:
72,48,23512,5,2,0:0:0:0:
48,36,23561,5,2,0:0:0:0:
32,16,23610,6,0,P|32:44|40:68,2,48,4|0|0,0:1|0:0|0:0,0:0:0:0:
148,40,23831,5,0,0:0:0:0:
148,40,23904,2,0,P|148:68|140:92,2,48,8|0|0,0:1|0:0|0:0,0:0:0:0:
20,168,24125,1,0,0:0:0:0:
20,168,24198,6,0,P|92:140|148:156,1,72.0000027465821,4|2,1:3|0:1,0:0:0:0:
136,284,24345,2,0,P|64:312|8:296,1,72.0000027465821,2|2,1:2|0:3,0:0:0:0:
80,224,24492,5,12,0:1:0:0:
256,144,24639,5,2,1:2:0:0:
260,120,24713,1,0,0:0:0:0:
264,96,24786,1,4,0:0:0:0:
224,28,24933,5,4,1:3:0:0:
204,204,25081,1,12,0:1:0:0:
336,132,25228,1,2,3:0:0:0:
468,60,25375,5,12,1:2:0:0:
408,168,25522,5,4,0:3:0:0:
412,144,25595,1,0,3:0:0:0:
416,120,25669,1,12,0:1:0:0:
448,236,25816,1,4,1:3:0:0:
268,300,25963,6,0,B|256:272|256:272|264:236|304:224,1,72.0000027465821,4|0,1:0|0:0,0:0:0:0:
352,280,26110,6,0,B|382:283|382:283|409:308|399:349,1,72.0000027465821,2|2,1:2|0:3,0:0:0:0:
324,360,26257,6,0,B|305:384|305:384|270:395|240:366,1,72.0000027465821,8|0,0:1|0:0,0:0:0:0:
200,340,26404,5,4,1:3:0:0:
184,344,26478,1,0,0:0:0:0:
168,348,26551,1,4,1:3:0:0:
277,237,26698,1,4,1:3:0:0:
168,348,26845,6,0,P|144:316|148:264,1,72.0000027465821,12|0,0:1|0:0,0:0:0:0:
80,232,26992,6,0,P|92:184|88:140,3,48,4|0|4|0,1:3|0:0|0:0|0:0,0:0:0:0:
8,212,27286,6,0,P|11:188|19:165,1,48,2|0,1:3|0:0,0:0:0:0:
76,112,27433,5,12,0:1:0:0:
28,288,27581,1,6,0:3:0:0:
284,156,27728,5,12,0:0:0:0:
36,304,27875,1,4,0:3:0:0:
440,340,28022,6,0,B|304:332,1,96,12|0,0:1|0:0,0:0:0:0:
272,356,28242,5,0,0:0:0:0:
260,340,28316,2,0,P|232:320|192:312,2,48,4|0|0,1:0|0:0|0:0,0:0:0:0:
168,248,28536,5,0,0:0:0:0:
156,264,28610,2,0,P|128:284|88:292,2,48,8|0|2,0:1|0:0|0:0,0:0:0:0:
30,256,28904,6,0,L|38:320,1,48,4|0,1:3|0:0,0:0:0:0:
100,212,29051,2,0,B|120:192|120:192|132:84,1,96,4|12,1:3|0:1,0:0:0:0:
24,56,29345,5,4,1:3:0:0:
28,104,29419,1,0,0:0:0:0:
32,152,29492,1,4,0:0:0:0:
220,92,29639,5,4,1:3:0:0:
127,124,29786,1,12,0:1:0:0:
313,60,29933,1,4,1:3:0:0:
292,152,30081,5,12,0:0:0:0:
456,184,30228,5,2,0:0:0:0:
456,184,30301,1,2,0:3:0:0:
456,184,30375,1,12,0:1:0:0:
423,348,30522,5,4,1:3:0:0:
260,316,30669,6,0,P|290:280|371:271,1,84.0000008010864,4|0,1:0|0:0,0:0:0:0:
332,384,30816,6,0,P|336:360|348:339,1,48,2|0,0:0|0:0,0:0:0:0:
376,204,30963,5,8,0:1:0:0:
328,28,31110,1,4,1:3:0:0:
358,38,31183,1,0,0:0:0:0:
377,62,31257,6,0,P|387:106|442:144,1,72.0000027465821,6|0,1:0|0:0,0:0:0:0:
456,184,31404,1,8,0:0:0:0:
504,12,31551,6,0,P|484:56|496:132,1,96,8|0,0:1|0:0,0:0:0:0:
456,336,31698,1,4,1:2:0:0:
456,336,31772,1,2,0:3:0:0:
456,336,31845,6,0,L|460:248,1,72,4|0,1:3|0:0,0:0:0:0:
503,188,31992,6,0,B|483:188|483:188|475:184|475:184|455:184,1,48,4|2,1:3|0:1,0:0:0:0:
376,204,32139,6,0,B|356:204|356:204|348:208|348:208|328:208,1,48,8|8,0:1|0:0,0:0:0:0:
252,172,32286,6,0,B|232:172|232:172|224:168|224:168|204:168,1,48,8|8,0:1|0:0,0:0:0:0:
140,216,32433,5,2,0:3:0:0:
149,231,32507,2,0,B|111:233|111:233|95:241|95:241|56:244,1,96,4|2,1:3|0:3,0:0:0:0:
64,132,32728,5,12,0:1:0:0:
36,64,32801,1,8,0:0:0:0:
116,72,32875,5,8,0:1:0:0:
108,36,32948,1,8,0:0:0:0:
188,36,33022,5,12,0:1:0:0:
188,36,33169,1,0,0:0:0:0:
188,36,33316,2,0,B|260:52|260:52|288:88|288:88|384:108,1,192,8|4,0:1|1:2,0:0:0:0:
472,128,33757,2,0,L|436:32,1,96,4|8,1:3|0:1,0:0:0:0:
365,347,34051,6,0,B|377:303|377:303|374:288|374:288|392:240|392:240|390:224|390:224|409:159,1,172.799994726563,2|0,1:2|0:0,0:0:0:0:
402,181,34345,1,4,1:3:0:0:
484,244,34492,1,8,0:1:0:0:
112,204,34713,5,2,1:0:0:0:
112,204,34786,2,0,B|164:180|164:180|139:127,1,115.199996484375,4|4,0:3|1:3,0:0:0:0:
280,308,35081,2,0,B|228:332|228:332|252:384,1,115.199996484375,8|2,0:1|0:3,0:0:0:0:
248,232,35375,6,0,B|174:265|174:265|153:291|153:291|119:288|119:288|45:324,1,230.39999296875,4|8,0:3|0:1,0:0:0:0:
45,323,35816,1,4,1:3:0:0:
0,80,36110,5,4,0:3:0:0:
0,80,36257,2,0,L|44:184,1,96,8|2,0:1|1:2,0:0:0:0:
72,244,36551,5,2,1:3:0:0:
45,323,36698,1,4,0:3:0:0:
156,228,36845,1,4,1:2:0:0:
180,368,36992,5,8,0:1:0:0:
180,368,37066,1,8,1:2:0:0:
180,368,37139,1,4,1:3:0:0:
124,308,37286,5,4,0:3:0:0:
236,208,37433,1,8,0:1:0:0:
264,352,37581,1,2,1:0:0:0:
296,272,37728,5,4,1:0:0:0:
296,272,37875,1,4,0:3:0:0:
296,272,38022,2,0,B|368:256|368:256|396:220|396:220|492:200,1,192,8|2,0:1|1:3,0:0:0:0:
395,141,38463,2,0,L|471:209,1,96,4|8,0:3|0:1,0:0:0:0:
509,19,38757,6,0,B|511:36|511:36|492:43|492:43|482:60|482:60|512:87|512:87|506:131|506:131|477:155|477:155|461:230,1,230.39999296875,2|4,1:2|1:3,0:0:0:0:
380,272,39198,6,0,L|360:361,1,72.0000027465821,8|8,1:0|0:1,0:0:0:0:
236,128,39492,6,0,L|212:240,1,115.199996484375,12|12,1:2|1:0,0:0:0:0:
184,248,39713,1,8,1:0:0:0:
156,256,39786,1,8,1:3:0:0:
128,264,39860,1,8,1:3:0:0:
100,272,39933,1,8,1:0:0:0:
72,280,40007,1,8,1:0:0:0:
0,256,40081,6,0,P|104:244|192:360,1,216.000008239746,4|0,1:0|0:0,0:0:0:0:
272,380,40375,6,0,P|260:356|264:308,1,72.0000027465821,8|0,1:0|0:0,0:0:0:0:
136,72,40522,6,0,P|218:137|198:281,1,216.000008239746,4|0,1:2|0:0,0:0:0:0:
272,380,40816,6,0,P|276:344|262:311,1,72.0000027465821,4|2,1:2|0:1,0:0:0:0:
148,176,40963,1,8,0:1:0:0:
364,64,41110,6,0,P|376:168|260:256,1,216.000008239746,4|0,1:0|0:0,0:0:0:0:
272,380,41404,5,4,0:3:0:0:
258,347,41478,1,2,0:1:0:0:
262,311,41551,1,8,1:0:0:0:
305,245,41698,5,8,1:0:0:0:
344,140,41845,6,0,P|384:140|420:108,1,48,12|0,1:0|0:0,0:0:0:0:
292,40,41992,6,0,P|336:-8|392:-8,1,108.000004119873,4|0,1:2|0:0,0:0:0:0:
479,255,42286,6,0,P|487:119|364:64,1,288,4|2,1:2|1:0,0:0:0:0:
88,8,42875,1,4,0:3:0:0:
96,28,42948,1,0,0:0:0:0:
24,56,43022,6,0,L|40:264,1,192,12|2,0:1|0:3,0:0:0:0:
48,328,43463,1,2,1:0:0:0:
56,240,43610,5,4,0:0:0:0:
164,152,43904,1,2,1:2:0:0:
164,152,43978,1,0,0:0:0:0:
164,152,44051,1,2,1:1:0:0:
164,152,44125,1,2,1:0:0:0:
164,152,44198,1,12,0:1:0:0:
300,188,44492,5,2,0:0:0:0:
340,268,44639,2,0,P|388:320|484:288,1,144,4|0,0:3|0:3,0:0:0:0:
288,332,45081,6,0,P|232:340|196:368,1,72.0000027465821,4|2,0:3|1:0,0:0:0:0:
24,324,45375,6,0,P|93:340|149:384,1,144.000005493164,12|2,0:1|1:2,0:0:0:0:
181,167,45816,6,0,P|88:187|12:244,1,192,4|8,0:3|0:0,0:0:0:0:
40,120,46257,6,0,P|78:91|96:48,1,72.0000027465821,2|4,1:0|1:3,0:0:0:0:
16,40,46551,5,12,0:1:0:0:
168,88,46698,1,8,0:1:0:0:
232,236,46845,5,8,0:1:0:0:
384,284,46992,2,0,P|400:304|440:308,1,54.0000020599366,8|0,0:1|0:0,0:0:0:0:
448,304,47139,6,0,P|484:252|436:140,1,172.799994726563,4|0,0:0|0:0,0:0:0:0:
320,236,47433,6,0,P|308:308|340:352,1,115.199996484375,8|2,1:0|0:3,0:0:0:0:
444,168,47728,1,2,1:0:0:0:
352,60,47875,1,4,1:3:0:0:
352,60,47948,1,0,0:0:0:0:
352,60,48022,1,8,1:0:0:0:
207,35,48169,6,0,B|151:271|151:271|91:251|103:167|191:147,1,384,2|2,1:2|1:0,0:0:0:0:
19,138,48610,6,0,B|247:219|247:219|263:158|186:122|121:185,1,384,8|2,0:1|1:0,0:0:0:0:
94,330,49051,6,0,P|137:350|184:346,1,96,4|0,1:3|0:0,0:0:0:0:
392,164,49198,5,10,1:0:0:0:
392,164,49345,2,0,B|336:164|304:232|340:228|320:312|220:296,1,216.000008239746,2|0,1:0|0:0,0:0:0:0:
340,364,49639,6,0,P|339:328|325:296,1,72.0000027465821,4|0,1:3|0:0,0:0:0:0:
400,240,49786,6,0,P|464:304|548:252,1,144.000005493164,12|2,1:0|1:2,0:0:0:0:
332,104,50081,6,0,P|388:12|520:56,1,216.000008239746,2|0,1:0|0:0,0:0:0:0:
496,44,50375,2,0,P|456:40|396:-20,1,72.0000027465821,12|0,1:0|0:0,0:0:0:0:
472,124,50522,6,0,P|425:131|391:163,1,96,4|0,1:3|0:0,0:0:0:0:
464,240,50669,5,4,1:0:0:0:
463,228,50742,1,0,1:0:0:0:
462,216,50816,1,0,1:0:0:0:
461,204,50889,1,2,1:0:0:0:
400,296,50963,5,4,1:2:0:0:
401,308,51036,1,2,1:0:0:0:
402,320,51110,1,8,0:0:0:0:
403,332,51183,1,8,0:0:0:0:
320,284,51257,5,8,1:0:0:0:
272,308,51331,1,2,1:0:0:0:
224,292,51404,5,6,0:0:0:0:
196,240,51478,1,2,1:2:0:0:
132,220,51551,1,8,1:3:0:0:
64,256,51625,1,8,1:0:0:0:
40,328,51698,6,0,L|24:16,1,288.000010986329,12|2,1:0|1:0,0:0:0:0:
40,328,52066,1,0,1:0:0:0:
40,328,52139,6,0,B|48:268|48:268|88:224,1,115.199996484375,8|2,1:1|0:3,0:0:0:0:
236,284,52433,5,6,1:3:0:0:
228,341,52507,1,0,0:0:0:0:
191,384,52581,1,2,1:3:0:0:
140,308,52728,5,2,1:1:0:0:
272,116,52875,6,0,P|372:36|292:8,1,230.39999296875,8|0,1:0|0:0,0:0:0:0:
276,208,53242,5,0,1:0:0:0:
276,208,53316,2,0,P|344:220|388:260,1,115.199996484375,2|2,1:0|0:3,0:0:0:0:
496,156,53610,5,2,1:0:0:0:
439,149,53683,1,0,0:0:0:0:
392,116,53757,1,2,1:3:0:0:
480,36,53904,5,2,1:0:0:0:
488,304,54051,6,0,B|424:308|384:264|384:264|324:292|316:364,1,230.39999296875,8|2,1:0|0:3,0:0:0:0:
105,255,54492,6,0,B|169:251|209:295|209:295|269:267|277:195,1,230.39999296875,2|2,1:0|1:0,0:0:0:0:
317,351,54933,5,0,1:2:0:0:
317,351,55007,1,0,0:0:0:0:
317,351,55081,1,8,0:1:0:0:
56,348,55228,6,0,B|116:312|160:344|136:352|192:396|248:368,1,192,12|2,1:0|1:3,0:0:0:0:
84,162,55669,6,0,P|92:226|112:266,1,96,8|2,1:0|1:3,0:0:0:0:
212,292,55963,6,0,P|229:247|232:199,1,96,2|4,1:0|1:3,0:0:0:0:
232,199,56183,1,2,0:3:0:0:
232,199,56257,1,8,1:0:0:0:
460,52,56404,5,8,1:0:0:0:
456,64,56478,1,8,1:2:0:0:
452,76,56551,2,0,B|366:83|366:83|330:64|330:64|208:72,1,216.000008239746,4|0,1:0|1:0,0:0:0:0:
64,48,56845,6,0,B|121:52|121:52|176:24,1,115.199996484375,8|2,0:1|1:3,0:0:0:0:
156,232,57139,5,4,0:3:0:0:
98,227,57213,1,0,0:0:0:0:
47,253,57286,1,2,1:2:0:0:
248,148,57433,5,8,1:0:0:0:
116,320,57581,6,0,B|208:312|264:376|264:376|248:344|256:312,1,230.39999296875,8|2,1:0|0:0,0:0:0:0:
452,324,57948,5,2,0:3:0:0:
452,324,58022,2,0,L|324:332,1,115.199996484375,8|2,1:0|0:3,0:0:0:0:
504,260,58316,5,4,1:3:0:0:
312,252,58463,1,2,1:3:0:0:
312,252,58536,1,0,0:0:0:0:
312,252,58610,1,8,0:1:0:0:
120,244,58757,1,12,0:1:0:0:
16,144,58904,6,0,L|92:136,1,57.5999982421876,2|2,0:1|0:1,0:0:0:0:
96,116,59051,2,0,L|172:108,1,57.5999982421876,2|2,0:1|0:1,0:0:0:0:
224,148,59198,6,0,B|228:236|228:236|208:268|208:268|212:168,1,216.000008239746,12|0,1:0|0:0,0:0:0:0:
276,328,59492,6,0,L|352:336,1,57.5999982421876,2|2,1:1|1:1,0:0:0:0:
356,356,59639,2,0,L|432:364,1,57.5999982421876,2|2,1:1|1:1,0:0:0:0:
488,316,59786,6,0,B|492:228|492:228|472:196|472:196|476:296,1,216.000008239746,12|0,1:2|0:0,0:0:0:0:
384,260,60081,5,2,1:0:0:0:
376,232,60154,1,0,0:0:0:0:
360,208,60228,1,4,1:3:0:0:
320,188,60301,5,0,0:0:0:0:
300,148,60375,5,8,1:0:0:0:
309,120,60448,1,2,1:2:0:0:
311,91,60522,1,2,1:2:0:0:
290,52,60595,5,2,1:0:0:0:
308,12,60669,6,0,L|236:20,1,57.5999982421876,12|2,0:1|1:1,0:0:0:0:
52,40,60816,6,0,L|166:27,1,115.199996484375,8|8,1:2|0:1,0:0:0:0:
292,320,61110,6,0,P|200:244|60:272,1,230.39999296875,4|2,1:2|0:3,0:0:0:0:
64,268,61478,1,2,0:3:0:0:
36,288,61551,6,0,P|12:224|36:148,1,115.199996484375,8|2,0:1|0:3,0:0:0:0:
188,104,61845,5,2,1:0:0:0:
296,176,61992,1,4,1:3:0:0:
140,320,62139,1,8,0:1:0:0:
284,40,62286,6,0,P|332:152|468:168,1,230.39999296875,8|0,1:0|1:0,0:0:0:0:
456,168,62654,1,2,1:0:0:0:
476,148,62728,6,0,P|396:168|356:232,1,115.199996484375,4|2,1:3|0:3,0:0:0:0:
404,352,63022,5,2,1:0:0:0:
347,345,63095,1,0,0:0:0:0:
302,310,63169,1,4,1:3:0:0:
464,268,63316,5,8,0:1:0:0:
412,372,63463,6,0,B|276:404|336:300|188:336,1,230.39999296875,8|2,1:0|0:3,0:0:0:0:
24,360,63904,5,8,1:0:0:0:
108,221,64051,1,2,0:3:0:0:
104,316,64198,6,0,P|112:240|100:192,1,96,2|4,1:0|1:3,0:0:0:0:
195,334,64492,1,8,0:0:0:0:
28,168,64639,6,0,P|144:176|196:92,1,192,12|2,1:0|0:3,0:0:0:0:
268,28,65081,6,0,L|160:40,1,96,8|2,0:1|0:3,0:0:0:0:
28,168,65375,1,2,1:0:0:0:
84,4,65522,5,4,1:2:0:0:
80,51,65595,1,2,1:0:0:0:
96,96,65669,1,8,0:1:0:0:
316,280,65816,5,12,1:0:0:0:
328,276,65889,1,0,1:0:0:0:
340,272,65963,2,0,B|372:192|344:140|344:140|276:124|228:180,1,216.000008239746,4|2,0:3|0:3,0:0:0:0:
204,204,66257,6,0,B|184:220|180:244|180:244|204:268|272:272,1,115.199996484375,8|0,1:0|0:0,0:0:0:0:
272,348,66551,5,2,1:0:0:0:
100,380,66698,2,0,B|80:364|76:340|76:340|100:316|168:312,1,115.199996484375,4|8,1:3|0:1,0:0:0:0:
458,107,66992,6,0,B|408:88|400:144|349:123|349:123|312:60|248:68,1,230.39999296875,4|2,1:0|1:0,0:0:0:0:
165,175,67360,5,0,0:0:0:0:
165,175,67433,2,0,P|249:167|277:115,1,115.199996484375,8|0,0:1|0:0,0:0:0:0:
92,216,67728,5,2,1:0:0:0:
64,32,67875,2,0,P|72:116|124:144,1,115.199996484375,6|8,1:3|0:1,0:0:0:0:
168,256,68169,6,0,L|184:20,1,230.39999296875,12|2,0:1|1:3,0:0:0:0:
220,48,68536,1,0,0:0:0:0:
256,68,68610,6,0,L|380:56,1,115.199996484375,8|2,1:1|0:3,0:0:0:0:
380,136,68904,2,0,L|265:147,1,115.199996484375,4|0,1:0|1:2,0:0:0:0:
444,88,69198,5,8,1:0:0:0:
91,132,69345,2,0,B|52:172|52:172|72:312,1,172.799994726563,8|4,0:0|0:3,0:0:0:0:
52,364,69639,5,4,0:3:0:0:
124,340,69713,5,4,0:3:0:0:
156,296,69786,1,8,1:0:0:0:
188,264,69860,1,0,0:0:0:0:
220,256,69933,1,4,1:3:0:0:
240,260,70007,1,0,0:0:0:0:
248,268,70081,5,8,1:0:0:0:
256,284,70154,1,8,1:0:0:0:
276,304,70228,1,8,1:0:0:0:
304,312,70301,1,8,1:0:0:0:
340,304,70375,1,8,1:2:0:0:
376,272,70448,1,8,1:2:0:0:
428,256,70522,5,6,0:0:0:0:
484,280,70571,5,2,0:0:0:0:
501,314,70620,5,2,0:0:0:0:
504,352,70669,6,0,P|448:276|352:284,1,172.799994726563,4|0,0:1|1:0,0:0:0:0:
312,228,70963,5,8,0:1:0:0:
312,228,71036,2,0,P|328:188|316:124,2,57.5999982421876,0|0|2,1:0|1:0|0:3,0:0:0:0:
272,120,71257,6,0,P|268:64|232:0,1,84.0000008010864,4|0,1:3|1:0,0:0:0:0:
76,68,71404,2,0,P|80:124|116:188,1,84.0000008010864,2|0,1:2|1:0,0:0:0:0:
176,96,71551,5,12,0:1:0:0:
160,300,71698,5,2,1:2:0:0:
156,276,71772,1,0,1:0:0:0:
152,252,71845,1,4,0:0:0:0:
48,220,71992,1,4,1:3:0:0:
112,376,72139,1,12,0:1:0:0:
256,272,72286,5,0,1:3:0:0:
400,376,72433,5,12,1:2:0:0:
360,252,72581,1,4,0:3:0:0:
356,276,72654,1,2,0:3:0:0:
352,300,72728,1,12,0:1:0:0:
464,220,72875,1,4,1:3:0:0:
284,80,73022,6,0,B|269:76|256:86|256:86|269:132|320:151,1,84.0000008010864,4|0,1:0|0:0,0:0:0:0:
371,160,73169,6,0,B|375:173|390:180|390:180|423:145|415:92,1,84.0000008010864,2|0,1:2|0:0,0:0:0:0:
398,43,73316,6,0,B|407:32|406:15|406:15|359:4|317:38,1,84.0000008010864,8|0,0:1|0:0,0:0:0:0:
472,76,73463,5,4,1:3:0:0:
484,72,73536,1,2,0:3:0:0:
496,68,73610,1,4,1:3:0:0:
276,0,73757,5,4,1:3:0:0:
496,68,73904,6,0,P|500:128|464:176,1,72.0000027465821,12|0,0:1|1:0,0:0:0:0:
448,208,74051,6,0,P|404:228|389:260,3,48,4|0|4|0,1:3|1:0|0:0|1:0,0:0:0:0:
424,304,74345,6,0,P|471:296|494:269,1,72.0000027465821,2|0,0:3|1:0,0:0:0:0:
340,180,74492,1,12,0:1:0:0:
296,360,74639,1,6,0:3:0:0:
156,236,74786,5,12,0:0:0:0:
156,236,74860,1,0,1:0:0:0:
156,236,74933,2,0,P|203:243|226:270,1,72.0000027465821,4|0,0:3|0:0,0:0:0:0:
296,360,75081,6,0,P|316:312|284:240,1,115.199996484375,12|0,0:1|0:0,0:0:0:0:
340,180,75301,5,0,1:0:0:0:
348,160,75375,2,0,P|364:136|388:121,2,57.5999982421876,4|0|0,1:0|1:0|0:0,0:0:0:0:
288,108,75595,5,0,1:0:0:0:
284,86,75669,2,0,P|286:57|300:32,2,57.5999982421876,8|0|2,0:1|1:0|0:0,0:0:0:0:
204,76,75889,5,2,0:3:0:0:
190,59,75963,2,0,P|177:33|176:4,1,57.5999982421876,4|0,1:3|0:0,0:0:0:0:
72,0,76110,6,0,P|104:52|96:124,1,115.199996484375,4|12,1:3|0:1,0:0:0:0:
128,288,76404,5,4,1:3:0:0:
80,292,76478,1,0,1:0:0:0:
36,296,76551,1,4,0:0:0:0:
56,212,76698,5,4,1:3:0:0:
136,180,76845,1,12,0:1:0:0:
212,224,76992,1,4,1:3:0:0:
224,308,77139,5,12,0:0:0:0:
384,352,77286,5,2,0:0:0:0:
384,352,77360,1,2,1:0:0:0:
384,352,77433,1,12,0:1:0:0:
475,213,77581,5,4,1:3:0:0:
371,83,77728,6,0,P|352:48|352:0,1,57.5999982421876,4|2,1:0|0:0,0:0:0:0:
372,168,77875,6,0,P|316:144|276:56,1,96,6|2,0:0|0:0,0:0:0:0:
428,28,78022,1,12,0:1:0:0:
472,296,78169,5,4,1:3:0:0:
464,292,78242,1,0,1:0:0:0:
456,288,78316,2,0,P|468:352|492:388,1,84.0000008010864,6|2,1:0|0:0,0:0:0:0:
384,352,78463,1,8,0:0:0:0:
324,236,78610,6,0,P|308:296|304:352,1,96,12|2,0:1|0:0,0:0:0:0:
232,264,78757,1,4,1:3:0:0:
52,384,78904,6,0,B|40:256|40:256|84:304,1,192,4|4,1:3|1:3,0:0:0:0:
156,192,79125,5,0,0:0:0:0:
156,192,79198,2,0,B|152:221|152:221|157:233|157:233|154:262,1,72.0000027465821,8|0,0:1|0:0,0:0:0:0:
156,356,79345,6,0,B|159:326|159:326|154:314|154:314|157:285,1,72.0000027465821,8|8,0:1|0:0,0:0:0:0:
240,56,79492,5,6,0:3:0:0:
220,80,79566,2,0,B|223:138|223:138|235:162|235:162|239:222,1,144.000005493164
72,224,79786,5,12,0:1:0:0:
24,240,79860,1,8,0:0:0:0:
80,128,79933,5,8,0:1:0:0:
56,136,80007,1,8,0:0:0:0:
88,32,80081,5,8,0:1:0:0:
492,52,88904,6,0,B|460:32|460:32|420:48|420:48|356:40|356:40|328:52|328:52|304:32|304:32|204:20,1,256,4|0,1:0|0:0,0:0:0:0:
19,1,89051,6,0,B|51:21|51:21|91:5|91:5|155:13|155:13|183:1|183:1|207:21|207:21|307:33,1,256,4|0,1:0|0:0,0:0:0:0:
248,104,89345,5,8,0:1:0:0:
240,118,89419,1,2,1:3:0:0:
236,133,89492,1,6,1:3:0:0:
236,149,89566,1,2,1:3:0:0:
239,165,89639,1,8,1:2:0:0:
245,179,89713,1,2,0:0:0:0:
236,232,89786,5,12,0:1:0:0:
267,267,89860,1,2,1:3:0:0:
328,284,89933,1,2,1:2:0:0:
396,252,90007,1,2,0:0:0:0:
424,164,90081,5,8,0:1:0:0:
376,224,90154,1,0,0:0:0:0:
370,286,90228,1,0,0:0:0:0:
386,330,90301,1,0,0:0:0:0:
403,350,90375,5,8,0:1:0:0:
420,360,90448,1,2,1:3:0:0:
430,364,90522,1,10,1:2:0:0:
437,367,90595,1,2,1:2:0:0:
484,304,90669,5,8,1:0:0:0:
480,289,90742,1,2,1:3:0:0:
466,280,90816,1,8,1:2:0:0:
451,283,90889,1,2,1:2:0:0:
490,206,90963,5,8,1:0:0:0:
482,176,91036,1,2,1:2:0:0:
454,158,91110,1,2,1:2:0:0:
424,164,91183,1,2,1:3:0:0:
508,100,91257,5,8,1:0:0:0:
352,124,91331,1,2,1:2:0:0:
500,72,91404,5,2,1:2:0:0:
408,64,91478,1,2,1:2:0:0:
484,40,91551,5,8,1:0:0:0:
484,40,91698,2,0,B|369:69|395:-18|271:16,1,216.000008239746,8|0,1:0|0:0,0:0:0:0:
228,75,91992,6,0,P|233:110|220:143,1,72.0000027465821,2|2,1:2|1:3,0:0:0:0:
72,48,92139,6,0,P|52:91|58:138,1,96,12|4,1:0|1:3,0:0:0:0:
156,104,92360,5,2,1:2:0:0:
132,100,92433,2,0,B|134:123|134:123|132:147,1,48,8|2,1:0|1:3,0:0:0:0:
84,256,92581,2,0,B|81:232|81:232|84:208,1,48,2|2,1:2|1:2,0:0:0:0:
160,228,92728,2,0,B|162:251|162:251|160:275,1,48,8|2,1:0|1:3,0:0:0:0:
112,384,92875,2,0,B|109:360|109:360|112:336,1,48,10|2,1:2|1:2,0:0:0:0:
24,324,93022,5,8,1:0:0:0:
42,322,93095,1,2,1:3:0:0:
61,321,93169,1,4,1:3:0:0:
79,319,93242,1,2,1:2:0:0:
156,300,93316,5,8,1:0:0:0:
184,303,93389,1,2,1:0:0:0:
214,304,93463,1,4,1:3:0:0:
242,307,93536,1,2,1:0:0:0:
288,368,93610,5,8,1:0:0:0:
332,328,93683,1,2,1:2:0:0:
424,312,93757,1,2,1:2:0:0:
512,384,93831,1,2,1:2:0:0:
480,232,93904,6,0,L|488:56,1,144,8|0,1:0|0:0,0:0:0:0:
488,64,94051,6,12,B|448:92|393:78|393:78|404:95|404:95|344:80|304:108,1,216.000008239746,12|0,1:0|0:0,1:1:0:0:
280,20,94345,6,0,L|284:36,1,9.6,2|2,1:0|1:2,0:0:0:0:
352,188,94492,6,0,L|357:167,1,19.2,14|2,1:2|1:0,0:0:0:0:
200,16,94639,6,0,L|208:50,1,28.7999991210938,2|2,1:2|1:0,0:0:0:0:
264,220,94786,6,0,L|275:174,1,38.4,8|2,1:1|1:3,0:0:0:0:
120,12,94933,6,0,L|132:63,1,48,8|2,1:2|1:2,0:0:0:0:
172,252,95081,6,0,L|194:162,1,57.5999982421876,12|2,1:1|1:0,0:0:0:0:
36,8,95228,6,0,L|58:97,1,67.1999979492188,8|2,1:1|1:0,0:0:0:0:
76,288,95375,1,10,1:2:0:0:
76,288,95522,6,0,L|98:198,1,76.8,14|0,1:2|0:0,0:0:0:0:
264,220,95669,1,8,1:0:0:0:
264,220,95816,6,0,L|286:130,1,86.3999973632813,6|8,1:2|1:0,0:0:0:0:
452,152,95963,6,0,L|482:25,1,96,10|2,1:2|1:2,0:0:0:0:
308,288,96110,5,8,1:0:0:0:
272,300,96183,1,10,1:2:0:0:
300,324,96257,6,0,B|376:300|360:376|444:356,1,144.000005493164,8|12,1:0|1:0,0:0:0:0:
452,200,96478,5,0,0:0:0:0:
440,212,96551,2,0,P|424:244|428:304,1,72.0000027465821,4|0,0:3|0:0,0:0:0:0:
344,368,96698,6,0,P|352:332|368:312,1,48,8|2,1:0|1:0,0:0:0:0:
504,292,96845,6,0,P|496:300|492:312,1,19.2,14|2,1:2|1:2,0:0:0:0:
312,200,96992,6,0,P|333:218|346:243,1,57.5999982421876,2|2,1:0|1:2,0:0:0:0:
504,292,97139,6,0,P|490:295|478:305,1,28.7999991210938,8|2,1:0|1:2,0:0:0:0:
288,120,97286,6,0,P|321:118|352:127,1,67.1999979492188,2|2,1:0|1:2,0:0:0:0:
504,292,97433,6,0,P|486:287|466:291,1,38.4,10|2,1:2|1:2,0:0:0:0:
216,84,97581,6,0,P|242:54|277:34,1,76.8,8|2,1:0|1:2,0:0:0:0:
400,304,97728,5,10,1:2:0:0:
396,358,97801,1,2,1:0:0:0:
332,204,97875,5,8,1:0:0:0:
336,248,97948,1,10,1:2:0:0:
392,128,98022,5,8,1:0:0:0:
390,148,98095,1,10,1:2:0:0:
452,68,98169,5,8,1:0:0:0:
453,77,98242,1,10,1:2:0:0:
412,0,98316,6,0,L|411:-15,1,12,8|0,1:0|0:0,0:0:0:0:
56,220,98757,6,0,P|176:188|216:352,1,288,4|2,1:2|1:0,0:0:0:0:
108,344,99345,1,4,0:3:0:0:
56,220,99492,6,0,B|62:176|62:176|52:140|52:140|68:20,1,192,12|2,0:1|0:3,0:0:0:0:
273,226,99933,6,0,B|297:178|297:178|220:214|220:214|241:346,1,240,2|0,1:0|0:0,0:0:0:0:
236,314,100375,1,2,1:2:0:0:
236,314,100448,1,0,1:0:0:0:
236,314,100522,1,2,1:1:0:0:
236,314,100595,1,0,1:0:0:0:
236,314,100669,1,12,0:1:0:0:
496,328,100963,1,2,0:0:0:0:
432,376,101110,6,0,P|386:323|317:331,1,144.000005493164,4|0,0:3|0:3,0:0:0:0:
412,228,101551,2,0,P|424:272|420:312,1,72.0000027465821,4|2,0:3|1:0,0:0:0:0:
484,164,101845,6,0,P|392:140|320:208,1,192,12|2,0:1|1:2,0:0:0:0:
334,54,102286,6,0,L|322:214,1,144.000005493164,4|8,0:3|0:0,0:0:0:0:
316,280,102728,1,2,1:0:0:0:
248,128,102875,5,4,1:3:0:0:
244,108,102948,1,4,1:3:0:0:
240,88,103022,1,12,0:1:0:0:
72,60,103169,5,8,0:1:0:0:
44,228,103316,5,8,0:1:0:0:
212,256,103463,2,0,L|200:324,1,36.0000013732911,8|0,0:1|0:0,0:0:0:0:
200,320,103610,6,0,B|236:228|152:248|180:152,1,172.799994726563,4|0,0:0|0:0,0:0:0:0:
72,60,103904,2,0,P|140:48|152:112,1,115.199996484375,8|2,1:0|0:3,0:0:0:0:
256,184,104198,6,0,P|292:176|328:144,1,57.5999982421876,2|0,1:0|0:0,0:0:0:0:
132,284,104345,2,0,B|8:276|8:276|76:304,1,172.799994726563,4|0,1:3|0:0,0:0:0:0:
188,340,104639,6,0,B|316:332,1,115.199996484375,2|4,1:2|0:0,0:0:0:0:
472,316,104933,1,2,1:0:0:0:
404,376,105081,6,0,B|384:324|384:324|392:265,1,115.199996484375,8|2,0:1|0:3,0:0:0:0:
308,52,105375,6,0,L|312:104,1,36.0000013732911,2|0,1:0|0:0,0:0:0:0:
240,120,105522,1,4,1:3:0:0:
456,24,105669,1,10,1:0:0:0:
392,265,105816,6,0,B|388:221|388:221|376:205|376:205|384:189|384:189|380:133|380:133|388:117|388:117|384:41,1,216.000008239746,2|0,1:0|0:0,0:0:0:0:
460,156,106110,6,0,L|464:219,1,57.5999982421876,4|0,1:3|0:0,0:0:0:0:
236,288,106257,6,0,B|320:304|320:304|348:348,1,115.199996484375,12|2,1:0|1:2,0:0:0:0:
488,356,106551,6,0,B|476:336|476:336|472:296|472:296|460:328|460:328|420:336|420:336|408:344|408:344|388:340|388:340|300:352,1,216.000008239746,2|0,1:0|1:0,0:0:0:0:
140,376,106845,6,0,L|250:362,1,72.0000027465821,12|0,1:0|0:0,0:0:0:0:
280,228,106992,6,0,L|272:332,1,84.0000008010864,4|0,1:3|0:0,0:0:0:0:
76,320,107139,5,4,1:0:0:0:
64,321,107213,1,0,0:0:0:0:
52,322,107286,1,0,1:0:0:0:
40,324,107360,1,2,1:0:0:0:
92,244,107433,5,4,1:2:0:0:
104,242,107507,1,2,1:0:0:0:
116,241,107581,1,8,0:0:0:0:
128,240,107654,1,8,0:0:0:0:
44,184,107728,5,8,1:0:0:0:
24,152,107801,1,2,1:0:0:0:
24,112,107875,5,6,0:0:0:0:
52,60,107948,1,2,1:2:0:0:
116,40,108022,1,8,1:3:0:0:
184,76,108095,1,8,1:0:0:0:
192,92,108169,6,0,P|308:108|212:212,1,288.000010986329,12|2,1:0|1:0,0:0:0:0:
212,296,108536,5,0,1:0:0:0:
212,296,108610,2,0,L|64:288,1,115.199996484375,8|2,1:1|0:3,0:0:0:0:
392,92,108904,6,0,P|400:132|396:172,1,57.5999982421876,6|0,1:3|0:0,0:0:0:0:
248,368,109051,1,2,1:3:0:0:
356,220,109198,5,2,1:1:0:0:
480,352,109345,6,0,P|512:304|496:224,1,115.199996484375,8|2,1:0|1:0,0:0:0:0:
320,132,109639,1,0,0:0:0:0:
340,340,109786,6,0,B|368:288|440:280|440:280|368:268|352:208,1,230.39999296875,2|2,1:0|1:0,0:0:0:0:
320,132,110154,1,0,0:0:0:0:
320,132,110228,2,0,L|392:136,1,57.5999982421876,2|0,1:3|0:0,0:0:0:0:
284,272,110375,5,2,1:0:0:0:
368,48,110522,6,0,B|268:56|268:56|248:84|248:84|140:92,1,230.39999296875,8|0,1:0|0:0,0:0:0:0:
88,16,110963,6,0,L|232:5,1,115.199996484375,2|0,1:0|0:0,0:0:0:0:
484,140,111257,2,0,L|476:73,1,57.5999982421876,2|0,1:0|0:0,0:0:0:0:
468,0,111404,6,0,L|457:144,1,115.199996484375,0|8,1:2|0:1,0:0:0:0:
280,232,111698,6,0,B|300:200|328:192|328:192|360:196|360:196|356:180|356:180|408:168|448:204,1,172.799994726563,12|0,1:0|0:0,0:0:0:0:
464,252,111992,1,0,1:2:0:0:
372,356,112139,6,0,P|348:312|400:268,1,115.199996484375,8|0,1:0|1:2,0:0:0:0:
480,244,112433,5,2,1:0:0:0:
481,272,112507,1,0,0:0:0:0:
483,301,112581,1,4,1:3:0:0:
484,330,112654,1,2,0:3:0:0:
486,359,112728,1,8,1:0:0:0:
56,344,112875,5,8,1:0:0:0:
56,344,112948,1,12,1:2:0:0:
56,344,113022,2,0,B|112:324|112:324|136:188,1,172.799994726563,0|0,0:0|1:0,0:0:0:0:
44,248,113316,6,0,L|32:108,1,115.199996484375,8|2,0:1|1:3,0:0:0:0:
188,344,113610,6,0,L|200:268,1,57.5999982421876,4|0,0:3|0:0,0:0:0:0:
131,212,113757,1,2,1:2:0:0:
308,72,113904,5,8,1:0:0:0:
296,264,114051,2,0,B|280:208|280:208|296:132,1,115.199996484375,8|2,1:0|1:0,0:0:0:0:
412,372,114345,1,2,0:0:0:0:
272,342,114492,6,0,B|304:356|372:336|376:260|376:260|396:296|448:296,1,230.39999296875,8|4,1:0|1:3,0:0:0:0:
460,160,114933,6,0,P|454:188|443:214,2,57.5999982421876,0|0|8,1:2|0:0|0:1,0:0:0:0:
296,264,115228,1,12,0:1:0:0:
280,16,115375,5,2,0:1:0:0:
337,13,115448,1,2,0:1:0:0:
387,40,115522,1,2,0:1:0:0:
436,68,115595,1,2,0:1:0:0:
494,70,115669,1,12,1:0:0:0:
104,164,115963,5,2,1:1:0:0:
161,167,116036,1,2,1:1:0:0:
211,140,116110,1,2,1:1:0:0:
260,112,116183,1,2,1:1:0:0:
318,110,116257,1,12,1:2:0:0:
140,68,116404,5,4,0:3:0:0:
20,120,116551,6,0,P|20:200|44:240,1,115.199996484375,2|4,1:0|1:3,0:0:0:0:
136,372,116845,2,0,P|157:319|151:262,1,96,8|2,1:0|1:2,0:0:0:0:
288,204,117139,5,12,0:1:0:0:
288,204,117286,2,0,P|288:284|312:324,1,115.199996484375,8|8,1:2|0:1,0:0:0:0:
328,332,117507,1,0,0:0:0:0:
356,340,117581,6,0,P|412:268|452:364,1,230.39999296875,4|2,1:2|1:3,0:0:0:0:
464,200,117948,5,2,0:3:0:0:
464,200,118022,2,0,L|471:69,1,115.199996484375,8|2,0:1|0:3,0:0:0:0:
224,248,118316,6,0,P|212:204|216:168,1,57.5999982421876,2|0,1:0|0:0,0:0:0:0:
180,336,118463,1,4,1:3:0:0:
292,24,118610,5,8,0:1:0:0:
112,64,118757,6,0,P|136:136|120:196,1,115.199996484375,8|2,1:0|1:0,0:0:0:0:
1,282,119051,1,0,1:0:0:0:
1,282,119125,1,2,1:0:0:0:
1,282,119198,2,0,P|133:266|181:346,1,230.39999296875,4|2,1:3|1:0,0:0:0:0:
76,356,119639,5,4,1:3:0:0:
48,132,119786,1,8,0:1:0:0:
76,356,119933,6,0,B|132:376|132:376|336:352,1,230.39999296875,8|2,1:0|0:3,0:0:0:0:
464,224,120375,2,0,L|460:344,1,115.199996484375,8|2,1:0|0:3,0:0:0:0:
328,168,120669,5,2,1:0:0:0:
380,348,120816,2,0,L|383:232,1,115.199996484375,4|8,1:3|0:0,0:0:0:0:
480,32,121110,6,0,P|492:104|376:140,1,172.799994726563,8|0,1:0|0:0,0:0:0:0:
364,92,121404,1,2,0:3:0:0:
481,267,121551,6,0,P|405:259|377:207,1,115.199996484375,8|2,0:1|0:3,0:0:0:0:
301,356,121845,6,0,L|296:272,1,57.5999982421876,2|0,1:0|0:0,0:0:0:0:
256,228,121992,6,0,L|253:186,1,38.4,4|0,1:2|0:0,0:0:0:0:
224,112,122139,1,8,0:1:0:0:
64,82,122286,5,12,1:0:0:0:
64,82,122360,1,0,1:0:0:0:
64,82,122433,2,0,B|52:146|96:130|85:191,1,115.199996484375,4|0,0:3|0:0,0:0:0:0:
64,300,122728,2,0,B|52:236|96:252|85:190,1,115.199996484375,8|0,1:0|0:0,0:0:0:0:
144,292,122948,5,0,0:0:0:0:
144,292,123022,2,0,L|224:300,1,57.5999982421876,2|0,1:0|0:0,0:0:0:0:
144,92,123169,6,0,L|274:79,1,115.199996484375,4|8,1:3|0:1,0:0:0:0:
332,272,123463,6,0,B|385:308|343:328|394:364,1,115.199996484375,4|0,1:0|0:0,0:0:0:0:
480,192,123757,5,2,1:0:0:0:
332,112,123904,6,0,B|385:75|343:55|394:19,1,115.199996484375,8|2,0:1|0:3,0:0:0:0:
360,192,124198,6,0,P|384:200|404:224,1,57.5999982421876,2|2,1:0|0:3,0:0:0:0:
360,192,124345,2,0,P|388:180|408:156,1,57.5999982421876,6|2,1:3|1:0,0:0:0:0:
280,192,124492,1,4,1:3:0:0:
88,192,124639,6,0,P|16:112|104:12,1,230.39999296875,12|2,0:1|1:3,0:0:0:0:
148,40,125081,6,0,L|164:176,1,115.199996484375,8|2,1:1|0:3,0:0:0:0:
12,252,125301,1,2,1:3:0:0:
4,236,125375,6,0,B|123:202|86:318|242:277,1,216.000008239746,4|0,1:0|0:0,0:0:0:0:
233,205,125669,6,0,P|197:257|237:309,1,96,8|2,1:0|1:3,0:0:0:0:
40,352,125816,6,0,P|76:304|136:320,1,120,8|8,0:0|0:0,0:0:0:0:
272,324,125963,5,8,0:0:0:0:
344,352,126036,1,4,0:3:0:0:
412,348,126110,1,4,0:3:0:0:
452,324,126183,1,4,0:3:0:0:
468,300,126257,5,8,1:0:0:0:
475,279,126331,1,2,1:2:0:0:
475,258,126404,1,4,1:3:0:0:
465,229,126478,1,2,1:3:0:0:
436,204,126551,5,8,1:0:0:0:
392,188,126625,1,8,1:0:0:0:
344,160,126698,1,8,1:0:0:0:
316,100,126772,1,8,1:0:0:0:
312,24,126845,6,0,P|344:-12|400:16,1,96,8|8,1:2|1:2,0:0:0:0:
396,268,126992,5,4,1:0:0:0:
464,24,127286,5,2,0:0:0:0:
420,88,127360,1,2,0:0:0:0:
356,104,127433,1,2,1:0:0:0:
315,99,127507,1,2,1:3:0:0:
280,120,127581,5,4,1:3:0:0:
260,156,127654,1,2,1:0:0:0:
220,152,127728,1,12,0:1:0:0:
156,168,127801,1,2,0:3:0:0:
104,228,127875,5,6,0:0:0:0:
84,308,127948,1,2,0:0:0:0:
80,236,128022,1,10,1:2:0:0:
48,192,128095,1,0,1:0:0:0:
32,180,128169,6,0,L|20:32,1,144,2|2,1:2|0:3,0:0:0:0:
36,56,128463,6,0,P|0:56|-16:24,1,72.0000027465821,2|2,0:0|1:2,0:0:0:0:
228,96,128610,6,0,P|268:104|272:48,1,72.0000027465821,4|2,1:3|0:0,0:0:0:0:
144,4,128757,5,2,1:2:0:0:
144,4,128831,1,2,1:0:0:0:
144,4,128904,2,0,P|128:60|136:120,1,96,12|2,0:1|1:2,0:0:0:0:
152,172,129125,1,2,0:0:0:0:
440,312,129345,6,0,L|520:304,1,72.0000027465821,10|2,1:2|1:3,0:0:0:0:
352,252,129492,6,0,L|432:244,1,48,4|2,1:2|1:2,0:0:0:0:
288,328,129639,6,0,L|347:322,1,36.0000013732911,2|2,1:2|1:3,0:0:0:0:
208,272,129786,6,0,L|237:269,1,24,8|2,1:2|1:3,0:0:0:0:
148,344,129933,5,2,1:0:0:0:
165,342,130007,1,2,1:2:0:0:
92,284,130081,5,12,0:1:0:0:
100,283,130154,1,0,1:0:0:0:
48,352,130228,5,2,1:0:0:0:
56,351,130301,1,2,1:0:0:0:
0,296,130375,5,4,1:3:0:0:
80,56,130522,6,0,P|168:40|224:96,1,160,2|0,1:0|0:0,0:0:0:0:
140,188,130865,5,0,0:0:0:0:
140,188,130963,2,0,B|132:156|132:156|140:104,1,64,2|2,1:0|0:0,0:0:0:0:
217,81,131155,1,2,0:0:0:0:
300,116,131251,6,0,B|308:148|308:148|300:200,1,64,12|2,0:1|0:0,0:0:0:0:
224,224,131443,2,0,L|220:144,1,64,2|8,0:0|0:0,0:0:0:0:
368,60,131636,6,0,B|352:40|352:40|484:24,1,144,8|2,0:1|1:2,0:0:0:0:
496,20,131939,6,0,L|492:88,1,48,0|2,0:0|0:0,0:0:0:0:
464,212,132081,2,0,L|460:280,1,48,8|2,0:0|0:0,0:0:0:0:
444,132,132224,5,2,0:0:0:0:
472,228,132367,2,0,P|472:275|447:316,1,96.0000036621095,2|0,0:0|0:0,0:0:0:0:
384,276,132510,2,0,P|369:248|325:224,1,80,2|0,0:0|0:0,0:0:0:0:
308,300,132653,2,0,P|288:300|248:324,1,64,2|0,0:0|0:0,0:0:0:0:
176,344,132796,6,0,P|156:332|104:332,2,64,2|2|0,0:0|1:0|0:0,0:0:0:0:
48,296,133035,6,0,P|60:277|76:262,1,44.7999986328125,2|2,1:2|0:0,0:0:0:0:
8,228,133114,5,2,1:0:0:0:
28,172,133194,1,2,1:2:0:0:
52,152,133274,2,0,P|87:155|120:170,1,72.0000027465821,10|2,1:0|0:0,0:0:0:0:
192,64,133427,5,2,0:0:0:0:
224,36,133503,1,2,0:3:0:0:
264,24,133580,2,0,P|275:63|267:112,1,89.5999972656251,2|0,1:2|0:0,0:0:0:0:
340,140,133733,6,0,P|348:104|372:68,1,67.1999979492188,2|0,0:0|0:0,0:0:0:0:
460,92,133886,6,0,P|440:119|403:147,2,57.5999982421876,10|0|0,1:0|0:0|0:0,0:0:0:0:
384,216,134039,6,0,P|452:228|476:264,2,96,2|10|2,1:2|1:2|1:2,0:0:0:0:
368,304,134410,5,0,0:0:0:0:
352,296,134484,5,8,1:0:0:0:
344,348,134558,1,2,1:2:0:0:
292,368,134633,1,2,1:2:0:0:
300,312,134707,1,2,1:0:0:0:
308,256,134781,1,10,1:2:0:0:
256,280,134855,1,2,1:2:0:0:
248,332,134930,1,2,1:2:0:0:
200,348,135004,5,2,1:0:0:0:
208,296,135078,1,12,1:0:0:0:
164,256,135152,1,2,1:2:0:0:
112,280,135227,1,2,1:2:0:0:
104,332,135301,1,2,1:0:0:0:
148,368,135375,1,4,1:2:0:0:
364,88,145816,5,2,0:0:0:0:
364,88,145963,2,0,P|356:104|352:136,1,48,0|0,1:0|0:0,0:0:0:0:
436,156,146257,6,0,P|444:140|448:108,1,48,2|0,0:0|0:0,0:0:0:0:
428,32,146551,5,0,0:0:0:0:
376,212,146698,2,0,B|368:264|400:252|392:308,1,96,0|2,3:0|0:0,0:0:0:0:
332,356,147139,2,0,P|268:344|252:324,2,72,2|2|0,0:3|0:3|1:0,0:0:0:0:
404,320,147728,5,0,0:0:0:0:
232,272,148022,1,2,0:3:0:0:
76,356,148316,6,0,B|64:336|36:332|36:332|32:300|48:272,1,96,2|0,0:3|1:0,0:0:0:0:
88,216,148757,2,0,B|100:236|128:240|128:240|132:272|116:300,1,96,2|0,0:3|1:0,0:0:0:0:
12,184,149345,5,2,0:0:0:0:
148,160,149492,2,0,L|152:104,2,48,2|2|0,0:3|0:3|1:0,0:0:0:0:
66,76,149934,6,0,L|72:124,1,48,2|2,0:3|0:0,0:0:0:0:
108,356,150375,5,2,0:3:0:0:
108,356,150669,6,0,B|116:260|116:260|136:284|160:288,1,144,0|0,1:0|0:0,0:0:0:0:
212,236,151257,1,2,0:0:0:0:
216,220,151404,1,2,0:3:0:0:
404,220,151698,6,0,B|396:316|396:316|376:292|352:288,1,144,0|0,1:0|0:0,0:0:0:0:
300,340,152286,1,2,0:3:0:0:
296,356,152434,2,0,L|240:352,1,48,2|0,0:0|0:0,0:0:0:0:
464,368,152875,6,0,B|378:361|378:361|342:380|342:380|220:372,1,216.000008239746,4|0,1:2|0:0,0:0:0:0:
152,256,153169,6,0,L|52:268,1,72.0000027465821,4|0,1:3|0:0,0:0:0:0:
78,287,153316,1,2,1:0:0:0:
76,310,153389,1,0,0:0:0:0:
74,333,153463,1,2,1:3:0:0:
72,356,153536,1,2,1:0:0:0:
72,380,153610,6,0,P|184:348|216:288,1,172.799994726563,6|0,1:2|0:0,0:0:0:0:
144,244,153904,6,0,L|44:256,1,72.0000027465821,8|0,1:0|0:0,0:0:0:0:
224,164,154051,2,0,L|295:155,1,67.1999979492188,8|0,1:2|0:0,0:0:0:0:
148,96,154198,6,0,L|81:104,1,62.3999971435548,4|2,0:0|1:0,0:0:0:0:
232,28,154345,2,0,L|293:20,1,57.5999982421876,10|2,1:2|1:2,0:0:0:0:
140,88,154492,6,0,L|73:96,1,62.3999971435548,8|2,1:1|1:3,0:0:0:0:
236,16,154639,2,0,L|297:8,1,57.5999982421876,2|4,1:0|1:3,0:0:0:0:
60,180,154786,6,0,B|184:164|184:164|252:120|252:120|292:228|292:228|464:340,2,432.000016479493,12|12|12,0:1|0:1|0:1,0:0:0:0:
0,0,155375,6,0,L|-16:4,1,9.6,2|2,0:0|0:3,0:0:0:0:
0,0,155522,2,0,L|16:-4,1,9.6,2|2,0:3|0:3,0:0:0:0:
64,76,155669,6,0,P|176:48|252:44,1,144.000005493164,12|0,1:1|0:0,0:0:0:0:
184,128,155889,5,2,0:3:0:0:
184,128,155963,2,0,P|294:159|362:194,1,144.000005493164,6|2,1:3|1:3,0:0:0:0:
344,252,156184,5,0,0:0:0:0:
344,252,156257,1,2,1:1:0:0:
292,320,156404,1,8,1:0:0:0:
292,320,156478,1,0,0:0:0:0:
292,320,156551,6,0,P|180:348|104:352,1,144.000005493164,4|0,0:3|1:0,0:0:0:0:
172,268,156772,5,0,1:0:0:0:
172,268,156845,2,0,P|62:237|-6:202,1,144.000005493164,2|0,1:0|0:0,0:0:0:0:
12,144,157066,5,2,0:3:0:0:
12,144,157139,2,0,P|56:136|96:108,1,72.0000027465821,2|0,1:0|1:0,0:0:0:0:
140,72,157286,6,0,B|88:4|-8:12|-8:12|12:60|60:96,1,216.000008239746,2|0,1:3|1:0,0:0:0:0:
28,60,157581,1,8,1:0:0:0:
272,92,157728,6,0,P|224:148|136:136,1,144.000005493164,4|0,0:3|1:0,0:0:0:0:
376,128,157948,5,0,1:0:0:0:
376,128,158022,2,0,P|351:58|405:-11,1,144.000005493164,2|2,1:0|1:3,0:0:0:0:
292,204,158242,5,0,0:0:0:0:
292,204,158316,2,0,P|364:217|398:299,1,144.000005493164,2|2,1:0|1:3,0:0:0:0:
312,356,158610,6,0,P|308:316|320:280,1,72.0000027465821,8|0,0:1|0:0,0:0:0:0:
476,300,158757,2,0,P|480:340|468:376,1,72.0000027465821,12|0,1:0|0:0,0:0:0:0:
398,274,158904,6,0,B|370:162|454:170|426:58,1,216.000008239746,4|0,0:3|0:0,0:0:0:0:
336,40,159198,6,0,P|340:84|367:123,3,72.0000027465821,8|0|2|0,1:0|0:0|1:3|0:0,0:0:0:0:
260,100,159492,5,2,1:0:0:0:
232,116,159566,1,2,1:0:0:0:
176,120,159639,1,4,1:3:0:0:
116,96,159713,1,2,0:3:0:0:
76,32,159786,5,8,1:0:0:0:
88,108,159860,1,2,1:2:0:0:
84,148,159934,1,12,1:0:0:0:
76,168,160007,1,0,0:0:0:0:
28,228,160081,6,0,P|88:264|172:280,1,144.000005493164,4|2,0:3|0:0,0:0:0:0:
204,348,160301,5,0,1:0:0:0:
204,348,160375,2,0,P|274:332|335:296,1,144.000005493164,8|2,0:1|1:3,0:0:0:0:
364,216,160595,5,2,1:0:0:0:
364,216,160669,1,0,0:0:0:0:
400,352,160816,1,2,0:3:0:0:
504,256,160963,1,8,1:0:0:0:
424,272,161110,6,0,P|396:192|424:56,1,216.000008239746,8|0,1:0|0:0,0:0:0:0:
472,8,161404,1,2,0:0:0:0:
472,8,161478,1,2,0:3:0:0:
472,8,161551,2,0,L|308:36,1,144.000005493164,8|8,1:0|1:0,0:0:0:0:
184,188,161845,2,0,L|176:100,1,72.0000027465821,4|0,1:3|1:0,0:0:0:0:
51,76,161992,6,0,L|192:100,1,144.000005493164,2|8,1:3|0:1,0:0:0:0:
330,32,162286,1,8,0:1:0:0:
288,224,162434,5,2,0:1:0:0:
297,196,162507,1,2,0:1:0:0:
328,172,162581,1,2,0:1:0:0:
388,180,162654,1,2,0:1:0:0:
424,252,162728,6,0,P|412:292|364:324,1,72.0000027465821,12|0,1:0|1:0,0:0:0:0:
312,308,162875,6,0,P|256:304|212:256,1,84.0000008010864,4|0,0:3|1:0,0:0:0:0:
160,324,163022,5,2,1:1:0:0:
151,296,163095,1,2,1:1:0:0:
120,272,163169,1,2,1:1:0:0:
60,280,163242,1,2,1:1:0:0:
24,348,163316,6,0,P|16:236|4:156,1,168.000001602173,12|4,1:2|0:3,0:0:0:0:
52,48,163536,5,0,1:0:0:0:
32,40,163610,5,2,1:0:0:0:
52,88,163684,1,0,1:0:0:0:
92,108,163757,1,4,1:3:0:0:
136,104,163831,1,0,1:0:0:0:
164,84,163904,5,8,1:0:0:0:
196,64,163978,1,2,1:2:0:0:
252,56,164051,1,2,1:2:0:0:
312,80,164125,1,2,1:0:0:0:
388,60,164198,6,0,P|384:108|348:148,1,72.0000027465821,12|2,0:1|1:1,0:0:0:0:
486,128,164345,6,0,P|468:129|452:136,6,36.0000013732911,8|0|8|0|8|0|0,1:2|0:0|1:2|0:0|0:1|0:0|1:0,0:0:0:0:
472,216,164639,6,0,P|424:212|384:176,1,72.0000027465821,4|2,1:2|1:0,0:0:0:0:
420,296,164786,6,0,L|208:312,1,168.000001602173,4|0,0:1|0:0,0:0:0:0:
172,128,165080,1,8,0:1:0:0:
188,360,165227,1,2,1:3:0:0:
344,268,165375,6,0,L|132:284,1,168.000001602173,2|4,1:0|1:3,0:0:0:0:
96,100,165669,1,8,0:1:0:0:
112,332,165816,1,8,1:0:0:0:
272,236,165963,6,0,L|60:252,1,168.000001602173,4|4,0:3|1:3,0:0:0:0:
24,68,166257,1,4,1:3:0:0:
40,300,166404,1,0,0:0:0:0:
200,208,166551,6,0,L|-12:224,1,168.000001602173,2|4,1:0|1:3,0:0:0:0:
264,384,166845,1,8,0:1:0:0:
296,140,166992,5,12,1:0:0:0:
280,148,167066,1,0,0:0:0:0:
264,156,167139,2,0,P|296:92|420:124,1,168.000001602173,4|2,0:3|0:3,0:0:0:0:
416,308,167433,2,0,P|424:200|444:120,1,168.000001602173,8|2,1:0|0:3,0:0:0:0:
400,8,167727,5,2,1:0:0:0:
508,176,167875,1,4,1:3:0:0:
400,8,168022,1,8,0:0:0:0:
260,272,168169,6,0,P|262:313|286:347,1,84.0000008010864,8|0,1:0|0:0,0:0:0:0:
500,256,168316,2,0,P|380:268|308:304,1,168.000001602173,4|2,0:3|1:3,0:0:0:0:
188,340,168610,1,8,0:1:0:0:
408,368,168757,5,2,0:3:0:0:
428,360,168830,1,0,0:0:0:0:
444,348,168904,5,2,1:0:0:0:
480,248,169051,1,2,1:3:0:0:
300,360,169198,1,12,1:0:0:0:
380,284,169345,1,8,0:1:0:0:
188,340,169492,6,0,P|76:264|176:24,2,384,4|8|2,1:3|1:0|1:0,0:0:0:0:
256,272,170227,2,0,L|267:80,1,192,4|8,1:3|0:1,0:0:0:0:
328,8,170522,6,0,P|459:132|392:300,1,384,4|2,1:0|1:0,0:0:0:0:
100,140,170963,6,0,B|122:100|122:100|292:76,1,192,8|2,0:1|0:3,0:0:0:0:
324,216,171257,1,2,1:0:0:0:
391,300,171404,6,0,B|347:292|307:340|307:340|283:276|207:276,1,192,6|4,1:3|1:3,0:0:0:0:
60,320,171698,5,12,0:1:0:0:
60,320,171772,1,0,0:0:0:0:
60,320,171845,1,4,0:3:0:0:
120,252,171992,1,2,1:3:0:0:
32,132,172139,1,8,1:1:0:0:
136,368,172286,5,2,0:3:0:0:
136,368,172360,1,2,1:3:0:0:
136,368,172433,1,4,1:0:0:0:
204,240,172580,1,4,1:2:0:0:
48,116,172727,5,8,1:0:0:0:
288,228,172875,1,0,0:0:0:0:
152,376,173022,6,0,B|168:384|168:384|264:368,1,96,8|4,0:0|0:3,0:0:0:0:
368,216,173169,1,4,0:3:0:0:
68,104,173316,6,0,B|92:96|92:96|176:116,1,96,8|0,1:0|0:0,0:0:0:0:
448,204,173463,1,2,1:0:0:0:
479,33,173610,5,8,1:0:0:0:
459,17,173684,5,8,1:0:0:0:
431,85,173757,1,8,1:0:0:0:
359,97,173830,1,8,1:0:0:0:
303,53,173904,1,8,1:2:0:0:
267,25,173977,1,8,1:2:0:0:
239,21,174051,5,2,1:2:0:0:
207,33,174100,5,2,0:0:0:0:
171,69,174149,5,2,0:0:0:0:
159,113,174198,6,0,P|159:153|191:193,2,57.5999982421876,4|0|0,0:1|1:0|1:0,0:0:0:0:
55,49,174419,5,0,1:0:0:0:
55,49,174492,2,0,P|35:83|42:134,2,57.5999982421876,8|0|0,0:1|1:0|1:0,0:0:0:0:
75,177,174713,5,2,0:3:0:0:
75,177,174786,2,0,P|89:216|88:257,1,84.0000008010864,4|0,1:3|1:0,0:0:0:0:
267,201,174933,6,0,P|252:161|253:120,1,84.0000008010864,2|0,1:2|1:0,0:0:0:0:
171,189,175080,5,12,0:1:0:0:
367,293,175227,5,2,1:2:0:0:
379,289,175301,1,0,1:0:0:0:
391,285,175375,1,4,0:0:0:0:
287,321,175522,5,4,1:3:0:0:
453,349,175669,1,12,0:1:0:0:
395,190,175816,1,0,1:0:0:0:
361,382,175963,5,12,1:2:0:0:
381,276,176110,1,4,0:3:0:0:
379,289,176183,1,2,1:3:0:0:
376,301,176257,1,12,0:1:0:0:
470,252,176404,1,4,1:3:0:0:
302,224,176551,6,0,L|295:129,1,72.0000027465821,4|0,1:0|1:0,0:0:0:0:
211,217,176698,6,0,L|203:121,1,96,2|0,1:2|1:0,0:0:0:0:
119,209,176845,6,0,L|106:59,1,120,8|2,0:1|1:3,0:0:0:0:
35,157,176992,5,4,1:3:0:0:
19,161,177066,1,2,1:3:0:0:
3,165,177139,1,4,1:3:0:0:
131,293,177286,1,4,1:3:0:0:
79,17,177433,6,0,B|99:37|99:37|91:109,1,72.0000027465821,12|0,0:1|1:0,0:0:0:0:
47,269,177580,6,0,B|7:245|7:245|83:225|83:225|95:213|95:213|151:197|151:197|139:249,1,216.000008239746,4|0,1:3|1:0,0:0:0:0:
267,269,177875,6,0,L|195:261,1,57.5999982421876,2|2,1:3|1:0,0:0:0:0:
275,353,178022,6,0,L|139:337,1,84.0000008010864,12|0,0:1|1:0,0:0:0:0:
423,213,178169,6,0,L|287:228,1,84.0000008010864,6|0,0:3|1:0,0:0:0:0:
415,297,178316,6,0,L|343:305,1,57.5999982421876,12|2,0:0|1:0,0:0:0:0:
31,345,178463,1,8,1:2:0:0:
275,353,178610,6,0,B|203:361|203:361|199:369|199:369|179:365|179:365|67:377,1,172.799994726563,12|0,0:1|1:0,0:0:0:0:
3,261,178904,6,0,P|2:289|12:316,2,57.5999982421876,4|0|0,1:0|0:0|1:0,0:0:0:0:
83,241,179125,5,2,1:0:0:0:
83,241,179198,2,0,P|93:267|93:296,2,57.5999982421876,8|0|2,0:1|1:0|1:2,0:0:0:0:
108,372,179419,5,2,1:3:0:0:
108,372,179492,2,0,P|143:357|167:313,1,84.0000008010864,4|0,1:3|0:0,0:0:0:0:
383,369,179639,2,0,B|407:341|407:341|484:331,1,115.199996484375,4|12,1:3|0:1,0:0:0:0:
347,205,179933,5,4,1:3:0:0:
343,249,180007,1,0,0:0:0:0:
339,293,180080,1,4,0:0:0:0:
279,353,180227,5,4,1:3:0:0:
431,257,180375,1,12,0:1:0:0:
359,121,180522,1,4,1:3:0:0:
263,253,180669,5,12,1:2:0:0:
195,105,180816,5,2,0:0:0:0:
199,149,180889,1,2,1:0:0:0:
203,193,180963,1,12,0:1:0:0:
111,157,181110,1,4,1:3:0:0:
183,21,181257,6,0,P|139:33|91:25,1,57.5999982421876,4|2,1:0|0:0,0:0:0:0:
15,141,181404,6,0,P|51:109|63:33,1,84.0000008010864,6|2,0:0|0:0,0:0:0:0:
59,1,181551,5,12,0:1:0:0:
291,373,181698,5,4,1:3:0:0:
291,373,181772,1,0,0:0:0:0:
291,373,181845,2,0,P|339:357|383:361,1,84.0000008010864,6|2,1:0|0:0,0:0:0:0:
467,197,181992,6,0,P|427:269|447:345,1,120,12|0,0:0|0:0,0:0:0:0:
447,381,182139,5,12,0:1:0:0:
232,273,182286,6,0,P|314:294|371:357,1,172.799994726563,4|0,1:3|0:0,0:0:0:0:
255,373,182580,6,0,P|275:365|263:385,1,57.5999982421876,4|0,1:3|1:0,0:0:0:0:
143,209,182727,2,0,P|195:201|231:157,1,76.8,8|0,0:1|0:0,0:0:0:0:
399,53,182875,6,0,B|395:97|395:97|399:93|399:93|391:173,1,96,8|8,0:1|0:0,0:0:0:0:
371,357,183022,5,6,0:3:0:0:
467,197,183169,1,4,0:3:0:0:
455,309,183316,5,12,0:1:0:0:
431,265,183389,6,0,P|427:281|419:293,1,30,8|0,1:2|0:0,0:0:0:0:
383,245,183463,6,0,P|383:269|375:301,1,36.0000013732911,8|0,0:1|0:0,0:0:0:0:
331,233,183536,6,8,P|335:261|327:309,1,48,8|0,1:2|1:2,1:1:0:0:
259,265,183610,6,0,B|235:285|235:285|99:281,1,144.000005493164,4|0,0:1|0:0,0:0:0:0:
35,353,183904,6,0,B|223:360|223:360|255:412,1,216.000008239746,8|0,0:1|0:0,0:0:0:0:
299,333,184198,1,4,1:3:0:0:
123,281,184345,6,0,P|103:209|39:205,1,144.000005493164,2|8,1:2|1:0,0:0:0:0:
303,133,184639,6,0,B|363:119|363:119|361:80|396:47,1,144.000005493164,2|4,1:2|0:0,0:0:0:0:
259,245,184933,5,4,1:3:0:0:
259,245,185007,1,0,0:0:0:0:
259,245,185080,2,0,B|343:233|383:301|383:301|359:241|419:193,1,216.000008239746,12|0,0:1|0:0,0:0:0:0:
447,117,185375,6,0,L|455:205,1,72.0000027465821,12|2,1:2|0:3,0:0:0:0:
428,363,185522,1,4,1:3:0:0:
479,289,185669,6,0,B|483:277|471:265|455:269|455:269|475:337|415:373,1,144.000005493164,12|0,0:1|0:0,0:0:0:0:
220,158,185963,2,0,P|196:214|284:222,1,144.000005493164,4|0,1:0|0:0,0:0:0:0:
331,217,186183,1,0,0:0:0:0:
343,213,186257,1,8,0:1:0:0:
79,181,186404,6,0,P|119:273|23:357,1,216.000008239746,2|0,1:0|0:0,0:0:0:0:
14,263,186698,6,0,B|-5:247|-5:247|39:261,1,72.0000027465821,4|0,1:3|0:0,0:0:0:0:
143,345,186845,1,8,1:0:0:0:
79,181,186992,6,0,B|123:125|123:125|111:313,1,216.000008239746,4|0,1:3|1:0,0:0:0:0:
195,289,187286,6,0,B|227:293|227:293|235:289|235:289|271:293,1,72.0000027465821,2|0,1:3|1:0,0:0:0:0:
411,341,187433,2,0,B|347:333|347:333|339:317|339:317|259:307,1,144.000005493164,8|6,1:1|1:3,0:0:0:0:
23,129,187727,6,0,L|31:13,1,96,0|2,1:0|1:0,0:0:0:0:
205,13,187875,6,0,L|199:109,1,96,4|2,1:3|1:0,0:0:0:0:
55,13,188022,2,0,B|99:21|99:21|119:173,1,192,12|2,0:1|1:2,0:0:0:0:
391,185,188316,6,0,B|331:225|331:225|227:193,1,144.000005493164,4|0,1:0|0:0,0:0:0:0:
431,77,188610,2,0,P|419:197|483:261,1,216.000008239746,8|0,0:1|0:0,0:0:0:0:
511,177,188904,1,4,1:3:0:0:
299,377,189051,6,0,P|323:317|399:305,1,144.000005493164,4|8,1:3|1:0,0:0:0:0:
480,259,189345,2,0,B|348:227|400:315|264:275,1,216.000008239746,4|0,1:3|0:0,0:0:0:0:
183,209,189639,5,4,1:3:0:0:
187,229,189713,1,0,0:0:0:0:
191,249,189786,1,12,0:1:0:0:
155,329,189933,5,4,1:3:0:0:
331,201,190080,6,0,P|351:121|355:45,1,144.000005493164,12|0,0:0|1:0,0:0:0:0:
467,241,190375,2,0,P|447:321|443:397,1,144.000005493164,12|0,0:1|0:0,0:0:0:0:
295,269,190669,6,0,B|283:213|331:173|331:173|411:177|431:77,1,216.000008239746,4|2,1:0|0:0,0:0:0:0:
375,53,190963,1,12,0:1:0:0:
323,341,191110,6,0,B|335:285|287:245|287:245|207:249|187:149,1,216.000008239746,4|2,1:3|0:0,0:0:0:0:
243,125,191404,1,12,0:0:0:0:
383,213,191551,1,12,0:1:0:0:
251,369,191698,6,0,B|235:285|319:265|319:265|295:229|303:185|303:185|335:153|331:113|331:113|295:85|299:25,1,360,4|0,1:3|0:0,0:0:0:0:
379,33,191992,5,4,1:3:0:0:
375,53,192066,1,2,1:2:0:0:
203,117,192139,5,8,0:1:0:0:
243,125,192213,1,2,1:2:0:0:
323,341,192286,5,8,0:1:0:0:
331,285,192360,1,10,1:2:0:0:
415,237,192433,6,0,B|439:189|507:181|507:181|432:198|394:132|398:200|366:109|274:207,1,360,6|2,0:3|1:0,0:0:0:0:
198,237,192727,6,0,B|213:235|213:235|213:231|213:231|217:235|217:235|217:231|217:231|285:219,1,72.0000027465821,12|0,0:1|0:0,0:0:0:0:
256,192,193022,12,0,195375,0:0:0:0:
