osu file format v14

[General]
AudioFilename: TokyoTeddyBear.mp3
AudioLeadIn: 0
PreviewTime:50889
Countdown: 0
SampleSet: Soft
StackLeniency: 0.5
Mode: 0
LetterboxInBreaks: 0
WidescreenStoryboard: 0

[Editor]
Bookmarks:70669,126992,136551,145816,164786,192728
DistanceSpacing: 1.6
BeatDivisor: 4
GridSize: 4
TimelineZoom: 3

[Metadata]
Title:Tokyo Teddy Bear
TitleUnicode:東京テディベア
Artist:suzumu
ArtistUnicode:スズム
Creator:Ryuusei Aika
Version:Collab Hard
Source:
Tags:Lunala Rin_Sa HootOwlStar KittyAdventure Ellyu handsome muscle Nyquill deetz Byakuya Kalibe z1085684963 Shanipika ボーカロイド VOCALOID Neru 押入れP Japanese Rock Male Vocal 鏡音レン Kagamine Len 世界征服 Sekai seifuku やば、豆腐買うの忘れた
BeatmapID:2115184
BeatmapSetID:961941

[Difficulty]
HPDrainRate:4.5
CircleSize:3.5
OverallDifficulty:6
ApproachRate:7.5
SliderMultiplier:1.1
SliderTickRate:1

[Events]
//Background and Video events
0,0,"bear.jpg",0,0
//Break Periods
2,80275,88063
2,136745,144975
//Storyboard Layer 0 (Background)
//Storyboard Layer 1 (Fail)
//Storyboard Layer 2 (Pass)
//Storyboard Layer 3 (Foreground)
//Storyboard Layer 4 (Overlay)
//Storyboard Sound Samples

[TimingPoints]
81,-100,4,2,1,30,0,0
81,294.117647058824,4,2,1,30,1,0
20669,-100,4,2,1,55,0,0
21257,-100,4,2,2,55,0,0
33316,-100,4,2,2,50,0,0
40081,-100,4,2,2,55,0,0
42139,-100,4,2,2,50,0,0
51698,-100,4,2,2,60,0,0
55228,-100,4,2,2,55,0,0
56845,-100,4,2,2,60,0,0
59492,-100,4,2,2,55,0,0
60081,-100,4,2,2,60,0,0
65963,-100,4,2,2,55,0,0
80154,-100,4,2,2,30,0,0
88904,-100,4,2,2,65,0,0
89198,-100,4,2,2,60,0,0
94492,-100,4,2,2,65,0,0
108169,-100,4,2,2,60,0,0
126992,-100,4,2,2,55,0,0
135375,-100,4,2,2,30,0,0
136698,-100,4,2,0,45,0,0
137581,-100,4,2,0,25,0,0
145816,-100,4,2,2,30,0,0
152875,-100,4,2,2,65,0,0
155228,-100,4,2,2,50,0,0
155669,-100,4,2,2,60,0,0
164786,-100,4,2,2,70,0,0
169492,-100,4,2,2,65,0,0
174198,-100,4,2,2,55,0,0

[Colours]
Combo1 : 108,83,102
Combo2 : 120,39,70

[HitObjects]
180,40,81,5,0,0:0:0:0:
180,40,522,1,0,0:0:0:0:
180,40,1257,5,0,0:0:0:0:
255,190,2433,5,0,0:0:0:0:
255,190,2875,1,0,0:0:0:0:
255,190,3610,5,0,0:0:0:0:
255,190,4786,6,0,P|261:220|256:246,1,55,8|0,0:3|0:0,0:0:0:0:
204,307,5081,6,0,P|256:290|307:309,1,110
461,363,5669,1,8,0:3:0:0:
396,312,5816,2,0,L|405:198,1,110,2|0,0:0|0:0,0:0:0:0:
349,140,6257,2,0,B|300:117|300:117|244:137,1,110
87,96,6845,2,0,L|95:156,1,55
31,203,7139,6,0,P|86:193|130:225,1,110,8|0,0:3|0:0,0:0:0:0:
96,298,7581,2,0,P|140:268|193:278,1,110,2|0,0:3|0:0,0:0:0:0:
253,334,8022,1,0,0:0:0:0:
334,325,8169,6,0,B|333:289|307:268|307:268|327:164,1,165,4|0,0:3|0:0,0:0:0:0:
349,91,8757,1,2,0:0:0:0:
349,91,9492,5,2,0:3:0:0:
267,102,9639,1,8,0:3:0:0:
185,112,9786,6,0,L|192:50,1,55,2|0,0:1|0:0,0:0:0:0:
123,9,10081,2,0,B|64:33|64:33|78:81,1,110
16,133,10522,2,0,P|49:122|98:173,1,110,2|0,0:3|0:0,0:0:0:0:
87,256,10963,1,0,0:0:0:0:
169,226,11110,1,4,0:3:0:0:
169,226,11551,1,0,0:0:0:0:
256,362,11845,6,0,L|255:246,1,110,2|4,0:1|0:3,0:0:0:0:
305,186,12286,2,0,P|355:206|409:187,1,110,0|0,3:3|0:0,0:0:0:0:
463,129,12728,1,0,0:0:0:0:
400,74,12875,6,0,B|338:72|338:72|309:50|309:50|241:49,1,165,4|0,0:1|0:0,0:0:0:0:
158,53,13463,2,0,L|165:95,2,27.5,0|4|4,0:0|0:0|0:0,0:0:0:0:
74,22,13757,1,6,0:0:0:0:
22,97,13904,1,4,0:0:0:0:
58,180,14051,1,4,0:0:0:0:
58,180,14198,6,0,L|53:234,1,55,4|0,0:0|0:0,0:0:0:0:
19,310,14492,2,0,B|71:325|71:325|134:297,1,110,2|2,0:0|3:2,0:0:0:0:
251,199,15081,1,0,3:3:0:0:
313,253,15228,2,0,P|293:291|311:358,1,110,8|8,0:0|0:0,0:0:0:0:
395,359,15669,2,0,P|415:321|397:254,1,110,0|0,3:0|0:0,0:0:0:0:
251,199,16257,1,2,3:2:0:0:
334,62,16551,6,0,B|301:87|301:87|228:82,1,110,2|0,3:2|3:0,0:0:0:0:
166,33,16992,2,0,P|131:31|71:82,1,110,8|0,0:0|0:0,0:0:0:0:
115,146,17433,1,0,3:0:0:0:
39,180,17581,6,0,P|116:181|144:255,1,165,8|0,0:0|3:0,0:0:0:0:
261,370,18316,1,2,0:0:0:0:
321,313,18463,2,0,L|317:281,2,27.5,0|0|0,0:0|0:0|3:0,0:0:0:0:
412,321,18757,1,0,0:0:0:0:
391,234,18904,6,0,L|447:228,1,55,0|0,3:0|0:0,0:0:0:0:
492,160,19198,2,0,P|477:116|423:86,1,110,2|0,3:2|3:0,0:0:0:0:
272,19,19786,1,0,3:0:0:0:
225,87,19933,2,0,P|175:122|121:117,1,110,8|8,0:0|0:0,0:0:0:0:
48,95,20375,2,0,L|55:204,1,110,2|2,3:2|0:0,0:0:0:0:
56,205,20963,1,0,1:0:0:0:
20,365,21257,6,0,P|68:324|112:328,1,110,12|8,0:1|1:2,0:0:0:0:
176,277,21698,2,0,P|211:325|261:331,1,110,12|4,0:0|1:3,0:0:0:0:
340,321,22139,1,0,1:0:0:0:
293,252,22286,6,0,P|341:271|434:117,1,275,4|8,0:1|0:1,0:0:0:0:
284,51,23316,1,2,0:0:0:0:
226,109,23463,2,0,L|194:106,1,27.5
163,84,23610,6,0,B|178:115|178:115|168:194,1,110,4|8,0:1|0:1,0:0:0:0:
82,330,24198,1,4,1:3:0:0:
152,287,24345,1,2,1:2:0:0:
203,351,24492,1,12,0:1:0:0:
269,300,24639,6,0,B|320:321|320:321|372:304,1,110,2|4,1:2|1:3,0:0:0:0:
452,282,25081,2,0,L|445:222,1,55,12|2,0:1|3:0,0:0:0:0:
366,202,25375,2,0,L|373:142,1,55,12|4,1:2|0:3,0:0:0:0:
449,118,25669,2,0,L|442:58,1,55,12|4,0:1|1:3,0:0:0:0:
376,14,25963,6,0,P|331:38|275:25,1,110,4|8,1:0|0:1,0:0:0:0:
111,10,26551,1,4,1:3:0:0:
120,91,26698,1,4,1:3:0:0:
130,172,26845,1,12,0:1:0:0:
50,148,26992,6,0,P|79:173|85:247,1,110,4|2,1:3|1:3,0:0:0:0:
72,322,27433,2,0,L|136:316,1,55,12|6,0:1|0:3,0:0:0:0:
209,308,27728,2,0,L|273:302,1,55,12|4,0:0|0:3,0:0:0:0:
346,297,28022,2,0,L|410:291,1,55,12|0,0:1|0:0,0:0:0:0:
482,282,28316,6,0,B|467:235|467:235|486:168,1,110,4|8,1:0|0:1,0:0:0:0:
360,66,28904,2,0,P|336:79|302:77,1,55,4|4,1:3|1:3,0:0:0:0:
230,54,29198,1,12,0:1:0:0:
157,93,29345,6,0,P|211:102|236:154,1,110,4|4,1:3|1:3,0:0:0:0:
210,225,29786,2,0,L|217:282,1,55,12|4,0:1|1:3,0:0:0:0:
298,266,30081,2,0,L|291:211,1,55,12|2,0:0|0:0,0:0:0:0:
372,198,30375,2,0,L|378:252,1,55,12|4,0:1|1:3,0:0:0:0:
459,237,30669,6,0,L|444:123,1,110,4|8,1:0|0:1,0:0:0:0:
335,4,31257,1,6,1:0:0:0:
273,59,31404,2,0,P|247:72|216:74,1,55,8|8,0:0|0:1,0:0:0:0:
140,59,31698,6,0,P|178:90|179:158,1,110,4|4,1:2|1:3,0:0:0:0:
124,205,32139,1,8,0:1:0:0:
51,165,32286,1,8,0:1:0:0:
34,245,32433,2,0,L|36:281,3,27.5,2|4|4|2,0:3|1:3|0:3|0:3,0:0:0:0:
73,290,32728,2,0,L|75:326,3,27.5,12|8|8|8,0:1|0:0|0:1|0:0,0:0:0:0:
57,355,33022,6,0,P|111:338|169:365,1,110,12|8,0:1|0:1,0:0:0:0:
234,323,33463,2,0,B|219:271|219:271|241:215,1,110,4|0,0:3|0:0,0:0:0:0:
315,187,33904,1,8,0:1:0:0:
249,136,34051,6,0,B|195:148|195:148|135:119,1,110,2|4,1:2|1:3,0:0:0:0:
65,105,34492,2,0,L|72:219,1,110,8|4,0:1|0:3,0:0:0:0:
24,282,34933,1,4,1:3:0:0:
75,347,35081,2,0,P|97:324|121:318,1,55,8|2,0:1|0:3,0:0:0:0:
185,269,35375,6,0,P|216:315|266:328,1,110,4|8,0:3|0:1,0:0:0:0:
343,298,35816,2,0,P|371:250|362:199,1,110,4|4,1:3|0:3,0:0:0:0:
303,141,36257,1,8,0:1:0:0:
220,134,36404,6,0,L|110:146,1,110,2|4,1:2|0:3,0:0:0:0:
44,97,36845,1,4,1:2:0:0:
12,173,36992,2,0,L|16:211,2,27.5,8|8|4,0:1|1:2|1:3,0:0:0:0:
44,97,37286,2,0,L|39:41,2,55,4|8|2,0:3|0:1|1:0,0:0:0:0:
111,147,37728,6,0,P|141:191|136:245,2,110,4|8|2,1:0|0:1|1:3,0:0:0:0:
84,309,38610,1,8,0:1:0:0:
137,245,38757,2,0,L|256:254,1,110,2|4,1:2|1:3,0:0:0:0:
314,206,39198,2,0,L|323:87,1,110,8|12,1:0|1:2,0:0:0:0:
242,75,39639,2,0,L|246:34,2,27.5,12|8|8,1:0|1:0|1:3,0:0:0:0:
159,75,39933,2,0,L|156:102,1,27.5,8|8,1:0|1:0,0:0:0:0:
170,141,40081,6,0,B|115:127|115:127|70:157,1,110,4|8,1:0|1:0,0:0:0:0:
15,218,40522,2,0,B|61:246|61:246|71:301,1,110,4|4,1:2|1:2,0:0:0:0:
136,351,40963,1,8,0:1:0:0:
218,344,41110,6,0,P|250:282|440:282,1,275,4|12,1:0|1:0,0:0:0:0:
495,221,41992,2,0,L|493:165,1,55,4|0,1:2|0:0,0:0:0:0:
439,103,42286,6,0,B|403:127|363:104|363:104|325:82|282:102,1,165,4|2,1:2|1:0,0:0:0:0:
165,219,43022,2,0,P|197:223|261:183,1,110,12|2,0:1|0:3,0:0:0:0:
282,102,43463,2,0,B|231:97|231:97|190:56|124:77,1,165,2|2,1:0|1:2,0:0:0:0:
57,123,44051,1,2,1:1:0:0:
81,201,44198,2,0,L|75:314,1,110,12|2,0:1|0:0,0:0:0:0:
139,362,44639,6,0,B|201:358|201:358|224:338|224:338|301:332,1,165,4|4,0:3|0:3,0:0:0:0:
363,181,45375,2,0,P|435:185|472:157,1,110,12|2,0:1|1:2,0:0:0:0:
496,89,45816,2,0,L|512:266,1,165,4|2,0:3|1:0,0:0:0:0:
379,353,46551,2,0,P|353:328|329:323,1,55,12|8,0:1|0:1,0:0:0:0:
252,323,46845,1,8,0:1:0:0:
292,251,46992,6,0,P|312:201|296:148,1,110,8|4,0:1|1:3,0:0:0:0:
225,106,47433,2,0,P|171:109|129:145,1,110,8|2,1:0|1:0,0:0:0:0:
47,149,47875,2,0,L|53:217,1,55,4|8,1:3|1:0,0:0:0:0:
130,229,48169,6,0,B|152:263|152:263|136:341,1,110,2|2,1:2|1:0,0:0:0:0:
211,368,48610,2,0,L|235:258,1,110,8|2,0:1|1:0,0:0:0:0:
306,220,49051,2,0,L|363:231,1,55,4|10,1:3|1:0,0:0:0:0:
429,186,49345,6,0,P|447:136|431:82,1,110,2|4,1:0|1:3,0:0:0:0:
364,34,49786,1,12,1:0:0:0:
364,34,49933,1,2,1:2:0:0:
301,88,50081,2,0,L|244:85,1,55,2|4,1:0|1:3,0:0:0:0:
179,36,50375,1,12,1:0:0:0:
113,86,50522,6,0,B|87:120|87:120|92:190,1,110,4|0,1:3|0:0,0:0:0:0:
23,233,50963,2,0,L|27:287,1,55,4|8,1:2|0:0,0:0:0:0:
85,345,51257,2,0,L|119:342,5,27.5,8|0|6|2|8|8,1:0|0:0|0:0|1:2|1:3|1:0,0:0:0:0:
134,307,51698,6,0,B|174:329|211:305|211:305|251:282|291:304,1,165,12|8,1:0|1:1,0:0:0:0:
447,355,52433,1,6,1:3:0:0:
384,299,52581,2,0,L|389:242,1,55,2|2,1:3|1:1,0:0:0:0:
463,208,52875,6,0,B|410:223|410:223|358:197|358:197|299:211,1,165,8|2,1:0|1:0,0:0:0:0:
174,110,53610,1,2,1:0:0:0:
110,162,53757,2,0,L|114:225,1,55,2|2,1:3|1:0,0:0:0:0:
67,285,54051,6,0,P|107:262|204:319,1,165,8|2,1:0|1:0,0:0:0:0:
349,384,54786,1,2,1:0:0:0:
426,355,54933,2,0,L|428:296,1,55,0|8,1:2|0:1,0:0:0:0:
439,217,55228,6,0,B|393:213|362:250|362:250|285:222,1,165,12|8,1:0|1:0,0:0:0:0:
178,101,55963,1,2,1:0:0:0:
119,159,56110,2,0,L|124:218,1,55,4|8,1:3|1:0,0:0:0:0:
59,266,56404,6,0,P|127:298|200:247,1,165,8|8,1:0|0:1,0:0:0:0:
321,361,57139,1,4,0:3:0:0:
358,287,57286,2,0,P|388:278|416:283,1,55,2|8,1:2|1:0,0:0:0:0:
463,346,57581,6,0,L|446:177,1,165,8|8,1:0|1:0,0:0:0:0:
312,83,58316,1,4,1:3:0:0:
258,145,58463,2,0,P|233:130|206:127,1,55,2|8,1:3|0:1,0:0:0:0:
127,107,58757,6,0,P|159:123|170:244,1,165,12|12,0:1|1:0,0:0:0:0:
58,356,59492,2,0,P|114:330|160:354,1,110,2|12,1:1|1:2,0:0:0:0:
235,364,59933,2,0,L|420:355,1,165,0|8,0:0|1:0,0:0:0:0:
486,215,60669,1,12,0:1:0:0:
413,175,60816,2,0,P|383:174|351:191,1,55,8|8,1:2|0:1,0:0:0:0:
299,239,61110,6,0,B|318:186|318:186|295:80,1,165,4|8,1:2|0:1,0:0:0:0:
136,35,61845,1,2,1:0:0:0:
70,84,61992,2,0,L|73:145,1,55,4|8,1:3|0:1,0:0:0:0:
28,208,62286,6,0,B|71:163|71:163|156:257,1,165,8|4,1:0|1:3,0:0:0:0:
256,356,63022,1,2,1:0:0:0:
325,311,63169,2,0,P|369:316|387:310,1,55,4|8,1:3|0:1,0:0:0:0:
452,349,63463,6,0,P|412:326|403:212,1,165,8|8,1:0|1:0,0:0:0:0:
478,72,64198,1,2,1:0:0:0:
411,23,64345,2,0,L|348:28,1,55,4|8,1:3|0:0,0:0:0:0:
274,14,64639,6,0,B|281:82|281:82|266:113|266:113|270:186,1,165,12|8,1:0|0:1,0:0:0:0:
164,47,65375,1,2,1:0:0:0:
96,94,65522,2,0,P|91:128|97:156,1,55,4|8,1:2|0:1,0:0:0:0:
39,209,65816,6,0,P|79:193|166:277,1,165,12|8,1:0|1:0,0:0:0:0:
285,374,66551,1,2,1:0:0:0:
339,311,66698,2,0,L|411:318,1,55,4|8,1:3|0:1,0:0:0:0:
470,286,66992,6,0,B|497:244|497:244|476:184|476:184|497:134,1,165,4|8,1:0|0:1,0:0:0:0:
370,28,67728,1,2,1:0:0:0:
305,79,67875,2,0,P|286:60|249:49,1,55,6|8,1:3|0:1,0:0:0:0:
179,65,68169,6,0,P|160:84|149:121,1,55,12|4,0:1|0:3,0:0:0:0:
166,196,68463,1,2,1:3:0:0:
81,173,68610,2,0,L|18:163,1,55,8|2,1:1|0:3,0:0:0:0:
26,252,68904,1,4,1:0:0:0:
109,280,69051,2,0,L|163:288,1,55,0|8,1:2|1:0,0:0:0:0:
216,358,69345,2,0,L|244:362,1,27.5,8|8,0:0|0:0,0:0:0:0:
281,346,69492,6,0,B|303:316|303:316|307:240,1,110,8|8,0:0|1:0,0:0:0:0:
269,169,69933,1,4,1:3:0:0:
337,122,70081,2,0,L|383:127,3,27.5,8|8|8|8,1:0|1:0|1:0|1:0,0:0:0:0:
397,99,70375,2,0,L|424:101,3,27.5,8|8|6|0,1:2|1:2|0:0|0:0,0:0:0:0:
465,103,70669,5,4,0:1:0:0:
512,260,70963,2,0,P|444:268|408:312,1,110,8|4,0:1|1:3,0:0:0:0:
332,300,71404,2,0,L|344:360,1,55,2|12,1:2|0:1,0:0:0:0:
264,380,71698,2,0,P|222:345|168:344,1,110,2|4,1:2|1:3,0:0:0:0:
108,288,72139,2,0,P|72:308|36:308,1,55,12|0,0:1|1:3,0:0:0:0:
52,228,72433,2,0,P|12:216|-13:191,1,55,12|4,1:2|0:3,0:0:0:0:
54,145,72728,1,12,0:1:0:0:
144,8,73022,6,0,L|155:62,1,55,4|2,1:0|1:2,0:0:0:0:
231,90,73316,2,0,B|263:54|263:54|343:66,1,110,8|4,0:1|1:3,0:0:0:0:
340,144,73757,2,0,L|329:197,1,55,4|12,1:3|0:1,0:0:0:0:
405,226,74051,2,0,B|466:216|466:216|498:252,1,110,4|2,1:3|0:3,0:0:0:0:
444,312,74492,2,0,L|454:365,1,55,12|6,0:1|0:3,0:0:0:0:
376,384,74786,2,0,L|365:330,1,55,12|4,0:0|0:3,0:0:0:0:
296,284,75081,1,12,0:1:0:0:
148,356,75375,6,0,L|94:345,1,55,4|0,1:0|0:0,0:0:0:0:
36,288,75669,2,0,B|64:252|64:252|44:172,1,110,8|4,0:1|1:3,0:0:0:0:
0,124,76110,2,0,L|11:70,1,55,4|12,1:3|0:1,0:0:0:0:
76,20,76404,2,0,B|112:48|112:48|192:28,1,110,4|4,1:3|1:3,0:0:0:0:
256,20,76845,2,0,L|267:74,1,55,12|4,0:1|1:3,0:0:0:0:
332,124,77139,2,0,B|368:96|368:96|448:116,1,110,12|12,0:0|0:1,0:0:0:0:
512,256,77728,5,4,1:0:0:0:
472,328,77875,2,0,B|424:332|388:296|388:296|388:352|348:364,1,165,6|6,0:0|1:0,0:0:0:0:
280,344,78463,2,0,P|232:336|188:380,1,110,8|4,0:0|1:3,0:0:0:0:
60,272,79051,2,0,L|52:216,1,55,4|8,1:3|0:1,0:0:0:0:
0,152,79345,1,8,0:1:0:0:
64,100,79492,2,0,P|100:108|120:120,1,55,6|4,0:3|0:3,0:0:0:0:
188,152,79786,2,0,P|224:144|244:132,1,55,12|8,0:1|0:1,0:0:0:0:
256,52,80081,5,8,0:1:0:0:
256,52,88904,6,0,L|198:42,1,55,4|4,1:0|1:0,0:0:0:0:
72,144,89345,6,0,P|126:151|172:96,1,110,8|8,0:1|1:2,0:0:0:0:
240,156,89786,2,0,L|250:213,1,55,12|2,0:1|1:2,0:0:0:0:
172,244,90081,2,0,P|137:284|145:337,1,110,8|8,0:1|0:1,0:0:0:0:
220,372,90522,2,0,B|248:344|248:344|328:356,1,110,10|8,1:2|1:2,0:0:0:0:
388,312,90963,1,8,1:0:0:0:
444,372,91110,1,2,1:2:0:0:
500,312,91257,2,0,L|512:192,1,110,8|8,1:0|1:0,0:0:0:0:
436,168,91698,6,0,P|403:125|409:72,1,110,8|2,1:0|1:2,0:0:0:0:
348,16,92139,1,12,1:0:0:0:
288,72,92286,1,4,1:3:0:0:
224,16,92433,2,0,B|188:40|188:40|112:24,1,110,8|8,1:0|1:0,0:0:0:0:
52,72,92875,2,0,L|58:132,1,55,10|8,1:2|1:0,0:0:0:0:
0,188,93169,1,4,1:3:0:0:
52,252,93316,2,0,P|77:240|104:236,1,55,8|4,1:0|1:3,0:0:0:0:
172,280,93610,2,0,L|169:310,3,27.5,8|2|2|2,1:0|1:2|1:2|1:2,0:0:0:0:
166,348,93904,1,8,1:0:0:0:
244,380,94051,6,0,B|280:356|280:356|345:369,1,110,12|2,1:0|1:0,0:0:0:0:
428,380,94492,2,0,P|440:356|448:316,1,55,14|2,1:2|1:2,0:0:0:0:
372,292,94786,2,0,B|348:256|348:256|361:191,1,110,8|12,1:1|1:1,0:0:0:0:
288,152,95228,2,0,L|256:146,2,27.5,8|2|10,1:1|1:0|1:2,0:0:0:0:
356,108,95522,2,0,L|420:96,1,55,14|8,1:2|1:0,0:0:0:0:
464,36,95816,2,0,L|458:4,2,27.5,6|8|10,1:2|1:0|1:2,0:0:0:0:
496,112,96110,2,0,L|484:176,1,55,8|8,1:0|1:0,0:0:0:0:
408,196,96404,1,12,1:0:0:0:
472,248,96551,6,0,P|512:272|504:336,1,110,0|14,0:0|1:2,0:0:0:0:
440,376,96992,1,2,1:0:0:0:
376,324,97139,2,0,L|264:340,1,110,8|10,1:0|1:2,0:0:0:0:
196,296,97581,1,8,1:0:0:0:
136,356,97728,2,0,L|108:352,3,27.5,10|2|8|10,1:2|1:0|1:0|1:2,0:0:0:0:
72,368,98022,2,0,L|44:364,3,27.5,8|10|8|10,1:0|1:2|1:0|1:2,0:0:0:0:
8,384,98316,1,8,1:0:0:0:
0,136,98757,6,0,B|32:164|32:164|8:32,1,165,4|2,1:2|1:0,0:0:0:0:
172,8,99492,2,0,P|132:48|124:104,1,110,12|2,0:1|0:3,0:0:0:0:
200,128,99933,2,0,B|232:88|232:88|348:104,1,165,2|2,1:0|1:2,0:0:0:0:
480,8,100669,2,0,L|368:24,1,110,12|2,0:1|0:0,0:0:0:0:
344,103,101110,2,0,P|364:128|372:152,1,55,4|4,0:3|0:0,0:0:0:0:
508,244,101551,6,0,P|488:269|480:293,1,55,4|2,0:3|1:0,0:0:0:0:
460,372,101845,2,0,L|351:356,1,110,12|2,0:1|1:2,0:0:0:0:
308,284,102286,2,0,P|244:292|224:332,1,110,4|8,0:3|0:0,0:0:0:0:
156,372,102728,1,2,1:0:0:0:
8,300,103022,2,0,L|0:245,1,55,12|8,0:1|0:1,0:0:0:0:
32,168,103316,1,8,0:1:0:0:
84,232,103463,6,0,L|192:216,1,110,8|4,0:1|1:3,0:0:0:0:
264,252,103904,2,0,P|304:212|296:160,1,110,8|2,1:0|1:0,0:0:0:0:
228,116,104345,2,0,L|220:61,1,55,4|8,1:3|1:0,0:0:0:0:
292,24,104639,2,0,B|328:48|328:48|396:36,1,110,2|2,1:2|1:0,0:0:0:0:
476,24,105081,2,0,B|500:60|500:60|488:128,1,110,8|2,0:1|1:0,0:0:0:0:
424,176,105522,1,4,1:3:0:0:
500,208,105669,1,10,1:0:0:0:
432,256,105816,6,0,L|448:364,1,110,2|4,1:0|1:3,0:0:0:0:
368,380,106257,2,0,P|336:364|316:360,1,55,12|2,1:0|1:2,0:0:0:0:
240,328,106551,2,0,P|197:360|143:357,1,110,2|12,1:0|1:0,0:0:0:0:
64,380,106992,1,4,1:3:0:0:
84,300,107139,1,4,1:0:0:0:
0,156,107433,2,0,L|64:144,1,55,4|8,1:2|0:0,0:0:0:0:
112,84,107728,2,0,L|106:52,5,27.5,8|2|6|2|8|8,1:0|1:0|0:0|1:2|1:3|1:0,0:0:0:0:
132,24,108169,6,0,B|212:-12|212:60|292:24,1,165,12|8,1:0|1:1,0:0:0:0:
456,24,108904,1,6,1:3:0:0:
404,88,109051,2,0,L|416:152,1,55,2|2,1:3|1:1,0:0:0:0:
492,164,109345,2,0,B|480:216|480:216|504:264|504:264|492:324,1,165,8|2,1:0|1:0,0:0:0:0:
336,376,110081,1,2,1:0:0:0:
268,328,110228,2,0,L|204:340,1,55,2|2,1:3|1:0,0:0:0:0:
140,376,110522,6,0,B|108:332|108:332|132:220,1,165,8|2,1:0|1:0,0:0:0:0:
56,76,111257,2,0,L|1:65,2,55,2|0|8,1:0|1:2|0:1,0:0:0:0:
132,48,111698,2,0,P|180:84|232:0,1,165,12|8,1:0|1:0,0:0:0:0:
400,48,112433,1,2,1:0:0:0:
460,104,112581,2,0,L|448:168,1,55,4|8,1:3|1:0,0:0:0:0:
400,224,112875,2,0,L|406:256,1,27.5,8|12,1:0|1:2,0:0:0:0:
396,292,113022,6,0,B|448:276|448:276|496:312,1,110,0|8,0:0|0:1,0:0:0:0:
344,380,113610,1,4,0:3:0:0:
276,336,113757,2,0,L|286:281,1,55,2|8,1:2|1:0,0:0:0:0:
204,292,114051,2,0,B|156:292|128:264|128:264|112:304|68:316,1,165,8|8,1:0|1:0,0:0:0:0:
0,164,114786,2,0,L|10:218,2,55,4|0|8,1:3|1:2|0:1,0:0:0:0:
12,84,115228,1,12,0:1:0:0:
76,136,115375,6,0,P|144:136|180:88,1,110,2|12,0:1|1:0,0:0:0:0:
304,8,115963,2,0,P|270:66|293:122,1,110,2|12,1:1|1:2,0:0:0:0:
352,144,116404,2,0,B|388:104|388:104|500:116,1,165,4|8,0:3|1:0,0:0:0:0:
488,280,117139,1,12,0:1:0:0:
512,360,117286,1,8,1:2:0:0:
432,384,117433,1,8,0:1:0:0:
408,304,117581,6,0,B|376:312|344:296|344:296|312:312|312:312|280:296|240:308,1,165,4|8,1:2|0:1,0:0:0:0:
104,384,118316,1,2,1:0:0:0:
48,324,118463,2,0,L|56:264,1,55,4|8,1:3|0:1,0:0:0:0:
24,192,118757,2,0,B|-12:172|-12:172|116:156,1,165,8|4,1:0|1:3,0:0:0:0:
224,36,119492,2,0,P|192:28|164:8,2,55,2|4|8,1:0|1:3|0:1,0:0:0:0:
296,76,119933,6,0,P|340:16|428:40,1,165,8|8,1:0|1:0,0:0:0:0:
504,172,120669,2,0,L|511:113,2,55,2|4|8,1:0|1:3|0:0,0:0:0:0:
436,220,121110,2,0,L|457:383,1,165,8|8,1:0|0:1,0:0:0:0:
300,336,121845,2,0,P|308:304|328:280,2,55,2|4|8,1:0|1:2|0:1,0:0:0:0:
232,384,122286,6,0,B|188:348|188:348|64:364,1,165,12|8,1:0|1:0,0:0:0:0:
0,216,123022,1,2,1:0:0:0:
52,152,123169,2,0,P|46:125|31:102,1,55,4|8,1:3|0:1,0:0:0:0:
88,40,123463,2,0,L|204:56,1,110,4|2,1:0|1:0,0:0:0:0:
268,100,123904,2,0,P|316:60|384:68,1,110,8|2,0:1|1:0,0:0:0:0:
424,8,124345,1,6,1:3:0:0:
508,148,124639,1,12,0:1:0:0:
444,200,124786,6,0,P|390:195|350:158,1,110,4|8,0:3|1:1,0:0:0:0:
268,180,125228,1,2,0:3:0:0:
316,248,125375,2,0,L|332:356,1,110,4|8,1:0|1:0,0:0:0:0:
248,356,125816,2,0,L|244:383,2,27.5,8|8|8,0:0|0:0|0:0,0:0:0:0:
100,284,126257,1,8,1:0:0:0:
36,336,126404,1,4,1:3:0:0:
24,256,126551,2,0,L|20:229,5,27.5,8|8|8|8|8|8,1:0|1:0|1:0|1:0|1:2|1:2,0:0:0:0:
48,198,126992,6,0,L|44:171,5,27.5,4|0|0|0|2|2,1:0|0:0|0:0|0:0|0:0|0:0,0:0:0:0:
22,135,127433,2,0,P|96:156|139:136,1,110,2|12,1:0|0:1,0:0:0:0:
193,99,127875,2,0,L|226:101,1,27.5,6|2,0:0|0:0,0:0:0:0:
253,74,128022,2,0,L|316:78,1,55,10|2,1:2|1:2,0:0:0:0:
380,37,128316,1,4,0:0:0:0:
424,106,128463,6,0,L|420:133,5,27.5,2|2|4|2|2|2,0:0|1:2|1:3|0:0|1:2|1:0,0:0:0:0:
396,167,128904,2,0,L|519:184,1,110,12|2,0:1|1:0,0:0:0:0:
486,262,129345,2,0,L|444:258,1,27.5,10|2,1:2|1:3,0:0:0:0:
417,259,129492,6,0,L|421:286,3,27.5,4|2|2|2,1:2|1:2|1:2|1:3,0:0:0:0:
386,308,129786,2,0,L|390:335,3,27.5,8|2|2|2,1:2|1:3|1:0|1:2,0:0:0:0:
396,376,130081,2,0,L|274:364,1,110,12|4,0:1|1:3,0:0:0:0:
228,306,130522,6,0,P|192:333|124:329,1,110,2|2,1:0|0:0,0:0:0:0:
61,284,130963,2,0,L|56:237,7,36.6666666666667,2|2|2|12|2|2|8|2,1:0|0:0|0:0|0:1|0:0|0:0|0:0|0:0,0:0:0:0:
45,224,131698,6,0,L|159:236,1,110,8|0,0:1|0:0,0:0:0:0:
219,173,132139,2,0,L|284:180,2,55
184,90,132581,1,0,0:0:0:0:
253,32,132728,1,8,0:1:0:0:
338,35,132875,6,0,L|463:43,1,110,0|2,0:0|1:0,0:0:0:0:
499,106,133316,2,0,P|503:140|493:166,1,55,8|0,1:0|0:0,0:0:0:0:
428,205,133610,1,2,1:2:0:0:
383,274,133757,1,0,0:0:0:0:
384,356,133904,2,0,P|343:358|319:368,1,55,8|2,1:0|1:2,0:0:0:0:
247,357,134198,6,0,L|258:223,1,110,10|8,1:2|1:0,0:0:0:0:
201,185,134639,1,2,1:2:0:0:
134,233,134786,2,0,L|73:227,1,55,10|2,1:2|1:2,0:0:0:0:
95,146,135081,2,0,L|34:140,1,55,12|2,1:0|1:2,0:0:0:0:
12,63,135375,6,0,P|74:17|154:47,1,165,4|0,1:2|0:0,0:0:0:0:
212,98,135963,2,0,L|278:92,1,55
326,150,136257,2,0,L|392:144,1,55
442,199,136551,5,2,0:0:0:0:
46,169,145816,5,2,0:0:0:0:
46,169,145963,6,0,P|100:192|154:176,1,110
207,119,146404,1,0,0:0:0:0:
252,194,146551,1,0,0:0:0:0:
252,194,146698,2,0,L|244:253,1,55
299,313,146992,6,0,B|352:330|352:330|410:309,1,110,2|0,0:0|0:0,0:0:0:0:
481,270,147433,1,0,0:0:0:0:
413,215,147581,1,0,0:0:0:0:
413,215,147728,2,0,L|421:98,1,110
352,55,148169,6,0,B|292:47|308:83|243:70,1,110,2|0,0:0|0:0,0:0:0:0:
173,26,148610,2,0,P|154:45|118:57,1,55
60,110,148904,1,0,0:0:0:0:
60,110,149051,2,0,P|71:140|73:172,1,55
49,256,149345,5,2,0:0:0:0:
49,256,149492,2,0,L|165:249,1,110
238,298,149933,1,0,0:0:0:0:
238,298,150081,2,0,L|222:365,2,55,2|0|0,0:0|0:0|0:0,0:0:0:0:
274,213,150522,6,0,P|244:163|188:149,1,110
130,94,150963,2,0,P|101:94|73:111,1,55
95,200,151257,1,2,0:0:0:0:
95,200,151404,2,0,L|88:267,1,55
122,338,151698,6,0,B|165:339|165:339|186:323|186:323|232:322,1,110,0|0,1:0|0:0,0:0:0:0:
303,284,152139,2,0,P|346:315|408:308,1,110,0|2,0:0|0:0,0:0:0:0:
471,256,152581,2,0,P|482:221|480:199,1,55
427,131,152875,6,0,L|306:138,1,110,4|4,1:2|1:3,0:0:0:0:
249,81,153316,2,0,P|181:78|126:203,1,220,2|8,1:0|1:0,0:0:0:0:
212,212,154051,2,0,P|221:255|211:320,1,110,8|10,1:2|1:2,0:0:0:0:
135,364,154492,2,0,L|77:361,1,55,8|2,1:1|1:0,0:0:0:0:
19,297,154786,2,0,B|10:259|10:259|30:212,2,82.5,12|12|12,0:1|0:1|0:1,0:0:0:0:
102,268,155375,2,2,L|113:235,3,27.5,2|2|2|2,0:0|0:3|0:3|0:3,0:0:0:0:
121,198,155669,6,0,P|172:222|231:200,1,110,12|6,1:1|1:3,0:0:0:0:
278,140,156110,2,0,L|339:146,1,55,2|2,1:3|1:1,0:0:0:0:
399,88,156404,2,0,B|421:127|421:127|406:201,1,110,8|0,1:0|1:0,0:0:0:0:
332,236,156845,2,0,P|310:282|328:350,1,110,2|2,1:0|1:0,0:0:0:0:
244,382,157286,2,0,P|221:363|191:356,1,55,2|2,1:3|1:0,0:0:0:0:
109,371,157581,6,0,L|121:238,1,110,8|0,1:0|1:0,0:0:0:0:
53,202,158022,2,0,B|41:149|41:149|64:99,1,110,2|2,1:0|1:0,0:0:0:0:
119,29,158463,2,0,B|144:47|144:47|169:47,1,55,2|8,1:3|0:1,0:0:0:0:
251,19,158757,6,0,P|224:47|218:121,1,110,12|2,1:0|1:3,0:0:0:0:
267,186,159198,2,0,L|340:181,1,55,8|2,1:0|1:3,0:0:0:0:
378,115,159492,1,2,1:0:0:0:
409,197,159639,2,0,L|414:270,1,55,4|8,1:3|1:0,0:0:0:0:
477,311,159933,6,0,P|462:345|386:372,1,110,12|2,1:0|0:0,0:0:0:0:
331,315,160375,2,0,L|211:324,1,110,8|0,0:1|0:0,0:0:0:0:
146,369,160816,1,2,0:3:0:0:
140,281,160963,1,8,1:0:0:0:
65,328,161110,6,0,P|25:313|-8:250,1,110,8|2,1:0|0:0,0:0:0:0:
55,195,161551,2,0,P|97:162|108:105,1,110,8|4,1:0|1:3,0:0:0:0:
89,22,161992,2,0,L|150:29,1,55,2|8,1:3|0:1,0:0:0:0:
227,54,162286,6,0,B|205:96|205:96|213:159,1,110,8|2,0:1|0:1,0:0:0:0:
204,246,162728,1,12,1:0:0:0:
282,212,162875,2,0,P|319:212|346:200,1,55,4|2,0:3|1:1,0:0:0:0:
410,160,163169,1,2,1:1:0:0:
412,247,163316,2,0,L|419:311,1,55,12|4,1:2|0:3,0:0:0:0:
355,363,163610,6,0,B|305:347|305:347|231:373,1,110,2|8,1:0|1:0,0:0:0:0:
167,336,164051,1,2,1:2:0:0:
86,371,164198,2,0,P|72:369|51:353,3,27.5,12|2|8|8,0:1|1:1|1:2|1:2,0:0:0:0:
44,321,164492,2,0,P|46:307|62:286,3,27.5,8|0|4|2,0:1|1:0|1:2|1:0,0:0:0:0:
42,252,164786,5,4,0:1:0:0:
0,80,165081,2,0,P|52:87|92:52,1,110,8|2,0:1|1:0,0:0:0:0:
176,20,165522,2,0,L|188:88,1,55,4|8,1:3|0:1,0:0:0:0:
132,144,165816,2,0,P|96:183|102:236,1,110,8|4,1:0|1:3,0:0:0:0:
172,288,166257,2,0,B|203:271|203:271|284:288,1,110,4|2,1:3|1:0,0:0:0:0:
360,308,166698,2,0,L|348:376,1,55,4|8,1:3|0:1,0:0:0:0:
436,380,166992,6,0,B|452:348|452:348|436:268,1,110,12|2,1:0|0:3,0:0:0:0:
460,192,167433,2,0,B|484:176|484:176|520:184,1,55,8|2,1:0|0:3,0:0:0:0:
512,92,167728,2,0,L|500:24,1,55,2|4,1:0|1:3,0:0:0:0:
420,8,168022,1,8,0:0:0:0:
352,64,168169,2,0,L|224:52,1,110,8|2,1:0|1:3,0:0:0:0:
168,8,168610,2,0,P|116:24|96:76,1,110,8|2,0:1|1:0,0:0:0:0:
20,116,169051,2,0,P|32:144|40:176,1,55,2|8,1:3|0:1,0:0:0:0:
12,252,169345,1,12,1:0:0:0:
100,236,169492,6,0,L|168:248,1,55
228,200,169786,2,0,B|256:236|256:236|236:312,1,110,8|2,1:0|1:0,0:0:0:0:
292,372,170228,2,0,L|360:360,1,55,4|8,1:3|0:1,0:0:0:0:
432,372,170522,2,0,B|415:309|415:309|443:273,1,110,4|2,1:0|1:0,0:0:0:0:
500,204,170963,2,0,L|488:136,1,55,8|2,0:1|0:3,0:0:0:0:
480,64,171257,1,2,1:0:0:0:
408,116,171404,2,0,B|372:88|372:88|309:104,1,110,6|12,1:3|0:1,0:0:0:0:
256,32,171845,6,0,B|220:60|220:60|157:43,1,110,4|8,0:3|1:1,0:0:0:0:
80,84,172286,2,0,L|86:118,1,27.5,2|2,0:3|1:3,0:0:0:0:
52,140,172433,2,0,P|16:164|16:236,1,110,4|8,1:0|1:0,0:0:0:0:
88,272,172875,2,0,L|122:265,1,27.5,0|8,0:0|0:0,0:0:0:0:
148,236,173022,2,0,L|157:290,1,55,8|4,0:0|0:3,0:0:0:0:
240,320,173316,2,0,L|230:374,1,55,8|0,1:0|0:0,0:0:0:0:
320,368,173610,2,0,L|354:374,3,27.5,8|8|8|8,1:0|1:0|1:0|1:0,0:0:0:0:
388,360,173904,2,0,L|422:366,3,27.5,8|8|2|0,1:2|1:2|1:2|0:0,0:0:0:0:
456,352,174198,5,4,0:1:0:0:
512,184,174492,2,0,B|488:152|488:152|508:84,1,110,8|4,0:1|1:3,0:0:0:0:
448,20,174933,2,0,B|393:10,1,55,2|12,1:2|0:1,0:0:0:0:
312,44,175228,2,0,B|280:68|280:68|200:44,1,110,2|4,1:2|1:3,0:0:0:0:
132,12,175669,2,0,B|122:66,1,55,12|0,0:1|1:0,0:0:0:0:
36,64,175963,2,0,B|45:118,1,55,12|4,1:2|0:3,0:0:0:0:
0,196,176257,1,12,0:1:0:0:
88,348,176551,6,0,B|142:338,1,55,4|2,1:0|1:2,0:0:0:0:
184,260,176845,2,0,P|244:276|264:316,1,110,8|4,0:1|1:3,0:0:0:0:
352,320,177286,2,0,B|342:374,1,55,4|12,1:3|0:1,0:0:0:0:
432,364,177581,2,0,P|459:318|511:308,1,110,4|2,1:3|1:3,0:0:0:0:
500,220,178022,2,0,B|490:165,1,55,12|6,0:1|0:3,0:0:0:0:
404,184,178316,2,0,B|413:238,1,55,12|8,0:0|1:2,0:0:0:0:
356,308,178610,1,12,0:1:0:0:
196,240,178904,6,0,B|141:230,1,55,4|0,1:0|1:0,0:0:0:0:
68,280,179198,2,0,B|44:244|44:244|64:180,1,110,8|4,0:1|1:3,0:0:0:0:
12,112,179639,2,0,B|2:57,1,55,4|12,1:3|0:1,0:0:0:0:
79,15,179933,2,0,P|120:51|172:41,1,110,4|4,1:3|1:3,0:0:0:0:
256,76,180375,2,0,B|265:21,1,55,12|4,0:1|1:3,0:0:0:0:
348,56,180669,2,0,P|388:20|440:30,1,110,12|12,1:2|0:1,0:0:0:0:
512,192,181257,5,4,1:0:0:0:
432,228,181404,2,0,B|440:284|440:284|480:316|480:316|492:376,1,165,6|6,0:0|1:0,0:0:0:0:
404,364,181992,2,0,B|336:352|336:352|304:376,1,110,12|4,0:0|1:3,0:0:0:0:
128,376,182581,2,0,L|134:320,1,55,4|8,1:3|0:1,0:0:0:0:
44,331,182875,1,8,0:1:0:0:
5,251,183022,1,6,0:3:0:0:
69,189,183169,1,4,0:3:0:0:
146,229,183316,2,0,L|201:235,1,55,12|8,0:1|0:1,0:0:0:0:
256,304,183610,5,4,0:1:0:0:
280,128,183904,2,0,L|274:72,1,55,8|0,0:1|0:0,0:0:0:0:
360,48,184198,2,0,B|392:20|392:20|464:36,1,110,4|8,1:3|1:0,0:0:0:0:
496,112,184639,2,0,B|481:177|481:177|509:209,1,110,2|4,1:2|1:3,0:0:0:0:
496,296,185081,2,0,L|440:308,1,55,12|2,0:1|1:0,0:0:0:0:
396,380,185375,2,0,L|340:368,1,55,12|4,1:2|1:3,0:0:0:0:
292,296,185669,1,12,0:1:0:0:
136,380,185963,6,0,B|108:356|108:356|36:368,1,110,4|8,1:0|0:1,0:0:0:0:
0,288,186404,2,0,P|36:260|36:196,1,110,2|4,1:0|1:3,0:0:0:0:
0,120,186845,1,8,1:0:0:0:
80,84,186992,2,0,P|108:120|172:120,1,110,4|2,1:3|1:3,0:0:0:0:
248,84,187433,2,0,P|242:60|236:28,1,55,8|6,1:1|1:3,0:0:0:0:
324,8,187728,2,0,L|335:61,1,55,0|4,1:0|1:3,0:0:0:0:
312,148,188022,1,12,0:1:0:0:
488,172,188316,6,0,L|464:296,1,110,4|8,1:0|0:1,0:0:0:0:
508,356,188757,1,0,0:0:0:0:
420,376,188904,2,0,P|372:336|316:348,1,110,4|8,1:3|1:0,0:0:0:0:
272,272,189345,2,0,P|213:293|195:348,1,110,4|4,1:3|1:3,0:0:0:0:
120,376,189786,1,12,0:1:0:0:
24,228,190081,2,0,P|4:192|4:156,1,55,12|0,0:0|1:0,0:0:0:0:
88,172,190375,2,0,P|100:132|125:107,1,55,12|0,0:1|0:0,0:0:0:0:
176,176,190669,6,0,B|216:196|216:196|284:176,1,110,4|12,1:0|0:1,0:0:0:0:
340,116,191110,2,0,L|328:48,1,55,4|0,1:3|0:0,0:0:0:0:
412,32,191404,1,12,0:0:0:0:
464,100,191551,1,12,0:1:0:0:
415,170,191698,2,0,L|403:238,1,55,4|0,1:3|0:0,0:0:0:0:
476,276,191992,2,0,L|482:310,5,27.5,4|2|8|2|8|10,1:3|1:2|0:1|1:2|0:1|1:2,0:0:0:0:
512,336,192433,6,0,L|444:348,1,55,6|4,0:3|0:3,0:0:0:0:
372,360,192728,1,12,0:1:0:0:
