osu file format v14

[General]
AudioFilename: audio.mp3
AudioLeadIn: 0
PreviewTime:167257
Countdown: 0
SampleSet: Soft
StackLeniency: 0.5
Mode: 0
LetterboxInBreaks: 0
WidescreenStoryboard: 1

[Editor]
Bookmarks:111255
DistanceSpacing: 3.3
BeatDivisor: 4
GridSize: 4
TimelineZoom: 1.800008

[Metadata]
Title:Shinzou Connect
TitleUnicode:心臓コネクト
Artist:suzumu
ArtistUnicode:スズム
Creator:Ryuusei Aika
Version:Aeril's Insane
Source:
Tags:Novelty Japanese Lunala Rin_Sa Aeril cococolaco coco Necho Reincarnation Yugu Ataraxia Heart ke-sanβ tokiti no.734 yasu giga-p ギガp vocaloid ボーカロイド ボカロ gumi
BeatmapID:2109348
BeatmapSetID:964855

[Difficulty]
HPDrainRate:6
CircleSize:4
OverallDifficulty:8
ApproachRate:9
SliderMultiplier:1.7
SliderTickRate:1

[Events]
//Background and Video events
0,0,"8.jpg",0,0
//Break Periods
2,22311,25646
2,124684,132990
2,136206,137530
2,167895,171658
//Storyboard Layer 0 (Background)
//Storyboard Layer 1 (Fail)
//Storyboard Layer 2 (Pass)
//Storyboard Layer 3 (Foreground)
//Storyboard Layer 4 (Overlay)
//Storyboard Sound Samples

[TimingPoints]
368,284.36018957346,4,2,69,70,1,0
368,-100,4,2,69,70,0,0
511,284.36018957346,4,2,69,70,1,0
511,-100,4,2,69,70,0,0
795,-100,4,3,69,40,0,0
937,-100,4,3,69,40,0,0
1648,-100,4,2,69,70,0,0
2217,-100,4,3,69,40,0,0
2359,-100,4,3,69,40,0,0
2785,289.855072463768,4,3,69,50,1,0
3944,284.36018957346,4,3,69,50,1,0
4797,262.008733624454,4,3,69,60,1,0
5059,284.36018957346,4,2,69,70,1,0
5485,-100,4,3,69,30,0,0
5769,-100,4,3,69,30,0,0
7333,-100,4,2,69,70,0,0
7618,-166.666666666667,4,2,69,70,0,0
7760,-166.666666666667,4,3,69,50,0,0
8471,-166.666666666667,4,2,69,70,0,0
9324,294.117647058824,4,2,69,70,1,0
9618,276.497695852535,4,2,69,70,1,0
9894,279.06976744186,4,2,69,70,1,0
9894,-100,4,2,69,70,0,0
10452,284.36018957346,4,2,69,70,1,0
10452,-100,4,2,69,70,0,0
10736,-83.3333333333333,4,2,69,70,0,0
10878,284.36018957346,4,2,69,70,1,0
10878,-83.3333333333333,4,2,69,70,0,0
12299,285.714285714286,4,2,69,70,1,0
12299,-83.3333333333333,4,2,69,70,0,0
12727,-71.4285714285714,4,2,69,70,0,0
13013,-83.3333333333333,4,2,69,70,0,0
13441,284.36018957346,4,2,69,70,1,0
13441,-83.3333333333333,4,2,69,70,0,0
14862,280.373831775701,4,2,69,70,1,0
15282,284.36018957346,4,2,69,70,1,0
15282,-83.3333333333333,4,2,69,70,0,0
15424,284.36018957346,4,2,69,70,1,0
15424,-83.3333333333333,4,2,69,70,0,0
16561,285.714285714286,4,2,69,70,1,0
16561,-83.3333333333333,4,2,69,70,0,0
17275,-71.4285714285714,4,2,69,70,0,0
17418,272.727272727273,4,2,69,70,1,0
17554,284.36018957346,4,2,69,70,1,0
17554,-83.3333333333333,4,2,69,70,0,0
17696,284.36018957346,4,2,69,70,1,0
17696,-83.3333333333333,4,2,69,70,0,0
19686,297.029702970297,4,2,69,70,1,0
19834,287.081339712919,4,2,69,70,1,0
19977,287.081339712919,4,2,69,70,1,0
21269,281.69014084507,4,2,69,70,1,0
21761,-83.3333333333333,4,2,69,100,0,0
21797,-83.3333333333333,4,2,69,70,0,0
21973,276.497695852535,4,2,69,70,1,0
22042,-83.3333333333333,4,2,69,100,0,0
22076,-83.3333333333333,4,2,69,70,0,0
22111,285.714285714286,4,2,69,70,1,0
22111,-142.857142857143,4,2,69,70,0,0
22253,285.714285714286,4,2,69,70,1,0
22538,-100,4,3,69,50,0,0
25110,284.36018957346,4,3,69,50,1,0
25678,284.36018957346,4,3,69,50,1,0
26246,279.06976744186,4,2,69,70,1,0
26246,-142.857142857143,4,2,69,70,0,0
26455,-142.857142857143,4,2,69,100,0,0
26490,-142.857142857143,4,2,69,70,0,0
26525,-142.857142857143,4,2,69,100,0,0
26559,-142.857142857143,4,2,69,70,0,0
26664,284.36018957346,4,2,69,70,1,0
26664,-90.9090909090908,4,2,69,70,0,0
26806,284.36018957346,4,2,69,70,1,0
26806,-90.9090909090908,4,2,69,70,0,0
27374,-90.9090909090908,4,3,69,50,0,0
28938,-90.9090909090908,4,2,69,50,0,0
29507,-90.9090909090908,4,3,69,50,0,0
29649,277.777777777778,4,3,69,50,1,0
30065,284.36018957346,4,2,69,70,1,0
30065,-76.9230769230769,4,2,69,70,0,0
30207,284.36018957346,4,2,69,70,1,0
30349,-76.9230769230769,4,2,69,40,0,0
30491,-76.9230769230769,4,2,69,70,0,0
30775,-76.9230769230769,4,2,69,50,0,0
30917,-76.9230769230769,4,2,69,90,0,0
31202,-100,4,2,69,70,0,0
32339,287.081339712919,4,2,69,70,1,0
32482,287.081339712919,4,2,69,70,1,0
34491,277.777777777778,4,2,69,70,1,0
34629,284.36018957346,4,2,69,70,1,0
34629,-76.9230769230769,4,2,69,70,0,0
35482,277.777777777778,4,2,69,70,1,0
35482,-76.9230769230769,4,2,69,70,0,0
35759,284.36018957346,4,2,69,70,1,0
35759,-100,4,2,69,70,0,0
35901,284.36018957346,4,2,69,70,1,0
35901,-100,4,2,69,70,0,0
36896,288.461538461538,4,2,69,70,1,0
37472,285.714285714286,4,2,69,70,1,0
37900,259.74025974026,4,2,69,70,1,0
38029,284.36018957346,4,2,69,70,1,0
38171,284.36018957346,4,2,69,70,1,0
39166,-76.9230769230769,4,2,69,70,0,0
39592,280.373831775701,4,2,69,70,1,0
39592,-76.9230769230769,4,2,69,70,0,0
40433,287.081339712919,4,2,69,70,1,0
40433,-166.666666666667,4,2,69,70,0,0
40720,307.692307692308,4,2,69,70,1,0
41027,283.018867924528,4,2,69,70,1,0
41593,284.36018957346,4,2,69,70,1,0
41593,-166.666666666667,4,2,69,70,0,0
42161,-83.3333333333334,4,2,69,70,0,0
42588,-83.3333333333334,4,2,69,100,0,0
42872,-83.3333333333334,4,2,69,70,0,0
43583,266.666666666667,4,2,69,70,1,0
43849,284.36018957346,4,2,69,70,1,0
43849,-166.666666666667,4,2,69,70,0,0
44133,288.461538461538,4,2,69,70,1,0
44133,-166.666666666667,4,2,69,70,0,0
44998,288.461538461538,4,2,69,70,1,0
44998,-166.666666666667,4,2,69,70,0,0
46151,285.714285714286,4,2,69,70,1,0
47008,-166.666666666667,4,2,69,70,0,0
47293,279.06976744186,4,2,69,70,1,0
47362,-166.666666666667,4,2,69,100,0,0
47432,-166.666666666667,4,2,69,70,0,0
47502,-166.666666666667,4,2,69,100,0,0
47572,-166.666666666667,4,2,69,70,0,0
47781,-166.666666666667,4,2,69,100,0,0
47851,283.018867924528,4,2,69,70,1,0
47851,-166.666666666667,4,2,69,70,0,0
47921,-166.666666666667,4,2,69,100,0,0
47992,-166.666666666667,4,2,69,70,0,0
48204,-166.666666666667,4,2,69,100,0,0
48275,-166.666666666667,4,2,69,70,0,0
48346,-166.666666666667,4,2,69,100,0,0
48417,-166.666666666667,4,2,69,70,0,0
48558,280.373831775701,4,2,69,70,1,0
48628,-166.666666666667,4,2,69,100,0,0
48698,289.855072463768,4,2,69,70,1,0
48698,-100,4,2,69,70,0,0
48770,-100,4,2,69,100,0,0
48842,-100,4,2,69,70,0,0
49422,283.018867924528,4,2,69,85,1,1
49422,-71.4285714285714,4,2,69,85,0,1
49563,283.018867924528,4,2,69,85,1,1
49563,-71.4285714285714,4,2,69,85,0,1
53808,-83.3333333333333,4,2,69,85,0,1
55506,288.461538461538,4,2,69,85,1,1
55506,-83.3333333333333,4,2,69,85,0,1
56082,284.36018957346,4,2,69,85,1,1
56082,-83.3333333333333,4,2,69,85,0,1
56224,-100,4,2,69,85,0,1
56366,284.36018957346,4,2,69,85,1,1
56366,-100,4,2,69,85,0,1
57361,-62.5,4,2,69,85,0,1
57787,-71.4285714285714,4,2,69,85,0,1
58214,266.666666666667,4,2,69,85,1,1
58214,-71.4285714285714,4,2,69,85,0,1
58347,312.5,4,2,69,85,1,1
58347,-71.4285714285714,4,2,69,85,0,1
58503,294.117647058824,4,2,69,85,1,0
58503,-71.4285714285714,4,2,69,85,0,0
58797,284.36018957346,4,2,69,85,1,0
58797,-71.4285714285714,4,2,69,85,0,0
58939,283.018867924528,4,2,69,85,1,1
58939,-71.4285714285714,4,2,69,85,0,1
59788,283.018867924528,4,2,69,85,1,1
59788,-71.4285714285714,4,2,69,85,0,1
62901,287.081339712919,4,2,69,85,1,1
62901,-71.4285714285714,4,2,69,85,0,1
63188,287.081339712919,4,2,69,85,1,1
63188,-71.4285714285714,4,2,69,85,0,1
63475,284.36018957346,4,2,69,85,1,1
63475,-71.4285714285714,4,2,69,85,0,1
65323,288.461538461538,4,2,69,75,1,0
65323,-71.4285714285714,4,2,69,75,0,0
66044,284.36018957346,4,2,69,75,1,0
66044,-100,4,2,69,75,0,0
66470,-71.4285714285714,4,2,69,85,0,1
66612,284.36018957346,4,2,69,85,1,1
66612,-71.4285714285714,4,2,69,85,0,1
67749,-100,4,2,69,85,0,0
68033,280.373831775701,4,2,69,85,1,0
68033,-100,4,2,69,85,0,0
68733,287.081339712919,4,2,69,65,1,0
68733,-83.3333333333333,4,2,69,65,0,0
68876,287.081339712919,4,2,69,65,1,0
68876,-83.3333333333333,4,2,69,65,0,0
70742,-71.4285714285714,4,2,69,65,0,0
70885,284.36018957346,4,2,69,65,1,0
70885,-100,4,2,69,65,0,0
71027,285.714285714286,4,2,69,65,1,0
71027,-83.3333333333333,4,2,69,65,0,0
71169,285.714285714286,4,2,69,65,1,0
71169,-83.3333333333333,4,2,69,65,0,0
72597,284.36018957346,4,2,69,65,1,0
72597,-83.3333333333333,4,2,69,65,0,0
73165,254.237288135593,4,2,69,65,1,0
73292,285.714285714286,4,2,69,65,1,0
73292,-83.3333333333333,4,2,69,65,0,0
73434,285.714285714286,4,2,69,65,1,0
73434,-83.3333333333333,4,2,69,65,0,0
75291,-71.4285714285714,4,2,69,65,0,0
75576,284.36018957346,4,2,69,65,1,0
75576,-83.3333333333333,4,2,69,65,0,0
75718,284.36018957346,4,2,69,65,1,0
75718,-83.3333333333333,4,2,69,65,0,0
76571,266.666666666667,4,2,69,65,1,0
76704,288.461538461538,4,2,69,65,1,0
76704,-83.3333333333333,4,2,69,65,0,0
77569,281.69014084507,4,2,69,65,1,0
77850,284.36018957346,4,2,0,65,1,0
77850,-166.666666666667,4,2,0,65,0,0
82399,-111.111111111111,4,2,0,65,0,0
84532,303.030303030303,4,2,0,65,1,0
84683,284.36018957346,4,2,0,65,1,0
84683,-111.111111111111,4,2,0,65,0,0
85536,275.229357798165,4,2,0,65,1,0
85811,-76.9230769230769,4,2,69,65,0,0
86499,312.5,4,2,69,65,1,0
86655,284.36018957346,4,2,69,65,1,0
86797,-125,4,2,69,65,0,0
86939,-100,4,2,69,65,0,0
87081,284.36018957346,4,2,69,65,1,0
88502,287.081339712919,4,2,69,65,1,0
89650,283.018867924528,4,2,69,65,1,0
90357,-76.9230769230769,4,2,69,65,0,0
90499,283.018867924528,4,2,69,65,1,0
90499,-76.9230769230769,4,2,69,65,0,0
91489,289.855072463768,4,2,69,65,1,0
91489,-100,4,2,69,65,0,0
91633,289.855072463768,4,2,69,65,1,0
92647,277.777777777778,4,2,69,65,1,0
92785,277.777777777778,4,2,69,65,1,0
93340,284.36018957346,4,2,69,65,1,0
93766,-86.9565217391304,4,2,69,65,0,0
93908,284.36018957346,4,2,69,65,1,0
93908,-86.9565217391304,4,2,69,65,0,0
94903,-76.9230769230769,4,2,69,65,0,0
96040,-166.666666666667,4,2,69,65,0,0
96182,292.682926829268,4,2,69,65,1,0
96182,-166.666666666667,4,2,69,65,0,0
96767,284.36018957346,4,2,69,65,1,0
97335,284.36018957346,4,2,69,65,1,0
97335,-166.666666666667,4,2,69,65,0,0
97903,-83.3333333333334,4,2,69,65,0,0
99325,280.373831775701,4,2,69,65,1,0
99465,-166.666666666667,4,2,69,65,0,0
99885,284.36018957346,4,2,69,65,1,0
99885,-166.666666666667,4,2,69,65,0,0
100169,271.493212669683,4,2,69,65,1,0
100169,-83.3333333333333,4,2,69,65,0,0
100440,-125,4,2,69,65,0,0
100711,295.566502463054,4,2,69,65,1,0
101893,273.972602739726,4,2,69,65,1,0
102714,303.030303030303,4,2,69,65,1,0
103017,281.69014084507,4,2,69,65,1,0
103017,-83.3333333333333,4,2,69,65,0,0
103862,277.777777777778,4,2,69,65,1,0
103862,-83.3333333333333,4,2,69,65,0,0
104417,300,4,2,69,65,1,0
104417,-100,4,2,69,65,0,0
104567,-83.3333333333333,4,2,69,40,0,0
104717,-83.3333333333333,4,2,69,50,0,0
104867,-83.3333333333333,4,2,69,60,0,0
105017,-83.3333333333333,4,2,69,65,0,0
105167,277.777777777778,4,2,69,85,1,1
105167,-71.4285714285714,4,2,69,85,0,1
105305,277.777777777778,4,2,69,85,1,1
105305,-71.4285714285714,4,2,69,85,0,1
105860,284.36018957346,4,2,69,85,1,1
105860,-71.4285714285714,4,2,69,85,0,1
106428,284.36018957346,4,2,69,85,1,1
106428,-71.4285714285714,4,2,69,85,0,1
107281,283.018867924528,4,2,69,85,1,1
107281,-71.4285714285714,4,2,69,85,0,1
107564,283.018867924528,4,2,69,85,1,1
107564,-71.4285714285714,4,2,69,85,0,1
109686,288.461538461538,4,2,69,85,1,1
109686,-83.3333333333333,4,2,69,85,0,1
109830,288.461538461538,4,2,69,85,1,1
109830,-83.3333333333333,4,2,69,85,0,1
110406,283.018867924528,4,2,69,85,1,1
110406,-83.3333333333333,4,2,69,85,0,1
110972,283.018867924528,4,2,69,85,1,1
110972,-83.3333333333333,4,2,69,85,0,1
111962,284.36018957346,4,2,69,85,1,1
111962,-100,4,2,69,85,0,1
112104,284.36018957346,4,2,69,85,1,1
112104,-100,4,2,69,85,0,1
113099,-62.5,4,2,69,85,0,1
113525,-71.4285714285714,4,2,69,85,0,1
114094,297.029702970297,4,2,69,85,1,1
114094,-71.4285714285714,4,2,69,85,0,1
114242,-71.4285714285714,4,2,69,65,0,1
114391,-71.4285714285714,4,2,69,65,0,0
114465,-71.4285714285714,4,2,69,55,0,0
114539,272.727272727273,4,2,69,75,1,0
114539,-71.4285714285714,4,2,69,75,0,0
114675,280.373831775701,4,2,69,85,1,1
114675,-71.4285714285714,4,2,69,85,0,1
114955,-71.4285714285714,4,2,69,85,0,1
115516,284.36018957346,4,2,69,85,1,1
115516,-71.4285714285714,4,2,69,85,0,1
120776,277.777777777778,4,2,69,85,1,1
120776,-71.4285714285714,4,2,69,85,0,1
121053,294.117647058824,4,2,69,75,1,0
121053,-71.4285714285714,4,2,69,75,0,0
121788,288.461538461538,4,2,69,75,1,0
121788,-100,4,2,69,75,0,0
122076,245.901639344262,4,2,1,75,1,0
122076,-100,4,2,1,75,0,0
122198,275.229357798165,4,2,69,85,1,1
122198,-71.4285714285714,4,2,69,85,0,1
122335,275.229357798165,4,2,69,85,1,1
122335,-71.4285714285714,4,2,69,85,0,1
122610,284.36018957346,4,2,69,85,1,1
122610,-71.4285714285714,4,2,69,85,0,1
123320,301.507537688442,4,2,69,75,1,1
123320,-71.4285714285714,4,2,69,75,0,1
123470,-125,4,2,69,75,0,0
123621,-125,4,2,69,65,0,0
124073,266.666666666667,4,2,69,65,1,0
124073,-125,4,2,69,65,0,0
124339,291.26213592233,4,2,69,65,1,0
124339,-100,4,2,69,65,0,0
124484,284.36018957346,4,2,69,65,1,0
124484,-100,4,2,69,65,0,0
124626,284.36018957346,4,2,1,100,1,0
124626,-100,4,2,1,100,0,0
126758,287.081339712919,4,2,1,100,1,0
127475,284.36018957346,4,2,1,100,1,0
128896,272.727272727273,4,2,1,100,1,0
129032,284.36018957346,4,2,1,100,1,0
131591,291.26213592233,4,2,1,100,1,0
132464,284.36018957346,4,2,1,100,1,0
133032,279.06976744186,4,2,1,100,1,0
133590,284.36018957346,4,2,69,65,1,0
133590,-200,4,2,69,65,0,0
133732,284.36018957346,4,2,69,65,1,0
133732,-200,4,2,69,65,0,0
136291,283.018867924528,4,2,69,65,1,0
137140,283.018867924528,4,2,69,65,1,0
138130,300,4,2,69,65,1,0
138130,-200,4,2,69,65,0,0
138280,300,4,2,69,65,1,0
138430,266.666666666667,4,2,69,65,1,0
138563,284.36018957346,4,2,69,65,1,0
138563,-200,4,2,69,65,0,0
140269,279.06976744186,4,2,69,65,1,0
140269,-200,4,2,69,65,0,0
140827,292.682926829268,4,2,69,65,1,0
141119,284.36018957346,4,2,69,65,1,0
142540,273.972602739726,4,2,69,65,1,0
142676,289.156626506024,4,2,69,65,1,0
142676,-100,4,2,69,65,0,0
143109,287.081339712919,4,2,69,65,1,0
143109,-100,4,2,69,65,0,0
143826,284.36018957346,4,2,69,65,1,0
143826,-100,4,2,69,65,0,0
143968,284.36018957346,4,2,69,65,1,0
143968,-100,4,2,69,65,0,0
147238,-83.3333333333333,4,2,69,65,0,0
148944,-83.3333333333333,4,2,0,65,0,0
149370,240.963855421687,4,2,69,65,1,0
149370,-100,4,2,69,65,0,0
149490,291.26213592233,4,2,69,65,1,0
149490,-83.3333333333333,4,2,69,65,0,0
149635,291.26213592233,4,2,69,65,1,0
149635,-100,4,2,69,65,0,0
150071,-83.3333333333333,4,2,0,55,0,0
150654,280.373831775701,4,2,69,65,1,0
150654,-83.3333333333333,4,2,69,65,0,0
150794,280.373831775701,4,2,69,65,1,0
150794,-83.3333333333333,4,2,69,65,0,0
151775,284.36018957346,4,2,69,75,1,1
151775,-71.4285714285714,4,2,69,75,0,1
151917,284.36018957346,4,2,69,65,1,1
151917,-71.4285714285714,4,2,69,65,0,1
153054,287.081339712919,4,2,69,65,1,1
153054,-71.4285714285714,4,2,69,65,0,1
154202,284.36018957346,4,2,69,65,1,1
154202,-71.4285714285714,4,2,69,65,0,1
155623,280.373831775701,4,2,69,65,1,1
155623,-71.4285714285714,4,2,69,65,0,1
156323,284.36018957346,4,2,69,65,1,1
156323,-71.4285714285714,4,2,69,65,0,1
156465,284.36018957346,4,2,69,65,1,1
156465,-71.4285714285714,4,2,69,65,0,1
158597,-90.9090909090909,4,2,69,65,0,1
159735,-76.9230769230769,4,2,69,65,0,1
160161,-100,4,2,69,65,0,1
160446,-100,4,2,69,65,0,0
160872,292.682926829268,4,2,69,65,1,1
160872,-71.4285714285714,4,2,69,65,0,1
161018,292.682926829268,4,2,69,65,1,1
161018,-71.4285714285714,4,2,69,65,0,1
161164,-71.4285714285714,4,2,69,55,0,1
161237,-125,4,2,69,55,0,0
161310,283.687943262411,4,2,69,55,1,0
161310,-125,4,2,69,55,0,0
161593,-71.4285714285714,4,2,69,75,0,1
162161,283.687943262411,4,2,69,75,1,1
162161,-71.4285714285714,4,2,69,75,0,1
166558,287.081339712919,4,2,69,75,1,1
166558,-62.5,4,2,69,75,0,1
166701,287.081339712919,4,2,69,75,1,1
166701,-62.5,4,2,69,75,0,1
167275,280.373831775701,4,2,69,75,1,1
167275,-62.5,4,2,69,75,0,1
167695,287.081339712919,4,2,69,75,1,0
167695,-100,4,2,69,75,0,0
167838,287.081339712919,4,2,1,100,1,0
167838,-100,4,2,1,100,0,0
169273,284.36018957346,4,2,1,100,1,0
169273,-100,4,2,1,100,0,0
170126,284.36018957346,4,2,1,100,1,0
170126,-100,4,2,1,100,0,0
171263,-100,4,2,69,65,0,0
171547,-100,4,2,69,55,0,0
171832,-100,4,2,69,65,0,0
172258,-100,4,2,69,70,0,0
173396,272.727272727273,4,2,69,70,1,0
173396,-100,4,2,69,70,0,0
173532,272.727272727273,4,2,69,70,1,0
173532,-100,4,2,69,70,0,0
173804,284.36018957346,4,2,69,70,1,0
173804,-100,4,2,69,70,0,0
174088,265.486725663717,4,2,69,70,1,0
174088,-100,4,2,69,70,0,0
174486,295.566502463054,4,2,69,70,1,0
174486,-125,4,2,69,70,0,0
175077,284.36018957346,4,2,69,70,1,0
175077,-100,4,2,69,70,0,0
175503,300,4,2,69,70,1,0
175503,-100,4,2,69,70,0,0
175653,294.117647058824,4,2,69,70,1,0
175653,-83.3333333333333,4,2,69,70,0,0
176241,284.36018957346,4,2,69,70,1,0
176241,-62.5,4,2,69,70,0,0
176809,294.117647058824,4,2,69,70,1,0
176809,-100,4,2,69,70,0,0
177103,263.157894736842,4,2,69,55,1,0
177103,-100,4,2,69,55,0,0
177234,284.36018957346,4,2,69,70,1,1
177234,-71.4285714285714,4,2,69,70,0,1
177447,-71.4285714285714,4,2,69,5,0,1
177518,-71.4285714285714,4,2,69,75,0,1
178087,284.36018957346,4,2,69,75,1,1
178087,-71.4285714285714,4,2,69,75,0,1
181357,281.69014084507,4,2,69,75,1,1
181357,-71.4285714285714,4,2,69,75,0,1
181497,281.69014084507,4,2,69,75,1,1
181497,-71.4285714285714,4,2,69,75,0,1
182482,291.26213592233,4,2,69,75,1,1
182482,-71.4285714285714,4,2,69,75,0,1
182627,291.26213592233,4,2,69,75,1,1
182627,-71.4285714285714,4,2,69,75,0,1
182772,-100,4,2,69,75,0,0
182918,-100,4,2,69,30,0,0
183063,-100,4,2,69,75,0,0
183209,266.666666666667,4,2,69,50,1,0
183209,-100,4,2,69,50,0,0
183342,-100,4,2,69,60,0,0
183475,-100,4,2,69,70,0,0
183609,291.26213592233,4,2,69,85,1,0
183609,-71.4285714285714,4,2,69,85,0,1
183754,291.26213592233,4,2,69,85,1,1
183754,-71.4285714285714,4,2,69,85,0,1
184336,284.36018957346,4,2,69,85,1,1
184336,-71.4285714285714,4,2,69,85,0,1
184904,284.36018957346,4,2,69,85,1,1
184904,-71.4285714285714,4,2,69,85,0,1
186610,286.806883365201,4,2,69,85,1,1
186610,-71.4285714285714,4,2,69,85,0,1
187470,271.493212669683,4,2,69,85,1,1
187470,-71.4285714285714,4,2,69,85,0,1
187741,247.933884297521,4,2,69,85,1,1
187741,-71.4285714285714,4,2,69,85,0,1
187988,306.122448979592,4,2,69,85,1,1
187988,-83.3333333333333,4,2,69,85,0,1
188294,306.122448979592,4,2,69,85,1,1
188294,-83.3333333333333,4,2,69,85,0,1
188600,284.36018957346,4,2,69,85,1,1
188600,-83.3333333333333,4,2,69,85,0,1
189453,284.36018957346,4,2,69,85,1,1
189453,-83.3333333333333,4,2,69,85,0,1
190448,289.855072463768,4,2,69,85,1,1
190448,-100,4,2,69,85,0,1
190592,289.855072463768,4,2,69,85,1,1
190592,-100,4,2,69,85,0,1
191171,284.36018957346,4,2,69,85,1,1
191171,-100,4,2,69,85,0,1
191597,-62.5,4,2,69,85,0,1
191739,284.36018957346,4,2,69,85,1,1
191739,-62.5,4,2,69,85,0,1
192734,-100,4,2,69,100,0,0
192947,-100,4,2,69,85,0,0
193018,262.008733624454,4,2,69,85,1,0
193018,-100,4,2,69,85,0,0
193149,284.36018957346,4,2,69,85,1,1
193149,-71.4285714285714,4,2,69,85,0,1
193433,-71.4285714285714,4,2,69,85,0,1
193859,-71.4285714285714,4,2,69,100,0,1
194002,284.36018957346,4,2,69,85,1,1
194002,-71.4285714285714,4,2,69,85,0,1
194428,-71.4285714285714,4,2,69,100,0,1
194570,-71.4285714285714,4,2,69,85,0,1
195281,-71.4285714285714,4,2,69,100,0,1
195423,-71.4285714285714,4,2,69,85,0,1
196845,287.081339712919,4,2,69,85,1,1
196845,-71.4285714285714,4,2,69,85,0,1
197419,287.081339712919,4,2,69,85,1,1
197419,-71.4285714285714,4,2,69,85,0,1
197993,283.687943262411,4,2,69,85,1,1
197993,-71.4285714285714,4,2,69,85,0,1
199553,-71.4285714285714,4,2,69,85,0,0
200120,291.26213592233,4,2,69,100,1,0
200120,-100,4,2,69,100,0,0
200702,273.972602739726,4,2,69,85,1,1
200702,-71.4285714285714,4,2,69,85,0,1
201112,-71.4285714285714,4,2,69,85,0,1
201797,294.117647058824,4,2,69,60,1,0
201797,-71.4285714285714,4,2,69,60,0,0
202532,279.06976744186,4,2,69,60,1,0
202532,-100,4,2,69,60,0,0
202950,289.855072463768,4,2,69,70,1,0
202950,-83.3333333333333,4,2,69,70,0,0
203094,289.855072463768,4,2,69,70,1,0
203094,-100,4,2,69,70,0,0
203383,-83.3333333333333,4,2,69,70,0,0
203673,284.36018957346,4,2,69,70,1,0
203673,-83.3333333333333,4,2,69,70,0,0
204241,284.36018957346,4,2,69,70,1,0
204241,-83.3333333333333,4,2,69,70,0,0
204951,-71.4285714285714,4,2,69,70,0,0
205236,-83.3333333333333,4,2,69,70,0,0
206515,287.081339712919,4,2,69,70,1,0
206515,-83.3333333333333,4,2,69,70,0,0
207519,284.36018957346,4,2,69,70,1,0
207519,-83.3333333333333,4,2,69,70,0,0
207661,284.36018957346,4,2,69,70,1,0
207661,-83.3333333333333,4,2,69,70,0,0
209509,-71.4285714285714,4,2,69,70,0,0
209793,281.69014084507,4,2,69,70,1,0
209793,-83.3333333333333,4,2,69,70,0,0
209933,281.69014084507,4,2,69,70,1,0
209933,-83.3333333333333,4,2,69,70,0,0
210918,288.461538461538,4,2,69,70,1,0
210918,-83.3333333333333,4,2,69,70,0,0
211783,279.06976744186,4,2,69,70,1,0
212062,283.018867924528,4,2,69,70,1,0
212062,-83.3333333333333,4,2,69,70,0,0
212203,283.018867924528,4,2,69,70,1,0
212203,-83.3333333333333,4,2,69,70,0,0
214042,-71.4285714285714,4,2,69,70,0,0
214325,288.461538461538,4,2,69,70,1,0
214325,-83.3333333333333,4,2,69,70,0,0
214469,288.461538461538,4,2,69,70,1,0
214469,-83.3333333333333,4,2,69,70,0,0
215190,283.018867924528,4,2,69,70,1,0
215190,-83.3333333333333,4,2,69,70,0,0
215473,-83.3333333333333,4,2,69,70,0,0
215614,283.018867924528,4,2,69,70,1,0
215614,-83.3333333333333,4,2,69,70,0,0
216180,276.497695852535,4,2,69,70,1,0
216180,-83.3333333333333,4,2,69,70,0,0
216594,284.36018957346,4,2,69,70,1,0
216594,-83.3333333333333,4,2,69,70,0,0
216736,284.36018957346,4,2,69,70,1,0
216736,-100,4,2,69,70,0,0
217020,-100,4,2,69,70,0,0
217731,277.777777777778,4,2,69,70,1,0
217731,-83.3333333333333,4,2,69,70,0,0
217869,277.777777777778,4,2,69,70,1,0
217869,-83.3333333333333,4,2,69,70,0,0
218424,289.855072463768,4,2,69,70,1,0
218424,-100,4,2,69,70,0,0
218858,288.461538461538,4,2,69,70,1,0
218858,-83.3333333333333,4,2,69,70,0,0
219002,288.461538461538,4,2,69,70,1,0
219002,-83.3333333333333,4,2,69,70,0,0
219867,303.030303030303,4,2,69,70,1,0
219867,-100,4,2,69,70,0,0
220170,270.27027027027,4,2,69,70,1,0
220170,-83.3333333333333,4,2,69,70,0,0
220440,284.36018957346,4,2,69,70,1,0
220440,-83.3333333333333,4,2,69,70,0,0
220866,279.06976744186,4,2,69,70,1,0
220866,-100,4,2,69,70,0,0
221145,284.36018957346,4,2,69,70,1,0
221145,-100,4,2,69,70,0,0
221287,284.36018957346,4,2,69,70,1,0
221287,-100,4,2,69,70,0,0
222993,303.030303030303,4,2,69,70,1,0
222993,-100,4,2,69,70,0,0
223296,247.933884297521,4,2,69,70,1,0
223296,-100,4,2,69,70,0,0
223419,284.36018957346,4,2,69,70,1,0
223419,-100,4,2,69,70,0,0
223561,284.36018957346,4,2,69,70,1,0
223561,-100,4,2,69,70,0,0
223845,329.67032967033,4,2,69,70,1,0
223845,-100,4,2,69,70,0,0
224174,260.869565217391,4,2,69,70,1,0
224174,-100,4,2,69,70,0,0
224565,284.36018957346,4,2,69,70,1,0
224565,-100,4,2,69,70,0,0
225702,288.461538461538,4,2,69,50,1,0
225702,-100,4,2,69,50,0,0
225846,288.461538461538,4,2,0,70,1,0
225846,-100,4,2,0,70,0,0
226999,280.373831775701,4,2,69,40,1,0
226999,-100,4,2,69,40,0,0
227559,-100,4,2,69,70,0,0
227699,-100,4,2,69,100,0,0
227770,-100,4,2,69,80,0,0
227840,-100,4,2,69,80,0,0

[Colours]
Combo1 : 228,88,20
Combo2 : 64,0,128
Combo3 : 128,128,192
Combo4 : 217,0,0

[HitObjects]
86,57,368,5,2,2:2:0:0:
86,57,511,2,0,B|92:127|172:140|172:140|232:96|207:19,1,255,12|0,0:0|0:0,0:0:0:0:
195,21,1648,2,0,P|183:63|178:119,1,85,12|0,0:0|0:0,0:0:0:0:
239,256,1932,2,0,B|222:213|236:176|236:176|298:115|409:148,1,255,12|0,0:0|0:0,0:0:0:0:
400,359,5059,6,0,P|410:312|458:257,1,85,12|0,0:0|0:0,0:0:0:0:
296,305,5343,2,0,B|349:246|457:268|457:268|410:349,1,255,12|0,0:0|0:0,0:0:0:0:
71,351,7333,38,0,P|92:314|100:273,1,85,12|0,0:0|0:0,0:0:0:0:
41,203,7618,2,0,B|90:226|71:286|71:286|44:263|49:200|96:169|67:69,1,305.999990661621,12|10,0:0|1:2,0:0:0:0:
437,110,10452,5,8,0:3:0:0:
467,37,10594,1,0,1:0:0:0:
426,126,10736,38,0,B|438:185|438:185|472:229|472:229|490:339,1,203.999993774414,6|2,1:2|0:0,0:0:0:0:
395,370,11162,2,0,L|407:251,1,101.999996887207,10|0,0:0|0:0,0:0:0:0:
298,104,11446,1,0,3:0:0:0:
265,221,11588,1,2,0:0:0:0:
265,221,11659,1,2,0:0:0:0:
265,221,11731,2,0,L|154:239,1,101.999996887207,10|0,0:0|3:0,0:0:0:0:
38,174,12015,2,0,P|52:126|50:62,1,101.999996887207,0|0,0:0|3:0,0:0:0:0:
210,65,12299,2,0,P|175:28|117:2,1,101.999996887207,10|0,0:0|0:0,0:0:0:0:
191,182,12584,1,0,3:0:0:0:
64,54,12727,2,0,B|64:157|106:115|95:276,1,178.499994552612,0|0,3:0|0:0,0:0:0:0:
62,266,13013,6,0,B|219:220|219:220|188:295,1,203.999993774414,0|0,3:0|3:0,0:0:0:0:
236,350,13441,2,0,L|129:331,1,101.999996887207,10|0,0:0|0:0,0:0:0:0:
306,239,13725,1,0,3:0:0:0:
383,289,13867,2,0,L|446:273,2,50.9999984436036,0|2|10,3:0|0:0|0:0,0:0:0:0:
298,257,14151,1,0,3:0:0:0:
423,191,14294,2,0,P|471:184|530:147,1,101.999996887207,2|0,0:0|3:0,0:0:0:0:
259,74,14578,2,0,P|202:57|151:60,1,101.999996887207,10|2,0:0|0:0,0:0:0:0:
272,219,14862,1,2,3:2:0:0:
380,106,15002,1,2,3:2:0:0:
367,4,15142,1,10,0:2:0:0:
412,77,15282,38,0,B|346:80|346:80|314:102|314:102|175:109,1,203.999993774414,6|0,3:2|3:0,0:0:0:0:
81,143,15708,2,0,L|63:40,1,101.999996887207,10|0,0:0|0:0,0:0:0:0:
246,208,15992,1,0,3:0:0:0:
150,276,16134,1,0,3:0:0:0:
150,276,16205,1,2,0:0:0:0:
150,276,16277,2,0,L|137:395,1,101.999996887207,10|0,0:0|3:0,0:0:0:0:
17,296,16561,2,0,P|64:295|118:262,1,101.999996887207,2|0,0:0|3:0,0:0:0:0:
76,105,16846,2,0,P|100:145|155:175,1,101.999996887207,10|0,0:0|0:0,0:0:0:0:
128,349,17132,1,0,3:0:0:0:
13,217,17275,2,0,B|9:213|117:219|71:254|193:250,1,177,0|0,3:0|0:0,0:0:0:0:
185,254,17554,6,0,B|124:339|124:339|20:293,1,203.999993774414,4|0,3:2|3:0,0:0:0:0:
100,217,17980,2,0,L|209:236,1,101.999996887207,10|0,0:0|0:0,0:0:0:0:
138,75,18264,1,0,3:0:0:0:
46,121,18406,2,0,L|36:64,2,50.9999984436036,0|2|10,3:0|0:0|0:0,0:0:0:0:
127,94,18691,1,0,3:0:0:0:
133,237,18833,2,0,P|146:299|140:351,1,101.999996887207,2|0,0:0|3:0,0:0:0:0:
230,103,19117,2,0,P|243:41|237:-11,1,101.999996887207,10|2,0:0|0:0,0:0:0:0:
110,147,19402,1,10,0:0:0:0:
267,181,19544,1,10,0:0:0:0:
350,198,19686,1,10,0:0:0:0:
366,201,19834,37,6,3:2:0:0:
366,201,20981,5,12,2:2:0:0:
239,233,21269,1,12,2:2:0:0:
462,26,21691,37,8,0:0:0:0:
365,101,21832,1,0,3:0:0:0:
478,148,21973,1,8,0:0:0:0:
403,96,22111,5,6,3:2:0:0:
89,343,26246,37,2,0:0:0:0:
65,305,26385,2,0,L|71:246,1,59.4999981842042,8|0,0:0|3:0,0:0:0:0:
89,343,26664,2,0,B|78:218|78:218|95:144,1,187.000005706787,10|10,1:2|1:2,0:0:0:0:
462,190,28796,5,0,0:0:0:0:
437,116,28938,2,0,B|435:174|435:174|415:205|415:205|404:334,1,187.000005706787,10|10,1:2|1:2,0:0:0:0:
440,324,29926,1,0,0:0:0:0:
276,377,30065,38,0,B|220:347|221:285|221:285|270:243|353:308,1,220.999989883423,10|0,1:2|1:0,0:0:0:0:
416,184,30491,1,0,1:0:0:0:
311,244,30633,1,0,1:0:0:0:
248,171,30775,2,0,P|239:109|248:50,1,110.499994941712,0|0,1:0|1:0,0:0:0:0:
278,23,30988,1,0,1:0:0:0:
278,23,31060,1,0,1:0:0:0:
197,94,31202,6,0,B|117:125|64:80|64:80|114:36,1,170,14|0,3:2|0:0,0:0:0:0:
171,141,31628,2,0,P|164:207|142:249,1,85,10|0,0:0|0:0,0:0:0:0:
65,384,31913,2,0,P|58:318|36:276,1,85,2|2,3:2|3:2,0:0:0:0:
42,311,32126,2,0,L|104:327,1,42.5,2|10,0:0|0:0,0:0:0:0:
270,363,32339,38,0,B|300:331|342:325|417:361,1,127.5,6|0,3:2|0:0,0:0:0:0:
381,362,32625,2,0,L|366:258,1,85,2|10,3:2|0:0,0:0:0:0:
420,101,32912,1,0,0:0:0:0:
429,196,33056,2,0,L|512:224,1,85,2|2,3:2|3:2,0:0:0:0:
200,135,33343,5,10,0:0:0:0:
200,135,33486,2,0,B|144:145|144:145|120:169|120:169|23:187,1,170,6|2,3:2|3:2,0:0:0:0:
118,52,33917,2,0,L|111:166,1,85,10|0,0:0|0:0,0:0:0:0:
198,241,34204,2,0,P|163:271|138:312,1,85,2|2,3:2|3:2,0:0:0:0:
213,259,34491,1,10,0:0:0:0:
319,371,34629,38,0,B|269:358|263:311|263:311|320:259|368:291|398:329,1,220.999989883423,6|2,3:2|3:2,0:0:0:0:
494,266,35055,2,0,P|471:342|476:393,1,110.499994941712,10|2,1:2|0:2,0:0:0:0:
337,240,35339,1,10,1:2:0:0:
424,141,35482,2,0,P|447:217|442:268,1,110.499994941712,2|10,3:2|1:2,0:0:0:0:
329,77,35759,6,0,B|367:133|445:122|445:122|422:68,1,170,6|0,3:2|0:0,0:0:0:0:
293,42,36185,2,0,P|244:47|196:72,1,85,10|0,0:0|0:0,0:0:0:0:
450,5,36469,1,2,3:2:0:0:
430,87,36611,2,0,L|437:139,2,42.5,2|2|10,3:2|3:2|0:0,0:0:0:0:
353,255,36896,38,0,B|321:302|336:365|374:370,1,127.5,6|0,3:2|0:0,0:0:0:0:
377,351,37184,2,0,L|289:362,1,85,2|10,3:2|0:0,0:0:0:0:
495,261,37472,1,0,0:0:0:0:
495,261,37614,2,0,L|297:229,1,170,2|10,3:2|0:0,0:0:0:0:
53,325,38029,6,0,B|113:366|156:341|156:341|181:303|158:252,1,170,6|2,3:2|3:2,0:0:0:0:
141,16,38455,2,0,B|149:83|115:111|115:111|87:151|110:203,1,170,10|2,0:0|3:2,0:0:0:0:
196,303,38881,1,2,3:2:0:0:
197,314,38952,1,2,3:2:0:0:
198,325,39024,37,10,0:0:0:0:
64,269,39166,2,0,B|147:262|147:262|246:364,1,220.999989883423,6|2,3:2|3:2,0:0:0:0:
372,313,39592,1,10,1:2:0:0:
467,346,39732,2,0,P|398:331|331:339,1,110.499994941712,0|10,1:0|1:2,0:0:0:0:
431,217,40012,1,2,3:2:0:0:
409,132,40152,1,10,1:2:0:0:
464,32,40433,5,4,3:1:0:0:
453,47,40873,1,0,3:0:0:0:
366,92,41027,1,12,0:2:0:0:
265,64,41310,1,0,3:0:0:0:
265,64,41451,1,2,3:2:0:0:
169,98,41735,1,10,0:2:0:0:
85,53,41877,2,0,L|77:45|11:37,1,50.9999984436036,0|0,3:0|3:0,0:0:0:0:
34,46,42090,1,0,3:0:0:0:
34,46,42161,2,0,L|55:161,1,101.999996887207,12|4,0:0|3:2,0:0:0:0:
34,358,42588,37,0,1:0:0:0:
34,358,42730,1,4,3:1:0:0:
126,317,42872,1,0,1:0:0:0:
206,365,43156,1,0,3:0:0:0:
260,292,43299,1,12,3:2:0:0:
443,322,43583,1,0,3:2:0:0:
342,357,43849,1,4,3:2:0:0:
342,357,43991,1,0,3:0:0:0:
355,307,44133,2,0,B|384:270|381:227|381:227|369:190,1,101.999996887207,12|8,0:0|1:2,0:0:0:0:
330,123,44565,5,8,0:3:0:0:
305,82,44709,1,8,0:3:0:0:
296,68,44998,37,6,3:2:0:0:
19,197,47293,5,14,1:2:0:0:
40,295,47432,1,14,1:2:0:0:
118,136,47711,37,14,1:2:0:0:
90,283,47851,1,14,1:2:0:0:
227,207,48134,5,14,1:2:0:0:
280,376,48275,1,14,1:2:0:0:
512,340,48558,37,14,1:2:0:0:
295,294,48698,1,14,1:2:0:0:
483,96,49422,6,0,B|413:135|351:91|351:91|324:27,1,178.499994552612,4|0,1:1|0:0,0:0:0:0:
369,23,49704,1,0,0:0:0:0:
222,110,49846,2,0,P|151:87|104:89,1,118.999996368408,8|0,0:2|0:0,0:0:0:0:
276,256,50129,2,0,P|250:181|260:72,1,178.499994552612,0|0,1:2|0:0,0:0:0:0:
270,95,50412,2,0,P|279:135|277:171,1,59.4999981842042,8|0,0:2|0:0,0:0:0:0:
368,261,50553,2,0,L|494:247,1,118.999996368408,0|0,1:0|1:2,0:0:0:0:
75,340,50836,2,0,B|135:335|135:335|202:366|202:366|318:355,1,237.999992736817,0|2,0:0|0:0,0:0:0:0:
287,340,51261,37,0,1:2:0:0:
201,322,51402,1,0,0:0:0:0:
115,304,51544,1,8,0:2:0:0:
15,211,51685,2,0,B|24:271|63:289|63:289|117:295|175:234,1,178.499994552612,0|0,1:0|0:0,0:0:0:0:
109,223,51968,1,0,0:0:0:0:
194,77,52110,2,0,P|176:140|187:208,1,118.999996368408,8|0,0:2|0:0,0:0:0:0:
53,66,52393,2,0,P|125:78|259:8,1,178.499994552612,0|0,1:2|0:0,0:0:0:0:
205,32,52676,2,0,P|240:14|275:12,1,59.4999981842042,8|0,0:2|0:0,0:0:0:0:
371,126,52817,6,0,B|479:82|479:82|361:12,1,237.999992736817,0|0,1:0|0:0,0:0:0:0:
285,216,53242,1,8,0:2:0:0:
380,175,53383,1,0,0:0:0:0:
223,0,53525,2,0,L|237:125,1,118.999996368408,0|0,1:2|1:2,0:0:0:0:
205,317,53808,37,8,0:2:0:0:
205,317,53949,2,0,B|278:325|278:325|349:365|349:365|424:339,1,203.999993774414,4|0,1:2|0:0,0:0:0:0:
354,145,54374,2,0,L|339:256,1,101.999996887207,8|2,0:2|0:0,0:0:0:0:
503,232,54657,2,0,P|386:245|326:205,1,152.999995330811,0|0,1:2|0:0,0:0:0:0:
326,260,54940,5,8,0:2:0:0:
474,327,55081,2,0,L|450:109,1,203.999993774414,0|0,1:0|0:0,0:0:0:0:
298,40,55506,1,8,0:2:0:0:
407,40,55650,1,2,0:0:0:0:
407,40,55794,2,0,P|332:82|307:123,2,101.999996887207,0|0|8,1:2|1:0|0:0,0:0:0:0:
240,114,56224,38,0,B|170:171|94:119|84:81|139:49|176:70,1,212.5,4|0,1:2|0:0,0:0:0:0:
172,52,56650,2,0,L|187:163,1,85,8|0,0:0|1:0,0:0:0:0:
94,4,56934,1,8,0:0:0:0:
22,240,57076,5,0,1:0:0:0:
128,214,57219,1,8,0:0:0:0:
97,318,57361,2,0,B|260:313|185:387|371:372,1,272,4|0,1:2|0:0,0:0:0:0:
441,192,57787,38,0,P|416:278|419:330,1,118.999996368408,8|0,1:2|3:2,0:0:0:0:
240,111,58072,2,0,P|265:197|262:249,1,118.999996368408,8|0,0:2|3:2,0:0:0:0:
139,288,58280,1,8,0:2:0:0:
126,302,58347,2,0,P|111:349|111:376,2,59.4999981842042,8|8|2,0:2|3:2|0:0,0:0:0:0:
51,28,58797,5,0,3:0:0:0:
79,53,58868,1,0,3:0:0:0:
45,43,58939,38,0,B|114:49|114:49|157:84|157:84|232:89,1,178.499994552612,4|0,1:2|0:0,0:0:0:0:
246,52,59222,2,0,P|216:147|231:233,1,178.499994552612,0|0,1:0|0:0,0:0:0:0:
242,237,59505,2,0,P|262:215|269:169,1,59.4999981842042,8|0,0:0|0:0,0:0:0:0:
361,121,59646,2,0,L|342:-2,1,118.999996368408,0|0,1:0|1:0,0:0:0:0:
418,305,59929,2,0,B|406:212|406:212|447:153|447:153|464:62,1,237.999992736817,0|0,1:0|0:0,0:0:0:0:
338,103,60354,5,0,1:0:0:0:
437,66,60495,1,0,1:0:0:0:
338,103,60637,1,8,0:0:0:0:
171,15,60778,2,0,B|206:3|241:22|241:22|268:66|250:133,1,178.499994552612,0|0,1:0|0:0,0:0:0:0:
208,149,61061,1,0,1:0:0:0:
338,271,61203,2,0,P|374:245|453:235,1,118.999996368408,8|0,0:0|0:0,0:0:0:0:
290,375,61486,1,0,1:0:0:0:
315,263,61627,1,0,1:0:0:0:
188,353,61769,38,0,P|227:357|274:342,1,59.4999981842042,8|0,0:0|0:0,0:0:0:0:
254,339,61910,2,0,B|121:307|121:307|28:368,1,237.999992736817,4|0,1:2|3:0,0:0:0:0:
84,180,62335,1,8,0:0:0:0:
99,283,62476,1,0,3:0:0:0:
3,139,62618,2,0,L|156:170,1,118.999996368408,8|0,0:0|3:0,0:0:0:0:
295,56,62901,1,8,0:0:0:0:
88,78,63044,6,0,B|129:51|192:58|192:58|254:104|334:59,1,237.999992736817,12|0,3:2|3:0,0:0:0:0:
486,9,63475,2,0,P|461:84|467:138,1,118.999996368408,8|0,0:0|3:0,0:0:0:0:
274,186,63759,2,0,P|326:245|376:266,1,118.999996368408,8|0,0:0|3:0,0:0:0:0:
321,111,64043,37,8,0:0:0:0:
473,254,64185,2,0,B|344:259|415:329|231:315,1,237.999992736817,6|0,3:2|0:0,0:0:0:0:
55,321,64612,2,0,P|117:337|168:381,1,118.999996368408,8|0,0:0|3:0,0:0:0:0:
276,288,64896,1,8,0:0:0:0:
164,232,65038,1,8,0:0:0:0:
151,186,65110,1,8,0:0:0:0:
151,138,65181,1,8,0:0:0:0:
165,92,65252,1,0,0:0:0:0:
192,53,65323,1,6,1:2:0:0:
175,37,66470,6,0,L|199:293,1,237.999992736817,6|0,1:2|3:0,0:0:0:0:
123,129,66896,2,0,P|141:64|134:-28,1,118.999996368408,8|0,0:0|3:0,0:0:0:0:
9,140,67180,1,8,0:0:0:0:
158,174,67322,1,8,0:0:0:0:
54,286,67465,1,8,0:0:0:0:
73,199,67607,1,8,0:0:0:0:
73,199,67891,38,0,L|81:245,2,42.5,2|2|8,3:3|3:3|0:0,0:0:0:0:
165,307,68173,2,0,L|148:350,2,42.5,2|2|0,3:3|3:3|3:0,0:0:0:0:
268,277,68453,2,0,L|334:290,1,42.5,0|2,3:0|3:0,0:0:0:0:
429,248,68593,1,8,0:0:0:0:
492,324,68733,6,0,B|419:334|419:334|374:374|374:374|298:381,1,203.999993774414,6|2,1:2|0:0,0:0:0:0:
296,273,69163,2,0,L|415:295,1,101.999996887207,10|0,0:0|0:0,0:0:0:0:
139,335,69450,1,0,3:0:0:0:
184,214,69593,1,2,0:0:0:0:
184,214,69665,1,2,0:0:0:0:
184,214,69737,2,0,L|168:106,1,101.999996887207,10|0,0:0|3:0,0:0:0:0:
35,81,70024,2,0,P|19:161|-2:189,1,101.999996887207,0|0,0:0|3:0,0:0:0:0:
143,10,70311,2,0,P|204:63|218:96,1,101.999996887207,10|0,0:0|0:0,0:0:0:0:
52,61,70598,1,0,3:0:0:0:
170,166,70742,2,0,B|266:145|240:197|366:163,1,178.499994552612,0|0,3:0|0:0,0:0:0:0:
387,197,71027,38,0,B|358:50|358:50|409:86,1,203.999993774414,4|0,3:2|3:0,0:0:0:0:
500,149,71454,2,0,L|482:264,1,101.999996887207,10|0,0:0|0:0,0:0:0:0:
305,370,71740,1,0,3:0:0:0:
377,296,71883,2,0,L|383:229,2,50.9999984436036,0|2|10,3:0|0:0|0:0,0:0:0:0:
292,356,72169,1,0,3:0:0:0:
346,209,72311,2,0,P|376:189|445:173,1,101.999996887207,10|2,0:0|3:2,0:0:0:0:
199,279,72597,2,0,P|149:269|105:243,1,101.999996887207,10|2,0:0|0:0,0:0:0:0:
301,224,72881,1,10,0:2:0:0:
194,43,73023,1,10,0:2:0:0:
244,135,73165,1,10,0:2:0:0:
182,87,73292,6,0,B|242:93|242:93|292:127|292:127|386:136,1,203.999993774414,6|0,3:2|3:0,0:0:0:0:
491,62,73719,2,0,L|469:167,1,101.999996887207,10|0,0:0|0:0,0:0:0:0:
264,97,74005,1,0,3:0:0:0:
358,0,74148,1,0,3:0:0:0:
358,0,74219,1,2,0:0:0:0:
358,0,74291,2,0,L|380:105,1,101.999996887207,10|0,0:0|3:0,0:0:0:0:
436,270,74576,2,0,P|464:216|510:189,1,101.999996887207,2|0,0:0|3:0,0:0:0:0:
331,342,74862,2,0,P|298:290|297:237,1,101.999996887207,10|0,0:0|0:0,0:0:0:0:
492,375,75148,1,0,3:0:0:0:
396,250,75291,2,0,B|392:246|284:238|338:290|201:270,1,178.499994552612,0|0,3:0|0:0,0:0:0:0:
223,276,75576,38,0,B|164:215|164:215|219:63,1,203.999993774414,4|0,3:2|3:0,0:0:0:0:
78,32,76002,2,0,L|96:146,1,101.999996887207,10|0,0:0|0:0,0:0:0:0:
251,22,76286,1,0,3:0:0:0:
332,99,76428,2,0,L|403:84,2,50.9999984436036,0|2|10,3:0|0:0|0:0,0:0:0:0:
242,39,76704,1,0,3:0:0:0:
116,154,76848,2,0,P|60:169|13:165,1,101.999996887207,10|8,0:0|0:0,0:0:0:0:
283,235,77136,2,0,P|339:220|386:224,1,101.999996887207,10|0,0:0|1:0,0:0:0:0:
323,366,77425,1,10,0:0:0:0:
192,307,77569,1,10,0:0:0:0:
91,266,77709,1,10,0:0:0:0:
73,256,77850,5,6,3:2:0:0:
107,241,80124,1,0,0:0:0:0:
143,275,81973,2,0,L|211:285,1,50.9999984436036,2|2,0:0|0:0,0:0:0:0:
311,346,82257,2,0,L|348:340,1,25.4999992218018,2|0,0:0|0:0,0:0:0:0:
348,329,82399,38,0,P|258:311|173:328,1,152.999995330811,2|0,3:0|0:0,0:0:0:0:
120,366,82826,2,0,P|154:311|168:204,2,152.999995330811,8|2|0,0:0|0:3|3:0,0:0:0:0:
200,301,83537,2,0,P|192:226|199:127,1,152.999995330811,8|0,0:0|0:0,0:0:0:0:
156,79,83963,2,0,P|129:49|115:6,1,76.4999976654053,8|0,0:0|0:0,0:0:0:0:
79,133,84248,2,0,P|116:138|153:130,1,76.4999976654053,2|8,0:3|0:0,0:0:0:0:
264,87,84532,1,2,0:3:0:0:
264,87,84607,1,0,0:0:0:0:
264,87,84683,2,0,P|332:81|423:135,2,152.999995330811,2|0|0,3:0|0:0|0:0,0:0:0:0:
235,68,85393,2,0,L|242:153,1,76.4999976654053,0|0,3:0|3:0,0:0:0:0:
298,3,85811,6,0,B|263:62|263:62|294:227,1,220.999989883423,2|2,1:2|1:2,0:0:0:0:
317,331,86224,1,8,0:0:0:0:
436,307,86361,1,2,0:0:0:0:
306,319,86499,1,8,0:0:0:0:
290,315,86577,1,2,0:0:0:0:
274,311,86655,1,0,3:0:0:0:
258,307,86726,1,0,0:0:0:0:
242,303,86797,2,0,L|192:309,1,34,8|0,0:0|0:0,0:0:0:0:
129,381,86939,38,0,B|177:331|171:265|171:265|131:208,1,170,6|0,1:2|0:0,0:0:0:0:
42,284,87365,2,0,P|101:305|142:345,1,85,10|0,0:0|0:0,0:0:0:0:
200,102,87649,2,0,P|141:123|100:163,1,85,2|2,3:2|3:2,0:0:0:0:
134,143,87862,2,0,P|139:117|131:64,1,42.5,2|10,0:0|0:0,0:0:0:0:
314,7,88076,6,0,B|293:52|293:52|317:153,1,127.5,6|0,3:2|0:0,0:0:0:0:
303,140,88360,2,0,L|407:125,1,85,2|10,3:2|0:0,0:0:0:0:
376,289,88645,1,0,0:0:0:0:
512,229,88789,2,0,L|408:214,1,85,2|2,3:2|3:2,0:0:0:0:
304,362,89076,37,10,0:0:0:0:
304,362,89219,2,0,B|259:359|259:359|209:374|209:374|120:370,1,170,6|2,3:2|3:2,0:0:0:0:
60,317,89650,1,10,0:0:0:0:
200,162,89791,2,0,B|228:202|229:263|181:287,1,127.5
176,271,90074,2,0,L|271:245,1,85,2|10,3:2|0:0,0:0:0:0:
311,75,90357,6,0,B|310:41|293:20|293:20|256:118|361:200,1,220.999989883423,6|2,3:2|3:2,0:0:0:0:
449,130,90782,2,0,P|477:63|474:10,1,110.499994941712,10|2,1:2|0:0,0:0:0:0:
420,245,91065,1,10,1:2:0:0:
304,192,91206,2,0,P|307:246|332:295,1,110.499994941712,10|10,3:2|1:2,0:0:0:0:
427,130,91489,38,0,B|329:129|372:175|257:166,1,170,6|0,3:2|0:0,0:0:0:0:
386,98,91922,2,0,P|435:103|483:128,1,85,10|0,0:0|0:0,0:0:0:0:
241,187,92212,1,2,3:2:0:0:
173,118,92357,2,0,L|167:75,2,42.5,2|2|10,3:2|0:0|0:0,0:0:0:0:
16,235,92647,6,0,B|63:203|126:218|131:256,1,127.5,6|0,3:2|0:0,0:0:0:0:
118,257,92923,2,0,L|129:169,1,85,2|10,3:2|0:0,0:0:0:0:
172,377,93201,1,0,0:0:0:0:
51,325,93340,2,0,L|251:366,1,170,2|10,3:2|0:0,0:0:0:0:
512,281,93766,38,0,B|471:352|384:347|384:347|402:263,1,195.500003728867,6|2,3:2|3:2,0:0:0:0:
399,54,94192,2,0,B|440:56|471:92|471:92|487:174|449:237,1,195.500003728867,10|0,0:0|1:0,0:0:0:0:
334,135,94618,1,0,3:0:0:0:
330,121,94689,1,0,0:0:0:0:
326,107,94761,5,8,0:0:0:0:
497,152,94903,2,0,B|416:146|416:146|368:183|368:183|279:198,1,220.999989883423,2|10,1:2|1:2,0:0:0:0:
69,261,95329,1,2,2:2:0:0:
66,270,95400,2,0,B|40:226|40:226|62:148,1,110.499994941712,10|2,0:0|2:2,0:0:0:0:
133,219,95614,2,0,L|146:347,1,110.499994941712,10|10,0:0|0:2,0:0:0:0:
176,367,95827,2,0,L|198:237,1,110.499994941712,0|2,0:0|2:2,0:0:0:0:
112,197,96040,38,0,L|103:124,1,50.9999984436036,10|4,0:0|1:1,0:0:0:0:
92,136,96621,1,0,3:0:0:0:
166,77,96767,1,12,0:2:0:0:
80,40,97051,1,0,3:0:0:0:
80,40,97193,1,0,3:0:0:0:
175,62,97477,1,8,0:0:0:0:
279,48,97619,2,0,L|271:40|331:28,1,50.9999984436036,4|0,0:2|1:0,0:0:0:0:
329,37,97832,1,0,1:0:0:0:
329,37,97903,2,0,L|207:61,1,101.999996887207,12|4,0:2|3:2,0:0:0:0:
395,179,98330,5,0,3:0:0:0:
395,179,98472,1,4,1:1:0:0:
501,219,98614,1,0,3:0:0:0:
465,10,98898,1,0,3:0:0:0:
460,23,98970,1,0,0:0:0:0:
454,35,99041,2,0,L|476:139,1,101.999996887207,12|0,0:2|0:0,0:0:0:0:
504,307,99325,1,8,0:2:0:0:
426,264,99465,38,0,L|409:364,1,101.999996887207,0|0,3:0|3:0,0:0:0:0:
207,347,99885,2,0,L|257:338,1,50.9999984436036,4|0,1:2|1:0,0:0:0:0:
333,238,100169,6,0,P|341:205|334:153,2,67.9999979248048,8|8|4,3:0|3:0|3:0,0:0:0:0:
225,221,100440,2,0,P|233:254|227:296,2,45.3333333333333,4|0|0,3:0|3:0|3:0,0:0:0:0:
192,299,100711,1,4,0:0:0:0:
503,156,103017,37,14,1:2:0:0:
375,102,103157,2,0,L|370:-9,1,101.999996887207,8|0,1:2|3:0,0:0:0:0:
392,115,103439,5,8,1:2:0:0:
311,266,103580,2,0,L|297:406,1,101.999996887207,8|0,1:2|3:0,0:0:0:0:
300,367,103791,1,0,3:0:0:0:
300,367,103862,37,8,1:2:0:0:
240,171,104000,2,0,L|235:60,1,101.999996887207,8|0,1:2|3:0,0:0:0:0:
236,69,104209,1,0,3:0:0:0:
236,69,104278,5,8,1:2:0:0:
49,126,104417,1,8,1:2:0:0:
58,116,104717,38,0,L|66:173,3,50.9999984436036,2|2|2|2,0:0|0:0|0:0|0:0,0:0:0:0:
101,197,105017,2,0,L|93:254,1,50.9999984436036,2|2,0:0|0:0,0:0:0:0:
39,350,105167,6,0,B|42:328|58:297|58:297|122:270|174:306,1,178.499994552612,4|0,1:1|0:0,0:0:0:0:
187,352,105443,1,0,1:0:0:0:
282,218,105582,2,0,P|269:152|282:95,1,118.999996368408,8|0,0:0|0:0,0:0:0:0:
429,318,105860,2,0,P|319:267|229:276,1,178.499994552612,0|0,1:0|0:0,0:0:0:0:
252,279,106144,2,0,P|222:274|194:263,1,59.4999981842042,8|0,0:0|0:0,0:0:0:0:
99,173,106286,2,0,L|113:303,1,118.999996368408,0|0,1:0|1:0,0:0:0:0:
67,2,106570,2,0,B|58:79|58:79|14:132|14:132|-1:226,1,237.999992736817,0|2,0:0|0:0,0:0:0:0:
90,303,106996,37,0,1:0:0:0:
81,197,107138,1,0,0:0:0:0:
72,91,107281,1,8,0:0:0:0:
168,189,107422,2,0,B|124:180|99:133|99:133|105:69|173:46,1,178.499994552612,0|0,1:0|0:0,0:0:0:0:
185,81,107705,1,0,0:0:0:0:
381,149,107847,2,0,P|397:82|372:8,1,118.999996368408,8|0,0:0|0:0,0:0:0:0:
238,239,108130,2,0,P|316:193|436:198,1,178.499994552612,0|0,1:0|0:0,0:0:0:0:
410,204,108413,2,0,P|373:236|334:246,1,59.4999981842042,8|0,0:0|0:0,0:0:0:0:
228,384,108554,6,0,B|182:276|182:276|315:310,1,237.999992736817,0|0,1:2|0:0,0:0:0:0:
499,296,108979,1,8,0:0:0:0:
392,375,109120,1,0,0:0:0:0:
393,164,109262,2,0,L|417:308,1,118.999996368408,0|0,1:0|0:0,0:0:0:0:
173,355,109545,37,8,0:0:0:0:
173,355,109686,2,0,B|177:272|177:272|202:220|202:220|189:129,1,203.999993774414,4|0,1:2|0:0,0:0:0:0:
8,180,110118,2,0,L|121:201,1,101.999996887207,8|2,0:0|0:0,0:0:0:0:
230,185,110406,2,0,P|197:121|197:28,1,152.999995330811,0|0,1:0|0:0,0:0:0:0:
237,18,110689,5,8,0:0:0:0:
85,152,110830,2,0,L|310:128,1,203.999993774414,0|0,1:0|0:0,0:0:0:0:
440,139,111255,1,8,0:0:0:0:
378,69,111396,1,2,0:0:0:0:
430,211,111538,2,0,P|456:160|448:102,1,101.999996887207,0|0,1:0|1:0,0:0:0:0:
498,10,111821,1,8,1:2:0:0:
414,200,111962,38,0,B|376:278|425:325|460:341|472:283,1,170,4|0,1:2|1:0,0:0:0:0:
457,288,112388,2,0,L|343:308,1,85,8|0,0:0|1:0,0:0:0:0:
503,384,112672,1,8,0:0:0:0:
281,268,112814,5,0,1:0:0:0:
175,322,112957,1,8,0:0:0:0:
274,381,113099,2,0,B|279:218|205:293|220:107,1,272,4|0,1:2|3:0,0:0:0:0:
371,29,113525,38,0,P|429:58|505:58,1,118.999996368408,8|0,0:0|1:0,0:0:0:0:
247,88,113810,2,0,P|189:117|113:117,1,118.999996368408,0|0,1:0|1:0,0:0:0:0:
332,177,114023,1,0,1:0:0:0:
348,169,114094,2,0,P|376:172|430:201,2,59.4999981842042,8|8|2,0:0|0:0|0:0,0:0:0:0:
187,356,114539,5,0,3:0:0:0:
223,371,114607,1,0,3:0:0:0:
200,376,114675,38,0,B|177:269|177:269|191:178,1,178.499994552612,4|0,1:2|0:0,0:0:0:0:
216,159,114955,2,0,P|136:206|18:180,1,178.499994552612,0|0,1:0|0:0,0:0:0:0:
41,190,115235,2,0,P|70:167|104:152,1,59.4999981842042,8|0,0:0|0:0,0:0:0:0:
231,170,115375,2,0,L|237:288,1,118.999996368408,0|0,1:0|1:0,0:0:0:0:
300,10,115658,2,0,B|292:85|292:85|329:156|329:156|319:268,1,237.999992736817,0|0,1:0|0:0,0:0:0:0:
426,288,116084,5,0,1:0:0:0:
295,255,116226,1,0,1:0:0:0:
426,288,116369,1,8,0:0:0:0:
480,141,116511,2,0,B|484:194|460:224|460:224|384:249|321:209,1,178.499994552612,0|0,1:0|0:0,0:0:0:0:
343,186,116795,1,0,1:0:0:0:
446,30,116937,2,0,P|444:105|476:168,1,118.999996368408,8|0,0:0|0:0,0:0:0:0:
284,44,117222,1,0,1:0:0:0:
394,98,117364,1,0,1:0:0:0:
248,174,117506,38,0,P|252:149|244:100,1,59.4999981842042,8|0,0:0|0:0,0:0:0:0:
241,33,117648,2,0,B|202:118|202:118|244:270,1,237.999992736817,4|0,1:2|1:0,0:0:0:0:
384,384,118075,1,8,0:0:0:0:
425,282,118217,1,0,3:0:0:0:
270,158,118359,2,0,L|259:316,1,118.999996368408,8|0,0:0|3:0,0:0:0:0:
159,372,118643,1,8,0:0:0:0:
13,184,118786,6,0,B|67:204|128:182|128:182|173:131|158:25,1,237.999992736817,12|0,3:2|3:0,0:0:0:0:
304,105,119212,2,0,P|353:73|380:14,1,118.999996368408,8|0,0:0|3:0,0:0:0:0:
136,35,119497,1,8,0:0:0:0:
128,45,119568,2,0,L|43:56,1,59.4999981842042,0|0,3:0|3:0,0:0:0:0:
190,150,119781,1,8,0:0:0:0:
86,276,119923,38,0,B|234:261|175:357|359:304,1,237.999992736817,6|0,3:2|3:0,0:0:0:0:
485,254,120350,2,0,P|449:332|449:387,1,118.999996368408,8|0,0:0|3:0,0:0:0:0:
290,291,120634,1,8,0:0:0:0:
369,197,120776,1,8,0:0:0:0:
373,149,120845,1,8,0:0:0:0:
363,102,120914,1,8,0:0:0:0:
339,60,120984,1,0,0:0:0:0:
298,34,121053,1,6,1:2:0:0:
317,23,122198,6,0,L|308:275,1,237.999992736817,6|0,1:2|3:0,0:0:0:0:
454,377,122610,2,0,L|441:236,1,118.999996368408,8|0,0:0|3:0,0:0:0:0:
352,101,122894,1,8,0:0:0:0:
509,73,123036,1,8,0:0:0:0:
454,222,123178,1,8,0:0:0:0:
493,99,123320,1,8,0:0:0:0:
493,99,123621,37,0,3:0:0:0:
375,0,123772,2,0,L|385:99,1,68,8|0,0:0|3:0,0:0:0:0:
370,103,123998,1,0,3:0:0:0:
356,97,124073,2,0,P|311:114|278:114,1,68,0|8,3:0|0:3,0:0:0:0:
129,139,124339,1,8,0:3:0:0:
250,88,124484,5,6,1:2:0:0:
121,335,133590,37,4,1:2:0:0:
101,330,133874,2,0,L|62:345,1,42.5,0|2,0:0|1:3,0:0:0:0:
208,277,134300,2,0,L|167:270,1,42.5,2|0,1:3|0:0,0:0:0:0:
327,284,134727,2,0,L|295:257,1,42.5,0|2,0:0|1:3,0:0:0:0:
426,349,135153,2,0,L|412:310,1,42.5,2|0,1:3|0:0,0:0:0:0:
457,180,135580,1,0,0:0:0:0:
457,180,135722,2,0,L|469:86,1,85,2|2,1:3|1:3,0:0:0:0:
48,66,138130,6,0,L|140:41,1,85,2|0,0:3|0:0,0:0:0:0:
214,88,138563,1,2,1:3:0:0:
214,88,138705,2,0,L|272:99,1,42.5,0|2,0:0|1:3,0:0:0:0:
124,205,139131,1,2,1:3:0:0:
124,205,139273,2,0,L|179:185,1,42.5,0|2,0:0|1:3,0:0:0:0:
104,351,139700,2,0,L|142:306,1,42.5,2|0,1:3|0:0,0:0:0:0:
29,255,140126,1,0,0:0:0:0:
29,255,140269,2,0,L|21:166,1,85,2|2,1:3|1:3,0:0:0:0:
78,78,140827,37,2,1:3:0:0:
101,81,141119,1,2,1:3:0:0:
124,74,141403,1,2,1:3:0:0:
246,19,141687,1,2,1:3:0:0:
227,108,141972,1,2,1:3:0:0:
256,221,142256,1,2,1:3:0:0:
430,329,142540,1,2,1:3:0:0:
319,377,142676,5,2,3:2:0:0:
331,364,142965,2,0,L|322:240,1,85,2|6,3:2|3:2,0:0:0:0:
464,53,143826,1,6,1:2:0:0:
458,72,144110,2,0,L|355:141,1,85,2|2,1:2|1:2,0:0:0:0:
123,117,144963,1,6,1:2:0:0:
142,109,145247,2,0,L|253:163,1,85,2|2,1:2|1:2,0:0:0:0:
308,193,146100,37,6,1:2:0:0:
319,180,146385,2,0,L|331:304,1,85,2|2,1:2|1:2,0:0:0:0:
369,357,146669,2,0,L|323:364,1,42.5,2|2,0:0|0:0,0:0:0:0:
385,344,146811,2,0,L|432:356,5,42.5,2|2|2|2|2|2,0:0|0:0|0:0|0:0|0:0|0:0,0:0:0:0:
505,312,147238,6,0,P|481:253|475:92,1,203.999993774414,6|2,1:2|1:2,0:0:0:0:
352,34,147664,1,2,1:2:0:0:
352,34,147735,1,0,0:0:0:0:
352,34,147806,1,0,3:0:0:0:
358,138,147949,2,0,P|312:137|257:109,1,101.999996887207,0|0,3:0|3:0,0:0:0:0:
271,102,148162,2,0,L|272:159,1,50.9999984436036,0|8,3:0|0:0,0:0:0:0:
163,32,148375,38,0,L|176:237,1,203.999993774414,4|2,1:2|1:2,0:0:0:0:
54,376,148802,1,2,1:2:0:0:
71,384,149490,6,0,L|84:179,1,203.999993774414,12|0,0:0|0:0,0:0:0:0:
209,66,149926,1,12,0:0:0:0:
199,83,150654,38,0,B|271:97|333:66|345:30|318:17|282:28|275:122|282:133,1,203.999993774414,2|0,1:2|0:0,0:0:0:0:
361,156,151074,2,0,P|415:145|450:105,1,101.999996887207,2|2,1:2|3:2,0:0:0:0:
417,17,151354,1,2,1:2:0:0:
417,17,151494,1,2,1:2:0:0:
410,115,151635,1,2,1:2:0:0:
497,245,151775,22,0,B|427:258|427:258|383:317|383:317|336:310|336:310|266:317,1,237.999992736817,4|0,3:1|3:0,0:0:0:0:
110,381,152201,2,0,L|94:255,1,118.999996368408,0|0,1:0|0:0,0:0:0:0:
208,232,152485,1,0,3:0:0:0:
188,89,152627,1,2,0:0:0:0:
188,89,152698,1,2,0:0:0:0:
188,89,152770,2,0,B|207:163|171:202|171:202|132:200|96:158,1,178.499994552612,8|2,0:0|0:0,0:0:0:0:
105,167,153054,6,0,P|147:159|178:165,1,59.4999981842042,0|0,1:0|0:0,0:0:0:0:
281,188,153197,1,2,0:0:0:0:
311,164,153269,1,2,0:2:0:0:
316,125,153341,2,0,P|319:100|307:49,3,59.4999981842042,2|2|2|2,3:2|0:2|0:2|0:2,0:0:0:0:
377,2,153628,1,2,1:2:0:0:
429,146,153771,1,2,0:2:0:0:
512,80,153915,1,2,3:2:0:0:
411,170,154058,2,0,B|397:209|411:247|411:247|442:267|442:267|435:286|435:286|451:342|413:402,1,237.999992736817,2|0,0:2|1:0,0:0:0:0:
283,296,154486,37,2,3:2:0:0:
306,288,154557,1,2,0:2:0:0:
330,286,154628,2,0,P|361:296|423:293,1,59.4999981842042,2|2,3:2|0:2,0:0:0:0:
253,217,154770,1,2,1:2:0:0:
170,294,154912,1,2,3:2:0:0:
66,260,155055,1,2,1:2:0:0:
31,335,155197,6,0,B|4:282|19:225|19:225|89:189|153:235,1,237.999992736817,4|0,1:2|1:0,0:0:0:0:
29,128,155623,2,0,L|11:-7,1,118.999996368408,2|2,3:2|1:2,0:0:0:0:
176,199,155903,1,8,3:2:0:0:
249,22,156043,1,0,1:0:0:0:
254,42,156183,1,8,3:0:0:0:
139,103,156323,2,0,B|226:75|226:75|368:182,1,237.999992736817,4|0,1:2|1:0,0:0:0:0:
475,59,156749,37,2,3:2:0:0:
478,47,156820,1,2,0:2:0:0:
473,37,156891,2,0,P|460:89|464:124,1,59.4999981842042,2|2,0:2|0:2,0:0:0:0:
493,173,157033,2,0,P|505:238|500:273,3,59.4999981842042,2|2|2|2,1:2|1:2|1:2|1:2,0:0:0:0:
471,260,157318,2,0,P|432:247|401:204,1,59.4999981842042,2|2,3:2|0:2,0:0:0:0:
308,170,157460,1,2,0:2:0:0:
320,275,157602,2,0,L|240:287,3,59.4999981842042,2|2|2|2,1:2|0:2|0:2|0:2,0:0:0:0:
169,315,157886,2,0,L|227:323,3,59.4999981842042,2|2|2|2,3:2|0:2|0:2|0:2,0:0:0:0:
212,199,158171,1,2,1:2:0:0:
158,182,158242,1,2,0:2:0:0:
105,200,158313,1,2,3:2:0:0:
84,228,158384,1,2,0:2:0:0:
80,238,158455,2,0,P|78:281|88:307,1,59.4999981842042,2|2,1:2|1:2,0:0:0:0:
0,138,158597,6,0,B|29:170|76:175|76:175|137:157|165:94,1,187.000005706787,6|10,1:2|0:2,0:0:0:0:
100,13,159024,1,0,1:2:0:0:
100,13,159166,1,0,3:0:0:0:
231,97,159308,2,0,L|134:85,1,93.5000028533936,8|0,1:2|3:0,0:0:0:0:
351,77,159592,1,8,3:2:0:0:
313,0,159735,2,0,B|295:69|295:69|321:124|321:124|306:245,1,220.999989883423,4|0,1:2|1:0,0:0:0:0:
340,317,160161,2,0,P|294:294|244:290,1,85,8|0,1:2|1:2,0:0:0:0:
424,370,160446,1,8,1:2:0:0:
417,358,160517,2,0,L|430:283,1,42.5,0|0,0:0|1:2,0:0:0:0:
485,245,160730,1,8,1:2:0:0:
425,78,160872,38,0,B|458:94|475:145|475:145|373:177|303:85,1,237.999992736817,4|2,3:1|1:3,0:0:0:0:
274,0,161237,1,2,0:3:0:0:
266,11,161310,2,0,P|264:27|266:44,3,34,10|2|2|2,0:3|0:3|0:3|0:3,0:0:0:0:
238,82,161593,6,0,P|211:102|162:106,1,59.4999981842042,2|2,1:0|0:0,0:0:0:0:
92,10,161735,1,2,0:0:0:0:
144,31,161806,1,2,0:0:0:0:
168,80,161877,2,0,P|167:110|155:137,1,59.4999981842042,2|2,3:0|0:0,0:0:0:0:
152,233,162019,2,0,P|153:262|165:289,1,59.4999981842042,2|2,0:0|0:0,0:0:0:0:
56,201,162161,2,0,L|-27:214,3,59.4999981842042,0|2|0|2,1:2|1:2|0:0|0:0,0:0:0:0:
176,243,162444,1,0,3:0:0:0:
147,373,162586,1,0,0:0:0:0:
147,373,162657,1,2,0:0:0:0:
147,373,162728,2,0,P|195:335|260:327,1,118.999996368408,2|2,1:2|1:2,0:0:0:0:
264,339,162941,2,0,P|229:331|204:315,1,59.4999981842042,2|0,1:2|1:2,0:0:0:0:
387,154,163153,38,0,L|393:291,1,118.999996368408,2|0,0:0|0:0,0:0:0:0:
264,213,163437,1,0,0:0:0:0:
403,128,163579,1,0,3:0:0:0:
246,90,163721,1,0,1:2:0:0:
260,77,163792,1,2,1:2:0:0:
259,58,163863,2,0,B|247:120|247:120|279:191,1,118.999996368408,2|2,1:2|0:2,0:0:0:0:
354,240,164146,1,2,3:2:0:0:
493,202,164288,2,0,B|364:216|445:278|267:304,1,237.999992736817,6|0,3:2|0:0,0:0:0:0:
170,212,164714,1,8,0:0:0:0:
232,384,164856,1,8,0:0:0:0:
232,384,164997,2,0,L|258:260,1,118.999996368408,8|8,0:0|0:0,0:0:0:0:
158,172,165281,1,8,0:0:0:0:
0,237,165423,6,0,B|70:226|70:226|130:197|130:197|185:237|185:237|260:255,1,237.999992736817,6|2,1:0|1:3,0:0:0:0:
234,236,165778,1,2,0:3:0:0:
275,246,165848,2,0,B|327:163|327:163|220:164,1,178.499994552612,10|2,0:3|0:3,0:0:0:0:
211,132,166132,37,8,1:2:0:0:
76,65,166274,1,8,1:2:0:0:
248,28,166416,1,8,1:2:0:0:
260,19,166487,1,8,1:2:0:0:
271,8,166558,2,0,B|234:110|234:110|260:205|260:205|254:321,1,272,14|8,1:2|0:0,0:0:0:0:
209,354,166988,5,8,0:0:0:0:
49,267,167131,1,8,0:0:0:0:
217,305,167275,37,8,0:0:0:0:
133,155,167415,1,8,0:0:0:0:
219,19,167555,1,8,0:0:0:0:
209,69,167695,5,4,0:1:0:0:
485,31,172258,6,0,L|467:224,1,170,14|0,1:2|1:0,0:0:0:0:
469,200,172614,1,0,1:0:0:0:
469,200,172685,1,0,3:0:0:0:
335,151,172827,2,0,L|327:98,2,42.5,0|0|0,1:0|3:0|3:0,0:0:0:0:
391,278,173111,2,0,L|383:331,1,42.5,0|0,1:0|1:0,0:0:0:0:
368,335,173253,1,8,0:0:0:0:
228,367,173396,6,0,B|261:307|261:307|242:176,1,170,12|8,1:2|0:0,0:0:0:0:
246,206,173736,1,8,0:0:0:0:
246,206,173804,1,8,0:0:0:0:
128,107,173946,2,0,L|49:88,1,42.5,8|8,0:0|0:0,0:0:0:0:
12,41,174088,2,0,L|-2:-35,3,42.5,8|8|8|8,0:0|0:0|0:0|0:0,0:0:0:0:
43,89,174353,2,0,L|31:165,1,42.5,8|8,0:0|0:0,0:0:0:0:
2,269,174486,38,0,B|67:248|67:248|155:270,1,136,12|0,0:0|3:0,0:0:0:0:
132,264,174929,1,8,0:0:0:0:
179,149,175077,6,0,B|242:209|242:209|261:326,1,170,14|0,1:2|3:0,0:0:0:0:
255,290,175503,1,8,0:0:0:0:
429,218,175653,38,0,B|408:303|408:303|307:385,1,203.999993774414,14|0,1:2|3:0,0:0:0:0:
317,376,176094,1,8,0:0:0:0:
157,302,176241,6,0,B|166:214|166:214|216:145|216:145|209:20,1,272,14|0,1:2|3:0,0:0:0:0:
164,120,176667,1,10,0:0:0:0:
164,120,176738,1,8,0:0:0:0:
164,120,176809,1,12,0:0:0:0:
26,296,177103,37,2,1:3:0:0:
54,321,177168,1,0,1:0:0:0:
20,311,177234,6,0,B|89:317|89:317|132:352|132:352|207:357,1,178.499994552612,8|0,0:0|0:0,0:0:0:0:
224,377,177518,2,0,P|194:282|209:196,1,178.499994552612,0|0,3:0|0:0,0:0:0:0:
216,216,177802,2,0,P|236:194|243:148,1,59.4999981842042,8|0,0:2|0:0,0:0:0:0:
143,100,177944,2,0,L|20:119,1,118.999996368408,2|0,0:0|3:0,0:0:0:0:
344,42,178229,2,0,B|251:54|251:54|192:13|192:13|101:-4,1,237.999992736817,2|0,0:0|0:0,0:0:0:0:
97,22,178655,37,2,3:2:0:0:
211,52,178797,1,2,0:2:0:0:
325,82,178940,1,8,0:2:0:0:
468,21,179082,2,0,B|433:9|398:28|398:28|365:74|389:139,1,178.499994552612,2|0,0:0|0:0,0:0:0:0:
423,163,179366,1,2,0:0:0:0:
303,279,179508,2,0,P|285:216|296:148,1,118.999996368408,8|0,0:2|0:0,0:0:0:0:
128,291,179793,2,0,P|200:279|334:349,1,178.499994552612,0|0,3:0|0:0,0:0:0:0:
285,325,180077,2,0,P|325:332|371:308,1,59.4999981842042,8|0,0:2|0:0,0:0:0:0:
491,200,180219,6,0,B|493:327|493:327|495:327|373:249,1,237.999992736817,0|2,0:0|3:0,0:0:0:0:
285,342,180646,1,8,0:2:0:0:
383,304,180788,1,0,0:0:0:0:
275,116,180930,2,0,L|262:281,1,118.999996368408,8|8,0:2|1:2,0:0:0:0:
148,348,181214,1,8,3:2:0:0:
10,237,181357,38,0,B|159:206|98:303|272:253,1,237.999992736817,4|0,1:0|1:0,0:0:0:0:
103,97,181778,2,0,P|103:156|125:210,1,118.999996368408,8|0,3:2|1:2,0:0:0:0:
260,54,182060,2,0,P|230:105|222:163,1,118.999996368408,8|8,3:2|0:0,0:0:0:0:
239,190,182271,1,8,0:0:0:0:
261,212,182342,1,0,3:0:0:0:
358,376,182482,2,0,L|339:132,1,237.999992736817,4|0,1:2|0:0,0:0:0:0:
354,122,183209,6,0,L|366:54,1,42.5,8|8,0:0|0:0,0:0:0:0:
396,41,183342,2,0,L|384:-27,3,42.5,8|8|8|8,0:0|0:0|0:0|0:0,0:0:0:0:
495,142,183609,38,0,B|456:164|456:164|417:236|451:308,1,178.499994552612,6|0,1:2|0:0,0:0:0:0:
484,326,183899,1,0,0:0:0:0:
312,227,184045,2,0,P|267:206|161:212,1,118.999996368408,8|0,0:0|0:0,0:0:0:0:
368,82,184336,2,0,P|339:193|358:292,1,178.499994552612,0|0,1:0|0:0,0:0:0:0:
364,249,184620,2,0,P|366:298|354:325,1,59.4999981842042,8|0,0:0|0:0,0:0:0:0:
228,373,184762,2,0,L|362:386,1,118.999996368408,0|0,0:0|1:0,0:0:0:0:
44,340,185046,2,0,B|123:324|123:324|184:270|184:270|283:246,1,237.999992736817
121,217,185472,5,0,1:0:0:0:
238,278,185614,1,0,1:0:0:0:
121,217,185757,1,8,1:2:0:0:
228,46,185899,2,0,B|235:102|205:133|205:133|148:151|103:119,1,178.499994552612,0|0,1:0|0:0,0:0:0:0:
136,85,186183,1,0,1:0:0:0:
228,250,186325,2,0,P|202:332|206:384,1,118.999996368408,8|0,0:0|0:0,0:0:0:0:
37,252,186610,2,0,P|126:256|227:179,1,178.499994552612,0|0,1:0|1:0,0:0:0:0:
209,193,186896,2,0,P|252:177|297:179,1,59.4999981842042,8|0,1:2|0:0,0:0:0:0:
362,341,187040,38,0,B|271:260|271:260|398:222,1,237.999992736817,0|0,1:0|1:0,0:0:0:0:
458,384,187470,1,8,1:2:0:0:
387,325,187605,1,8,1:2:0:0:
488,150,187741,2,0,L|476:253,1,59.4999981842042,0|2,1:2|1:2,0:0:0:0:
461,190,187864,2,0,L|473:293,1,59.4999981842042,2|2,1:2|1:2,0:0:0:0:
499,42,187988,5,8,1:2:0:0:
499,42,188141,2,0,B|424:51|424:51|373:88|373:88|277:71,1,203.999993774414,4|0,1:2|0:0,0:0:0:0:
150,105,188600,2,0,L|175:-20,1,101.999996887207,10|2,1:2|1:2,0:0:0:0:
25,148,188884,2,0,P|125:123|202:138,1,152.999995330811,0|0,1:0|0:0,0:0:0:0:
212,165,189168,1,8,1:2:0:0:
109,40,189310,38,0,L|128:265,1,203.999993774414,0|0,1:0|0:0,0:0:0:0:
211,384,189737,2,0,P|227:298|216:264,1,101.999996887207,8|2,1:2|1:2,0:0:0:0:
91,251,190021,1,0,1:2:0:0:
159,375,190163,1,8,1:2:0:0:
79,300,190306,1,8,1:2:0:0:
274,333,190448,6,0,B|309:365|418:373|418:268|328:286|334:317,1,170,6|0,1:2|3:0,0:0:0:0:
332,285,190881,2,0,L|343:393,1,85,8|0,1:2|3:0,0:0:0:0:
468,235,191171,2,0,L|457:343,1,85,8|0,1:2|3:0,0:0:0:0:
344,113,191455,1,8,0:0:0:0:
512,113,191597,38,0,B|339:107|442:198|228:175,1,272,6|0,1:2|3:0,0:0:0:0:
55,214,192023,2,0,P|83:158|86:67,1,136,10|2,0:2|3:2,0:0:0:0:
167,269,192307,1,8,1:2:0:0:
57,301,192449,1,0,0:0:0:0:
102,289,192520,1,8,2:2:0:0:
149,293,192592,1,8,2:2:0:0:
191,313,192663,1,8,2:2:0:0:
220,349,192734,5,14,3:2:0:0:
238,354,193018,1,0,3:0:0:0:
380,274,193149,38,0,L|522:295,1,118.999996368408,12|0,0:0|0:0,0:0:0:0:
258,143,193433,2,0,L|116:164,1,118.999996368408,8|0,1:2|1:0,0:0:0:0:
361,239,193717,1,8,1:2:0:0:
429,24,193859,2,0,L|418:157,1,118.999996368408,0|8,3:0|1:2,0:0:0:0:
297,295,194144,1,0,1:0:0:0:
127,131,194286,2,0,L|-15:152,1,118.999996368408,8|0,1:2|3:0,0:0:0:0:
9,148,194499,1,0,3:0:0:0:
9,148,194570,5,8,1:2:0:0:
123,181,194712,1,0,1:0:0:0:
236,213,194855,1,8,1:2:0:0:
161,339,194997,2,0,L|149:201,1,118.999996368408,0|0,1:0|0:0,0:0:0:0:
210,44,195281,1,0,3:0:0:0:
210,44,195352,1,0,0:0:0:0:
210,44,195423,1,8,1:2:0:0:
76,123,195565,1,0,1:0:0:0:
195,74,195708,2,0,L|344:98,1,118.999996368408,8|0,1:2|0:0,0:0:0:0:
484,177,195992,1,8,1:2:0:0:
327,124,196134,38,0,P|371:100|412:25,1,118.999996368408,4|0,1:0|0:0,0:0:0:0:
274,276,196419,2,0,P|316:302|402:300,1,118.999996368408,8|0,1:2|3:0,0:0:0:0:
99,236,196703,1,8,1:2:0:0:
200,172,196845,2,0,L|190:103,2,59.4999981842042,0|0|0,3:0|3:0|3:0,0:0:0:0:
246,288,197132,1,8,0:0:0:0:
20,317,197275,6,0,B|59:346|124:337|124:337|186:291|266:336,1,237.999992736817,4|0,1:2|3:0,0:0:0:0:
404,277,197706,2,0,P|362:356|359:406,1,118.999996368408,8|0,0:0|3:0,0:0:0:0:
487,154,197993,2,0,P|397:157|352:179,1,118.999996368408,8|0,0:0|3:0,0:0:0:0:
253,42,198276,1,8,0:0:0:0:
512,53,198418,38,0,B|381:43|438:102|254:76,1,237.999992736817,4|8,1:2|0:0,0:0:0:0:
238,71,198773,1,8,0:0:0:0:
211,40,198844,2,0,P|219:107|198:174,1,118.999996368408,8|0,0:0|3:0,0:0:0:0:
99,275,199127,1,2,3:2:0:0:
83,201,199269,1,0,0:0:0:0:
71,127,199411,1,8,3:3:0:0:
134,0,199553,1,14,1:2:0:0:
256,360,200702,6,0,L|256:90,1,237.999992736817,6|8,1:2|0:0,0:0:0:0:
145,260,201112,2,0,P|95:231|12:225,1,118.999996368408,8|0,0:0|3:0,0:0:0:0:
209,209,201386,1,8,0:0:0:0:
329,310,201523,1,8,0:0:0:0:
480,265,201660,1,8,0:0:0:0:
366,273,201797,1,14,0:0:0:0:
375,286,202532,38,0,L|390:208,1,42.5,8|8,0:0|0:0,0:0:0:0:
287,201,202671,2,0,L|272:123,1,42.5,8|8,0:0|0:0,0:0:0:0:
341,68,202811,1,8,0:0:0:0:
348,55,202880,1,8,0:0:0:0:
356,43,202950,6,0,B|358:117|358:117|384:164|384:164|365:245,1,203.999993774414,4|0,0:1|0:0,0:0:0:0:
487,341,203383,2,0,L|472:219,1,101.999996887207,10|0,0:0|0:0,0:0:0:0:
285,143,203673,1,0,3:0:0:0:
346,272,203815,1,2,0:0:0:0:
346,272,203886,1,2,0:0:0:0:
346,272,203957,2,0,L|221:295,1,101.999996887207,10|4,0:0|3:2,0:0:0:0:
11,171,204241,2,0,P|49:217|64:265,1,101.999996887207,0|0,0:2|3:0,0:0:0:0:
221,115,204525,2,0,P|202:174|173:221,1,101.999996887207,10|0,0:0|0:0,0:0:0:0:
0,215,204809,1,0,3:0:0:0:
133,348,204951,2,0,B|126:245|181:284|161:159,1,178.499994552612,0|0,3:0|0:0,0:0:0:0:
183,128,205236,38,0,B|39:162|39:162|94:189,1,203.999993774414,4|0,3:2|3:0,0:0:0:0:
20,305,205662,2,0,L|144:275,1,101.999996887207,10|0,0:0|0:0,0:0:0:0:
334,292,205947,1,0,3:0:0:0:
229,334,206089,2,0,L|221:393,2,50.9999984436036,0|2|10,3:0|0:0|0:0,0:0:0:0:
320,315,206373,1,0,3:0:0:0:
416,202,206515,2,0,P|479:219|532:255,1,101.999996887207,2|0,0:0|3:0,0:0:0:0:
245,232,206802,2,0,P|182:215|129:179,1,101.999996887207,10|2,0:0|0:0,0:0:0:0:
330,288,207089,2,0,L|337:194,1,50.9999984436036,10|0,0:2|0:0,0:0:0:0:
423,122,207232,1,10,0:2:0:0:
368,34,207376,1,10,0:2:0:0:
444,82,207519,6,0,B|383:86|383:86|343:113|343:113|232:108,1,203.999993774414,6|0,3:2|3:0,0:0:0:0:
110,20,207945,2,0,L|125:154,1,101.999996887207,10|0,0:0|0:0,0:0:0:0:
55,324,208229,1,0,3:0:0:0:
176,237,208371,1,0,3:0:0:0:
176,237,208442,1,2,0:0:0:0:
176,236,208514,2,0,L|74:222,1,101.999996887207,10|0,0:0|0:2,0:0:0:0:
260,321,208798,2,0,P|310:328|375:304,1,101.999996887207,6|0,3:2|3:0,0:0:0:0:
342,106,209082,2,0,P|360:152|414:197,1,101.999996887207,10|0,0:0|0:0,0:0:0:0:
322,296,209367,1,0,3:0:0:0:
477,229,209509,2,0,B|473:225|469:221|371:217|414:264|285:252,1,178.499994552612,0|0,3:0|0:0,0:0:0:0:
304,260,209793,38,0,B|339:350|339:350|463:382,1,203.999993774414,4|0,3:2|3:0,0:0:0:0:
512,254,210214,2,0,L|387:272,1,101.999996887207,8|0,1:2|0:0,0:0:0:0:
383,74,210496,1,8,3:2:0:0:
338,171,210637,2,0,L|273:158,2,50.9999984436036,0|0|10,3:2|3:2|0:0,0:0:0:0:
406,102,210918,1,12,3:2:0:0:
311,31,211062,1,10,0:2:0:0:
199,139,211206,1,8,3:2:0:0:
52,78,211350,2,0,P|117:59|170:59,1,101.999996887207,10|10,0:0|0:2,0:0:0:0:
276,195,211639,1,10,0:0:0:0:
235,316,211783,1,10,0:0:0:0:
221,355,211922,1,10,0:0:0:0:
211,375,212062,6,0,B|198:314|198:314|212:259|212:259|188:138,1,203.999993774414,6|2,1:1|0:0,0:0:0:0:
62,5,212486,2,0,L|49:147,1,101.999996887207,10|0,0:0|0:0,0:0:0:0:
90,302,212769,1,0,3:0:0:0:
175,205,212910,1,2,0:0:0:0:
175,205,212981,1,2,0:0:0:0:
175,205,213052,2,0,L|313:232,1,101.999996887207,10|4,0:0|3:2,0:0:0:0:
429,139,213335,2,0,P|429:85|398:26,1,101.999996887207,0|0,0:0|3:0,0:0:0:0:
410,303,213618,2,0,P|456:276|492:219,1,101.999996887207,10|0,0:0|1:0,0:0:0:0:
334,142,213901,1,0,3:0:0:0:
504,215,214042,2,0,B|404:209|449:265|328:249,1,178.499994552612,0|0,3:0|0:0,0:0:0:0:
294,287,214325,38,0,B|246:127|246:127|309:174,1,203.999993774414,4|0,3:1|3:0,0:0:0:0:
443,100,214757,2,0,L|430:224,1,101.999996887207,10|0,0:0|0:0,0:0:0:0:
340,2,215045,1,0,3:0:0:0:
225,85,215190,1,2,3:2:0:0:
225,85,215260,1,2,0:0:0:0:
225,85,215331,2,0,L|111:76,1,101.999996887207,10|0,0:0|3:0,0:0:0:0:
52,214,215614,2,0,P|76:272|81:320,1,101.999996887207,6|8,1:2|0:2,0:0:0:0:
191,383,215826,1,0,0:0:0:0:
176,369,215897,2,0,P|200:311|205:263,1,101.999996887207,10|2,0:0|0:0,0:0:0:0:
76,111,216180,1,10,0:2:0:0:
241,194,216318,1,10,3:2:0:0:
351,148,216456,1,10,0:2:0:0:
277,206,216594,6,0,B|345:198|345:198|397:227|397:227|493:218,1,203.999993774414,6|0,3:2|3:0,0:0:0:0:
482,198,216949,1,0,0:0:0:0:
483,176,217020,2,0,P|502:228|497:338,1,127.5,10|0,0:0|0:0,0:0:0:0:
495,318,217304,1,0,3:0:0:0:
349,303,217446,2,0,L|296:285,2,42.5,0|0|10,3:0|0:0|0:0,0:0:0:0:
418,384,217731,1,0,3:0:0:0:
262,321,217869,2,0,P|279:259|272:200,1,101.999996887207,6|0,0:2|3:0,0:0:0:0:
105,282,218146,2,0,P|59:236|5:212,1,101.999996887207,10|0,0:0|0:0,0:0:0:0:
26,219,218355,1,0,0:0:0:0:
26,219,218424,1,0,3:0:0:0:
142,242,218568,1,8,3:2:0:0:
221,253,218713,1,10,3:0:0:0:
113,374,218858,38,0,B|104:323|104:323|119:271|119:271|99:146,1,203.999993774414,4|0,3:1|3:0,0:0:0:0:
27,1,219290,2,0,L|9:121,1,101.999996887207,8|0,0:0|3:0,0:0:0:0:
189,159,219578,1,8,0:0:0:0:
131,76,219723,1,0,3:0:0:0:
131,76,219795,1,0,0:0:0:0:
131,76,219867,1,8,0:0:0:0:
216,141,220018,1,6,3:2:0:0:
370,97,220170,2,0,P|431:85|492:99,1,101.999996887207,2|2,0:0|0:0,0:0:0:0:
233,230,220440,2,0,P|172:242|111:228,1,101.999996887207,14|2,2:2|0:0,0:0:0:0:
372,355,220724,1,14,2:2:0:0:
346,247,220866,1,14,0:0:0:0:
374,204,220935,1,8,0:0:0:0:
374,152,221005,1,8,0:0:0:0:
360,103,221075,1,0,0:0:0:0:
320,70,221145,1,6,0:0:0:0:
336,52,222282,5,6,1:2:0:0:
367,348,222566,1,6,1:2:0:0:
367,348,222708,2,0,L|378:250,1,85,8|0,0:0|1:0,0:0:0:0:
327,193,222922,1,0,1:0:0:0:
319,184,222993,2,0,L|313:127,1,42.5,0|0,0:0|3:0,0:0:0:0:
415,151,223144,2,0,L|421:94,1,42.5,0|0,3:0|3:0,0:0:0:0:
366,38,223296,1,8,0:0:0:0:
503,98,223419,37,12,1:2:0:0:
283,127,223703,1,0,1:0:0:0:
283,127,223845,2,0,B|220:151|220:151|98:85,1,170,12|8,0:0|3:0,0:0:0:0:
231,3,224304,1,0,1:0:0:0:
229,15,224369,1,0,1:0:0:0:
227,27,224434,1,8,0:0:0:0:
112,57,224565,5,12,0:0:0:0:
145,290,224849,1,12,0:0:0:0:
3,213,224991,2,0,L|95:223,1,85,0|0,0:0|3:0,0:0:0:0:
177,326,225275,1,8,0:0:0:0:
301,306,225418,1,8,3:2:0:0:
425,286,225560,1,0,1:0:0:0:
341,278,225702,37,14,1:2:0:0:
333,286,227559,5,8,3:2:0:0:
175,187,227699,1,8,1:2:0:0:
175,187,227840,1,8,1:2:0:0:
263,16,227980,1,6,3:2:0:0:
