osu file format v14

[General]
AudioFilename: audio.mp3
AudioLeadIn: 0
PreviewTime:76
Countdown: 0
SampleSet: Normal
StackLeniency: 0.7
Mode: 1
LetterboxInBreaks: 0
WidescreenStoryboard: 1

[Editor]
DistanceSpacing: 0.3
BeatDivisor: 4
GridSize: 32
TimelineZoom: 1.2

[Metadata]
Title:Chug Jug With You (Short Ver.)
TitleUnicode:Chug Jug With You (Short Ver.)
Artist:suzie
ArtistUnicode:suzie
Creator:Hivie
Version:Futsuu
Source:
Tags:fortnite number one victory royale feat. Hatsune Miku kanye west estelle vocaloid english novelty american boy leviathan chinjireta スーズィー R&B rhythm and blues pop parody
BeatmapID:2895075
BeatmapSetID:1403609

[Difficulty]
HPDrainRate:8
CircleSize:2
OverallDifficulty:4
ApproachRate:9
SliderMultiplier:1.4
SliderTickRate:1

[Events]
//Background and Video events
0,0,"hachune miku.png",0,70
Video,90,"v.mp4"
//Break Periods
//Storyboard Layer 0 (Background)
//Storyboard Layer 1 (Fail)
//Storyboard Layer 2 (Pass)
//Storyboard Layer 3 (Foreground)
//Storyboard Layer 4 (Overlay)
//Storyboard Sound Samples

[TimingPoints]
712,508.474576271186,4,1,0,50,1,0
16983,-100,4,1,0,50,0,1
30966,-100,4,1,0,50,0,0

[HitObjects]
256,96,712,5,4,0:0:0:0:
256,192,1220,1,8,0:0:0:0:
256,192,1474,1,0,0:0:0:0:
256,192,1728,1,8,0:0:0:0:
256,192,1983,1,0,0:0:0:0:
256,192,2237,1,0,0:0:0:0:
256,192,2745,1,0,0:0:0:0:
256,192,3000,1,8,0:0:0:0:
256,192,3254,1,8,0:0:0:0:
256,192,3762,1,8,0:0:0:0:
256,192,4525,1,0,0:0:0:0:
256,192,4779,1,0,0:0:0:0:
256,192,5288,1,8,0:0:0:0:
256,192,5796,1,0,0:0:0:0:
256,192,6050,1,8,0:0:0:0:
256,192,6305,1,0,0:0:0:0:
256,192,6813,1,0,0:0:0:0:
256,192,7067,1,0,0:0:0:0:
256,192,7322,1,8,0:0:0:0:
256,192,7576,1,8,0:0:0:0:
256,192,7830,1,0,0:0:0:0:
256,192,8339,1,8,0:0:0:0:
256,192,8847,1,0,0:0:0:0:
256,192,9356,1,8,0:0:0:0:
256,192,10118,1,0,0:0:0:0:
256,192,10373,1,8,0:0:0:0:
256,192,10881,1,8,0:0:0:0:
256,192,11389,1,8,0:0:0:0:
256,192,11644,1,0,0:0:0:0:
256,192,11898,1,8,0:0:0:0:
256,192,12152,1,0,0:0:0:0:
256,192,12406,1,8,0:0:0:0:
256,192,12915,1,0,0:0:0:0:
256,192,13423,1,8,0:0:0:0:
256,192,13678,1,0,0:0:0:0:
256,192,13932,1,8,0:0:0:0:
256,192,14440,1,8,0:0:0:0:
256,192,15966,1,0,0:0:0:0:
256,96,16983,5,4,0:0:0:0:
256,192,17491,1,0,0:0:0:0:
256,192,18000,1,8,0:0:0:0:
256,192,18254,1,8,0:0:0:0:
256,192,18508,1,0,0:0:0:0:
256,192,18762,1,0,0:0:0:0:
256,192,19017,1,8,0:0:0:0:
256,192,19525,1,0,0:0:0:0:
256,192,20034,1,0,0:0:0:0:
256,192,21050,1,0,0:0:0:0:
256,192,21559,1,0,0:0:0:0:
256,192,21813,1,8,0:0:0:0:
256,192,22067,1,8,0:0:0:0:
256,192,22576,1,0,0:0:0:0:
256,192,22830,1,0,0:0:0:0:
256,192,23084,1,8,0:0:0:0:
256,192,23593,1,0,0:0:0:0:
256,192,24101,1,8,0:0:0:0:
256,192,25118,1,8,0:0:0:0:
256,192,25373,1,0,0:0:0:0:
256,192,25627,1,8,0:0:0:0:
256,192,26135,1,0,0:0:0:0:
256,192,26644,1,8,0:0:0:0:
256,192,27152,1,0,0:0:0:0:
256,192,27406,1,8,0:0:0:0:
256,192,27661,1,0,0:0:0:0:
256,192,28169,1,0,0:0:0:0:
256,192,28678,1,8,0:0:0:0:
256,192,29186,1,0,0:0:0:0:
256,192,29695,1,0,0:0:0:0:
256,192,29949,1,8,0:0:0:0:
256,192,30203,1,8,0:0:0:0:
256,192,30711,1,8,0:0:0:0:
256,192,30966,1,0,0:0:0:0:
256,192,31220,1,0,0:0:0:0:
256,192,32237,1,8,0:0:0:0:
