osu file format v14

[General]
AudioFilename: audio.mp3
AudioLeadIn: 0
PreviewTime: 140729
Countdown: 0
SampleSet: Soft
StackLeniency: 0.7
Mode: 0
LetterboxInBreaks: 0
WidescreenStoryboard: 1

[Editor]
Bookmarks: 1155,29092,66911,91638,103274,141092,161456,176002,205092,231274,249810
DistanceSpacing: 1.5
BeatDivisor: 4
GridSize: 16
TimelineZoom: 1.5

[Metadata]
Title:World is Mine
TitleUnicode:ワールドイズマイン
Artist:supercell feat. Hatsune Miku
ArtistUnicode:supercell feat. 初音ミク
Creator:Fsjallink
Version:chnoodl01's Insane
Source:
Tags:emilia chaser01 resahc koldnoodl japanese pop ryo ryo(supercell) project diva vocaloid arcade future tone mega mix 2nd mirai f megamix 39's
BeatmapID:3798685
BeatmapSetID:1784338

[Difficulty]
HPDrainRate:4.5
CircleSize:3.8
OverallDifficulty:7.5
ApproachRate:8.5
SliderMultiplier:1.8
SliderTickRate:1

[Events]
//Background and Video events
0,0,"90909901_p02.png",0,0
//Break Periods
2,12702,16547
2,176202,179872
//Storyboard Layer 0 (Background)
//Storyboard Layer 1 (Fail)
//Storyboard Layer 2 (Pass)
//Storyboard Layer 3 (Foreground)
//Storyboard Layer 4 (Overlay)
//Storyboard Sound Samples

[TimingPoints]
-299,363.636363636364,4,2,0,40,1,0
1155,-200,4,2,0,40,0,0
6973,-200,4,2,0,50,0,0
9880,408.163265306122,4,2,0,50,1,0
9880,-200,4,2,0,50,0,0
10288,400,4,2,0,50,1,0
10288,-200,4,2,0,50,0,0
10688,405.405405405405,4,2,0,55,1,0
10688,-200,4,2,0,55,0,0
11498,504.201680672269,4,2,0,55,1,0
11498,-200,4,2,0,55,0,0
12002,500,4,2,0,55,1,0
12002,-200,4,2,0,55,0,0
12502,-200,4,2,0,60,0,0
16002,363.636363636364,4,2,0,100,1,0
16547,-100,4,2,0,20,0,0
17456,-100,4,2,0,70,0,0
22729,-333.333333333333,4,2,0,70,0,0
23274,-100,4,2,0,70,0,0
29274,-111.111111111111,4,2,0,60,0,0
52365,-111.111111111111,4,2,0,50,0,0
64002,-111.111111111111,4,2,0,75,0,0
66547,-111.111111111111,4,2,0,60,0,0
66911,-86.9565217391304,4,2,0,70,0,0
91638,-100,4,2,0,70,0,0
103274,-111.111111111111,4,2,0,60,0,0
114911,-250,4,2,0,60,0,0
115638,-111.111111111111,4,2,0,60,0,0
126547,-111.111111111111,4,2,0,50,0,0
134547,-500,4,2,0,50,0,0
135274,-111.111111111111,4,2,0,50,0,0
138183,-111.111111111111,4,2,0,75,0,0
140729,-111.111111111111,4,2,0,60,0,0
141092,-86.9565217391304,4,2,0,70,0,0
161638,-200,4,2,0,70,0,0
163456,-100,4,2,0,70,0,0
165092,-117.647058823529,4,2,0,60,0,0
181638,-117.647058823529,4,2,0,50,0,0
186183,-83.3333333333333,4,2,0,70,0,0
187638,-117.647058823529,4,2,0,55,0,0
195456,-117.647058823529,4,2,0,65,0,0
197820,-117.647058823529,4,2,0,70,0,0
198547,-117.647058823529,4,2,0,75,0,0
199274,-117.647058823529,4,2,0,50,0,0
201638,-250,4,2,0,50,0,0
202183,-100,4,2,0,75,0,0
204729,-100,4,2,0,60,0,0
205092,-90.9090909090909,4,2,0,70,0,0
231638,-100,4,2,0,70,0,0
237092,400,4,2,0,70,1,0
238692,461.538461538462,4,2,0,70,1,0
239153,451.127819548872,4,2,0,70,1,0
239604,530.973451327434,4,2,0,70,1,0
240134,882.35294117647,4,2,0,70,1,0
241016,468.75,4,2,0,70,1,0
242891,504.201680672269,4,2,0,60,1,0
243017,-100,4,2,0,30,0,0
243395,524.017467248908,4,2,0,30,1,0
243657,422.535211267606,4,2,0,30,1,0
243868,512.820512820513,4,2,0,30,1,0
244124,547.945205479452,4,2,0,30,1,0
244671,603.015075376884,4,2,0,30,1,0
245274,689.655172413793,4,2,0,30,1,0
245583,535.714285714286,4,2,0,30,1,0
245850,574.162679425837,4,2,0,30,1,0
246137,401.33779264214,4,2,0,30,1,0
246337,370.37037037037,4,2,0,30,1,0
246892,368.098159509202,4,2,0,30,1,0
248364,497.92531120332,4,2,0,30,1,0
249359,451.127819548872,4,2,0,60,1,0

[Colours]
Combo1 : 199,216,203
Combo2 : 122,235,187

[HitObjects]
0,272,1155,6,2,L|56:264,3,45,2|0|0|0,1:0|0:0|0:0|0:0,1:0:0:0:
146,328,1882,2,0,L|101:321,3,45,2|0|0|0,0:3|0:0|0:3|0:0,0:0:0:0:
230,310,2610,6,0,L|240:357,1,45,0|0,1:0|0:0,0:0:0:0:
337,340,2973,2,0,L|327:387,1,45,0|0,1:0|0:0,0:0:0:0:
282,235,3337,6,0,L|272:188,1,45,2|0,0:0|0:0,0:0:0:0:
169,205,3700,2,0,L|179:158,1,45,2|0,0:0|0:0,0:0:0:0:
221,73,4064,6,0,L|268:62,3,45,2|0|2|0,1:2|0:0|0:0|0:0,0:0:0:0:
153,27,4791,2,0,L|106:16,3,45,10|0|2|0,0:0|0:0|0:0|0:0,0:0:0:0:
360,12,5519,6,0,L|416:24,1,45,2|0,0:1|0:0,0:0:0:0:
441,88,5882,2,0,L|481:112,1,45,0|0,1:0|0:0,0:0:0:0:
473,188,6246,2,0,L|511:230,1,45,8|0,0:0|0:0,0:0:0:0:
496,298,6610,1,2,0:0:0:0:
496,298,6973,6,2,L|509:359,3,45,2|0|0|0,1:0|0:0|0:0|0:0,1:0:0:0:
407,384,7701,2,0,L|416:339,3,45,2|0|2|0,0:3|0:0|0:0|0:0,0:0:0:0:
330,279,8428,6,0,L|315:224,1,45,2|0,1:2|0:0,0:0:0:0:
379,126,8791,2,0,L|330:164,1,45,2|0,1:2|0:0,0:0:0:0:
222,150,9155,2,0,L|272:181,3,45,8|0|2|0,0:0|0:0|0:3|0:0,0:0:0:0:
148,95,9880,6,0,L|86:88,1,45,2|0,1:2|0:0,0:0:0:0:
83,54,10288,2,0,L|20:47,1,45,2|2,0:3|0:0,0:0:0:0:
38,176,10688,6,0,L|93:165,1,45,8|0,0:0|0:0,0:0:0:0:
119,196,11093,2,0,L|178:183,1,45,2|2,0:3|0:3,0:0:0:0:
286,237,11498,6,0,L|294:285,1,45,2|0,0:0|0:0,0:0:0:0:
264,292,12002,2,0,L|273:341,1,45,0|2,1:0|0:3,0:0:0:0:
256,356,12502,1,4,0:0:0:0:
209,384,17456,6,0,B|189:340|189:340|192:296,1,90,4|8,1:2|1:3,0:0:0:0:
364,194,17820,2,0,B|393:258|393:258|388:323,1,135,8|0,1:3|0:0,0:0:0:0:
315,304,18183,2,2,B|409:321|376:361|504:372,1,180,12|2,1:2|0:3,0:1:0:0:
512,216,18729,6,0,P|471:225|441:260,1,90,0|0,1:0|0:0,0:0:0:0:
506,296,19092,1,0,1:0:0:0:
481,144,19274,2,0,L|464:31,1,90,0|0,1:0|0:0,0:0:0:0:
212,201,19638,6,0,L|232:40,1,135,8|0,1:2|0:0,0:0:0:0:
291,19,20002,2,0,P|351:40|365:179,1,180,2|4,1:0|0:0,0:0:0:0:
214,301,20547,5,8,1:3:0:0:
214,301,20729,2,0,P|157:278|141:232,1,90,8|0,1:3|0:0,0:0:0:0:
0,330,21092,2,2,B|102:340|52:362|181:374,1,180,12|2,1:2|0:3,0:1:0:0:
322,305,21638,2,0,B|320:255|320:255|293:208,1,90,0|0,1:0|0:0,0:0:0:0:
244,295,22002,1,0,1:0:0:0:
380,384,22183,2,0,L|532:355,1,135,0|0,1:0|0:0,0:0:0:0:
512,358,22547,6,0,L|504:304,1,45,10|0,0:0|0:0,0:0:0:0:
371,192,22729,2,2,L|380:121,1,67.4999979400635,2|0,1:0|0:0,0:1:0:0:
379,125,23274,6,0,P|441:147|478:194,1,90,4|8,1:2|1:3,0:0:0:0:
338,280,23638,2,0,P|276:258|227:186,1,135,8|0,1:3|0:0,0:0:0:0:
233,205,24002,2,2,L|260:7,1,180,12|2,1:2|0:3,0:1:0:0:
68,139,24547,6,0,L|49:47,1,90,0|0,1:0|0:0,0:0:0:0:
0,182,24911,1,0,1:0:0:0:
134,86,25092,2,0,P|191:95|233:153,1,90,0|0,1:0|0:0,0:0:0:0:
236,362,25456,6,0,P|142:321|116:260,1,135,10|0,1:2|0:0,0:0:0:0:
200,268,25820,2,0,L|388:309,1,180,2|2,1:2|1:2,0:0:0:0:
508,239,26365,5,2,0:0:0:0:
434,207,26547,1,0,1:0:0:0:
301,85,26729,5,12,0:0:0:0:
377,27,26911,1,0,1:0:0:0:
473,52,27092,1,8,0:0:0:0:
325,167,27274,6,0,L|211:187,1,90,4|8,1:2|0:3,0:0:0:0:
25,165,27638,5,4,1:2:0:0:
113,181,27820,1,8,0:3:0:0:
180,115,28002,1,8,0:3:0:0:
23,72,28183,5,8,0:3:0:0:
0,263,28365,2,0,L|22:377,1,90,4|4,0:3|0:3,0:0:0:0:
167,382,28729,5,4,0:3:0:0:
322,304,28911,1,4,0:3:0:0:
192,207,29092,1,4,0:2:0:0:
232,302,29274,6,0,L|320:284,1,80.9999975280763,2|8,0:0|0:0,0:0:0:0:
404,125,29638,1,2,0:2:0:0:
465,227,29820,2,0,L|302:197,1,161.999995056153,0|8,1:2|0:2,0:0:0:0:
232,124,30365,2,0,P|235:74|256:39,1,80.9999975280763,2|0,0:0|1:2,0:0:0:0:
322,113,30729,1,0,1:2:0:0:
197,211,30911,2,0,P|153:181|152:66,1,161.999995056153,8|2,0:2|0:3,0:0:0:0:
144,80,31638,6,0,B|167:159|100:159|130:250,1,161.999995056153,10|0,0:2|1:2,0:0:0:0:
195,323,32183,1,0,1:2:0:0:
215,222,32365,1,8,0:2:0:0:
61,317,32547,2,0,P|126:360|203:342,1,161.999995056153,2|0,0:0|1:2,0:0:0:0:
297,371,33092,2,0,L|283:273,1,80.9999975280763,10|0,0:2|0:0,0:0:0:0:
451,230,33456,1,2,1:2:0:0:
372,307,33638,1,0,1:2:0:0:
276,179,33820,1,8,0:2:0:0:
386,148,34002,5,2,1:2:0:0:
386,148,34365,5,2,1:2:0:0:
386,148,34729,5,4,0:3:0:0:
321,85,34911,6,0,B|231:67|255:122|160:102,1,161.999995056153,2|8,1:0|0:0,0:0:0:0:
101,176,35456,1,2,3:2:0:0:
101,176,35547,1,0,3:0:0:0:
101,176,35638,1,0,1:0:0:0:
83,59,35820,2,0,P|128:20|162:14,1,80.9999975280763,2|8,1:2|0:0,0:0:0:0:
160,246,36183,6,0,P|93:262|11:193,1,161.999995056153,2|0,0:3|1:0,0:0:0:0:
103,177,36729,1,8,0:0:0:0:
253,224,36911,2,0,P|241:294|212:329,1,80.9999975280763,2|2,1:3|0:3,0:0:0:0:
195,150,37274,2,0,P|262:134|344:203,1,161.999995056153,0|2,1:0|0:0,0:0:0:0:
441,306,37820,6,2,P|446:265|456:226,1,80.9999975280763,4|0,1:2|0:0,0:1:0:0:
351,104,38183,2,0,P|345:144|335:183,1,80.9999975280763,0|2,1:0|0:0,0:0:0:0:
215,328,38547,2,0,P|220:287|230:248,1,80.9999975280763,4|2,1:2|0:3,0:0:0:0:
125,126,38911,2,0,P|119:166|109:205,1,80.9999975280763,8|2,0:0|0:3,0:0:0:0:
6,309,39274,5,4,1:2:0:0:
107,283,39456,1,2,3:2:0:0:
107,283,39547,1,0,3:0:0:0:
107,283,39638,1,8,0:0:0:0:
143,380,39820,1,4,1:3:0:0:
358,305,40183,1,4,1:3:0:0:
201,157,40547,1,4,1:3:0:0:
240,303,40729,6,0,P|248:247|261:200,1,80.9999975280763,4|2,1:2|0:0,0:0:0:0:
393,110,41092,2,0,P|386:171|365:294,1,161.999995056153,2|2,0:1|0:3,0:0:0:0:
451,363,41638,1,0,1:0:0:0:
507,261,41820,1,8,0:2:0:0:
348,367,42002,1,0,1:0:0:0:
348,367,42183,6,0,P|296:357|245:350,1,80.9999975280763,2|0,0:3|1:0,0:0:0:0:
204,247,42547,2,0,P|152:237|101:230,1,80.9999975280763,8|2,0:2|0:3,0:0:0:0:
27,282,42911,1,2,1:3:0:0:
110,330,43092,1,0,1:0:0:0:
110,330,43183,1,0,1:0:0:0:
110,330,43274,1,8,0:2:0:0:
56,114,43456,1,2,0:3:0:0:
143,159,43638,6,0,P|151:109|163:67,1,80.9999975280763,4|0,1:2|1:0,0:0:0:0:
289,26,44002,1,8,0:2:0:0:
236,135,44183,1,2,0:0:0:0:
236,135,44365,2,0,P|284:124|323:118,1,80.9999975280763,0|0,1:0|1:0,0:0:0:0:
486,223,44729,2,0,P|438:212|399:206,1,80.9999975280763,8|0,0:2|1:0,0:0:0:0:
396,199,45002,1,0,3:0:0:0:
386,191,45092,2,0,L|404:102,1,80.9999975280763,0|0,3:0|1:0,0:0:0:0:
280,296,45456,2,0,L|262:207,1,80.9999975280763,10|0,0:2|1:0,0:0:0:0:
235,66,45820,5,2,0:0:0:0:
235,66,46002,5,0,1:0:0:0:
235,66,46183,5,2,0:0:0:0:
235,66,46365,5,2,1:0:0:0:
156,123,46547,6,0,L|61:109,1,80.9999975280763,6|0,1:2|1:0,0:0:0:0:
120,257,46911,2,0,P|188:276|275:217,1,161.999995056153,8|0,0:2|1:0,0:0:0:0:
183,190,47456,1,0,1:0:0:0:
254,352,47638,1,8,0:2:0:0:
329,298,47820,5,0,1:0:0:0:
329,298,47911,1,0,3:0:0:0:
329,298,48002,2,0,P|383:288|427:282,1,80.9999975280763,2|0,3:0|1:0,0:0:0:0:
492,189,48365,2,0,P|438:179|394:173,1,80.9999975280763,8|0,0:2|1:0,0:0:0:0:
287,86,48729,2,0,P|341:76|385:70,1,80.9999975280763,2|0,0:0|1:0,0:0:0:0:
456,15,49092,1,8,0:2:0:0:
318,185,49274,5,2,3:2:0:0:
318,185,49365,1,0,3:0:0:0:
318,185,49456,1,4,1:2:0:0:
200,119,49638,1,2,0:3:0:0:
151,262,49820,2,0,P|93:254|43:250,1,80.9999975280763,8|2,1:2|0:3,0:0:0:0:
97,79,50183,6,0,P|108:141|117:184,1,80.9999975280763,6|2,1:2|0:3,0:0:0:0:
151,349,50547,1,8,1:2:0:0:
233,250,50729,1,2,0:0:0:0:
355,384,50911,6,0,P|344:322|335:279,1,80.9999975280763,4|0,1:2|1:0,0:0:0:0:
425,138,51274,1,8,0:0:0:0:
487,210,51456,1,0,1:0:0:0:
487,210,51547,1,0,3:0:0:0:
487,210,51638,2,0,L|438:226,3,40.4999987640381,8|8|8|0,3:2|0:3|0:3|3:0,0:0:0:0:
425,242,52002,2,0,P|378:231|293:214,1,121.499996292114,4|0,0:3|0:0,0:0:0:0:
291,201,52365,6,0,P|301:160|312:107,1,80.9999975280763,4|0,1:2|0:0,0:0:0:0:
131,292,52729,2,2,P|145:226|171:120,1,161.999995056153,4|8,1:2|0:3,0:1:0:0:
242,25,53274,1,8,0:3:0:0:
242,25,53820,6,0,P|183:38|132:44,1,80.9999975280763,4|0,1:2|0:0,0:0:0:0:
384,128,54183,2,2,P|331:137|216:162,1,161.999995056153,4|8,1:2|0:2,0:1:0:0:
103,118,54729,1,4,0:3:0:0:
154,250,54911,2,0,P|200:278|281:242,1,121.499996292114,2|0,1:0|0:0,0:0:0:0:
282,255,55274,6,0,P|273:311|269:360,1,80.9999975280763,4|0,1:2|1:0,0:0:0:0:
68,288,55638,1,8,0:0:0:0:
154,250,55820,2,0,P|168:206|107:103,1,161.999995056153,2|0,0:0|1:0,0:0:0:0:
46,49,56365,2,0,P|41:95|34:143,1,80.9999975280763,8|2,0:0|0:0,0:0:0:0:
147,169,56729,5,0,1:0:0:0:
214,97,56911,1,0,1:0:0:0:
302,146,57092,1,8,0:0:0:0:
302,146,57274,1,8,0:3:0:0:
371,70,57456,1,0,1:0:0:0:
371,70,57547,1,0,3:0:0:0:
371,70,57638,1,0,1:0:0:0:
454,123,57820,1,8,0:0:0:0:
386,206,58002,1,4,0:3:0:0:
432,305,58183,6,0,P|476:297|526:290,1,80.9999975280763,4|0,1:2|0:0,0:0:0:0:
256,235,58547,2,2,P|316:225|423:210,1,161.999995056153,0|8,1:0|0:3,0:1:0:0:
338,328,59092,1,8,0:3:0:0:
338,328,59456,5,8,0:3:0:0:
152,262,59638,2,0,P|155:221|166:182,1,80.9999975280763,2|0,1:2|3:0,0:0:0:0:
236,328,60002,2,2,P|245:247|261:168,1,161.999995056153,0|8,1:0|0:3,0:1:0:0:
303,69,60547,1,8,0:3:0:0:
303,69,60638,1,0,3:0:0:0:
303,69,60729,2,0,P|243:81|201:88,1,80.9999975280763,2|4,3:2|0:3,0:0:0:0:
101,17,61092,6,0,P|88:87|81:195,1,161.999995056153,6|10,1:2|0:2,0:0:0:0:
282,341,61820,2,0,P|295:271|302:163,1,161.999995056153,6|10,1:2|0:0,0:0:0:0:
240,119,62365,1,0,0:0:0:0:
240,119,62547,2,0,P|194:132|149:136,1,80.9999975280763,6|0,1:2|0:0,0:0:0:0:
183,46,62911,1,8,0:0:0:0:
183,46,63092,1,0,3:0:0:0:
214,223,63274,1,0,1:0:0:0:
46,152,63456,1,0,1:0:0:0:
143,133,63638,2,0,P|136:190|117:305,1,161.999995056153,10|4,0:0|1:3,0:0:0:0:
334,270,64183,1,4,1:3:0:0:
161,225,64365,5,4,1:3:0:0:
161,225,64729,5,4,1:3:0:0:
161,225,65092,5,4,1:3:0:0:
354,160,65274,1,4,1:3:0:0:
354,160,65638,5,4,1:3:0:0:
153,97,65820,1,4,1:3:0:0:
153,97,66183,5,4,1:3:0:0:
512,15,66547,5,2,0:1:0:0:
512,15,66911,6,2,L|284:66,1,207.000003948212,4|8,1:2|0:0,0:1:0:0:
179,128,67456,1,2,0:3:0:0:
263,135,67638,1,0,1:2:0:0:
154,54,67820,1,0,1:2:0:0:
121,187,68002,2,0,P|121:238|114:309,1,103.500001974106,8|2,0:2|0:0,0:0:0:0:
379,384,68365,6,0,P|371:313|370:210,1,155.250002961159,0|0,1:2|0:0,0:0:0:0:
369,229,68729,2,0,P|433:249|484:254,1,103.500001974106,8|0,0:2|1:2,0:0:0:0:
206,192,69092,2,0,P|234:244|279:291,1,103.500001974106,2|0,0:0|1:2,0:0:0:0:
94,122,69456,2,0,P|82:179|86:244,1,103.500001974106,8|2,0:2|0:3,0:0:0:0:
68,236,69729,5,2,0:3:0:0:
63,243,69820,1,6,1:2:0:0:
34,336,70002,1,0,1:2:0:0:
138,308,70183,1,10,0:2:0:0:
41,238,70365,5,0,1:2:0:0:
41,238,70456,1,0,3:0:0:0:
41,238,70547,1,2,1:2:0:0:
46,371,70729,1,0,1:2:0:0:
167,303,70911,1,10,0:2:0:0:
3,218,71092,5,0,3:0:0:0:
202,292,71274,2,0,B|287:289|277:329|395:306,1,155.250002961159,2|0,1:0|3:0,0:0:0:0:
354,312,71638,2,0,B|362:259|362:259|339:209,1,103.500001974106,8|0,1:2|3:0,0:0:0:0:
460,175,72002,2,0,P|446:124|438:69,1,103.500001974106,0|0,1:2|3:0,0:0:0:0:
225,203,72365,2,0,P|244:143|250:99,1,103.500001974106,2|8,1:2|0:2,0:0:0:0:
336,192,72638,5,0,3:0:0:0:
348,198,72729,2,2,P|403:270|534:268,1,207.000003948212,4|8,1:2|0:0,0:1:0:0:
386,369,73274,1,2,0:3:0:0:
287,341,73456,2,0,P|219:330|182:329,1,103.500001974106,0|0,1:2|1:2,0:0:0:0:
108,243,73820,2,0,P|40:254|3:255,1,103.500001974106,8|0,0:2|3:0,0:0:0:0:
230,171,74183,6,0,P|295:164|358:168,1,103.500001974106,2|0,1:2|1:2,0:0:0:0:
345,172,74456,1,0,3:0:0:0:
349,179,74547,1,10,0:2:0:0:
417,286,74729,1,0,1:2:0:0:
354,351,74911,2,0,B|323:305|323:305|328:245,1,103.500001974106,2|0,0:0|1:2,0:0:0:0:
479,213,75274,2,0,B|510:259|510:259|505:319,1,103.500001974106,8|2,0:2|0:0,0:0:0:0:
234,307,75638,6,0,B|140:289|172:336|32:292,1,155.250002961159,4|0,1:2|0:0,0:0:0:0:
6,330,76002,2,0,P|58:381|103:381,1,103.500001974106,8|2,1:2|0:0,0:0:0:0:
30,163,76365,6,0,B|117:124|96:177|223:102,1,155.250002961159,4|0,1:2|0:0,0:0:0:0:
234,74,76729,2,0,P|175:45|109:85,1,103.500001974106,10|2,0:2|0:3,0:0:0:0:
399,127,77092,5,4,1:2:0:0:
406,127,77182,1,0,3:0:0:0:
414,129,77274,1,0,3:0:0:0:
421,130,77365,1,0,3:0:0:0:
429,131,77455,1,0,1:2:0:0:
436,133,77546,1,0,3:0:0:0:
444,135,77638,2,0,L|460:209,1,51.7500009870529,0|0,3:0|3:0,0:0:0:0:
370,239,77820,5,2,1:2:0:0:
377,239,77910,1,0,3:0:0:0:
385,241,78001,1,0,3:0:0:0:
392,242,78092,1,0,3:0:0:0:
400,243,78183,1,2,1:2:0:0:
408,244,78547,6,2,P|321:247|242:365,1,207.000003948212,4|8,1:2|0:0,0:1:0:0:
158,384,79092,1,2,0:3:0:0:
327,349,79274,2,0,L|437:334,1,103.500001974106,0|0,1:2|1:2,0:0:0:0:
161,243,79638,2,0,L|51:258,1,103.500001974106,8|2,0:0|0:0,0:0:0:0:
0,130,80002,5,0,1:2:0:0:
79,57,80183,1,0,1:2:0:0:
177,101,80365,1,8,0:0:0:0:
99,142,80547,5,0,1:2:0:0:
99,142,80638,1,0,3:0:0:0:
99,142,80729,1,2,0:0:0:0:
269,229,80911,1,0,1:2:0:0:
450,136,81092,2,0,P|433:78|426:25,1,103.500001974106,8|2,0:0|0:0,0:0:0:0:
258,226,81456,6,0,P|269:291|293:383,1,155.250002961159,6|0,1:2|0:0,0:0:0:0:
291,377,81820,1,10,0:0:0:0:
291,377,82002,1,0,1:2:0:0:
390,317,82183,1,2,1:2:0:0:
390,317,82365,1,0,1:2:0:0:
494,362,82547,1,10,0:0:0:0:
494,362,82729,1,0,3:0:0:0:
235,313,82911,6,0,P|146:295|7:272,1,207.000003948212,2|8,1:1|1:2,0:0:0:0:
31,275,83456,1,0,3:0:0:0:
150,167,83638,2,0,B|170:216|170:216|156:295,1,103.500001974106,2|0,1:2|3:0,0:0:0:0:
12,133,84002,2,0,B|-8:84|-8:84|6:5,1,103.500001974106,2|0,1:2|3:0,0:0:0:0:
9,28,84274,1,0,3:0:0:0:
17,24,84365,6,2,B|125:27|97:100|246:101,1,207.000003948212,4|8,1:2|0:0,0:1:0:0:
346,165,84911,1,2,0:3:0:0:
326,90,85092,1,0,1:2:0:0:
280,205,85274,1,0,1:2:0:0:
422,176,85456,2,0,P|478:152|527:108,1,103.500001974106,8|2,0:0|0:0,0:0:0:0:
299,288,85820,6,0,P|367:305|424:352,1,103.500001974106,0|0,1:2|1:2,0:0:0:0:
391,324,86092,1,0,3:0:0:0:
385,327,86183,1,8,0:0:0:0:
319,372,86365,1,0,1:2:0:0:
240,373,86547,1,0,1:0:0:0:
165,347,86729,1,0,1:2:0:0:
86,337,86911,1,8,0:0:0:0:
13,361,87092,1,2,0:0:0:0:
103,213,87274,6,0,P|97:143|86:16,1,155.250002961159,4|0,1:2|0:0,0:0:0:0:
152,10,87638,2,0,P|223:24|245:94,1,103.500001974106,0|2,1:2|0:0,0:0:0:0:
246,163,88002,6,0,B|324:195|314:155|396:198,1,155.250002961159,4|0,1:2|0:0,0:0:0:0:
474,205,88365,2,0,P|467:282|463:331,1,103.500001974106,8|8,0:0|0:0,0:0:0:0:
327,384,88729,6,0,P|318:312|309:267,1,103.500001974106,4|0,1:2|3:0,0:0:0:0:
312,281,89002,1,0,3:0:0:0:
312,281,89092,1,0,1:2:0:0:
137,286,89274,5,0,3:0:0:0:
137,286,89365,1,0,3:0:0:0:
137,286,89456,2,0,P|142:216|152:169,1,103.500001974106,0|0,1:2|3:0,0:0:0:0:
395,197,89820,6,0,P|383:122|326:1,1,207.000003948212,0|10,1:2|1:1,0:0:0:0:
52,53,91638,5,4,1:2:0:0:
73,162,91820,1,8,1:3:0:0:
95,272,92002,1,8,1:3:0:0:
95,272,92365,6,2,B|191:253|175:304|279:278,1,180,12|2,1:2|0:3,0:1:0:0:
430,318,92911,5,0,1:0:0:0:
409,209,93274,1,0,1:0:0:0:
409,209,93456,1,0,1:0:0:0:
387,99,93820,6,0,B|301:83|333:135|233:108,1,135,8|0,1:2|0:0,0:0:0:0:
255,113,94183,2,0,L|277:-12,1,90,2|0,1:0|0:0,0:0:0:0:
267,25,94729,5,8,1:3:0:0:
267,25,94911,1,8,1:3:0:0:
158,260,95274,6,2,P|220:221|333:247,1,180,12|2,1:2|0:3,0:1:0:0:
403,193,95820,5,0,1:0:0:0:
375,345,96183,1,0,1:0:0:0:
375,345,96365,2,0,L|278:331,1,90,2|0,1:0|0:0,0:0:0:0:
186,373,96729,5,10,0:0:0:0:
209,186,96911,1,2,1:0:0:0:
209,186,97092,2,0,P|225:235|199:285,1,90,2|0,0:0|0:0,0:0:0:0:
72,62,97456,5,4,1:2:0:0:
182,48,97638,1,8,1:3:0:0:
293,35,97820,1,8,1:3:0:0:
293,35,98183,6,2,B|304:132|348:101|354:200,1,180,4|2,1:2|0:3,0:1:0:0:
440,339,98729,5,0,1:0:0:0:
330,353,99092,1,0,1:0:0:0:
330,353,99274,1,0,1:0:0:0:
217,364,99638,6,0,B|182:301|235:303|198:231,1,135,10|0,1:2|0:0,0:0:0:0:
188,217,100001,2,0,L|85:245,1,90,2|0,1:2|0:0,0:0:0:0:
10,67,100365,5,2,1:2:0:0:
90,105,100547,1,2,0:0:0:0:
10,67,100729,1,0,1:0:0:0:
229,51,100911,1,12,0:0:0:0:
221,140,101092,1,0,1:0:0:0:
148,9,101274,1,8,0:0:0:0:
319,120,101456,1,4,1:2:0:0:
127,192,101638,1,8,0:3:0:0:
392,303,101820,6,0,L|376:250,3,45,4|0|8|0,1:2|3:0|0:3|3:0,0:0:0:0:
302,273,102183,2,0,L|320:342,1,45,8|0,0:3|3:0,0:0:0:0:
223,289,102365,2,0,L|241:358,1,45,8|0,0:3|3:0,0:0:0:0:
161,372,102547,5,4,0:3:0:0:
151,367,102638,2,0,L|128:273,1,90,4|0,0:3|0:0,0:0:0:0:
98,261,102911,6,0,B|111:188|131:214|142:129,1,135,4|0,0:3|0:0,0:0:0:0:
156,58,103274,1,4,1:2:0:0:
156,58,103638,5,8,0:0:0:0:
286,117,103820,1,2,0:0:0:0:
423,70,104002,2,0,P|353:44|283:6,1,121.499996292114,0|0,1:2|0:0,0:0:0:0:
311,22,104365,1,8,0:2:0:0:
407,155,104547,2,0,P|477:151|521:136,1,80.9999975280763,2|0,0:0|1:2,0:0:0:0:
487,148,104911,1,0,1:2:0:0:
349,233,105092,2,0,P|367:280|420:357,1,121.499996292114,10|0,0:2|0:0,0:0:0:0:
405,339,105456,1,0,3:0:0:0:
271,302,105638,2,0,P|267:350|273:398,1,80.9999975280763,2|8,1:2|0:2,0:0:0:0:
178,322,106002,5,0,3:0:0:0:
360,229,106183,2,0,P|365:152|347:60,1,161.999995056153,2|8,1:2|0:2,0:0:0:0:
126,12,106729,2,0,P|121:89|139:181,1,161.999995056153,2|0,0:0|1:2,0:0:0:0:
286,144,107274,2,0,L|184:128,1,80.9999975280763,10|0,0:2|3:0,0:0:0:0:
0,298,107638,2,0,L|80:310,1,80.9999975280763,0|0,1:2|1:2,0:0:0:0:
283,292,108002,5,8,0:2:0:0:
460,378,108183,1,2,1:2:0:0:
460,378,108547,5,2,1:2:0:0:
460,378,108911,5,2,1:2:0:0:
360,264,109092,6,0,P|397:224|505:225,1,161.999995056153,6|8,1:2|0:2,0:0:0:0:
430,298,109638,1,2,3:2:0:0:
299,212,109820,1,0,1:2:0:0:
345,80,110002,2,0,P|356:21|367:-12,1,80.9999975280763,2|8,1:1|0:2,0:0:0:0:
237,154,110365,5,0,1:2:0:0:
237,154,110456,1,0,3:0:0:0:
237,154,110547,1,2,3:2:0:0:
112,180,110729,1,0,1:2:0:0:
15,115,110911,1,8,0:2:0:0:
125,28,111092,6,0,P|135:66|147:142,1,80.9999975280763,2|0,1:2|0:0,0:0:0:0:
50,273,111456,2,0,P|39:234|32:194,1,80.9999975280763,2|8,1:2|0:2,0:0:0:0:
175,223,111820,1,0,3:0:0:0:
0,337,112002,6,0,P|54:376|141:364,1,121.499996292114,4|0,1:2|0:0,0:0:0:0:
160,320,112365,2,0,P|210:310|266:308,1,80.9999975280763,0|2,1:2|0:0,0:0:0:0:
499,194,112729,6,0,P|445:233|358:221,1,121.499996292114,4|0,1:2|0:0,0:0:0:0:
339,177,113092,2,0,P|289:167|233:165,1,80.9999975280763,0|2,1:2|3:2,0:0:0:0:
0,69,113456,6,0,P|54:108|141:96,1,121.499996292114,4|0,1:2|3:0,0:0:0:0:
160,56,113820,2,0,P|223:45|236:44,1,40.4999987640381,0|0,1:2|0:0,0:0:0:0:
368,10,114002,5,2,1:0:0:0:
381,8,114365,5,4,1:3:0:0:
394,7,114729,5,4,1:3:0:0:
254,148,114911,2,0,P|252:187|253:231,1,72,4|2,1:2|0:1,0:0:0:0:
252,219,116183,2,0,B|337:241|315:264|417:276,1,161.999995056153,12|2,0:2|1:2,0:0:0:0:
214,298,116729,6,0,P|171:316|132:322,1,80.9999975280763,8|0,0:2|3:0,0:0:0:0:
0,272,117092,1,0,1:2:0:0:
119,218,117274,1,0,1:2:0:0:
119,218,117365,1,0,1:2:0:0:
119,218,117456,1,8,0:2:0:0:
2,170,117638,1,0,1:2:0:0:
116,123,117820,1,2,3:2:0:0:
41,97,118002,1,0,1:2:0:0:
251,45,118183,6,0,P|324:39|365:33,1,80.9999975280763,8|0,0:0|3:0,0:0:0:0:
449,100,118547,1,0,1:2:0:0:
449,100,118729,1,0,1:2:0:0:
298,152,118911,6,0,P|368:130|406:115,1,80.9999975280763,8|0,0:0|1:2,0:0:0:0:
449,100,119183,1,0,3:0:0:0:
449,100,119274,2,0,P|491:153|477:263,1,161.999995056153,2|8,3:2|0:0,0:0:0:0:
351,265,119820,5,0,1:2:0:0:
164,321,120002,1,10,0:0:0:0:
98,363,120183,1,0,1:2:0:0:
98,363,120729,6,0,B|214:373|145:384|277:387,1,161.999995056153,4|8,1:2|0:0,0:0:0:0:
341,341,121274,1,0,3:0:0:0:
341,341,121365,1,0,3:0:0:0:
341,341,121456,2,0,P|331:284|329:237,1,80.9999975280763,2|0,1:2|1:2,0:0:0:0:
450,275,121820,2,0,P|440:218|438:171,1,80.9999975280763,10|0,0:0|1:2,0:0:0:0:
218,226,122183,6,0,P|138:220|77:146,1,161.999995056153,2|10,3:2|0:0,0:0:0:0:
145,89,122729,1,0,1:2:0:0:
145,89,122820,1,0,3:0:0:0:
145,89,122911,1,2,3:2:0:0:
209,139,123092,1,0,1:2:0:0:
69,123,123274,1,8,0:0:0:0:
165,13,123456,1,2,3:2:0:0:
320,23,123638,6,0,B|391:39|359:58|463:69,1,121.499996292114,4|0,1:2|0:0,0:0:0:0:
480,123,124002,2,0,P|486:170|493:214,1,80.9999975280763,0|2,1:2|0:0,0:0:0:0:
218,146,124365,6,0,B|147:162|179:181|75:192,1,121.499996292114,4|0,1:2|0:0,0:0:0:0:
63,252,124729,2,0,P|57:299|50:343,1,80.9999975280763,2|0,1:2|0:0,0:0:0:0:
272,384,125092,5,8,1:2:0:0:
269,355,125182,1,0,3:0:0:0:
266,327,125273,1,0,3:0:0:0:
264,299,125364,1,0,3:0:0:0:
263,270,125456,2,0,L|260:210,3,40.4999987640381,8|8|8|8,3:0|3:0|3:0|3:0,0:0:0:0:
329,192,125820,2,0,L|326:151,3,40.4999987640381,4|4|4|4,3:0|3:0|3:0|3:0,0:0:0:0:
395,115,126183,1,8,1:2:0:0:
82,267,126547,6,0,P|25:278|-22:283,1,80.9999975280763,4|0,1:2|0:0,0:0:0:0:
131,335,126911,2,2,P|191:342|291:366,1,161.999995056153,4|8,1:2|0:3,0:1:0:0:
289,365,127456,1,8,0:3:0:0:
456,134,127820,1,0,3:0:0:0:
392,200,128001,6,0,P|335:211|288:216,1,80.9999975280763,4|0,1:2|0:0,0:0:0:0:
136,135,128365,2,2,P|196:128|296:104,1,161.999995056153,4|8,1:2|0:2,0:1:0:0:
372,119,128911,2,0,B|376:72|376:72|357:38,2,80.9999975280763,4|2|0,0:3|1:0|0:0,0:0:0:0:
234,262,129456,6,0,B|229:308|229:308|248:342,1,80.9999975280763,4|0,1:2|1:0,0:0:0:0:
460,368,129820,2,0,P|422:318|301:322,1,161.999995056153,8|0,0:0|1:0,0:0:0:0:
165,363,130365,2,0,P|115:376|59:393,1,80.9999975280763,0|8,1:0|0:0,0:0:0:0:
245,252,130729,6,0,B|234:192|228:106,1,121.499996292114,2|0,0:0|0:0,0:0:0:0:
229,131,131092,1,0,1:0:0:0:
144,81,131274,1,8,0:0:0:0:
62,162,131456,2,0,L|2:174,2,40.4999987640381,8|0|0,0:3|3:0|1:0,0:0:0:0:
0,45,131820,5,0,1:0:0:0:
147,161,132002,1,8,0:0:0:0:
295,51,132183,2,0,P|343:27|392:-7,1,80.9999975280763,4|0,0:3|1:0,0:0:0:0:
237,220,132547,5,0,3:0:0:0:
237,220,132638,1,0,3:0:0:0:
237,220,132729,2,0,L|232:279,3,40.4999987640381,0|0|0|0,1:0|3:0|3:0|3:0,0:0:0:0:
186,267,133092,2,0,L|181:326,3,40.4999987640381,8|0|0|8,3:0|3:0|3:0|3:0,0:0:0:0:
136,315,133456,2,0,L|131:374,3,40.4999987640381,4|4|4|4,3:0|3:0|3:0|3:0,0:0:0:0:
31,208,133820,6,0,P|83:220|115:260,1,80.9999975280763,4|0,1:2|0:0,0:0:0:0:
379,333,134183,2,0,P|284:360|261:398,1,121.499996292114,4|0,1:2|0:0,0:0:0:0:
264,381,134547,6,2,B|256:346|256:346|258:343|258:343|251:309,1,72,6|6,0:3|1:2,0:1:0:0:
345,160,135456,1,0,0:0:0:0:
512,206,135638,2,0,P|454:226|362:199,1,121.499996292114,10|0,0:2|0:0,0:0:0:0:
345,160,136002,6,0,P|349:97|349:52,1,80.9999975280763,6|0,1:2|0:0,0:0:0:0:
123,99,136365,2,0,P|119:36|119:-9,1,80.9999975280763,10|0,0:0|0:0,0:0:0:0:
226,183,136729,2,0,P|232:232|237:327,1,121.499996292114,6|0,1:2|0:0,0:0:0:0:
236,303,137092,1,8,0:0:0:0:
179,365,137274,1,0,3:0:0:0:
179,365,137365,1,0,3:0:0:0:
179,365,137456,1,0,1:0:0:0:
92,379,137638,1,0,1:0:0:0:
12,358,137820,1,10,0:0:0:0:
512,363,138183,5,4,1:3:0:0:
386,351,138365,1,4,1:3:0:0:
280,277,138547,1,4,1:3:0:0:
237,153,138911,1,4,1:3:0:0:
325,97,139274,5,4,1:3:0:0:
147,189,139456,1,4,1:3:0:0:
137,85,139820,5,4,1:3:0:0:
351,187,140002,1,4,1:3:0:0:
29,185,140365,5,4,1:3:0:0:
452,100,140729,1,2,0:1:0:0:
452,100,141092,6,2,B|352:66|352:66|247:91,1,207.000003948212,4|8,1:2|0:0,0:1:0:0:
161,155,141638,1,2,0:3:0:0:
246,175,141820,1,0,1:2:0:0:
159,70,142002,1,0,1:2:0:0:
102,230,142183,2,0,L|-1:215,1,103.500001974106,8|2,0:2|0:0,0:0:0:0:
66,136,142547,5,0,1:2:0:0:
66,136,142729,1,0,1:2:0:0:
225,279,142911,2,0,P|208:220|223:154,1,103.500001974106,8|0,0:2|1:2,0:0:0:0:
213,179,143183,1,0,3:0:0:0:
213,179,143274,1,2,0:0:0:0:
125,323,143456,1,0,1:2:0:0:
327,214,143638,2,0,P|344:155|329:89,1,103.500001974106,8|0,0:2|1:2,0:0:0:0:
441,57,144002,5,6,1:2:0:0:
452,143,144183,1,0,1:2:0:0:
259,45,144365,5,10,0:2:0:0:
365,0,144547,1,0,1:2:0:0:
349,217,144729,5,2,1:2:0:0:
254,147,144911,1,0,1:2:0:0:
359,116,145092,5,10,0:2:0:0:
359,116,145456,6,0,P|343:174|338:253,1,103.500001974106,2|0,1:0|3:0,0:0:0:0:
273,288,145729,1,0,3:0:0:0:
262,278,145820,2,0,P|247:228|240:177,1,103.500001974106,8|0,1:2|3:0,0:0:0:0:
275,58,146183,5,0,1:2:0:0:
155,143,146365,1,0,3:0:0:0:
55,32,146547,1,2,1:2:0:0:
201,12,146729,5,8,0:2:0:0:
201,12,146820,1,0,3:0:0:0:
201,12,146911,2,2,P|170:200|168:227,1,207.000003948212,4|8,1:2|0:0,0:1:0:0:
97,284,147456,1,2,0:3:0:0:
265,217,147638,2,0,P|280:275|289:349,1,103.500001974106,0|0,1:2|1:2,0:0:0:0:
73,205,148002,2,0,P|11:260|31:341,1,155.250002961159,8|0,0:2|3:0,0:0:0:0:
30,345,148365,6,0,L|145:320,1,103.500001974106,2|0,1:2|1:2,0:0:0:0:
293,366,148729,2,0,L|213:278,1,103.500001974106,10|0,0:2|1:2,0:0:0:0:
180,128,149092,2,0,L|144:240,1,103.500001974106,2|0,0:0|1:2,0:0:0:0:
353,208,149456,2,0,L|388:95,1,103.500001974106,8|2,0:2|3:2,0:0:0:0:
383,109,149729,1,0,3:0:0:0:
383,109,149820,6,0,P|443:149|417:252,1,155.250002961159,4|0,1:2|0:0,0:0:0:0:
452,253,150183,2,0,L|343:235,1,103.500001974106,8|2,1:2|0:0,0:0:0:0:
212,96,150547,2,0,B|176:94|151:114|151:114|109:82|35:91,1,155.250002961159,4|0,1:2|0:0,0:0:0:0:
46,99,150911,2,0,P|42:41|73:4,1,103.500001974106,10|2,0:2|0:3,0:0:0:0:
261,209,151274,5,4,1:2:0:0:
261,209,151365,1,0,0:0:0:0:
261,209,151456,1,0,3:0:0:0:
261,209,151547,1,0,3:0:0:0:
261,209,151638,1,0,1:2:0:0:
261,209,151729,1,0,3:0:0:0:
261,209,151820,1,0,3:0:0:0:
261,209,151911,1,0,3:0:0:0:
261,209,152002,2,0,L|241:362,1,155.250002961159,2|0,1:2|3:0,0:0:0:0:
260,378,152365,2,0,L|364:359,1,103.500001974106,2|0,1:2|3:0,0:0:0:0:
144,252,152729,6,2,L|40:233,1,103.500001974106,4|0,1:2|0:0,0:1:0:0:
95,13,153092,2,0,P|140:68|104:165,1,155.250002961159,8|0,0:0|3:0,0:0:0:0:
113,162,153456,1,0,1:2:0:0:
35,108,153638,1,0,1:2:0:0:
220,52,153820,1,8,0:0:0:0:
197,198,154002,1,2,0:0:0:0:
363,149,154183,6,0,L|468:121,1,103.500001974106,0|0,1:2|1:2,0:0:0:0:
290,265,154547,2,0,L|413:295,1,103.500001974106,8|0,0:0|1:2,0:0:0:0:
401,299,154820,1,0,3:0:0:0:
412,309,154911,1,2,3:2:0:0:
291,175,155092,1,0,1:2:0:0:
186,320,155274,2,0,P|201:256|169:210,1,103.500001974106,8|2,0:0|0:0,0:0:0:0:
13,103,155638,6,0,P|82:153|167:124,1,155.250002961159,6|0,1:2|0:0,0:0:0:0:
162,127,156002,2,0,L|147:9,1,103.500001974106,10|0,0:0|1:2,0:0:0:0:
292,199,156365,2,0,L|307:317,1,103.500001974106,2|0,1:2|1:2,0:0:0:0:
420,161,156729,2,0,L|405:43,1,103.500001974106,10|0,0:0|3:0,0:0:0:0:
281,208,157092,6,0,L|305:404,1,155.250002961159,2|0,1:1|0:0,0:0:0:0:
281,376,157456,2,0,P|207:363|155:355,1,103.500001974106,8|0,1:2|3:0,0:0:0:0:
96,218,157820,1,2,1:2:0:0:
96,218,157911,1,0,3:0:0:0:
96,218,158002,1,0,3:0:0:0:
55,310,158183,1,2,1:2:0:0:
175,167,158365,1,0,3:0:0:0:
112,102,158547,6,2,P|56:118|7:129,1,103.500001974106,4|0,1:2|1:2,0:1:0:0:
252,219,158911,2,0,P|256:132|228:13,1,207.000003948212,8|0,0:0|1:2,0:0:0:0:
154,180,159456,1,0,1:2:0:0:
334,237,159638,1,8,0:0:0:0:
267,113,159820,1,2,3:2:0:0:
187,267,160002,6,0,P|176:328|177:381,1,103.500001974106,0|0,1:2|1:2,0:0:0:0:
405,189,160365,2,0,P|416:250|415:303,1,103.500001974106,8|0,0:0|1:2,0:0:0:0:
414,304,160638,1,0,3:0:0:0:
411,311,160729,1,0,1:0:0:0:
305,247,160911,1,0,1:2:0:0:
263,375,161092,1,8,3:2:0:0:
263,375,161183,1,8,3:0:0:0:
263,375,161274,1,8,0:3:0:0:
424,315,161456,5,4,1:3:0:0:
102,221,161638,2,0,L|20:202,1,67.5,4|0,1:3|0:0,0:0:0:0:
115,208,162002,2,0,L|35:226,1,67.5,4|0,1:3|0:0,0:0:0:0:
119,240,162365,2,0,L|58:209,1,67.5,4|0,1:3|0:0,0:0:0:0:
142,215,162729,2,0,L|73:217,1,67.5,4|0,1:3|0:0,0:0:0:0:
136,251,163092,2,0,L|68:218,1,67.5,4|0,1:3|0:0,0:0:0:0:
167,227,163456,6,0,P|132:238|111:258,1,45,4|0,1:3|0:0,0:0:0:0:
0,365,163638,5,4,1:3:0:0:
101,217,163820,1,0,1:0:0:0:
269,287,164002,2,0,P|281:330|283:398,1,90,4|0,1:3|0:0,0:0:0:0:
53,52,164365,5,6,1:0:0:0:
471,13,165092,1,8,0:0:0:0:
411,95,165274,6,0,P|416:138|430:177,1,76.5000014591217,0|0,1:2|0:0,0:0:0:0:
512,227,165638,2,2,P|444:249|391:344,1,153.000002918243,4|0,1:2|1:2,0:1:0:0:
120,337,166183,2,0,P|190:332|275:401,1,153.000002918243,0|4,1:0|1:2,0:0:0:0:
282,133,166729,2,0,P|294:214|315:293,1,153.000002918243,0|0,1:2|0:0,0:0:0:0:
431,129,167274,5,4,1:2:0:0:
321,21,167456,1,0,1:2:0:0:
153,80,167638,2,0,P|69:56|-10:19,1,153.000002918243,0|12,1:2|0:0,0:0:0:0:
185,162,168183,2,0,P|248:167|286:182,1,76.5000014591217,0|0,1:2|0:0,0:0:0:0:
92,244,168547,6,0,P|55:307|71:405,1,153.000002918243,0|0,1:0|0:0,0:0:0:0:
235,323,169092,2,0,P|271:259|255:161,1,153.000002918243,0|8,1:0|0:3,0:0:0:0:
155,123,169638,2,0,P|111:133|-3:150,1,153.000002918243,4|0,0:3|0:0,0:0:0:0:
204,3,170183,5,4,1:2:0:0:
345,88,170365,1,0,1:2:0:0:
501,48,170547,1,0,1:2:0:0:
501,48,170911,1,12,0:0:0:0:
501,48,171274,2,0,P|492:93|488:154,1,76.5000014591217,0|8,1:0|0:0,0:0:0:0:
389,194,171638,6,0,P|396:243|396:294,1,76.5000014591217,4|0,1:2|0:0,0:0:0:0:
209,384,172002,2,0,P|206:307|212:202,1,153.000002918243,0|12,1:0|0:0,0:0:0:0:
209,231,172729,5,2,3:2:0:0:
294,308,172911,1,0,3:0:0:0:
130,323,173092,2,0,P|93:311|56:269,1,76.5000014591217,4|0,1:2|0:0,0:0:0:0:
0,38,173456,2,0,P|71:57|112:95,1,114.750002188683,0|0,1:2|0:0,0:0:0:0:
102,82,173820,6,0,P|97:131|96:190,1,76.5000014591217,4|0,1:2|0:0,0:0:0:0:
317,37,174183,2,0,P|327:78|333:132,1,76.5000014591217,0|0,1:2|0:0,0:0:0:0:
193,3,174547,6,0,B|199:92|227:69|236:171,1,153.000002918243,4|0,1:2|1:2,0:0:0:0:
327,358,175092,1,2,0:3:0:0:
327,358,175183,1,2,0:3:0:0:
327,358,175274,2,0,B|333:269|361:292|370:190,1,153.000002918243,4|0,1:2|1:2,0:0:0:0:
512,185,175820,1,2,0:3:0:0:
512,185,175911,1,2,0:3:0:0:
512,185,176002,1,4,1:2:0:0:
310,79,180547,6,0,P|237:65|173:104,1,153.000002918243,8|0,0:0|1:0,0:0:0:0:
80,48,181092,6,0,L|61:154,1,76.5000014591217,8|8,1:2|0:3,0:0:0:0:
66,123,181365,1,8,0:3:0:0:
66,123,181456,1,4,0:3:0:0:
51,308,181638,5,4,0:2:0:0:
179,259,182002,1,2,0:2:0:0:
234,315,182183,1,2,0:0:0:0:
260,240,182365,1,2,0:3:0:0:
260,240,182547,2,0,L|420:212,1,153.000002918243,8|2,0:2|0:0,0:0:0:0:
410,213,183274,6,0,L|259:239,1,153.000002918243,0|0,1:2|1:2,0:0:0:0:
200,180,183820,2,0,L|49:153,1,153.000002918243,2|2,0:0|0:0,0:0:0:0:
50,154,184547,5,2,0:0:0:0:
182,100,184911,1,2,0:3:0:0:
233,161,185092,1,2,0:0:0:0:
263,92,185274,1,2,0:3:0:0:
263,92,185456,2,0,L|423:64,1,153.000002918243,8|2,0:2|0:0,0:0:0:0:
413,65,186183,6,0,P|388:144|369:223,1,161.999995056153,8|0,1:3|0:0,0:0:0:0:
287,291,186547,2,0,P|272:201|249:134,1,161.999995056153,8|0,1:3|0:0,0:0:0:0:
178,43,186911,2,0,P|153:122|134:201,1,161.999995056153,8|0,1:3|0:0,0:0:0:0:
117,276,187274,1,8,1:3:0:0:
117,276,187638,6,0,P|179:266|271:251,1,153.000002918243,6|2,1:2|1:2,0:0:0:0:
269,252,188365,2,0,P|281:179|302:97,1,153.000002918243,2|2,1:2|1:2,0:0:0:0:
300,102,189092,6,0,P|289:62|274:1,2,76.5000014591217,0|2|0,1:2|0:3|1:2,0:0:0:0:
439,222,189638,1,2,0:0:0:0:
439,222,190002,2,0,P|444:163|383:204,1,153.000002918243,10|2,0:0|0:3,0:0:0:0:
425,322,190547,6,0,L|331:303,1,76.5000014591217,0|2,1:2|0:3,0:0:0:0:
334,324,190911,2,0,L|240:305,1,76.5000014591217,0|2,1:2|0:0,0:0:0:0:
244,329,191274,2,0,L|150:310,1,76.5000014591217,8|2,1:2|0:3,0:0:0:0:
153,331,191638,2,0,L|59:312,1,76.5000014591217,0|2,1:2|0:0,0:0:0:0:
18,363,192002,5,0,1:2:0:0:
0,287,192183,1,2,0:0:0:0:
64,243,192365,1,0,1:2:0:0:
28,172,192547,2,0,P|37:109|120:87,1,153.000002918243,2|2,0:0|0:0,0:0:0:0:
166,142,193092,1,0,1:2:0:0:
423,21,193456,6,0,L|405:121,1,76.5000014591217,4|2,1:2|0:0,0:0:0:0:
343,154,193820,2,0,L|357:198,3,38.2500007295609,2|0|0|0,3:2|3:2|3:2|3:2,0:0:0:0:
386,218,194183,2,0,L|372:262,3,38.2500007295609,2|0|0|0,1:2|3:2|3:2|3:2,0:0:0:0:
345,290,194547,1,2,1:2:0:0:
316,295,194637,1,0,3:2:0:0:
288,300,194728,1,2,3:2:0:0:
260,305,194819,1,0,3:2:0:0:
232,310,194911,6,0,L|214:210,1,76.5000014591217,2|0,1:2|3:2,0:0:0:0:
152,177,195275,2,0,L|166:133,3,38.2500007295609,2|0|2|0,1:2|3:2|3:2|3:2,0:0:0:0:
195,113,195638,2,0,L|181:69,3,38.2500007295609,0|0|2|0,1:2|3:2|3:2|3:2,0:0:0:0:
154,41,196002,1,0,1:2:0:0:
125,35,196092,1,0,3:2:0:0:
97,30,196183,1,2,3:2:0:0:
69,25,196274,1,0,3:2:0:0:
41,20,196365,5,2,1:2:0:0:
61,144,196547,1,2,3:2:0:0:
81,268,196729,2,0,L|135:251,3,38.2500007295609,0|0|0|0,1:2|3:2|3:2|3:2,0:0:0:0:
145,226,197092,6,0,P|223:240|327:262,1,153.000002918243,2|2,1:2|1:2,0:0:0:0:
391,329,197638,5,0,3:2:0:0:
391,329,197729,1,0,3:2:0:0:
391,329,197820,2,0,L|381:278,3,38.2500007295609,2|0|0|0,1:2|3:2|3:2|3:2,0:0:0:0:
468,315,198183,2,0,L|458:253,1,38.2500007295609,2|0,1:2|3:2,0:0:0:0:
409,213,198365,2,0,L|419:162,3,38.2500007295609,2|0|0|0,3:2|3:2|1:2|3:2,0:0:0:0:
332,199,198728,2,0,L|342:137,1,38.2500007295609,2|0,3:2|3:2,0:0:0:0:
391,88,198911,5,0,1:2:0:0:
370,45,199001,1,0,3:2:0:0:
330,21,199092,1,0,3:2:0:0:
283,24,199183,1,0,3:2:0:0:
246,53,199274,1,0,1:2:0:0:
256,192,199365,12,2,201456,0:2:0:0:
322,148,201638,6,0,P|315:190|308:228,1,72,0|2,0:0|0:2,0:0:0:0:
162,324,202183,5,4,1:3:0:0:
352,384,202365,1,4,1:3:0:0:
136,335,202547,1,4,1:3:0:0:
386,226,202911,5,4,1:3:0:0:
144,173,203274,5,4,1:3:0:0:
386,226,203456,1,4,1:3:0:0:
380,79,203820,5,4,1:3:0:0:
144,173,204002,1,4,1:3:0:0:
247,12,204365,5,4,1:3:0:0:
266,377,204729,5,2,1:0:0:0:
266,377,205092,6,2,P|271:296|284:172,1,198.000006042481,4|8,1:2|0:0,0:1:0:0:
76,92,205638,1,2,0:3:0:0:
0,172,205820,1,0,1:2:0:0:
110,186,206002,1,0,1:2:0:0:
182,96,206183,2,0,P|175:34|164:-7,1,99.0000030212403,8|2,0:2|0:0,0:0:0:0:
227,196,206547,5,0,1:2:0:0:
213,273,206729,1,0,1:2:0:0:
340,35,206911,5,8,0:2:0:0:
332,125,207092,1,0,1:2:0:0:
415,167,207274,2,0,P|459:177|528:184,1,99.0000030212403,2|0,0:0|1:2,0:0:0:0:
339,265,207638,2,0,L|227:295,1,99.0000030212403,8|2,0:2|0:3,0:0:0:0:
0,384,208002,6,0,P|45:324|131:331,1,148.50000453186,6|0,1:2|0:0,0:0:0:0:
113,321,208365,2,0,P|97:247|80:207,1,99.0000030212403,10|0,0:2|1:2,0:0:0:0:
250,289,208729,2,0,P|263:331|278:408,1,99.0000030212403,2|0,1:2|1:2,0:0:0:0:
323,174,209092,2,0,P|371:144|482:115,1,148.50000453186,10|0,0:2|3:0,0:0:0:0:
458,117,209456,5,2,1:0:0:0:
244,68,209638,1,0,3:0:0:0:
0,129,209820,5,8,1:2:0:0:
104,155,210002,1,0,3:0:0:0:
169,107,210183,6,0,P|159:58|136:15,1,99.0000030212403,0|0,1:2|3:0,0:0:0:0:
43,212,210547,2,0,P|52:260|75:303,1,99.0000030212403,2|8,1:2|0:2,0:0:0:0:
153,306,210820,5,0,3:0:0:0:
162,301,210911,2,2,B|277:324|219:356|371:373,1,198.000006042481,4|8,1:2|0:0,0:1:0:0:
512,300,211456,1,2,0:3:0:0:
453,230,211638,1,0,1:2:0:0:
370,263,211820,1,0,1:2:0:0:
242,144,212002,5,8,0:2:0:0:
262,20,212183,1,0,3:0:0:0:
42,122,212365,5,2,1:2:0:0:
57,207,212547,1,0,1:2:0:0:
144,216,212729,2,0,P|194:223|254:241,1,99.0000030212403,10|0,0:2|1:2,0:0:0:0:
241,237,213002,1,0,0:0:0:0:
241,237,213092,1,2,0:0:0:0:
269,321,213274,1,0,1:2:0:0:
204,383,213456,1,8,0:2:0:0:
176,299,213638,1,2,0:0:0:0:
363,149,213820,6,0,P|446:175|488:233,1,148.50000453186,4|0,1:2|0:0,0:0:0:0:
419,262,214183,2,0,L|396:362,1,99.0000030212403,8|2,1:2|0:0,0:0:0:0:
191,106,214547,6,0,P|104:108|47:152,1,148.50000453186,4|0,1:2|0:0,0:0:0:0:
98,205,214910,2,0,L|120:305,1,99.0000030212403,10|2,0:2|0:3,0:0:0:0:
255,330,215274,5,4,1:2:0:0:
254,316,215364,1,0,3:0:0:0:
253,304,215455,1,0,3:0:0:0:
253,292,215546,1,0,3:0:0:0:
252,280,215637,1,0,1:2:0:0:
252,268,215728,1,0,3:0:0:0:
253,256,215820,2,0,L|253:202,1,49.5000015106202,0|0,3:0|3:0,0:0:0:0:
255,81,216002,5,2,1:2:0:0:
255,71,216092,1,0,3:0:0:0:
255,64,216183,1,0,3:0:0:0:
255,55,216274,1,0,3:0:0:0:
255,47,216365,1,2,1:2:0:0:
255,38,216729,6,2,B|371:59|316:89|440:109,1,198.000006042481,4|8,1:2|0:0,0:1:0:0:
228,156,217274,2,0,B|112:177|167:207|43:227,1,198.000006042481,2|0,0:3|1:2,0:0:0:0:
257,246,217820,2,0,P|315:259|387:266,1,99.0000030212403,8|2,0:0|0:0,0:0:0:0:
464,252,218183,5,0,1:2:0:0:
509,351,218365,1,0,1:2:0:0:
401,336,218547,1,8,0:0:0:0:
485,238,218729,5,0,1:2:0:0:
485,238,218820,1,0,3:0:0:0:
485,238,218911,1,2,0:0:0:0:
512,376,219092,1,0,1:2:0:0:
377,331,219274,1,8,0:0:0:0:
225,360,219456,1,2,0:0:0:0:
53,315,219638,2,0,P|56:242|58:134,1,148.50000453186,2|0,1:2|0:0,0:0:0:0:
57,166,220002,6,0,P|46:114|26:68,1,99.0000030212403,10|0,0:0|1:2,0:0:0:0:
212,114,220365,2,0,P|223:166|243:212,1,99.0000030212403,2|0,1:2|1:2,0:0:0:0:
384,99,220729,2,0,P|372:46|352:0,1,99.0000030212403,10|0,0:0|3:0,0:0:0:0:
243,236,221092,5,2,1:1:0:0:
392,209,221274,1,0,3:0:0:0:
491,320,221456,2,0,P|439:344|386:352,1,99.0000030212403,8|0,1:2|3:0,0:0:0:0:
398,351,221729,1,0,3:0:0:0:
398,351,221820,1,0,1:2:0:0:
318,321,222002,1,0,3:0:0:0:
256,384,222183,5,0,1:2:0:0:
344,231,222365,1,0,3:0:0:0:
275,70,222547,2,2,P|197:26|75:40,1,198.000006042481,4|8,1:2|0:0,0:1:0:0:
186,151,223092,1,2,0:3:0:0:
343,114,223274,2,0,P|362:51|357:12,1,99.0000030212403,0|0,1:2|1:2,0:0:0:0:
512,164,223638,2,0,L|388:191,1,99.0000030212403,8|2,0:0|0:0,0:0:0:0:
229,219,224002,5,0,1:2:0:0:
354,257,224183,1,0,1:2:0:0:
217,321,224365,5,8,0:0:0:0:
116,353,224547,1,0,1:2:0:0:
0,256,224729,5,0,1:0:0:0:
76,279,224911,1,0,1:2:0:0:
126,357,225092,2,0,P|181:366|240:372,1,99.0000030212403,8|2,0:0|0:0,0:0:0:0:
512,315,225456,6,0,P|436:307|341:288,1,148.50000453186,4|0,1:2|0:0,0:0:0:0:
293,317,225820,2,0,P|291:261|324:207,1,99.0000030212403,0|2,1:2|0:0,0:0:0:0:
0,188,226183,6,0,P|76:180|171:161,1,148.50000453186,4|0,1:2|0:0,0:0:0:0:
219,190,226547,2,0,P|221:134|188:80,1,99.0000030212403,8|8,0:0|0:0,0:0:0:0:
369,2,226911,6,0,P|368:53|366:110,1,99.0000030212403,4|0,1:2|3:0,0:0:0:0:
366,100,227183,1,0,3:0:0:0:
366,100,227274,1,0,1:2:0:0:
144,200,227456,5,0,3:0:0:0:
144,200,227547,1,0,3:0:0:0:
144,200,227638,2,0,P|145:251|147:308,1,99.0000030212403,0|0,1:2|3:0,0:0:0:0:
439,187,228002,6,0,P|432:293|431:394,1,198.000006042481,0|10,1:2|1:1,0:0:0:0:
61,90,231274,5,4,1:2:0:0:
196,41,231456,1,8,1:3:0:0:
303,140,231638,1,8,1:3:0:0:
303,140,232002,6,2,P|350:94|286:9,1,180,12|2,1:2|0:3,0:1:0:0:
190,189,232547,5,0,1:0:0:0:
438,229,232911,1,0,1:0:0:0:
438,229,233092,2,0,L|334:212,1,90,0|0,1:0|0:0,0:0:0:0:
105,341,233456,2,0,L|246:314,1,135,8|0,1:2|0:0,0:0:0:0:
253,328,233820,2,0,L|269:224,1,90,2|0,1:0|0:0,0:0:0:0:
280,146,234365,5,8,1:3:0:0:
144,28,234547,2,0,L|128:132,1,90,8|0,1:3|0:0,0:0:0:0:
88,189,234911,6,2,P|169:207|240:129,1,180,12|2,1:2|0:3,0:1:0:0:
261,65,235456,5,0,1:0:0:0:
305,239,235820,1,0,1:0:0:0:
305,239,236002,2,0,L|415:221,1,90,0|0,1:0|0:0,0:0:0:0:
447,163,236365,1,10,0:0:0:0:
366,342,236547,2,2,L|179:309,1,180,2|0,1:0|0:0,0:1:0:0:
97,360,237092,5,4,1:2:0:0:
47,258,237292,1,8,1:3:0:0:
127,174,237492,1,8,1:3:0:0:
127,174,237892,6,2,P|190:191|287:115,1,180,12|2,1:2|0:3,0:1:0:0:
306,57,238492,5,0,1:0:0:0:
471,159,238922,1,0,1:0:0:0:
471,159,239153,2,0,L|449:266,1,90,0|0,1:0|0:0,0:0:0:0:
485,329,239604,6,0,P|416:346|345:251,1,180,4|6,1:2|1:2,0:0:0:0:
256,192,241016,12,4,242891,1:2:0:0:
256,192,243017,12,0,249359,0:0:0:0:
256,192,249810,5,2,0:1:0:0:
