osu file format v14

[General]
AudioFilename: audio.mp3
AudioLeadIn: 0
PreviewTime: 105727
Countdown: 0
SampleSet: None
StackLeniency: 0.2
Mode: 0
LetterboxInBreaks: 0
EpilepsyWarning: 1
WidescreenStoryboard: 1

[Editor]
DistanceSpacing: 1.1
BeatDivisor: 4
GridSize: 4
TimelineZoom: 0.7999998

[Metadata]
Title:Supercell Song Compilation
TitleUnicode:Supercell Song Compilation
Artist:supercell feat. Hatsune Miku
ArtistUnicode:supercell feat.初音ミク
Creator:mcwc2307
Version:SuperAdvanced
Source:Supercell
Tags:
BeatmapID:1852606
BeatmapSetID:886210

[Difficulty]
HPDrainRate:4
CircleSize:3.5
OverallDifficulty:5
ApproachRate:7
SliderMultiplier:1.5
SliderTickRate:2

[Events]
//Background and Video events
0,0,"Cover (2).jpg",0,0
//Break Periods
2,48676,61588
2,90324,105372
2,132654,147672
2,180772,194669
2,225416,244261
2,271418,288266
2,322699,337120
2,369420,384381
//Storyboard Layer 0 (Background)
//Storyboard Layer 1 (Fail)
//Storyboard Layer 2 (Pass)
//Storyboard Layer 3 (Foreground)
//Storyboard Sound Samples

[TimingPoints]
2190.41958041958,428.571428571429,4,2,1,100,1,0
56670,363.636363636364,4,1,2,90,1,0
89033,-100,4,2,1,100,0,0
99000,363.636363636364,4,1,1,90,1,0
109181,-100,4,1,1,90,0,1
120454,-100,4,1,1,90,0,0
120818,-100,4,1,1,90,0,1
132454,-100,4,1,1,90,0,0
141300,363.636363636364,4,1,2,100,1,0
150027,-100,4,1,1,70,0,0
151481,-100,4,1,2,100,0,0
188511,352.941176470588,4,1,1,100,1,0
195569,-100,4,2,1,100,0,0
196981,-100,4,1,1,90,0,0
234190,342.857142857143,4,1,1,100,1,0
245161,-100,4,2,1,70,0,0
247904,-100,4,1,2,80,0,0
258190,-100,4,1,1,70,0,0
258875,-100,4,1,2,80,0,0
278500,333.333333333333,4,1,1,70,1,0
293166,-100,4,2,1,100,0,0
293833,-100,4,1,1,60,0,0
294500,-100,4,1,1,80,0,0
310499,-100,4,1,1,70,0,0
318499,-100,4,1,1,80,0,0
330820,300,4,1,1,80,1,0
340420,-100,4,1,2,80,0,0
347620,-100,4,1,1,70,0,0
350020,-100,4,1,2,80,0,0
354820,-100,4,1,1,90,0,0
359620,-100,4,1,2,90,0,0
366820,-100,4,1,1,90,0,0
382895,681.818181818182,4,2,1,80,1,0
388349,714.285714285714,4,2,1,80,1,0
389063,731.707317073171,4,2,1,80,1,0
391808,659.340659340659,4,2,1,80,1,0
394445,740.740740740741,4,2,1,80,1,0
395185,759.493670886076,4,2,1,80,1,0
398586,689.655172413793,4,2,1,80,1,0
401274,666.666666666667,4,2,1,80,1,0
403940,769.230769230769,4,2,1,80,1,0
407688,750,4,2,1,80,1,0
415188,833.333333333333,4,2,1,80,1,0
416033,967.741935483871,4,2,1,80,1,0
417242,-100,4,2,1,50,0,0

[Colours]
Combo1 : 197,118,164
Combo2 : 96,240,197
Combo3 : 186,241,112
Combo4 : 32,143,181

[HitObjects]
117,60,12476,5,4,0:0:0:0:
108,224,12904,1,4,0:0:0:0:
34,76,13333,2,0,P|107:142|174:124,1,150,8|0,0:0|0:0,0:0:0:0:
232,120,13976,1,8,0:0:0:0:
311,99,14190,6,0,L|435:103,1,75,0|8,0:0|0:0,0:0:0:0:
421,175,14618,2,0,L|510:178,2,75,8|0|8,0:0|0:0|0:0,0:0:0:0:
359,230,15261,1,0,0:0:0:0:
306,293,15476,1,0,0:0:0:0:
151,349,15904,6,0,P|119:285|162:228,1,150,4|0,0:0|0:0,0:0:0:0:
244,239,16547,1,0,0:0:0:0:
306,293,16761,2,0,P|400:312|475:299,1,150,8|0,0:0|0:0,0:0:0:0:
388,153,17618,6,0,P|315:134|241:140,2,150,2|2|8,0:0|0:0|0:0,0:0:0:0:
455,200,18690,1,0,0:0:0:0:
467,118,18904,2,0,P|441:90|402:70,1,75
329,47,19333,6,0,P|248:54|160:77,1,150,2|0,0:0|0:0,0:0:0:0:
106,104,19976,1,0,0:0:0:0:
27,127,20190,2,0,L|27:227,1,75,8|0,0:0|0:0,0:0:0:0:
97,244,20618,2,0,L|97:357,1,75
177,339,21047,6,0,B|242:359|242:359|320:336,2,150,2|2|8,0:0|0:0|0:0,0:0:0:0:
178,173,22333,1,0,0:0:0:0:
299,57,22761,6,0,L|297:216,1,150,2|0,0:0|0:0,0:0:0:0:
374,237,23404,1,0,0:0:0:0:
450,205,23618,2,0,B|468:251|449:283|449:283|482:314|459:367,1,150,8|0,0:0|0:0,0:0:0:0:
307,298,24476,6,0,P|185:295|136:309,1,150,2|2,0:0|0:0,0:0:0:0:
81,329,25118,2,0,P|66:248|69:235,1,75,0|8,0:0|0:0,0:0:0:0:
97,181,25547,2,0,P|100:125|60:24,1,150
13,97,26190,6,0,P|85:112|142:68,1,150,2|0,0:0|0:0,0:0:0:0:
219,37,26833,1,0,0:0:0:0:
289,80,27047,2,0,P|346:124|417:109,1,150,8|0,0:0|0:0,0:0:0:0:
483,59,27690,1,0,0:0:0:0:
492,140,27904,6,0,L|503:309,1,150,2|2,0:0|0:0,0:0:0:0:
431,333,28547,1,0,0:0:0:0:
351,310,28761,2,0,P|295:309|268:320,1,75,8|0,0:0|0:0,0:0:0:0:
198,339,29190,2,0,P|161:348|124:344,1,75
43,358,29618,6,0,L|23:201,1,150,4|0,0:0|0:0,0:0:0:0:
76,145,30261,2,0,L|64:52,2,75,0|8|0,0:0|0:0|0:0,0:0:0:0:
150,180,30904,2,0,P|190:180|243:157,1,75
286,116,31333,6,0,P|390:80|456:85,2,150,2|2|8,0:0|0:0|0:0,0:0:0:0:
297,197,32404,1,0,0:0:0:0:
310,278,32618,2,0,L|326:374,1,75
239,344,33047,6,0,B|161:333|161:333|74:348,1,150,2|0,0:0|0:0,0:0:0:0:
45,275,33690,2,0,P|42:238|50:183,1,75,0|8,0:0|0:0,0:0:0:0:
90,131,34118,2,0,P|93:93|90:56,2,75
160,173,34761,6,0,P|249:172|311:138,2,150,2|2|8,0:0|0:0|0:0,0:0:0:0:
236,27,36047,1,0,0:0:0:0:
376,113,36476,6,0,P|420:192|397:278,1,150,2|0,0:0|0:0,0:0:0:0:
365,315,37118,2,0,L|268:323,1,75,0|8,0:0|0:0,0:0:0:0:
209,301,37547,2,0,L|98:311,2,75
174,225,38190,6,0,B|94:232|94:232|19:203,1,150,2|2,0:0|0:0,0:0:0:0:
75,138,38833,2,0,P|107:85|106:47,1,75,0|8,0:0|0:0,0:0:0:0:
26,63,39261,2,0,P|71:-3|152:14,1,150
201,48,39904,6,0,L|365:50,2,150,2|0|8,0:0|0:0|0:0,0:0:0:0:
282,191,41190,1,0,0:0:0:0:
376,326,41618,6,0,B|460:331|460:331|529:269,2,150,2|2|8,0:0|0:0|0:0,0:0:0:0:
293,321,42690,1,0,0:0:0:0:
211,313,42904,1,0,0:0:0:0:
46,296,43333,5,4,0:0:0:0:
256,41,44190,1,0,0:0:0:0:
465,296,45047,2,0,L|301:298,1,150,8|2,0:0|0:0,0:0:0:0:
243,256,45690,1,8,0:0:0:0:
170,216,45904,2,0,P|109:188|23:243,1,150,2|8,0:0|0:0,0:0:0:0:
256,192,46761,12,0,48476,0:0:0:0:
118,66,62488,5,8,0:0:0:0:
200,67,62670,1,8,0:0:0:0:
282,67,62851,2,0,L|440:66,2,150,8|8|8,0:0|0:0|0:0,0:0:0:0:
255,145,63760,2,0,L|428:144,1,150,0|8,0:0|0:0,0:0:0:0:
454,210,64306,2,0,P|460:269|448:308,1,75,8|0,0:0|0:0,0:0:0:0:
407,350,64670,1,8,0:0:0:0:
288,235,65033,1,0,0:0:0:0:
162,342,65397,6,0,P|65:328|36:278,1,150,4|8,0:0|0:0,0:0:0:0:
87,222,65942,1,0,0:0:0:0:
44,151,66124,2,0,P|46:106|73:66,1,75
129,35,66488,2,0,P|155:68|162:126,1,75,8|0,0:0|0:0,0:0:0:0:
230,147,66851,6,0,P|290:161|325:154,2,75,0|0|8,0:0|0:0|0:0,0:0:0:0:
281,81,67397,1,0,0:0:0:0:
360,103,67579,2,0,P|385:153|318:235,1,150,0|8,0:0|0:0,0:0:0:0:
176,216,68306,6,0,P|151:283|194:341,1,150,4|8,0:0|0:0,0:0:0:0:
277,340,68851,1,8,0:0:0:0:
359,338,69033,2,0,P|439:289|479:214,1,150,0|8,0:0|0:0,0:0:0:0:
304,258,69760,6,0,L|220:261,1,75,8|0,0:0|0:0,0:0:0:0:
170,201,70124,2,0,L|85:204,1,75,8|0,0:0|0:0,0:0:0:0:
39,141,70488,1,8,0:0:0:0:
89,75,70670,1,0,0:0:0:0:
153,23,70851,2,0,L|241:19,1,75,8|0,0:0|0:0,0:0:0:0:
303,54,71215,6,0,P|407:70|463:40,1,150,4|8,0:0|0:0,0:0:0:0:
485,125,71760,1,0,0:0:0:0:
444,197,71942,2,0,P|431:249|445:289,1,75
362,309,72306,6,0,P|304:311|214:332,1,150,8|0,0:0|0:0,0:0:0:0:
72,247,73033,2,0,P|130:245|220:224,1,150,8|0,0:0|0:0,0:0:0:0:
295,191,73579,1,0,0:0:0:0:
315,111,73760,2,0,P|306:47|297:29,1,75,8|0,0:0|0:0,0:0:0:0:
218,38,74124,6,0,L|115:29,2,75,4|0|8,0:0|0:0|0:0,0:0:0:0:
245,116,74670,1,0,0:0:0:0:
287,186,74851,2,0,P|320:198|379:162,1,75,4|0,0:0|0:0,0:0:0:0:
428,145,75215,2,0,P|467:140|528:162,1,75,8|0,0:0|0:0,0:0:0:0:
496,230,75579,6,0,P|422:308|360:316,1,150,4|8,0:0|0:0,0:0:0:0:
302,316,76124,1,0,0:0:0:0:
220,304,76306,2,0,P|163:299|45:320,1,150,8|8,0:0|0:0,0:0:0:0:
31,151,77033,6,0,P|88:156|206:135,1,150,4|8,0:0|0:0,0:0:0:0:
249,99,77579,2,0,P|257:40|250:12,2,75
319,141,78124,1,8,0:0:0:0:
401,150,78306,1,0,0:0:0:0:
474,111,78488,6,0,P|476:188|421:230,1,150,0|8,0:0|0:0,0:0:0:0:
340,234,79033,1,0,0:0:0:0:
257,228,79215,2,0,L|151:233,1,75
100,213,79579,2,0,L|6:217,1,75,8|0,0:0|0:0,0:0:0:0:
38,297,79942,6,0,B|54:374|54:374|144:372,1,150,4|8,0:0|0:0,0:0:0:0:
206,352,80488,1,8,0:0:0:0:
287,364,80670,2,0,B|373:364|373:364|375:323|432:301,1,150,0|8,0:0|0:0,0:0:0:0:
471,160,81397,6,0,L|497:322,2,150,8|8|8,0:0|0:0|0:0,0:0:0:0:
449,80,82306,1,0,0:0:0:0:
367,95,82488,2,0,P|304:97|266:88,1,75,8|0,0:0|0:0,0:0:0:0:
217,61,82851,6,0,P|140:49|46:74,1,150,4|8,0:0|0:0,0:0:0:0:
33,137,83397,2,0,L|46:212,1,75
125,233,83760,2,0,L|143:335,2,75,0|8|0,0:0|0:0|0:0,0:0:0:0:
192,184,84306,6,0,B|270:184|270:184|328:262,1,150,0|8,0:0|0:0,0:0:0:0:
364,305,84851,1,0,0:0:0:0:
434,261,85033,2,0,B|498:218|498:218|499:128,1,150,0|8,0:0|0:0,0:0:0:0:
497,62,85579,1,0,0:0:0:0:
426,104,85760,6,0,L|328:102,1,75,4|0,0:0|0:0,0:0:0:0:
280,58,86124,2,0,L|188:55,1,75,8|0,0:0|0:0,0:0:0:0:
122,57,86488,2,0,P|84:129|136:184,1,150,4|8,0:0|0:0,0:0:0:0:
201,181,87033,1,0,0:0:0:0:
283,185,87215,6,0,P|321:257|269:312,1,150,4|8,0:0|0:0,0:0:0:0:
206,328,87760,1,0,0:0:0:0:
124,339,87942,2,0,P|56:331|119:180,1,300,8|4,0:0|0:0,0:0:0:0:
327,54,89215,6,0,L|422:53,1,75
440,126,89579,2,0,P|457:192|444:218,1,75
412,265,89942,1,0,0:0:0:0:
335,234,90124,1,4,0:0:0:0:
173,143,106272,6,0,L|262:143,1,75,8|8,0:0|0:0,0:0:0:0:
41,280,107000,2,0,L|125:282,1,75,8|8,0:0|0:0,0:0:0:0:
281,284,107545,1,0,0:0:0:0:
363,281,107727,6,0,L|453:283,1,75
474,208,108090,2,0,P|483:150|468:118,1,75
439,62,108454,1,0,0:0:0:0:
356,63,108636,1,0,0:0:0:0:
273,63,108818,1,0,0:0:0:0:
108,65,109181,6,0,P|88:138|114:211,2,150,4|8|0,0:0|0:0|0:0,0:0:0:0:
190,63,110090,1,0,0:0:0:0:
272,63,110272,2,0,L|272:161,1,75,8|0,0:0|0:0,0:0:0:0:
330,196,110636,6,0,L|329:279,2,75,0|0|8,0:0|0:0|0:0,0:0:0:0:
362,120,111181,2,0,B|414:136|414:195|414:195,1,75
416,255,111545,1,0,0:0:0:0:
379,329,111727,2,0,P|343:349|291:334,1,75,8|0,0:0|0:0,0:0:0:0:
230,325,112090,6,0,P|98:319|56:334,1,150,0|8,0:0|0:0,0:0:0:0:
36,254,112636,2,0,L|57:167,1,75
116,127,113000,2,0,L|137:46,2,75,0|8|0,0:0|0:0|0:0,0:0:0:0:
192,157,113545,5,0,0:0:0:0:
263,114,113727,1,0,0:0:0:0:
334,157,113909,1,8,0:0:0:0:
387,94,114090,2,0,P|416:143|376:231,1,150
325,282,114636,2,0,P|317:319|340:370,1,75,8|0,0:0|0:0,0:0:0:0:
400,314,115000,6,0,P|459:274|463:187,1,150,4|8,0:0|0:0,0:0:0:0:
466,117,115545,1,0,0:0:0:0:
386,95,115727,2,0,L|293:99,1,75
258,161,116090,6,0,L|97:171,1,150,8|0,0:0|0:0,0:0:0:0:
42,221,116636,2,0,P|37:278|59:316,2,75,0|8|0,0:0|0:0|0:0,0:0:0:0:
104,166,117181,2,0,P|102:105|89:81,1,75
43,29,117545,2,0,P|111:11|127:17,1,75,8|0,0:0|0:0,0:0:0:0:
179,61,117909,6,0,P|230:72|334:49,1,150,4|8,0:0|0:0,0:0:0:0:
404,31,118454,2,0,L|415:111,1,75,0|8,0:0|0:0,0:0:0:0:
362,170,118818,2,0,L|348:252,1,75,0|8,0:0|0:0,0:0:0:0:
329,324,119181,1,0,0:0:0:0:
271,264,119363,6,0,L|179:284,1,75,8|0,0:0|0:0,0:0:0:0:
116,298,119727,1,8,0:0:0:0:
74,226,119909,2,0,P|59:183|65:128,1,75,8|0,0:0|0:0,0:0:0:0:
75,73,120272,2,0,L|170:69,1,75,8|8,0:0|0:0,0:0:0:0:
296,147,120818,6,0,L|140:158,2,150,4|8|0,0:0|0:0|0:0,0:0:0:0:
360,95,121727,1,0,0:0:0:0:
431,135,121909,2,0,P|408:163|370:173,1,75,8|0,0:0|0:0,0:0:0:0:
309,226,122272,6,0,P|282:295|321:354,1,150,0|8,0:0|0:0,0:0:0:0:
399,325,122818,1,0,0:0:0:0:
464,275,123000,2,0,P|483:213|480:189,1,75
431,135,123363,2,0,P|446:73|466:48,1,75,8|0,0:0|0:0,0:0:0:0:
371,43,123727,6,0,L|269:46,1,75
220,77,124090,1,8,0:0:0:0:
147,115,124272,2,0,L|53:117,2,75
212,166,124818,2,0,L|212:253,1,75,8|0,0:0|0:0,0:0:0:0:
182,318,125181,6,0,P|139:286|133:253,2,75,0|0|8,0:0|0:0|0:0,0:0:0:0:
263,302,125727,2,0,B|354:280|320:324|421:297,1,150
481,342,126272,2,0,P|491:288|471:241,1,75,8|0,0:0|0:0,0:0:0:0:
419,220,126636,6,0,B|418:188|446:153|446:153|425:127|427:71,1,150,4|8,0:0|0:0,0:0:0:0:
466,8,127181,1,0,0:0:0:0:
383,13,127363,2,0,L|292:26,1,75
229,48,127727,6,0,B|158:60|158:60|56:12,1,150,8|0,0:0|0:0,0:0:0:0:
7,6,128272,1,0,0:0:0:0:
25,86,128454,2,0,L|42:180,1,75
117,184,128818,2,0,B|140:267|140:267|195:303,1,150,8|0,0:0|0:0,0:0:0:0:
358,303,129545,6,0,L|448:302,1,75,4|8,0:0|0:0,0:0:0:0:
462,224,129909,2,0,L|380:226,1,75,8|8,0:0|0:0,0:0:0:0:
304,226,130272,1,8,0:0:0:0:
273,149,130454,1,8,0:0:0:0:
338,98,130636,1,8,0:0:0:0:
403,148,130818,1,8,0:0:0:0:
382,227,131000,5,0,0:0:0:0:
363,307,131181,2,0,L|190:319,1,150,8|0,0:0|0:0,0:0:0:0:
130,325,131727,2,0,L|111:227,1,75,8|0,0:0|0:0,0:0:0:0:
37,225,132090,2,0,P|58:184|96:170,1,75,8|0,0:0|0:0,0:0:0:0:
165,181,132454,1,4,0:0:0:0:
96,154,148572,6,0,P|156:121|180:43,1,150,8|0,0:0|0:0,0:0:0:0:
262,55,149118,2,0,P|276:136|362:171,1,150,8|0,0:0|0:0,0:0:0:0:
281,237,149663,2,0,P|211:215|127:235,1,150,8|0,0:0|0:0,0:0:0:0:
385,230,150572,6,0,P|408:165|365:99,1,150
311,41,151118,1,0,0:0:0:0:
146,43,151481,6,0,B|66:43|66:43|43:124,1,150,4|8,0:0|0:0,0:0:0:0:
28,191,152027,1,0,0:0:0:0:
59,267,152209,2,0,L|82:339,1,75
149,290,152572,2,0,L|173:368,1,75,8|0,0:0|0:0,0:0:0:0:
242,319,152936,6,0,P|336:295|409:320,1,150,0|8,0:0|0:0,0:0:0:0:
465,333,153481,1,0,0:0:0:0:
476,251,153663,2,0,P|481:224|483:158,1,75
428,114,154027,2,0,P|423:87|421:21,1,75,8|0,0:0|0:0,0:0:0:0:
337,31,154390,6,0,L|236:35,2,75,0|0|8,0:0|0:0|0:0,0:0:0:0:
326,113,154936,2,0,P|250:121|183:72,1,150
139,17,155481,1,8,0:0:0:0:
81,75,155663,1,0,0:0:0:0:
131,140,155845,6,0,P|149:188|155:224,1,75,4|0,0:0|0:0,0:0:0:0:
87,260,156209,2,0,P|69:327|68:351,1,75,8|0,0:0|0:0,0:0:0:0:
150,337,156572,1,8,0:0:0:0:
232,341,156754,1,0,0:0:0:0:
302,298,156936,1,8,0:0:0:0:
384,302,157118,1,0,0:0:0:0:
466,307,157300,6,0,P|479:231|471:154,1,150,4|8,0:0|0:0,0:0:0:0:
445,80,157845,1,0,0:0:0:0:
370,115,158027,2,0,P|317:113|286:95,1,75
225,63,158390,2,0,P|190:49|152:51,1,75,8|0,0:0|0:0,0:0:0:0:
83,97,158754,6,0,P|74:183|131:195,1,150,0|8,0:0|0:0,0:0:0:0:
203,204,159300,1,0,0:0:0:0:
284,213,159481,2,0,P|301:280|292:315,2,75,0|0|4,0:0|0:0|0:0,0:0:0:0:
440,160,160209,6,0,P|457:93|448:58,2,75,8|0|0,0:0|0:0|0:0,0:0:0:0:
357,151,160754,1,4,0:0:0:0:
508,217,161118,2,0,P|465:257|382:229,1,150,4|4,0:0|0:0,0:0:0:0:
318,282,161663,6,0,P|247:309|229:306,1,75,4|0,0:0|0:0,0:0:0:0:
167,307,162027,2,0,P|93:286|69:269,1,75,4|0,0:0|0:0,0:0:0:0:
22,248,162390,1,4,0:0:0:0:
51,170,162572,1,0,0:0:0:0:
26,91,162754,1,8,0:0:0:0:
62,16,162936,1,0,0:0:0:0:
144,25,163118,6,0,L|245:21,1,75,4|0,0:0|0:0,0:0:0:0:
294,54,163481,1,8,0:0:0:0:
376,57,163663,2,0,P|383:156|341:182,1,150
268,193,164209,2,0,P|292:247|335:261,1,75,8|0,0:0|0:0,0:0:0:0:
386,256,164572,6,0,L|474:253,2,75,0|0|8,0:0|0:0|0:0,0:0:0:0:
339,324,165118,1,0,0:0:0:0:
256,325,165300,2,0,L|173:326,1,75
121,272,165663,2,0,L|12:272,1,75,8|0,0:0|0:0,0:0:0:0:
46,188,166027,6,0,B|46:115|46:115|92:40,1,150,0|8,0:0|0:0,0:0:0:0:
164,22,166572,2,0,B|214:80|214:80|213:168,1,150
215,236,167118,1,8,0:0:0:0:
286,193,167300,1,0,0:0:0:0:
356,151,167481,6,0,P|421:148|444:151,1,75,8|0,0:0|0:0,0:0:0:0:
480,214,167845,2,0,P|478:251|481:288,1,75,8|0,0:0|0:0,0:0:0:0:
420,344,168209,2,0,P|382:342|345:345,1,75
274,304,168572,1,4,0:0:0:0:
114,346,168936,6,0,P|111:239|136:211,1,150,4|0,0:0|0:0,0:0:0:0:
193,152,169481,2,0,P|224:105|190:21,1,150
110,27,170027,2,0,P|117:63|143:89,1,75
230,92,170390,6,0,L|394:94,1,150,4|0,0:0|0:0,0:0:0:0:
463,95,170936,1,0,0:0:0:0:
418,164,171118,2,0,P|440:215|459:234,1,75
396,289,171481,2,0,P|378:334|379:367,1,75
256,192,171845,12,4,173300,0:0:0:0:
257,186,174027,6,0,L|168:189,2,75,8|0|0,0:0|0:0|0:0,0:0:0:0:
402,107,174754,6,0,P|420:180|394:281,1,150,4|8,0:0|0:0,0:0:0:0:
345,307,175300,2,0,P|278:327|197:309,1,150
121,287,175845,2,0,P|84:285|31:294,1,75,8|0,0:0|0:0,0:0:0:0:
5,220,176209,6,0,P|30:188|42:151,1,75,8|0,0:0|0:0,0:0:0:0:
122,150,176572,2,0,P|134:186|168:218,2,75,8|0|8,0:0|0:0|0:0,0:0:0:0:
97,70,177118,1,0,0:0:0:0:
155,12,177300,1,8,0:0:0:0:
235,26,177481,1,0,0:0:0:0:
315,42,177663,6,0,L|406:43,2,75,4|0|8,0:0|0:0|0:0,0:0:0:0:
315,125,178209,2,0,L|318:224,2,75,4|0|8,0:0|0:0|0:0,0:0:0:0:
234,108,178754,2,0,L|146:112,1,75,4|0,0:0|0:0,0:0:0:0:
200,271,179300,6,0,L|284:268,2,75,8|8|8,0:0|0:0|0:0,0:0:0:0:
124,303,179845,1,4,0:0:0:0:
278,360,180209,1,4,0:0:0:0:
424,285,180572,1,4,0:0:0:0:
91,70,195569,6,0,P|160:51|260:70,1,150,2|0,0:0|0:0,0:0:0:0:
355,176,196275,2,0,P|281:185|209:166,1,150,2|0,0:0|0:0,0:0:0:0:
353,85,196981,6,0,P|424:132|422:222,1,150,4|8,0:0|0:0,0:0:0:0:
388,261,197511,1,0,0:0:0:0:
337,325,197687,2,0,L|233:338,2,75,0|0|8,0:0|0:0|0:0,0:0:0:0:
173,302,198393,6,0,L|89:295,1,75
113,217,198746,2,0,L|18:210,1,75,8|8,0:0|0:0,0:0:0:0:
22,130,199099,2,0,B|32:57|32:57|111:29,1,150,0|8,0:0|0:0,0:0:0:0:
269,36,199805,6,0,P|348:38|348:38,1,75
425,49,200158,2,0,P|468:53|486:169,1,150,8|4,0:0|0:0,0:0:0:0:
459,210,200687,1,0,0:0:0:0:
483,288,200863,2,0,P|491:351|474:376,1,75,8|0,0:0|0:0,0:0:0:0:
411,326,201216,6,0,L|310:333,1,75
256,309,201569,2,0,L|150:313,1,75,8|0,0:0|0:0,0:0:0:0:
98,317,201922,1,8,0:0:0:0:
15,321,202099,2,0,P|40:251|113:231,1,150,0|8,0:0|0:0,0:0:0:0:
188,214,202628,6,0,P|158:163|129:156,1,75,4|0,0:0|0:0,0:0:0:0:
64,148,202981,1,8,0:0:0:0:
110,79,203158,1,0,0:0:0:0:
192,74,203334,2,0,P|289:74|363:29,1,150,0|8,0:0|0:0,0:0:0:0:
500,41,204040,6,0,P|502:141|482:194,1,150,0|8,0:0|0:0,0:0:0:0:
430,248,204569,1,8,0:0:0:0:
356,209,204746,2,0,P|345:254|361:297,1,75
290,337,205099,2,0,P|258:351|208:335,1,75,8|0,0:0|0:0,0:0:0:0:
150,297,205452,5,0,0:0:0:0:
105,227,205628,1,0,0:0:0:0:
22,227,205805,2,0,B|7:154|7:154|30:60,1,150,8|8,0:0|0:0,0:0:0:0:
100,46,206334,2,0,L|203:41,1,75
257,38,206687,1,8,0:0:0:0:
339,35,206863,6,0,L|443:29,1,75
477,84,207216,2,0,L|485:166,1,75,8|0,0:0|0:0,0:0:0:0:
425,216,207569,2,0,L|326:222,1,75,8|0,0:0|0:0,0:0:0:0:
288,165,207922,1,8,0:0:0:0:
123,172,208275,6,0,P|129:267|169:317,1,150,4|8,0:0|0:0,0:0:0:0:
241,326,208805,1,0,0:0:0:0:
323,325,208981,2,0,P|389:328|417:351,1,75
468,293,209334,2,0,L|486:216,1,75,8|0,0:0|0:0,0:0:0:0:
437,152,209687,6,0,L|460:67,1,75
377,53,210040,2,0,L|289:52,1,75,8|8,0:0|0:0,0:0:0:0:
219,56,210393,1,0,0:0:0:0:
167,120,210569,1,0,0:0:0:0:
91,86,210746,1,8,0:0:0:0:
89,251,211099,6,0,L|168:293,1,75
230,319,211452,1,8,0:0:0:0:
305,287,211628,2,0,B|372:250|372:250,1,75
446,216,211981,2,0,P|458:273|443:313,2,75,0|8|0,0:0|0:0|0:0,0:0:0:0:
398,147,212511,6,0,P|398:99|419:60,2,75,0|0|8,0:0|0:0|0:0,0:0:0:0:
321,182,213040,1,0,0:0:0:0:
252,136,213216,1,8,0:0:0:0:
202,201,213393,2,0,P|168:145|222:61,1,150,0|8,0:0|0:0,0:0:0:0:
275,40,213922,6,0,L|374:37,2,75,4|0|8,0:0|0:0|0:0,0:0:0:0:
197,69,214452,1,0,0:0:0:0:
124,30,214628,2,0,L|26:34,2,75,8|0|8,0:0|0:0|0:0,0:0:0:0:
119,113,215158,1,0,0:0:0:0:
113,195,215334,6,0,L|108:288,2,75,4|0|8,0:0|0:0|0:0,0:0:0:0:
190,167,215863,2,0,P|283:181|319:237,1,150
351,296,216393,2,0,P|392:308|429:288,1,75,8|0,0:0|0:0,0:0:0:0:
484,244,216746,6,0,L|500:84,2,150,4|8|0,0:0|0:0|0:0,0:0:0:0:
420,296,217628,1,8,0:0:0:0:
393,218,217805,1,8,0:0:0:0:
365,140,217981,1,8,0:0:0:0:
339,61,218158,6,0,L|250:65,1,75
197,113,218510,2,0,L|94:119,1,75,8|0,0:0|0:0,0:0:0:0:
39,122,218863,1,8,0:0:0:0:
30,204,219040,1,0,0:0:0:0:
21,285,219216,2,0,P|41:344|68:360,1,75,8|0,0:0|0:0,0:0:0:0:
100,285,219569,6,0,P|161:273|245:311,1,150,4|0,0:0|0:0,0:0:0:0:
309,354,220099,1,0,0:0:0:0:
376,306,220275,2,0,P|440:283|471:290,2,75,8|0|0,0:0|0:0|0:0,0:0:0:0:
307,258,220805,1,0,0:0:0:0:
360,195,220981,6,0,B|385:156|414:137|414:137|412:51,1,150
247,74,221687,2,0,B|231:109|193:132|193:132|195:218,1,150,8|0,0:0|0:0,0:0:0:0:
149,42,222393,6,0,L|65:47,1,75,8|0,0:0|0:0,0:0:0:0:
101,124,222746,2,0,L|17:128,1,75,8|0,0:0|0:0,0:0:0:0:
10,208,223099,1,8,0:0:0:0:
52,278,223275,1,8,0:0:0:0:
134,274,223452,1,8,0:0:0:0:
168,199,223628,1,8,0:0:0:0:
250,194,223805,6,0,L|351:190,1,75,8|8,0:0|0:0,0:0:0:0:
379,129,224158,2,0,L|459:124,1,75,8|0,0:0|0:0,0:0:0:0:
490,197,224510,1,0,0:0:0:0:
483,279,224687,1,0,0:0:0:0:
475,360,224863,1,0,0:0:0:0:
311,335,225216,1,4,0:0:0:0:
255,193,245161,5,2,0:0:0:0:
255,193,245847,1,0,0:0:0:0:
173,49,246190,1,2,0:0:0:0:
90,193,246532,2,0,P|119:300|303:336,1,300,2|0,0:0|0:0,0:0:0:0:
286,344,247904,6,0,B|367:343|367:343|417:281,1,150,4|0,0:0|0:0,0:0:0:0:
455,220,248418,1,0,0:0:0:0:
421,144,248590,2,0,P|397:98|447:22,1,150,8|0,0:0|0:0,0:0:0:0:
485,95,249104,1,0,0:0:0:0:
403,82,249275,6,0,L|304:90,1,75,0|8,0:0|0:0,0:0:0:0:
256,47,249618,2,0,L|152:51,1,75
98,54,249961,2,0,P|53:111|73:204,1,150,8|0,0:0|0:0,0:0:0:0:
69,266,250475,1,0,0:0:0:0:
83,347,250647,6,0,L|179:344,1,75
231,306,250990,2,0,L|326:301,1,75
365,358,251332,2,0,P|384:306|331:218,1,150,8|0,0:0|0:0,0:0:0:0:
260,229,251847,1,0,0:0:0:0:
303,159,252018,6,0,B|317:111|317:111|292:73|292:73|311:14,1,150
225,20,252532,2,0,L|201:92,1,75,0|8,0:0|0:0,0:0:0:0:
125,125,252875,1,0,0:0:0:0:
48,157,253047,2,0,L|19:237,1,75
84,282,253390,6,0,L|115:370,2,75
149,231,253904,1,0,0:0:0:0:
218,274,254075,2,0,B|246:348|246:348|332:346,1,150,8|0,0:0|0:0,0:0:0:0:
400,347,254590,1,0,0:0:0:0:
482,345,254761,6,0,B|499:269,1,75,0|8,0:0|0:0,0:0:0:0:
448,206,255104,2,0,L|475:107,1,75
485,52,255447,2,0,B|406:48|406:48|326:89,1,150,8|0,0:0|0:0,0:0:0:0:
271,121,255961,1,0,0:0:0:0:
200,78,256132,6,0,B|136:45|136:45|57:49,1,150
10,118,256647,1,0,0:0:0:0:
54,186,256818,2,0,L|63:263,1,75,8|0,0:0|0:0,0:0:0:0:
76,342,257161,1,0,0:0:0:0:
137,287,257332,1,0,0:0:0:0:
219,286,257504,6,0,P|275:295|311:326,1,75
368,329,257847,2,0,P|401:345|438:347,1,75
429,264,258190,1,0,0:0:0:0:
474,195,258361,2,0,P|486:138|443:44,1,150
371,62,258875,6,0,L|280:58,1,75,4|0,0:0|0:0,0:0:0:0:
230,109,259218,2,0,L|223:205,2,75,0|0|8,0:0|0:0|0:0,0:0:0:0:
170,50,259732,2,0,L|70:44,1,75
24,89,260075,1,0,0:0:0:0:
59,163,260247,5,0,0:0:0:0:
126,209,260418,2,0,B|132:245|168:262|168:262|140:305|137:363,1,150,8|0,0:0|0:0,0:0:0:0:
223,336,260932,2,0,P|269:332|323:338,1,75,8|0,0:0|0:0,0:0:0:0:
375,306,261275,2,0,P|421:310|475:304,1,75
494,238,261618,6,0,P|503:167|471:80,1,150
429,27,262132,1,0,0:0:0:0:
350,52,262304,2,0,P|304:64|266:61,1,75,8|0,0:0|0:0,0:0:0:0:
195,48,262647,2,0,P|140:38|92:49,1,75
55,90,262990,6,0,P|42:162|52:254,1,150
121,275,263504,1,0,0:0:0:0:
195,310,263675,2,0,L|299:311,1,75,8|0,0:0|0:0,0:0:0:0:
348,285,264018,2,0,L|426:288,1,75
499,320,264361,6,0,B|521:300|515:259|494:242|494:242|497:161,1,150
505,97,264875,1,0,0:0:0:0:
426,124,265047,2,0,P|372:118|347:95,1,75,8|0,0:0|0:0,0:0:0:0:
273,103,265390,2,0,P|240:121|203:120,1,75
131,165,265732,6,0,P|128:92|142:67,2,75,0|8|0,0:0|0:0|0:0,0:0:0:0:
205,204,266247,1,0,0:0:0:0:
132,243,266418,2,0,P|115:312|39:340,1,150,8|0,0:0|0:0,0:0:0:0:
207,300,267104,6,0,P|251:294|338:353,1,150
407,307,267618,1,0,0:0:0:0:
385,226,267790,2,0,P|400:182|426:154,1,75,8|0,0:0|0:0,0:0:0:0:
460,90,268132,2,0,P|445:45|418:17,1,75
347,44,268475,6,0,L|254:55,1,75
242,129,268818,2,0,L|136:113,1,75
86,103,269161,1,8,0:0:0:0:
72,184,269332,1,0,0:0:0:0:
143,225,269504,1,0,0:0:0:0:
133,306,269675,1,0,0:0:0:0:
256,192,269847,12,0,271218,2:0:0:0:
146,93,289166,6,0,P|63:199|172:310,1,300,4|8,0:0|0:0,0:0:0:0:
358,48,290500,6,0,P|441:154|332:265,1,300,4|8,0:0|0:0,0:0:0:0:
219,160,291500,1,0,0:0:0:0:
278,313,291833,6,0,P|260:279|322:189,1,150,4|0,0:0|0:0,0:0:0:0:
150,226,292500,2,0,B|79:241|79:241|102:149,1,150,4|0,0:0|0:0,0:0:0:0:
136,11,293166,6,0,L|384:12,1,225,2|0,0:0|0:0,0:0:0:0:
443,16,293833,2,0,L|470:100,1,75,8|8,0:0|0:0,0:0:0:0:
428,161,294166,2,0,L|454:239,1,75,8|8,0:0|0:0,0:0:0:0:
383,280,294500,6,0,P|321:311|294:314,1,75,4|0,0:0|0:0,0:0:0:0:
234,326,294833,1,8,0:0:0:0:
152,314,295000,2,0,P|111:311|80:280,1,75
48,216,295333,2,0,P|46:161|65:123,1,75,0|8,0:0|0:0,0:0:0:0:
49,60,295666,6,0,P|102:75|132:106,1,75
165,19,296000,2,0,P|193:45|204:90,1,75,0|8,0:0|0:0,0:0:0:0:
275,121,296333,2,0,P|286:84|268:19,2,75
294,201,296833,1,8,0:0:0:0:
309,282,297000,1,0,0:0:0:0:
226,285,297166,6,0,L|62:294,1,150,0|8,0:0|0:0,0:0:0:0:
62,211,297666,2,0,L|46:117,1,75
120,94,298000,2,0,L|131:11,1,75,0|8,0:0|0:0,0:0:0:0:
209,40,298333,6,0,B|285:51|285:51|387:36,1,150
439,33,298833,1,8,0:0:0:0:
459,113,299000,2,0,B|475:189|475:189|452:281,1,150,8|0,0:0|0:0,0:0:0:0:
423,334,299500,2,0,L|332:339,1,75,8|0,0:0|0:0,0:0:0:0:
282,287,299833,6,0,L|194:291,1,75,4|0,0:0|0:0,0:0:0:0:
131,323,300166,2,0,L|36:326,1,75,8|0,0:0|0:0,0:0:0:0:
30,246,300500,2,0,B|14:193|76:144|42:76,1,150,0|8,0:0|0:0,0:0:0:0:
30,19,301000,1,0,0:0:0:0:
110,34,301166,6,0,P|168:43|264:33,1,150,0|8,0:0|0:0,0:0:0:0:
339,18,301666,1,0,0:0:0:0:
312,96,301833,2,0,P|325:156|347:172,1,75
392,220,302166,2,0,P|416:183|409:135,1,75,8|0,0:0|0:0,0:0:0:0:
427,70,302500,6,0,P|483:99|499:135,1,75
492,189,302833,1,8,0:0:0:0:
473,269,303000,1,0,0:0:0:0:
456,349,303166,1,0,0:0:0:0:
378,332,303333,1,0,0:0:0:0:
298,310,303500,2,0,L|194:321,1,75,8|0,0:0|0:0,0:0:0:0:
146,347,303833,6,0,P|139:297|163:262,1,75,8|0,0:0|0:0,0:0:0:0:
196,208,304166,2,0,P|203:158|179:123,2,75,0|8|0,0:0|0:0|0:0,0:0:0:0:
120,173,304666,2,0,P|122:92|184:54,1,150,8|0,0:0|0:0,0:0:0:0:
256,56,305166,6,0,B|298:68|334:60|334:60|344:93|384:118,1,150,4|8,0:0|0:0,0:0:0:0:
442,165,305666,2,0,P|457:127|451:74,2,75
364,194,306166,1,8,0:0:0:0:
403,266,306333,6,0,P|339:278|317:264,1,75
255,245,306666,2,0,L|159:256,1,75,0|8,0:0|0:0,0:0:0:0:
101,226,307000,2,0,P|55:220|6:254,2,75
73,303,307499,1,8,0:0:0:0:
151,327,307666,1,0,0:0:0:0:
181,250,307833,6,0,P|176:180|103:141,1,150,0|8,0:0|0:0,0:0:0:0:
31,123,308333,1,0,0:0:0:0:
81,58,308499,2,0,B|103:28|103:28|166:28,1,75
223,28,308833,1,8,0:0:0:0:
300,55,308999,6,0,L|397:53,1,75
435,110,309333,2,0,L|439:206,1,75,0|8,0:0|0:0,0:0:0:0:
442,267,309666,1,0,0:0:0:0:
366,232,309833,1,8,0:0:0:0:
375,313,309999,1,0,0:0:0:0:
298,280,310166,2,0,L|207:285,1,75,8|0,0:0|0:0,0:0:0:0:
160,338,310499,6,0,P|141:284|157:246,1,75,4|0,0:0|0:0,0:0:0:0:
175,191,310833,2,0,P|190:142|166:98,1,75,8|0,0:0|0:0,0:0:0:0:
107,151,311166,2,0,L|14:169,2,75,0|0|8,0:0|0:0|0:0,0:0:0:0:
120,69,311666,1,0,0:0:0:0:
193,31,311833,6,0,P|242:17|277:26,1,75
334,65,312166,2,0,P|371:68|405:54,1,75,8|0,0:0|0:0,0:0:0:0:
485,31,312499,2,0,P|476:106|412:147,1,150,0|8,0:0|0:0,0:0:0:0:
335,149,312999,1,0,0:0:0:0:
377,220,313166,5,0,0:0:0:0:
422,289,313333,1,0,0:0:0:0:
368,351,313499,1,8,0:0:0:0:
324,280,313666,2,0,L|161:279,1,150
92,290,314166,2,0,P|95:245|122:213,1,75,8|0,0:0|0:0,0:0:0:0:
77,146,314499,6,0,P|57:114|56:77,1,75
139,83,314833,2,0,L|222:59,1,75,8|0,0:0|0:0,0:0:0:0:
293,56,315166,2,0,L|368:84,1,75
441,108,315499,1,8,0:0:0:0:
441,190,315666,1,0,0:0:0:0:
502,245,315833,6,0,P|462:274|371:228,1,150,4|0,0:0|0:0,0:0:0:0:
309,190,316333,1,0,0:0:0:0:
248,245,316499,2,0,P|208:281|172:288,1,75,8|0,0:0|0:0,0:0:0:0:
165,207,316833,2,0,P|108:212|67:194,1,75
127,132,317166,6,0,P|125:91|140:40,2,75,4|0|0,0:0|0:0|0:0,0:0:0:0:
202,99,317666,2,0,P|265:100|285:109,1,75,0|8,0:0|0:0,0:0:0:0:
355,125,317999,1,0,0:0:0:0:
435,108,318166,1,0,0:0:0:0:
483,174,318333,1,0,0:0:0:0:
448,248,318499,6,0,P|446:304|463:352,1,75,4|0,0:0|0:0,0:0:0:0:
368,339,318833,2,0,P|313:344|278:359,1,75,4|0,0:0|0:0,0:0:0:0:
278,269,319166,2,0,P|280:213|263:165,1,75,4|0,0:0|0:0,0:0:0:0:
203,235,319499,1,4,0:0:0:0:
120,245,319666,1,0,0:0:0:0:
38,256,319833,6,0,L|34:166,1,75,8|0,0:0|0:0,0:0:0:0:
94,123,320166,2,0,L|91:45,1,75,8|0,0:0|0:0,0:0:0:0:
172,64,320499,2,0,L|176:164,2,75,8|8|8,0:0|0:0|0:0,0:0:0:0:
256,192,321166,12,0,322499,2:0:0:0:
256,193,338020,5,4,0:0:0:0:
256,193,339370,6,0,L|166:194,1,75,8|8,0:0|0:0,0:0:0:0:
132,260,339670,2,0,L|42:260,1,75,8|8,0:0|0:0,0:0:0:0:
18,186,339970,1,8,0:0:0:0:
60,115,340120,1,8,0:0:0:0:
223,96,340420,6,0,L|381:98,1,150,4|8,0:0|0:0,0:0:0:0:
450,126,340870,2,0,P|465:168|461:216,2,75
385,177,341320,2,0,P|370:219|374:267,1,75,8|0,0:0|0:0,0:0:0:0:
391,328,341620,5,0,0:0:0:0:
310,309,341770,2,0,P|232:309|202:316,1,75,0|8,0:0|0:0,0:0:0:0:
155,331,342070,1,0,0:0:0:0:
78,362,342220,2,0,P|73:327|79:273,1,75
125,221,342520,2,0,P|130:186|124:132,1,75,8|0,0:0|0:0,0:0:0:0:
60,97,342820,6,0,P|117:66|205:97,1,150,0|8,0:0|0:0,0:0:0:0:
261,137,343270,1,0,0:0:0:0:
329,91,343420,2,0,L|417:92,2,75,0|0|8,0:0|0:0|0:0,0:0:0:0:
487,139,344020,6,0,P|501:218|472:304,1,150,0|8,0:0|0:0,0:0:0:0:
417,334,344470,1,8,0:0:0:0:
365,269,344620,2,0,P|302:268|280:291,1,75
234,330,344920,2,0,P|199:343|163:333,1,75,8|0,0:0|0:0,0:0:0:0:
192,255,345220,6,0,P|96:275|78:328,2,150,0|8|0,0:0|0:0|0:0,0:0:0:0:
251,197,345970,1,0,0:0:0:0:
200,131,346120,2,0,P|195:76|201:28,1,75,8|0,0:0|0:0,0:0:0:0:
272,87,346420,6,0,L|429:78,2,150,0|8|0,0:0|0:0|0:0,0:0:0:0:
196,56,347170,1,0,0:0:0:0:
122,94,347320,2,0,L|25:100,1,75,8|0,0:0|0:0,0:0:0:0:
33,180,347620,5,0,0:0:0:0:
19,261,347770,1,0,0:0:0:0:
65,329,347920,2,0,L|148:329,1,75,8|0,0:0|0:0,0:0:0:0:
218,304,348220,2,0,L|401:303,1,150,8|0,0:0|0:0,0:0:0:0:
450,298,348670,1,0,0:0:0:0:
486,223,348820,6,0,P|500:174|482:132,2,75,8|0|0,0:0|0:0|0:0,0:0:0:0:
417,176,349270,1,8,0:0:0:0:
417,93,349420,1,0,0:0:0:0:
341,125,349570,1,0,0:0:0:0:
341,42,349720,2,0,P|266:73|256:84,1,75,8|0,0:0|0:0,0:0:0:0:
200,108,350020,6,0,P|132:129|55:73,1,150,4|8,0:0|0:0,0:0:0:0:
141,56,350470,2,0,P|139:121|126:156,1,75
108,207,350770,1,0,0:0:0:0:
56,271,350920,2,0,P|52:324|66:361,1,75,8|0,0:0|0:0,0:0:0:0:
140,337,351220,5,0,0:0:0:0:
222,328,351370,2,0,L|316:332,2,75,0|8|0,0:0|0:0|0:0,0:0:0:0:
256,252,351820,2,0,L|434:261,1,150,0|8,0:0|0:0,0:0:0:0:
457,102,352420,6,0,P|438:165|362:142,1,150,0|8,0:0|0:0,0:0:0:0:
311,91,352870,1,0,0:0:0:0:
237,128,353020,2,0,P|177:132|127:123,1,75
102,74,353320,2,0,P|57:71|0:84,1,75,8|0,0:0|0:0,0:0:0:0:
62,150,353620,6,0,B|26:224|26:224|72:300,1,150,0|8,0:0|0:0,0:0:0:0:
109,348,354070,1,8,0:0:0:0:
191,341,354220,2,0,B|236:343|265:323|265:323|295:343|340:343,1,150,0|8,0:0|0:0,0:0:0:0:
407,304,354670,1,0,0:0:0:0:
478,262,354820,6,0,P|489:127|352:261,1,450,4|0,0:0|0:0,0:0:0:0:
266,101,356020,6,0,P|291:62|325:42,1,75,8|0,0:0|0:0,0:0:0:0:
354,118,356320,2,0,P|401:118|439:137,1,75,8|0,0:0|0:0,0:0:0:0:
380,196,356620,2,0,P|423:228|439:273,1,75,8|0,0:0|0:0,0:0:0:0:
353,270,356920,2,0,P|356:330|337:372,1,75,8|0,0:0|0:0,0:0:0:0:
274,314,357220,6,0,L|95:326,1,150,4|0,0:0|0:0,0:0:0:0:
171,165,357820,2,0,P|178:101|149:11,1,150,4|0,0:0|0:0,0:0:0:0:
81,167,358420,2,0,B|50:236|50:236|152:246,1,150,4|0,0:0|0:0,0:0:0:0:
206,248,358870,1,0,0:0:0:0:
280,213,359020,5,0,0:0:0:0:
444,218,359320,5,0,0:0:0:0:
361,75,359620,6,0,L|322:9,2,75,4|0|8,0:0|0:0|0:0,0:0:0:0:
443,83,360070,2,0,P|399:143|303:132,1,150
259,102,360520,1,8,0:0:0:0:
181,130,360670,1,0,0:0:0:0:
105,96,360820,5,0,0:0:0:0:
30,130,360970,2,0,L|24:216,1,75,0|8,0:0|0:0,0:0:0:0:
93,254,361270,2,0,L|86:344,2,75
175,251,361720,2,0,L|266:257,1,75,8|0,0:0|0:0,0:0:0:0:
314,306,362020,6,0,L|419:315,1,75
460,352,362320,2,0,P|465:300|444:255,2,75,8|0|0,0:0|0:0|0:0,0:0:0:0:
388,310,362770,1,0,0:0:0:0:
379,227,362920,1,8,0:0:0:0:
368,145,363070,1,0,0:0:0:0:
355,63,363220,6,0,P|320:56|266:63,1,75
227,121,363520,2,0,P|189:123|153:116,1,75,8|0,0:0|0:0,0:0:0:0:
74,90,363820,1,0,0:0:0:0:
48,168,363970,1,0,0:0:0:0:
68,247,364120,1,8,0:0:0:0:
227,205,364420,6,0,L|252:296,1,75
306,334,364720,2,0,P|326:278|324:252,1,75,8|0,0:0|0:0,0:0:0:0:
326,180,365020,1,0,0:0:0:0:
406,196,365170,1,0,0:0:0:0:
427,116,365320,2,0,P|430:78|446:45,1,75,8|0,0:0|0:0,0:0:0:0:
365,30,365620,6,0,P|318:37|270:24,1,75
208,27,365920,1,8,0:0:0:0:
129,52,366070,1,0,0:0:0:0:
48,69,366220,2,0,L|31:167,2,75,0|0|8,0:0|0:0|0:0,0:0:0:0:
89,228,366820,5,4,0:0:0:0:
152,280,366970,2,0,P|202:300|298:266,1,150
353,219,367420,1,8,0:0:0:0:
420,265,367570,2,0,B|467:297|467:297|492:175,1,150
504,124,368020,5,8,0:0:0:0:
434,79,368170,2,0,B|363:44|363:44|270:40,2,150,0|8|0,0:0|0:0|0:0,0:0:0:0:
413,158,368920,1,8,0:0:0:0:
253,201,369220,1,4,0:0:0:0:
24,243,385281,5,0,0:0:0:0:
106,244,385622,2,0,L|281:246,1,150,2|0,0:0|0:0,0:0:0:0:
329,98,386985,2,0,L|154:96,1,150,2|0,0:0|0:0,0:0:0:0:
96,95,388008,1,0,0:0:0:0:
82,183,388349,6,0,P|76:278|105:354,1,150,2|0,0:0|0:0,0:0:0:0:
263,315,389794,1,0,0:0:0:0:
263,315,391441,5,0,0:0:0:0:
354,315,391808,2,0,P|418:248|442:186,1,150,2|0,0:0|0:0,0:0:0:0:
299,91,393126,2,0,P|218:94|201:88,1,75,2|0,0:0|0:0,0:0:0:0:
144,75,393786,1,0,0:0:0:0:
61,72,394115,1,0,0:0:0:0:
27,149,394445,6,0,L|24:313,1,150,2|0,0:0|0:0,0:0:0:0:
176,235,395944,1,0,0:0:0:0:
176,235,398586,6,0,L|274:235,1,75
366,253,401274,6,0,P|385:199|360:80,1,150,2|0,0:0|0:0,0:0:0:0:
294,88,402274,1,2,0:0:0:0:
212,79,402607,2,0,P|166:86|120:77,1,75,2|0,0:0|0:0,0:0:0:0:
55,107,403274,2,0,P|18:100|-30:107,1,75,2|0,0:0|0:0,0:0:0:0:
18,187,403940,6,0,P|42:254|17:339,1,150,2|0,0:0|0:0,0:0:0:0:
103,351,405093,1,2,0:0:0:0:
183,333,405478,1,2,0:0:0:0:
183,333,407688,6,0,L|366:336,1,150,2|2,0:0|0:0,0:0:0:0:
475,251,409188,2,0,L|303:250,1,150,2|2,0:0|0:0,0:0:0:0:
242,247,410313,1,0,0:0:0:0:
287,178,410688,6,0,P|314:126|264:36,2,150,2|2|2,0:0|0:0|0:0,0:0:0:0:
153,243,412938,1,2,0:0:0:0:
70,244,413313,1,0,0:0:0:0:
6,190,413688,6,0,P|6:127|98:107,1,150,2|2,0:0|0:0,0:0:0:0:
160,107,414813,1,0,0:0:0:0:
241,96,415212,2,0,L|397:92,1,150,2|2,0:0|0:0,0:0:0:0:
384,174,416516,1,0,0:0:0:0:
332,238,417000,5,2,0:0:0:0:
256,192,417242,12,0,420871,0:0:0:0:
