osu file format v14

[General]
AudioFilename: P11 KnSM Miku.mp3
AudioLeadIn: 0
PreviewTime: 139307
Countdown: 0
SampleSet: Soft
StackLeniency: 0.7
Mode: 0
LetterboxInBreaks: 0
WidescreenStoryboard: 0

[Editor]
DistanceSpacing: 1.7
BeatDivisor: 4
GridSize: 32
TimelineZoom: 1.9

[Metadata]
Title:Kimi no Shiranai Monogatari [ dj-Jo Remix ]
TitleUnicode:Kimi no Shiranai Monogatari [ dj-Jo Remix ]
Artist:supercell feat. Hatsune Miku
ArtistUnicode:supercell feat. Hatsune Miku
Creator:Reclaimer
Version:Ienakatta
Source:化物語
Tags:hatsune miku remix vocaloid edm electronic dance music bakemonogatari
BeatmapID:785750
BeatmapSetID:357159

[Difficulty]
HPDrainRate:6
CircleSize:4
OverallDifficulty:8
ApproachRate:9
SliderMultiplier:1.25
SliderTickRate:1

[Events]
//Background and Video events
0,0,"chin.jpg",0,0
//Break Periods
2,202252,213288
2,228451,239470
2,246088,248197
//Storyboard Layer 0 (Background)
//Storyboard Layer 1 (Fail)
//Storyboard Layer 2 (Pass)
//Storyboard Layer 3 (Foreground)
//Storyboard Sound Samples

[TimingPoints]
1525,363.636363636364,4,2,0,75,1,0
1525,-133.333333333333,4,2,0,40,0,0
2070,-133.333333333333,4,2,0,45,0,0
3161,-133.333333333333,4,2,0,50,0,0
4252,-133.333333333333,4,2,0,55,0,0
5525,-133.333333333333,4,2,0,65,0,0
6434,-133.333333333333,4,2,0,70,0,0
7161,-133.333333333333,4,2,0,75,0,0
7888,-133.333333333333,4,2,0,85,0,0
8615,-133.333333333333,4,2,0,90,0,0
10252,-100,4,2,2,100,0,0
10979,-100,4,2,2,35,0,0
11161,-100,4,2,0,45,0,0
11343,-100,4,2,0,55,0,0
11525,-100,4,2,0,65,0,0
11706,-100,4,2,2,75,0,0
11888,-100,4,2,0,85,0,0
12070,-100,4,2,2,100,0,0
12434,-100,4,2,2,100,0,0
14979,-100,4,2,1,45,0,0
15706,-100,4,2,1,45,0,0
16070,-100,4,2,0,60,0,0
16343,-100,4,2,2,100,0,0
16797,-100,4,2,0,100,0,0
18979,-100,4,2,1,45,0,0
19525,-100,4,2,0,100,0,0
20797,-100,4,2,1,60,0,0
21161,-100,4,2,0,100,0,0
21888,-100,4,2,2,100,0,0
24797,-100,4,2,0,100,0,0
25525,-100,4,2,0,70,0,0
26979,-100,4,2,1,60,0,0
28434,-100,4,2,0,70,0,0
29525,-100,4,2,2,55,0,0
29706,-100,4,2,0,60,0,0
29888,-100,4,2,2,65,0,0
30070,-100,4,2,0,70,0,0
30252,-100,4,2,2,75,0,0
30434,-100,4,2,0,80,0,0
30615,-100,4,2,2,85,0,0
30797,-100,4,2,0,70,0,0
42252,-100,4,2,0,50,0,0
45343,-100,4,2,0,60,0,0
46615,-100,4,2,0,70,0,0
48070,-100,4,2,0,80,0,0
49525,-100,4,2,0,90,0,0
50979,-100,4,2,2,90,0,0
53888,-100,4,2,2,50,0,0
54252,-100,4,2,2,60,0,0
54615,-100,4,2,2,70,0,0
54979,-100,4,2,2,80,0,0
55343,-100,4,2,2,90,0,0
55706,-100,4,2,2,95,0,0
58615,-100,4,2,0,95,0,0
62615,-100,4,2,2,80,0,0
65343,-100,4,2,2,85,0,0
68434,-80,4,2,0,90,0,1
68615,-80,4,1,0,80,0,1
69161,-80,4,2,0,89,0,1
69343,-80,4,1,0,80,0,1
69888,-80,4,2,0,90,0,1
70070,-80,4,1,0,80,0,1
70170,-80,4,2,0,90,0,1
71343,-80,4,2,2,90,0,1
71525,-80,4,1,0,80,0,1
72070,-80,4,2,2,90,0,1
72252,-80,4,1,0,80,0,1
72797,-80,4,2,2,90,0,1
72979,-80,4,1,0,80,0,1
73525,-80,4,2,0,90,0,1
73706,-80,4,1,1,80,0,1
74070,-80,4,1,1,30,0,1
74252,-80,4,2,2,90,0,1
74434,-80,4,1,0,80,0,1
74979,-80,4,2,2,90,0,1
75161,-80,4,1,0,80,0,1
75706,-80,4,2,2,90,0,1
75888,-80,4,1,0,80,0,1
76434,-80,4,2,2,90,0,1
76615,-80,4,1,0,80,0,1
77161,-80,4,2,2,100,0,1
80070,-80,4,2,0,100,0,1
80252,-80,4,1,0,80,0,1
80797,-80,4,2,2,90,0,1
80979,-80,4,1,0,80,0,1
81525,-80,4,2,2,90,0,1
81706,-80,4,1,0,80,0,1
82252,-80,4,2,2,90,0,1
82434,-80,4,1,0,80,0,1
82979,-80,4,2,2,90,0,1
83161,-80,4,1,0,80,0,1
83706,-80,4,2,2,90,0,1
83888,-80,4,1,0,80,0,1
84434,-80,4,2,2,90,0,1
84615,-80,4,1,0,80,0,1
85161,-80,4,2,2,90,0,1
85343,-80,4,1,0,80,0,1
85888,-80,4,2,2,90,0,1
86070,-80,4,1,0,80,0,1
86615,-80,4,2,2,90,0,1
87252,-80,4,2,2,5,0,1
87343,-80,4,2,2,90,0,1
87525,-80,4,1,0,80,0,1
88070,-80,4,2,2,90,0,1
88706,-80,4,2,2,5,0,1
88797,-80,4,2,2,90,0,1
90161,-80,4,2,2,5,0,1
90434,-80,4,1,0,80,0,1
90979,-80,4,2,2,90,0,1
91615,-80,4,2,2,5,0,1
91706,-80,4,2,2,90,0,1
91888,-80,4,1,0,20,0,1
92070,-80,4,2,2,25,0,1
92252,-80,4,1,0,30,0,1
92434,-80,4,2,2,35,0,1
92615,-80,4,1,0,40,0,1
92797,-80,4,2,2,45,0,1
92979,-80,4,1,0,50,0,1
93161,-80,4,2,2,55,0,1
93343,-80,4,1,0,60,0,1
93525,-80,4,2,2,65,0,1
93706,-80,4,1,0,70,0,1
93888,-80,4,2,2,75,0,1
94070,-80,4,1,0,80,0,1
94252,-80,4,2,2,85,0,1
94434,-100,4,3,0,90,0,1
94797,-80,4,1,0,80,0,1
96070,-80,4,2,0,100,0,1
96615,-80,4,2,2,100,0,1
97525,-100,4,3,0,90,0,0
97888,-100,4,2,2,90,0,0
98252,-100,4,2,0,90,0,0
98434,-100,4,3,0,90,0,0
100070,-100,4,2,2,90,0,0
100615,-100,4,3,0,90,0,0
101161,-100,4,2,0,90,0,0
103343,-100,4,2,1,60,0,0
109161,-100,4,2,2,65,0,0
109888,-100,4,2,2,70,0,0
113706,-100,4,2,1,60,0,0
114070,-100,4,2,2,60,0,0
114615,-100,4,2,1,60,0,0
114979,-100,4,2,2,60,0,0
119343,-100,4,2,2,70,0,0
120797,-100,4,2,2,80,0,0
122252,-100,4,2,2,90,0,0
123706,-100,4,2,2,100,0,0
126615,-100,4,2,2,35,0,0
126797,-100,4,2,0,35,0,0
126979,-100,4,2,2,40,0,0
127161,-100,4,2,0,50,0,0
127343,-100,4,2,2,60,0,0
127525,-100,4,2,0,70,0,0
127706,-100,4,2,2,80,0,0
127888,-100,4,2,2,90,0,0
128797,-100,4,2,0,90,0,0
129161,-100,4,2,2,90,0,0
131706,-100,4,2,0,90,0,0
132434,-100,4,2,2,90,0,0
134979,-100,4,2,1,75,0,0
135343,-100,4,2,2,90,0,0
141161,-80,4,2,2,90,0,1
141343,-80,4,1,0,90,0,1
141888,-80,4,2,2,90,0,1
142070,-80,4,1,0,90,0,1
142615,-80,4,2,2,90,0,1
142797,-80,4,1,0,90,0,1
143343,-80,4,2,2,90,0,1
143888,-80,4,1,0,90,0,1
144070,-80,4,2,2,90,0,1
144252,-80,4,1,0,90,0,1
144797,-80,4,2,2,90,0,1
144979,-80,4,1,0,90,0,1
145525,-80,4,2,2,90,0,1
145706,-80,4,1,0,90,0,1
146252,-80,4,2,2,90,0,1
146615,-80,4,2,1,90,0,1
146888,-80,4,2,1,5,0,1
146979,-80,4,2,2,90,0,1
147161,-80,4,1,0,90,0,1
147706,-80,4,2,2,90,0,1
147888,-80,4,1,0,90,0,1
148434,-80,4,2,2,90,0,1
148615,-80,4,1,0,90,0,1
149161,-80,4,2,2,90,0,1
149343,-80,4,1,0,90,0,1
149525,-100,4,2,2,90,0,1
152252,-80,4,2,1,90,0,1
152797,-80,4,2,2,90,0,1
152979,-80,4,1,0,90,0,1
153525,-80,4,2,2,90,0,1
153706,-80,4,1,0,90,0,1
154252,-80,4,2,2,90,0,1
154434,-80,4,1,0,90,0,1
154979,-80,4,2,2,90,0,1
155161,-80,4,1,0,90,0,1
155706,-80,4,2,2,90,0,1
155888,-80,4,1,0,90,0,1
156434,-80,4,2,2,90,0,1
156615,-80,4,1,0,90,0,1
157161,-80,4,2,2,90,0,1
157343,-80,4,1,0,90,0,1
157888,-80,4,2,2,90,0,1
158070,-80,4,1,0,90,0,1
158615,-80,4,2,2,90,0,1
158797,-80,4,1,0,90,0,1
160434,-80,4,2,2,90,0,1
160615,-80,4,1,0,90,0,1
161525,-80,4,2,2,90,0,1
161888,-80,4,1,0,90,0,1
162070,-80,4,2,2,90,0,1
162252,-80,4,2,0,90,0,1
162434,-80,4,1,0,90,0,1
163525,-80,4,2,2,90,0,1
163706,-80,4,2,0,90,0,1
164070,-80,4,2,2,90,0,1
164434,-80,4,2,2,20,0,1
164615,-80,4,1,0,25,0,1
164797,-80,4,2,2,30,0,1
164979,-80,4,1,0,35,0,1
165161,-80,4,2,2,40,0,1
165343,-80,4,1,0,45,0,1
165525,-80,4,2,2,50,0,1
165706,-80,4,1,0,55,0,1
165888,-80,4,2,2,60,0,1
166070,-80,4,1,0,65,0,1
166252,-80,4,2,2,70,0,1
166434,-80,4,1,0,75,0,1
166615,-80,4,2,2,80,0,1
166797,-80,4,1,0,85,0,1
166979,-80,4,2,2,95,0,1
167161,-100,4,2,2,100,0,1
167525,-100,4,2,2,90,0,1
167706,-100,4,1,0,90,0,1
167888,-80,4,2,2,80,0,1
168252,-100,4,1,0,90,0,1
168434,-80,4,1,0,80,0,1
168797,-100,4,2,0,90,0,1
170252,-100,4,2,0,90,0,1
170434,-80,4,1,0,90,0,1
170615,-80,4,2,2,90,0,1
170797,-80,4,2,0,90,0,1
170979,-80,4,1,0,90,0,1
171161,-80,4,2,2,90,0,1
171343,-80,4,2,0,90,0,1
171525,-80,4,1,0,90,0,1
171625,-80,4,1,0,90,0,1
171706,-80,4,2,2,90,0,1
171888,-80,4,2,0,90,0,1
172252,-80,4,2,2,90,0,1
172434,-80,4,2,1,90,0,1
172615,-80,4,1,0,90,0,1
172979,-100,4,1,0,90,0,1
173343,-100,4,1,0,90,0,1
173525,-100,4,2,2,90,0,1
173706,-100,4,1,0,90,0,1
174070,-100,4,2,2,90,0,1
174252,-100,4,1,0,90,0,1
174615,-80,4,2,2,90,0,1
174979,-100,4,1,0,90,0,1
175161,-100,4,2,2,90,0,0
178797,-100,4,2,1,90,0,0
178979,-100,4,2,2,90,0,0
182070,-100,4,3,0,90,0,0
182615,-100,4,2,0,90,0,0
182797,-100,4,3,0,90,0,0
183343,-100,4,2,2,90,0,0
183525,-100,4,3,0,90,0,0
184070,-100,4,2,0,90,0,0
184252,-100,4,3,0,90,0,0
184798,-100,4,2,2,90,0,0
184979,-100,4,3,0,90,0,0
185525,-100,4,2,0,90,0,0
185706,-100,4,3,0,90,0,0
186252,-100,4,2,2,90,0,0
186434,-100,4,3,0,90,0,0
186979,-100,4,2,0,90,0,0
187161,-100,4,3,0,90,0,0
187706,-100,4,2,2,90,0,0
187888,-100,4,3,0,90,0,0
188434,-100,4,2,0,90,0,0
188615,-100,4,3,0,90,0,0
189161,-100,4,2,2,90,0,0
189343,-100,4,3,0,90,0,0
189888,-100,4,2,0,90,0,0
190070,-100,4,3,0,90,0,0
190615,-100,4,2,2,90,0,0
190797,-100,4,3,0,90,0,0
191343,-100,4,2,0,90,0,0
191525,-100,4,3,0,90,0,0
192070,-100,4,2,2,90,0,0
192797,-100,4,2,0,90,0,0
193525,-100,4,2,2,90,0,0
196434,-100,4,2,2,80,0,0
197161,-100,4,2,0,80,0,0
197888,-100,4,2,2,80,0,0
198615,-100,4,2,0,80,0,0
198737,-100,4,2,2,80,0,0
198979,-100,4,2,0,80,0,0
199221,-100,4,2,2,80,0,0
200070,-100,4,2,0,80,0,0
200797,-100,4,2,2,80,0,0
201525,-100,4,2,0,80,0,0
213888,-100,4,2,2,80,0,0
214615,-100,4,2,0,85,0,0
215343,-100,4,2,2,90,0,0
216070,-100,4,2,0,95,0,0
216797,-100,4,2,2,100,0,0
217525,-100,4,2,0,100,0,0
218252,-100,4,2,2,100,0,0
218979,-100,4,2,0,100,0,0
219615,-100,4,2,0,5,0,0
219706,-100,4,2,2,100,0,0
220434,-100,4,2,0,100,0,0
221161,-100,4,2,2,90,0,0
221888,-100,4,2,2,80,0,0
222070,-100,4,2,2,70,0,0
222252,-100,4,2,2,60,0,0
222434,-100,4,2,2,50,0,0
222615,-100,4,2,2,20,0,0
223343,-100,4,2,2,30,0,0
224070,-100,4,2,2,40,0,0
224797,-100,4,2,2,50,0,0
225525,-100,4,2,2,55,0,0
225706,-100,4,2,2,60,0,0
225888,-100,4,2,2,65,0,0
226070,-100,4,2,2,70,0,0
226252,-100,4,2,2,75,0,0
226434,-100,4,2,2,80,0,0
226615,-100,4,2,2,85,0,0
226797,-100,4,2,2,90,0,0
226979,-100,4,2,2,95,0,0
227161,-100,4,2,2,100,0,0
240070,-133.333333333333,4,2,2,75,0,0
240797,-100,4,2,0,75,0,0
241888,-133.333333333333,4,2,2,75,0,0
242252,-100,4,2,0,75,0,0
242615,-100,4,2,2,75,0,0
243706,-100,4,2,0,75,0,0
244434,-100,4,2,2,75,0,0
245161,-100,4,2,0,75,0,0
245525,-133.333333333333,4,2,2,75,0,0
250797,-100,4,2,2,5,0,0
251161,-100,4,3,0,90,0,0
251706,-100,4,2,2,90,0,0
251888,-100,4,3,0,90,0,0
252434,-100,4,2,2,90,0,0
252615,-100,4,3,0,90,0,0
253161,-100,4,2,2,90,0,0
253343,-100,4,3,0,90,0,0
253888,-100,4,2,2,90,0,0
254070,-100,4,3,0,90,0,0
254615,-100,4,2,2,90,0,0
254797,-100,4,3,0,90,0,0
255343,-100,4,2,2,90,0,0
255525,-100,4,3,0,90,0,0
256070,-100,4,2,2,90,0,0
256252,-100,4,3,0,90,0,0
256797,-100,4,2,2,85,0,0
256979,-100,4,2,2,80,0,0
257161,-100,4,2,2,85,0,0
257343,-100,4,2,2,70,0,0
257525,-100,4,2,2,70,0,0
258979,-100,4,2,2,80,0,0
259706,-100,4,2,2,90,0,0
261888,-100,4,2,2,100,0,0
262979,-100,4,2,2,100,0,0
266070,-100,4,2,2,5,0,0
266252,-100,4,2,2,100,0,0
269161,-100,4,2,2,70,0,0
269615,-100,4,2,2,5,0,0
269706,-133.333333333333,4,2,2,70,0,0
269806,-100,4,2,2,5,0,0
271343,-100,4,2,2,70,0,0
271979,-100,4,2,2,5,0,0
272070,-100,4,2,2,70,0,0
272706,-100,4,2,2,5,0,0
272797,-100,4,2,2,70,0,0
273434,-100,4,2,2,5,0,0
273525,-100,4,2,2,70,0,0
274737,-100,4,2,2,85,0,0
274979,-100,4,3,0,85,0,0
275706,-100,4,2,2,85,0,0
275888,-100,4,3,0,85,0,0
276434,-100,4,2,2,85,0,0
276615,-100,4,3,0,85,0,0
277161,-100,4,2,2,85,0,0
277343,-100,4,3,0,85,0,0
277888,-100,4,2,2,85,0,0
278070,-100,4,3,0,85,0,0
278615,-100,4,2,2,85,0,0
278797,-100,4,3,0,85,0,0
279343,-100,4,2,2,85,0,0
279525,-100,4,3,0,85,0,0
280070,-100,4,2,2,85,0,0
280252,-100,4,3,0,85,0,0
280797,-100,4,2,2,85,0,0
280979,-100,4,3,0,85,0,0
281525,-100,4,2,2,85,0,0
281706,-100,4,3,0,85,0,0
282252,-100,4,2,2,85,0,0
282434,-100,4,3,0,85,0,0
282979,-100,4,2,2,85,0,0
283161,-100,4,3,0,85,0,0
283706,-100,4,2,2,85,0,0
283888,-100,4,3,0,85,0,0
284434,-100,4,2,2,85,0,0
284615,-100,4,3,0,85,0,0
285161,-100,4,2,2,85,0,0
285343,-100,4,3,0,85,0,0
285888,-100,4,2,2,85,0,0
286070,-100,4,3,0,85,0,0
286252,-100,4,2,2,85,0,0
286615,-100,4,2,1,70,0,0
287343,-100,4,2,0,80,0,0
289525,-100,4,2,1,70,0,0
290252,-100,4,2,0,80,0,0
291525,-100,4,2,2,80,0,0
298252,-100,4,2,2,20,0,0
301161,-80,4,2,0,100,0,1
301343,-80,4,1,0,90,0,1
301888,-80,4,2,2,90,0,1
302070,-80,4,1,0,90,0,1
302615,-80,4,2,2,90,0,1
302797,-80,4,1,0,90,0,1
303343,-80,4,2,2,90,0,1
303525,-80,4,1,0,90,0,1
304070,-80,4,2,2,90,0,1
304252,-80,4,1,0,90,0,1
304797,-80,4,2,0,90,0,1
304979,-80,4,1,0,90,0,1
305525,-80,4,2,2,90,0,1
305706,-80,4,1,0,90,0,1
306252,-80,4,2,0,90,0,1
306434,-80,4,1,0,90,0,1
306979,-80,4,2,2,90,0,1
307343,-80,4,1,0,90,0,1
307525,-80,4,2,2,90,0,1
307706,-80,4,2,0,90,0,1
307888,-80,4,1,0,90,0,1
308434,-80,4,2,2,90,0,1
308979,-80,4,2,2,90,0,1
309161,-80,4,2,1,70,0,1
309525,-80,4,2,2,90,0,1
309888,-80,4,2,2,25,0,1
310070,-80,4,2,0,30,0,1
310252,-80,4,2,2,35,0,1
310434,-80,4,2,0,40,0,1
310615,-80,4,2,2,45,0,1
310797,-80,4,2,0,50,0,1
310979,-80,4,2,2,55,0,1
311161,-80,4,2,0,60,0,1
311343,-80,4,2,2,65,0,1
311525,-80,4,2,0,70,0,1
311706,-80,4,2,2,80,0,1
311888,-80,4,2,0,85,0,1
312070,-80,4,2,2,90,0,1
312252,-80,4,2,0,95,0,1
312434,-80,4,2,2,100,0,1
312615,-100,4,2,2,90,0,1
312979,-80,4,1,0,90,0,1
313161,-100,4,2,2,90,0,1
313343,-80,4,2,1,90,0,1
313525,-80,4,1,0,90,0,1
313706,-100,4,2,2,90,0,1
313888,-80,4,2,1,90,0,1
314070,-80,4,1,0,90,0,1
314252,-100,4,2,0,100,0,0
315706,-80,4,2,2,90,0,1
315888,-80,4,1,0,90,0,1
316434,-80,4,2,0,90,0,1
316615,-80,4,1,0,90,0,1
317161,-80,4,2,2,90,0,1
317343,-80,4,1,0,90,0,1
317888,-80,4,2,0,90,0,1
318070,-80,4,1,0,90,0,1
318615,-80,4,2,2,90,0,1
318797,-80,4,1,0,90,0,1
319343,-80,4,2,0,90,0,1
319525,-80,4,1,0,90,0,1
320070,-80,4,2,2,90,0,1
320252,-80,4,1,0,90,0,1
320797,-80,4,2,0,90,0,1
320979,-80,4,1,0,90,0,1
321525,-80,4,2,2,90,0,1
321706,-80,4,1,0,90,0,1
322252,-80,4,2,0,90,0,1
322434,-80,4,1,0,90,0,1
322979,-80,4,2,2,90,0,1
323161,-80,4,1,0,90,0,1
323706,-80,4,2,0,90,0,1
323888,-80,4,1,0,90,0,1
324434,-80,4,2,2,90,0,1
324615,-80,4,1,0,90,0,1
325161,-80,4,2,0,90,0,1
325343,-80,4,1,0,90,0,1
325888,-80,4,2,2,90,0,1
326070,-80,4,1,0,90,0,1
326615,-80,4,2,1,90,0,1
326797,-80,4,2,1,90,0,1
326979,-80,4,2,2,90,0,1
327252,-80,4,2,2,5,0,1
327343,-80,4,2,2,90,0,1
327525,-80,4,1,0,90,0,1
328070,-80,4,2,0,90,0,1
328252,-80,4,1,0,90,0,1
328797,-80,4,2,2,90,0,1
328979,-80,4,1,0,90,0,1
329525,-80,4,2,0,90,0,1
329706,-80,4,1,0,90,0,1
330252,-80,4,2,2,90,0,1
330434,-80,4,1,0,90,0,1
330979,-80,4,2,0,90,0,1
331161,-80,4,1,0,90,0,1
331706,-80,4,2,2,90,0,1
331888,-80,4,1,0,90,0,1
332434,-80,4,2,0,90,0,1
332615,-80,4,1,0,90,0,1
333161,-80,4,2,2,90,0,1
333343,-80,4,1,0,90,0,1
333888,-80,4,2,0,90,0,1
334070,-80,4,1,0,90,0,1
334615,-80,4,2,2,90,0,1
334797,-80,4,1,0,90,0,1
335343,-80,4,2,0,90,0,1
335525,-80,4,1,0,90,0,1
336070,-80,4,2,2,90,0,1
336252,-80,4,1,0,90,0,1
336797,-80,4,2,0,90,0,1
336979,-80,4,1,0,90,0,1
337525,-80,4,2,2,90,0,1
337706,-80,4,1,0,90,0,1
338252,-80,4,2,0,90,0,1
338797,-100,4,1,0,100,0,0
339615,-100,4,2,0,80,0,0
339888,-100,4,2,0,15,0,0
340434,-100,4,2,0,70,0,0
341161,-100,4,2,0,60,0,0
341888,-100,4,2,0,50,0,0
342615,-100,4,2,0,5,0,0

[Colours]
Combo1 : 255,15,21
Combo2 : 17,232,255
Combo3 : 0,53,234
Combo4 : 125,56,254
Combo5 : 255,128,255

[HitObjects]
152,184,1525,6,0,L|100:204,2,46.8750017881394
232,156,2070,2,0,P|280:148|324:160,1,93.7500035762788
216,240,2615,2,0,L|172:280,2,46.8750017881394
232,156,3161,5,0,0:0:0:0:
152,184,3343,1,0,0:0:0:0:
216,240,3525,2,0,P|229:286|209:338,1,93.7500035762788
232,156,4251,1,0,0:0:0:0:
165,63,4434,5,0,0:0:0:0:
273,99,4615,1,0,0:0:0:0:
165,134,4797,1,0,0:0:0:0:
232,42,4979,1,0,0:0:0:0:
232,156,5161,2,0,P|249:205|297:240,1,93.7500035762788
307,163,5706,5,0,0:0:0:0:
411,217,5888,1,0,0:0:0:0:
362,114,6070,1,0,0:0:0:0:
340,226,6252,1,0,0:0:0:0:
426,147,6434,2,0,P|446:99|441:59,1,93.7500035762788
308,172,7161,1,0,0:0:0:0:
257,222,7343,6,0,P|247:271|273:325,1,93.7500035762788
322,261,7888,1,0,0:0:0:0:
257,222,8070,2,0,P|209:216|167:239,1,93.7500035762788
224,290,8615,1,0,0:0:0:0:
257,222,8797,6,0,P|254:163|232:125,2,93.7500035762788
116,235,9887,1,0,0:0:0:0:
384,304,10251,5,8,0:0:0:0:
384,304,10979,6,0,B|356:336|312:332|312:332|304:360|304:360|260:352|224:376,1,187.5
192,80,11705,5,8,0:0:0:0:
328,260,11887,1,0,0:0:0:0:
328,80,12069,1,8,0:0:0:0:
192,260,12251,1,0,0:0:0:0:
369,142,12434,2,0,P|401:77|381:30,1,125,8|0,0:0|0:0,0:0:0:0:
164,148,13161,6,0,L|96:180,2,62.5
272,132,13706,2,0,L|304:120,1,31.25
200,48,13888,2,0,L|168:24,1,31.25
164,148,14070,2,0,L|156:180,1,31.25
272,132,14252,1,0,0:0:0:0:
180,252,14434,2,0,B|168:270|141:280|141:280|152:301|152:301|116:307|105:326,1,125
164,148,14979,2,0,B|176:120|176:120|212:96,2,62.5,8|8|0,0:0|0:0|0:0,0:0:0:0:
152,302,15706,2,0,B|144:336|144:336|124:360,1,62.5,8|8,0:0|0:0,0:0:0:0:
72,256,16070,5,0,0:0:0:0:
60,204,16342,5,8,0:0:0:0:
48,155,16615,5,8,0:0:0:0:
148,40,16796,5,8,0:0:0:0:
212,132,16979,1,0,0:0:0:0:
247,156,17070,1,0,0:0:0:0:
268,194,17161,1,0,0:0:0:0:
284,235,17252,1,0,0:0:0:0:
319,259,17343,1,0,0:0:0:0:
408,148,17525,5,0,0:0:0:0:
162,326,17888,1,0,0:0:0:0:
256,37,18252,1,0,0:0:0:0:
350,326,18615,1,0,0:0:0:0:
103,146,18979,6,0,L|36:128,2,62.5
211,130,19525,2,0,L|243:118,1,31.25
139,46,19707,2,0,L|107:22,1,31.25
103,146,19889,2,0,L|95:178,1,31.25
211,130,20071,1,0,0:0:0:0:
24,272,20433,5,0,0:0:0:0:
110,359,20615,1,0,0:0:0:0:
233,339,20797,2,8,B|261:321|261:321|279:294,1,62.5
146,246,21161,1,0,0:0:0:0:
359,317,21525,2,0,B|387:333|387:333|407:361,1,62.5
384,244,21888,5,8,0:0:0:0:
328,160,22070,1,0,0:0:0:0:
235,121,22252,1,0,0:0:0:0:
133,112,22434,1,8,0:0:0:0:
48,216,22797,5,0,0:0:0:0:
284,248,22979,1,0,0:0:0:0:
192,28,23161,1,0,0:0:0:0:
192,28,23525,5,0,0:0:0:0:
284,248,23706,1,0,0:0:0:0:
48,216,23888,2,0,L|-16:204,1,62.5
284,248,24252,2,0,L|352:260,1,62.5
284,248,24797,6,0,B|312:266|312:266|328:292,1,62.5
199,249,25161,2,0,B|171:267|171:267|156:292,1,62.5
293,165,25525,2,8,B|317:144|317:144|330:101,2,62.5,8|0|0,0:0|0:0|0:0,0:0:0:0:
199,249,26070,1,0,0:0:0:0:
256,104,26252,5,0,0:0:0:0:
138,211,26434,2,0,B|111:232|111:232|79:237,1,62.5
212,92,26797,1,0,0:0:0:0:
272,220,26979,2,0,B|285:250|285:250|280:285,1,62.5,8|0,0:0|0:0,0:0:0:0:
170,75,27343,2,0,B|152:48|152:48|148:16,1,62.5
132,208,27706,6,0,B|152:180|152:180|180:160,1,62.5
272,220,28070,2,0,B|258:245|258:245|234:272,1,62.5
174,163,28434,2,0,B|208:156|208:156|236:164,1,62.5,8|0,0:0|0:0,0:0:0:0:
144,269,28797,1,0,0:0:0:0:
272,220,28979,2,0,B|320:192|348:232|408:172,1,125
234,163,29525,5,8,0:0:0:0:
144,269,29706,1,0,0:0:0:0:
280,292,29888,1,8,0:0:0:0:
177,136,30070,1,0,0:0:0:0:
149,328,30252,1,0,0:0:0:0:
331,260,30434,1,0,0:0:0:0:
302,162,30615,5,8,0:0:0:0:
269,125,30797,1,0,0:0:0:0:
220,123,30979,1,0,0:0:0:0:
183,89,31162,1,0,0:0:0:0:
137,81,31343,1,0,0:0:0:0:
101,49,31526,1,0,0:0:0:0:
50,48,31706,1,0,0:0:0:0:
14,14,31888,1,0,0:0:0:0:
79,144,32070,5,0,0:0:0:0:
115,212,32252,1,0,0:0:0:0:
34,208,32434,1,0,0:0:0:0:
90,144,32615,1,0,0:0:0:0:
106,220,32797,1,0,0:0:0:0:
31,197,32979,1,0,0:0:0:0:
101,145,33161,1,0,0:0:0:0:
97,227,33343,1,0,0:0:0:0:
128,343,33525,6,0,L|163:292,1,62.5
259,290,33888,2,0,L|225:346,1,62.5
322,344,34252,2,0,L|353:290,1,62.5
444,288,34615,2,0,L|416:344,1,62.5
404,212,34979,5,0,0:0:0:0:
411,199,35161,1,0,0:0:0:0:
418,188,35343,1,0,0:0:0:0:
425,177,35525,1,0,0:0:0:0:
348,164,35706,5,0,0:0:0:0:
340,177,35888,1,0,0:0:0:0:
333,188,36070,1,0,0:0:0:0:
326,199,36252,1,0,0:0:0:0:
300,296,36434,6,0,L|240:316,3,62.5
192,232,37161,2,0,L|248:188,3,62.5
140,116,37888,6,0,L|103:174,3,62.5
12,141,38615,2,0,L|20:72,3,62.5
316,232,39343,5,0,0:0:0:0:
300,132,39525,2,0,L|292:64,2,62.5
316,232,40070,1,0,0:0:0:0:
396,168,40252,2,0,L|444:120,2,62.5
316,232,40797,5,0,0:0:0:0:
288,249,40978,1,0,0:0:0:0:
255,262,41160,1,0,0:0:0:0:
224,268,41342,1,0,0:0:0:0:
188,268,41525,2,0,L|124:264,3,62.5
376,184,42251,6,0,L|416:124,2,62.5
337,240,42797,1,0,0:0:0:0:
298,296,42979,2,0,L|255:359,2,62.5
337,240,43525,1,0,0:0:0:0:
376,184,43706,6,0,L|413:131,2,62.5
337,240,44252,1,0,0:0:0:0:
299,251,44434,1,0,0:0:0:0:
259,249,44615,1,0,0:0:0:0:
222,233,44797,1,0,0:0:0:0:
196,206,44979,1,0,0:0:0:0:
196,100,45161,5,0,0:0:0:0:
140,56,45342,1,0,0:0:0:0:
128,124,45524,1,0,0:0:0:0:
196,88,45705,1,0,0:0:0:0:
130,63,45887,1,0,0:0:0:0:
136,132,46069,1,0,0:0:0:0:
192,76,46252,2,0,L|228:16,1,62.5
160,228,46615,5,0,0:0:0:0:
200,316,46796,1,0,0:0:0:0:
256,236,46978,1,0,0:0:0:0:
152,244,47160,1,0,0:0:0:0:
216,313,47343,1,0,0:0:0:0:
244,224,47524,1,0,0:0:0:0:
152,260,47706,2,0,L|84:292,1,62.5
372,224,48069,5,0,0:0:0:0:
460,136,48251,1,0,0:0:0:0:
344,104,48433,1,0,0:0:0:0:
416,224,48615,1,0,0:0:0:0:
435,101,48796,1,0,0:0:0:0:
322,143,48978,1,0,0:0:0:0:
448,196,49161,2,0,L|520:232,1,62.5
248,68,49524,5,0,0:0:0:0:
93,137,49705,1,0,0:0:0:0:
233,235,49887,1,0,0:0:0:0:
185,49,50070,1,0,0:0:0:0:
108,200,50252,1,0,0:0:0:0:
277,188,50434,1,0,0:0:0:0:
124,72,50615,2,0,L|68:24,1,62.5
259,51,50979,6,0,L|304:96,3,62.5,8|0|0|0,0:0|0:0|0:0|0:0,0:0:0:0:
168,224,51706,2,0,L|127:176,3,62.5,8|0|0|0,0:0|0:0|0:0|0:0,0:0:0:0:
336,212,52434,2,0,L|284:156,3,62.5,8|0|0|0,0:0|0:0|0:0|0:0,0:0:0:0:
124,72,53160,2,0,L|168:120,3,62.5,8|0|0|0,0:0|0:0|0:0|0:0,0:0:0:0:
260,188,53887,5,8,0:0:0:0:
236,173,54251,1,8,0:0:0:0:
214,158,54615,1,8,0:0:0:0:
192,143,54978,1,8,0:0:0:0:
169,129,55343,5,0,0:0:0:0:
376,129,55525,1,0,0:0:0:0:
207,249,55706,1,0,0:0:0:0:
272,53,55888,1,0,0:0:0:0:
336,250,56070,1,0,0:0:0:0:
169,129,56252,6,0,L|149:117,3,20.8333333333333
388,17,56615,1,8,0:0:0:0:
354,279,56797,1,8,0:0:0:0:
140,113,56979,1,8,0:0:0:0:
376,129,57161,2,0,B|410:147|440:125|440:125|464:96|508:105,2,125,0|8|0,0:0|0:0|0:0,0:0:0:0:
169,129,58251,5,0,0:0:0:0:
217,310,58434,1,0,0:0:0:0:
256,192,58615,1,0,0:0:0:0:
120,315,58797,1,0,0:0:0:0:
304,267,58979,2,0,B|400:268|400:268|360:232,1,125
264,88,59705,5,0,0:0:0:0:
160,232,59887,1,0,0:0:0:0:
264,88,60069,2,0,B|284:48|328:36|328:36|308:0,2,125,0|8|0,0:0|0:0|0:0,0:0:0:0:
160,232,61160,5,0,0:0:0:0:
79,74,61342,1,0,0:0:0:0:
160,232,61524,2,0,B|176:264|200:280|200:280|188:304|196:340,2,125,0|8|0,0:0|0:0|0:0,0:0:0:0:
56,148,62615,6,0,P|24:128|8:104,1,62.5
132,132,62979,1,0,0:0:0:0:
208,148,63161,2,0,P|240:146|270:126,1,62.5
132,152,63525,1,0,0:0:0:0:
56,168,63706,6,0,P|24:148|8:124,1,62.5
132,172,64070,1,0,0:0:0:0:
208,188,64252,2,0,P|240:186|270:166,1,62.5
132,196,64615,1,0,0:0:0:0:
218,81,64797,2,0,B|266:57|266:13|266:13|318:-3|374:41,1,187.5,0|8,0:0|0:0,0:0:0:0:
392,55,65434,1,8,0:0:0:0:
421,82,65525,6,0,P|444:107|461:151,1,62.5
224,112,65888,1,8,0:0:0:0:
232,256,66070,2,0,L|236:328,1,62.5
328,56,66434,1,8,0:0:0:0:
336,200,66616,2,0,L|340:272,1,62.5
420,0,66979,1,8,0:0:0:0:
232,296,68433,5,8,0:0:0:0:
80,140,68615,2,0,B|52:111|52:111|38:68,2,78.125
240,296,69160,1,8,0:0:0:0:
200,76,69342,2,0,B|194:36|194:36|211:-3,2,78.125
248,296,69888,5,8,0:0:0:0:
324,84,70070,2,0,B|340:50|340:50|372:25,2,78.125
256,296,70615,1,8,0:0:0:0:
424,152,70797,2,0,B|454:124|454:124|498:118,2,78.125
264,296,71343,5,8,0:0:0:0:
264,64,71526,1,0,0:0:0:0:
184,192,71707,1,0,0:0:0:0:
344,192,71889,1,0,0:0:0:0:
184,296,72070,1,8,0:0:0:0:
188,64,72253,1,0,0:0:0:0:
104,192,72434,1,0,0:0:0:0:
264,192,72615,1,0,0:0:0:0:
104,296,72797,5,8,0:0:0:0:
224,124,72979,2,0,L|264:192,1,78.125
104,192,73343,1,0,0:0:0:0:
241,33,73525,1,0,0:0:0:0:
104,100,73706,1,0,0:0:0:0:
304,124,73888,2,0,L|344:192,1,78.125
220,12,74252,5,8,0:0:0:0:
404,108,74433,1,0,0:0:0:0:
232,216,74615,1,0,0:0:0:0:
352,8,74796,1,0,0:0:0:0:
356,216,74979,1,8,0:0:0:0:
168,116,75160,1,0,0:0:0:0:
352,8,75342,1,0,0:0:0:0:
232,216,75524,1,0,0:0:0:0:
220,12,75706,5,8,0:0:0:0:
404,108,75888,2,0,B|435:128|435:128|459:166,2,78.125
220,12,76434,1,8,0:0:0:0:
232,216,76615,2,0,B|234:258|234:258|250:292,2,78.125
220,12,77161,5,8,0:0:0:0:
231,40,77252,1,0,0:0:0:0:
231,74,77343,1,0,0:0:0:0:
220,104,77434,1,0,0:0:0:0:
200,130,77525,2,0,L|169:156,3,39.0625
92,212,77888,5,8,0:0:0:0:
68,231,77979,1,0,0:0:0:0:
54,262,78070,1,0,0:0:0:0:
51,293,78161,1,0,0:0:0:0:
59,326,78252,2,0,L|78:361,3,39.0625
168,316,78615,5,8,0:0:0:0:
187,291,78706,1,0,0:0:0:0:
198,259,78797,1,0,0:0:0:0:
196,228,78888,1,0,0:0:0:0:
185,196,78979,2,0,L|160:161,3,39.0625
144,88,79343,2,0,B|105:94|86:135|86:135|37:137|15:170,1,156.25,8|0,0:0|0:0,0:0:0:0:
392,8,80070,5,0,0:0:0:0:
416,208,80252,1,0,0:0:0:0:
352,52,80434,1,0,0:0:0:0:
416,244,80616,1,0,0:0:0:0:
312,96,80797,1,8,0:0:0:0:
416,284,80979,1,0,0:0:0:0:
272,140,81161,1,0,0:0:0:0:
416,320,81343,1,0,0:0:0:0:
232,184,81525,5,8,0:0:0:0:
56,192,81706,1,0,0:0:0:0:
160,328,81888,1,0,0:0:0:0:
56,156,82070,1,0,0:0:0:0:
232,212,82252,1,8,0:0:0:0:
200,44,82434,1,0,0:0:0:0:
232,248,82616,1,0,0:0:0:0:
56,120,82797,1,0,0:0:0:0:
232,248,82979,5,8,0:0:0:0:
364,108,83161,2,0,B|392:84|392:84|432:72,2,78.125
232,248,83706,1,8,0:0:0:0:
424,292,83888,2,0,B|464:296|464:296|500:284,2,78.125
240,248,84434,5,8,0:0:0:0:
224,60,84616,1,0,0:0:0:0:
272,256,84797,1,0,0:0:0:0:
188,56,84979,1,0,0:0:0:0:
304,264,85161,1,8,0:0:0:0:
152,48,85343,2,0,B|124:20|124:20|88:8,2,78.125
424,196,85888,5,8,0:0:0:0:
260,52,86070,1,0,0:0:0:0:
232,260,86252,1,0,0:0:0:0:
76,136,86434,1,0,0:0:0:0:
260,52,86615,2,0,L|336:20,1,78.125
76,136,86979,2,0,P|17:194|0:260,1,117.1875,0|8,0:0|0:0,0:0:0:0:
0,265,87343,5,0,0:0:0:0:
226,336,87525,1,0,0:0:0:0:
168,120,87706,1,0,0:0:0:0:
104,337,87888,1,0,0:0:0:0:
338,268,88070,2,0,L|421:268,1,78.125
168,120,88434,2,0,P|104:117|37:165,1,117.1875,0|8,0:0|0:0,0:0:0:0:
29,169,88797,5,8,0:0:0:0:
304,224,88979,1,0,0:0:0:0:
76,338,89161,1,8,0:0:0:0:
304,224,89343,1,0,0:0:0:0:
76,338,89525,2,0,L|-15:379,1,78.125
304,224,89888,2,0,P|347:170|350:106,1,117.1875
353,84,90252,5,8,0:0:0:0:
119,168,90434,1,0,0:0:0:0:
272,23,90615,1,0,0:0:0:0:
206,253,90797,1,0,0:0:0:0:
148,48,90979,2,0,L|86:0,1,78.125,8|0,0:0|0:0,0:0:0:0:
428,8,91343,2,0,P|401:64|362:104,1,117.1875
316,136,91706,5,8,0:0:0:0:
264,160,91888,1,0,0:0:0:0:
208,164,92070,1,8,0:0:0:0:
232,116,92252,1,0,0:0:0:0:
264,216,92434,1,8,0:0:0:0:
152,156,92616,1,0,0:0:0:0:
276,88,92797,1,8,0:0:0:0:
244,268,92979,1,0,0:0:0:0:
104,128,93161,5,8,0:0:0:0:
332,76,93343,1,0,0:0:0:0:
204,304,93525,1,8,0:0:0:0:
72,80,93706,1,0,0:0:0:0:
388,84,93888,1,8,0:0:0:0:
152,324,94070,1,0,0:0:0:0:
68,24,94252,1,8,0:0:0:0:
388,84,94434,2,8,L|412:76,2,20.8333333333333
340,104,94615,5,8,0:0:0:0:
192,144,94797,2,0,L|112:172,1,78.125
356,136,95161,1,0,0:0:0:0:
204,216,95343,2,0,L|128:244,1,78.125
372,164,95706,1,0,0:0:0:0:
220,288,95888,1,0,0:0:0:0:
372,164,96070,5,0,0:0:0:0:
400,132,96161,1,0,0:0:0:0:
408,89,96252,1,0,0:0:0:0:
421,48,96343,1,0,0:0:0:0:
451,17,96434,1,0,0:0:0:0:
220,24,96615,1,8,0:0:0:0:
488,88,96979,1,8,0:0:0:0:
120,200,97525,6,0,B|88:196|88:196|184:160,2,125,8|8|8,0:0|0:0|0:0,0:0:0:0:
340,212,98434,2,0,B|416:216,1,62.5
120,200,98797,1,0,0:0:0:0:
308,100,98979,2,0,B|376:68|444:100|444:100|396:128,2,187.5,0|0|8,0:0|0:0|0:0,0:0:0:0:
108,242,100434,6,0,L|48:294,1,62.5,8|0,0:0|0:0,0:0:0:0:
244,128,100797,1,0,0:0:0:0:
384,244,100979,2,0,L|444:300,1,62.5,0|8,0:0|0:0,0:0:0:0:
244,128,101343,2,0,L|184:84,1,62.5
384,244,101706,1,0,0:0:0:0:
256,192,101888,12,0,103161,0:0:0:0:
360,64,103343,5,4,0:0:0:0:
408,152,103525,1,0,0:0:0:0:
312,152,103706,1,0,0:0:0:0:
404,96,103888,1,0,0:0:0:0:
360,176,104070,1,0,0:0:0:0:
312,96,104252,1,0,0:0:0:0:
408,152,104434,1,0,0:0:0:0:
312,152,104615,1,0,0:0:0:0:
104,168,104797,5,0,0:0:0:0:
176,96,104979,1,0,0:0:0:0:
204,196,105160,1,0,0:0:0:0:
120,112,105343,2,0,L|72:60,2,62.5
204,196,105888,1,0,0:0:0:0:
312,196,106069,1,0,0:0:0:0:
324,312,106252,6,0,L|256:342,1,62.5
263,261,106615,2,0,L|325:233,1,62.5
260,185,106979,2,0,L|202:210,1,62.5
195,134,107343,2,0,L|260:107,1,62.5
98,142,107706,6,0,L|41:171,2,62.5
188,113,108252,1,0,0:0:0:0:
27,83,108434,1,0,0:0:0:0:
113,50,108615,2,0,L|176:23,2,62.5
206,209,109161,5,0,0:0:0:0:
242,189,109343,1,0,0:0:0:0:
270,153,109525,1,0,0:0:0:0:
286,113,109706,1,0,0:0:0:0:
146,129,109888,5,0,0:0:0:0:
110,141,110070,1,0,0:0:0:0:
82,165,110251,1,0,0:0:0:0:
62,201,110434,1,0,0:0:0:0:
206,209,110615,5,0,0:0:0:0:
246,229,110797,1,0,0:0:0:0:
278,257,110979,1,0,0:0:0:0:
302,293,111161,1,0,0:0:0:0:
130,297,111343,5,0,0:0:0:0:
98,273,111525,1,0,0:0:0:0:
74,241,111706,1,0,0:0:0:0:
62,201,111888,1,0,0:0:0:0:
319,143,112070,6,0,L|390:166,2,62.5
218,91,112615,1,0,0:0:0:0:
313,34,112797,2,0,L|373:-1,2,62.5
218,91,113343,1,0,0:0:0:0:
296,224,113525,5,8,0:0:0:0:
218,91,113706,2,0,P|192:76|160:76,1,62.5,8|0,0:0|0:0,0:0:0:0:
212,253,114070,1,8,0:0:0:0:
279,146,114252,1,0,0:0:0:0:
112,177,114434,1,8,0:0:0:0:
296,224,114615,2,0,B|334:225|363:197,1,62.5,8|0,0:0|0:0,0:0:0:0:
176,152,114979,5,8,0:0:0:0:
160,76,115161,1,0,0:0:0:0:
124,210,115343,2,0,L|176:252,1,62.5
234,100,115706,1,8,0:0:0:0:
226,22,115888,1,0,0:0:0:0:
176,152,116070,2,0,L|223:199,1,62.5
297,54,116434,5,8,0:0:0:0:
226,22,116615,1,0,0:0:0:0:
296,134,116797,2,0,L|280:196,1,62.5
366,95,117161,1,8,0:0:0:0:
370,16,117342,1,0,0:0:0:0:
296,134,117524,2,0,L|234:152,1,62.5
297,54,117888,5,8,0:0:0:0:
366,95,118070,1,0,0:0:0:0:
365,174,118252,2,0,L|332:232,1,62.5
366,95,118615,1,8,0:0:0:0:
434,135,118797,1,0,0:0:0:0:
433,213,118979,2,0,L|405:271,1,62.5
434,135,119343,5,8,0:0:0:0:
484,272,119525,1,0,0:0:0:0:
339,246,119706,2,0,L|281:208,1,62.5
500,176,120070,1,8,0:0:0:0:
351,317,120252,1,0,0:0:0:0:
297,133,120434,2,0,L|297:69,1,62.5
432,136,120797,5,8,0:0:0:0:
358,206,120979,1,0,0:0:0:0:
365,86,121161,1,0,0:0:0:0:
407,271,121343,1,8,0:0:0:0:
226,214,121525,1,8,0:0:0:0:
352,316,121706,1,0,0:0:0:0:
318,144,121888,2,0,L|287:83,1,62.5
283,293,122252,5,8,0:0:0:0:
420,344,122434,1,0,0:0:0:0:
297,367,122615,1,0,0:0:0:0:
213,271,122797,1,8,0:0:0:0:
412,271,122979,1,8,0:0:0:0:
226,343,123161,1,0,0:0:0:0:
220,168,123343,2,0,L|207:90,1,62.5
52,164,123706,5,8,0:0:0:0:
52,336,123888,1,0,0:0:0:0:
152,164,124070,1,8,0:0:0:0:
0,252,124252,1,0,0:0:0:0:
148,336,124434,1,8,0:0:0:0:
52,164,124615,1,0,0:0:0:0:
52,336,124797,1,8,0:0:0:0:
196,252,124979,1,0,0:0:0:0:
203,82,125161,5,8,0:0:0:0:
196,252,125343,1,0,0:0:0:0:
339,182,125525,1,8,0:0:0:0:
135,122,125706,1,0,0:0:0:0:
331,258,125888,1,8,0:0:0:0:
347,98,126070,1,0,0:0:0:0:
196,252,126252,1,0,0:0:0:0:
279,46,126434,1,0,0:0:0:0:
331,258,126615,5,8,0:0:0:0:
339,182,126797,1,0,0:0:0:0:
403,226,126979,1,8,0:0:0:0:
267,214,127161,1,0,0:0:0:0:
407,154,127343,1,8,0:0:0:0:
395,302,127525,1,0,0:0:0:0:
271,138,127706,1,8,0:0:0:0:
475,194,127888,1,0,0:0:0:0:
328,344,128070,6,0,L|272:380,1,62.5,8|0,0:0|0:0,0:0:0:0:
271,138,128434,2,0,L|271:74,1,62.5,8|0,0:0|0:0,0:0:0:0:
395,302,128797,1,8,0:0:0:0:
271,138,128979,2,0,B|239:120|239:120|213:116,2,62.5,0|8|0,0:0|0:0|0:0,0:0:0:0:
383,240,129525,6,8,L|397:313,1,62.5,0|0,0:0|0:0,0:0:0:0:
271,138,129888,2,0,P|281:111|327:159,1,125,0|8,0:0|0:0,0:0:0:0:
148,232,130434,2,0,B|124:256|124:256|112:284,2,62.5
271,138,130979,6,0,B|288:112|288:112|292:72,2,62.5,8|0|0,0:0|0:0|0:0,0:0:0:0:
148,232,131525,1,8,0:0:0:0:
356,188,131706,1,8,0:0:0:0:
196,88,131888,1,0,0:0:0:0:
220,288,132070,2,0,B|219:319|219:319|205:346,1,62.5
240,196,132434,6,8,L|296:140,1,62.5,0|0,0:0|0:0,0:0:0:0:
414,176,132797,2,0,B|423:194|441:201|441:201|355:187,1,125,0|12,0:0|0:0,0:0:0:0:
240,196,133343,1,0,0:0:0:0:
312,43,133525,1,0,0:0:0:0:
146,50,133706,1,0,0:0:0:0:
240,196,133888,6,0,B|256:236|292:216|292:216|324:192|284:140|240:176|228:44,1,250,8|12,0:0|0:0,0:0:0:0:
240,196,134797,1,0,0:0:0:0:
106,120,134979,1,8,0:0:0:0:
106,278,135161,1,0,0:0:0:0:
240,196,135343,1,8,0:0:0:0:
256,192,135525,12,0,136797,0:0:0:0:
336,52,137525,5,0,0:0:0:0:
120,120,137888,2,0,B|134:119|134:119|120:165,1,62.5,0|8,0:0|0:0,0:0:0:0:
110,202,138161,1,8,0:0:0:0:
102,234,138252,6,0,L|86:298,1,62.5
205,113,138615,1,8,0:0:0:0:
165,273,138797,2,0,L|150:333,1,62.5
241,139,139160,1,8,0:0:0:0:
222,324,139343,2,0,L|208:384,1,62.5
277,165,139706,1,8,0:0:0:0:
160,120,141161,6,0,B|136:92|136:92|96:80,2,78.125,8|0|0,0:0|0:0|0:0,0:0:0:0:
160,120,141888,5,8,0:0:0:0:
272,340,142070,1,0,0:0:0:0:
417,143,142252,1,0,0:0:0:0:
132,196,142434,1,0,0:0:0:0:
424,224,142615,2,0,B|460:223|460:223|496:200,2,78.125,8|0|0,0:0|0:0|0:0,0:0:0:0:
424,224,143343,5,8,0:0:0:0:
132,196,143525,1,8,0:0:0:0:
132,196,143888,5,0,0:0:0:0:
404,128,144070,1,8,0:0:0:0:
158,289,144252,1,0,0:0:0:0:
336,60,144434,1,0,0:0:0:0:
172,308,144615,1,0,0:0:0:0:
244,32,144797,1,8,0:0:0:0:
188,328,144979,2,0,L|132:384,1,78.125
132,383,145525,5,8,0:0:0:0:
220,228,145706,1,0,0:0:0:0:
152,64,145888,1,0,0:0:0:0:
152,64,146252,5,8,0:0:0:0:
300,196,146434,1,8,0:0:0:0:
131,143,146615,2,0,B|65:114|75:42,1,117.1875,8|8,0:0|0:0,0:0:0:0:
80,17,146979,1,8,0:0:0:0:
228,28,147161,2,0,B|268:32|268:32|316:20,2,78.125
72,16,147706,1,8,0:0:0:0:
72,200,147888,2,0,B|72:239|72:239|91:282,2,78.125
224,24,148434,5,8,0:0:0:0:
80,112,148615,1,0,0:0:0:0:
193,230,148797,1,0,0:0:0:0:
136,36,148979,1,0,0:0:0:0:
104,200,149161,1,8,0:0:0:0:
272,196,149343,1,0,0:0:0:0:
122,289,149525,2,0,P|86:301|39:291,1,62.5,8|0,0:0|0:0,0:0:0:0:
304,302,149888,5,8,0:0:0:0:
334,299,149979,1,0,0:0:0:0:
364,283,150070,1,0,0:0:0:0:
385,261,150161,1,0,0:0:0:0:
400,232,150252,2,0,L|404:180,3,31.25
336,144,150615,5,8,0:0:0:0:
312,122,150706,1,0,0:0:0:0:
300,92,150797,1,0,0:0:0:0:
300,60,150888,1,0,0:0:0:0:
311,30,150979,2,0,L|332:-12,3,31.25
224,16,151343,5,8,0:0:0:0:
196,38,151434,1,0,0:0:0:0:
179,61,151525,1,0,0:0:0:0:
168,96,151616,1,0,0:0:0:0:
171,124,151706,2,0,L|190:164,3,31.25
203,178,152070,1,0,0:0:0:0:
352,120,152252,5,8,0:0:0:0:
79,66,152434,1,8,0:0:0:0:
264,256,152797,6,0,B|288:288|288:288|296:328,2,78.125,8|0|0,0:0|0:0|0:0,0:0:0:0:
344,244,153525,2,0,B|320:212|320:212|312:172,1,78.125,8|0,0:0|0:0,0:0:0:0:
392,180,154070,1,0,0:0:0:0:
176,216,154252,5,8,0:0:0:0:
256,24,154434,1,0,0:0:0:0:
256,24,154797,1,0,0:0:0:0:
176,216,154979,1,8,0:0:0:0:
392,180,155161,1,0,0:0:0:0:
176,140,155343,1,0,0:0:0:0:
176,140,155706,5,8,0:0:0:0:
392,256,155888,2,0,B|427:273|427:273|469:274,2,78.125
240,180,156434,1,8,0:0:0:0:
352,324,156615,2,0,B|379:353|379:353|434:363,2,78.125
176,216,157161,5,8,0:0:0:0:
368,180,157343,2,0,L|432:128,1,78.125
428,130,157888,1,8,0:0:0:0:
176,140,158070,1,0,0:0:0:0:
356,104,158252,1,0,0:0:0:0:
356,104,158615,5,8,0:0:0:0:
297,271,158797,2,0,B|273:304|273:304|215:329,2,78.125
286,74,159343,1,8,0:0:0:0:
168,320,159525,1,0,0:0:0:0:
136,74,159706,1,0,0:0:0:0:
239,319,159888,1,0,0:0:0:0:
286,74,160070,6,0,B|304:40|304:40|340:20,2,78.125
168,320,160615,1,0,0:0:0:0:
212,76,160797,1,8,0:0:0:0:
316,260,160979,1,0,0:0:0:0:
100,260,161161,1,0,0:0:0:0:
316,260,161343,1,0,0:0:0:0:
88,168,161525,6,8,L|0:200,2,78.125,8|8|0,0:0|0:0|0:0,0:0:0:0:
328,172,162070,1,8,0:0:0:0:
104,76,162252,1,8,0:0:0:0:
364,88,162434,1,0,0:0:0:0:
172,204,162615,1,0,0:0:0:0:
364,88,162797,1,0,0:0:0:0:
316,260,162979,5,0,0:0:0:0:
180,56,163161,1,0,0:0:0:0:
364,88,163343,1,0,0:0:0:0:
172,204,163525,2,12,L|96:248,1,78.125,8|12,0:0|0:0,0:0:0:0:
300,148,164070,5,12,0:0:0:0:
284,228,164434,5,8,0:0:0:0:
224,172,164615,1,0,0:0:0:0:
300,148,164797,1,8,0:0:0:0:
208,252,164979,1,0,0:0:0:0:
240,92,165161,1,8,0:0:0:0:
360,204,165343,1,0,0:0:0:0:
148,196,165525,1,8,0:0:0:0:
316,68,165706,1,0,0:0:0:0:
346,280,165888,5,8,0:0:0:0:
164,120,166070,1,0,0:0:0:0:
376,120,166252,1,8,0:0:0:0:
268,308,166434,1,0,0:0:0:0:
260,16,166615,1,8,0:0:0:0:
420,260,166797,1,0,0:0:0:0:
132,276,166979,1,8,0:0:0:0:
260,16,167161,2,8,L|276:-8,2,20.8333333333333
240,50,167344,5,8,0:0:0:0:
204,266,167525,1,8,0:0:0:0:
268,50,167707,1,0,0:0:0:0:
240,266,167889,1,0,0:0:0:0:
120,86,168071,1,8,0:0:0:0:
360,202,168253,1,8,0:0:0:0:
140,346,168434,1,0,0:0:0:0:
120,86,168615,1,0,0:0:0:0:
79,196,168797,5,8,0:0:0:0:
67,232,168888,1,0,0:0:0:0:
71,268,168979,1,0,0:0:0:0:
79,308,169070,1,0,0:0:0:0:
63,344,169161,1,0,0:0:0:0:
205,171,169343,1,8,0:0:0:0:
364,322,169706,1,8,0:0:0:0:
368,120,170252,5,0,0:0:0:0:
364,244,170434,2,0,L|364:328,1,78.125,0|8,0:0|0:0,0:0:0:0:
268,120,170797,1,8,0:0:0:0:
268,248,170979,2,0,L|268:336,1,78.125,0|8,0:0|0:0,0:0:0:0:
176,120,171343,1,8,0:0:0:0:
176,248,171525,2,0,L|176:332,1,78.125,0|8,0:0|0:0,0:0:0:0:
84,124,171888,1,8,0:0:0:0:
84,248,172070,2,0,L|84:344,1,78.125,0|8,0:0|0:0,0:0:0:0:
176,120,172434,5,8,0:0:0:0:
392,24,172615,1,0,0:0:0:0:
380,240,172797,1,0,0:0:0:0:
264,48,172979,2,0,L|248:20,3,20.8333333333333
281,162,173343,5,0,0:0:0:0:
213,254,173525,1,8,0:0:0:0:
397,142,173706,1,0,0:0:0:0:
281,162,173888,1,0,0:0:0:0:
305,50,174070,1,8,0:0:0:0:
345,274,174251,1,0,0:0:0:0:
281,162,174434,1,0,0:0:0:0:
452,232,174615,6,8,L|492:300,1,78.125
456,116,174979,1,0,0:0:0:0:
395,328,175161,2,0,L|339:388,1,62.5
368,200,175525,1,8,0:0:0:0:
356,168,175615,1,8,0:0:0:0:
346,135,175706,1,8,0:0:0:0:
304,264,175888,1,8,0:0:0:0:
440,140,176070,6,8,L|460:76,1,62.5
151,220,178797,5,8,0:0:0:0:
284,87,178979,1,0,0:0:0:0:
332,268,179161,1,0,0:0:0:0:
130,198,180979,6,8,L|108:208,3,20.8333333333333
372,84,181646,2,8,L|416:60,2,41.6666666666667
130,198,182070,5,0,0:0:0:0:
372,84,182252,1,0,0:0:0:0:
242,319,182434,1,0,0:0:0:0:
210,53,182615,1,8,0:0:0:0:
399,255,182797,2,0,B|416:285|416:285|415:323,2,62.5
224,36,183343,5,8,0:0:0:0:
130,198,183525,2,0,B|104:219|104:219|64:225,2,62.5
240,20,184070,1,8,0:0:0:0:
298,214,184252,2,0,B|298:244|298:244|280:276,2,62.5
252,4,184797,1,8,0:0:0:0:
199,183,184979,1,0,0:0:0:0:
382,138,185161,1,0,0:0:0:0:
382,138,185525,5,8,0:0:0:0:
200,85,185707,1,0,0:0:0:0:
248,269,185889,1,0,0:0:0:0:
248,269,186252,5,8,0:0:0:0:
297,88,186434,1,0,0:0:0:0:
115,136,186616,1,0,0:0:0:0:
115,136,186979,5,8,0:0:0:0:
244,2,187161,1,0,0:0:0:0:
294,183,187343,1,0,0:0:0:0:
185,85,187706,5,4,0:0:0:0:
364,40,187888,2,0,B|396:32|396:32|420:12,2,62.5
185,139,188434,1,8,0:0:0:0:
376,228,188615,2,0,B|408:240|408:240|448:236,2,62.5
199,203,189161,5,8,0:0:0:0:
38,134,189343,1,0,0:0:0:0:
177,305,189525,1,0,0:0:0:0:
135,129,189706,1,0,0:0:0:0:
88,346,189888,1,8,0:0:0:0:
228,112,190070,1,0,0:0:0:0:
93,253,190252,1,0,0:0:0:0:
297,180,190434,1,0,0:0:0:0:
93,253,190615,6,0,B|63:267|63:267|30:263,2,62.5,8|0|0,0:0|0:0|0:0,0:0:0:0:
93,253,191343,1,8,0:0:0:0:
269,312,191525,2,0,B|299:319|299:319|334:307,2,62.5
165,186,192070,5,0,0:0:0:0:
268,157,192434,1,0,0:0:0:0:
58,157,192797,2,0,B|24:157|24:157|-4:175,2,62.5,8|0|0,0:0|0:0|0:0,0:0:0:0:
376,72,193525,6,0,L|436:28,1,62.5,8|0,0:0|0:0,0:0:0:0:
212,72,193888,2,0,L|148:88,1,62.5,8|0,0:0|0:0,0:0:0:0:
302,218,194252,2,0,L|354:258,1,62.5,8|0,0:0|0:0,0:0:0:0:
112,216,194615,2,0,L|48:200,1,62.5,8|0,0:0|0:0,0:0:0:0:
291,123,194979,6,0,L|344:162,1,62.5,8|0,0:0|0:0,0:0:0:0:
120,122,195343,2,0,L|99:61,1,62.5,8|0,0:0|0:0,0:0:0:0:
211,273,195706,2,0,L|169:328,1,62.5,8|0,0:0|0:0,0:0:0:0:
209,96,196070,2,0,L|253:51,1,62.5,8|0,0:0|0:0,0:0:0:0:
220,184,196434,6,0,P|195:185|172:180,3,41.6666666666667,8|0|0|0,0:0|0:0|0:0|0:0,0:0:0:0:
136,172,196918,1,8,0:0:0:0:
96,144,197040,1,8,0:0:0:0:
68,104,197161,1,8,0:0:0:0:
64,56,197282,2,0,P|68:32|88:4,4,41.6666666666667
184,72,197888,6,0,L|228:92,5,41.6666666666667,8|0|0|0|0|0,0:0|0:0|0:0|0:0|0:0|0:0,0:0:0:0:
232,236,198615,1,8,0:0:0:0:
348,108,198737,2,0,L|384:88,2,41.6666666666667,8|8|8,0:0|0:0|0:0,0:0:0:0:
72,192,199221,1,8,0:0:0:0:
116,312,199343,6,0,L|144:356,5,41.6666666666667
72,192,200070,1,8,0:0:0:0:
196,232,200191,2,0,L|240:248,4,41.6666666666667
72,192,200797,5,8,0:0:0:0:
168,120,200918,2,0,L|204:92,4,41.6666666666667
72,192,201525,1,0,0:0:0:0:
120,244,213888,6,0,L|141:315,2,62.5,8|0|0,0:0|0:0|0:0,0:0:0:0:
192,104,214434,1,0,0:0:0:0:
345,71,214615,2,0,L|411:101,1,62.5,8|0,0:0|0:0,0:0:0:0:
326,244,214979,2,0,L|325:318,1,62.5
284,161,215343,1,0,0:0:0:0:
385,57,215525,6,0,L|426:5,1,62.5
270,179,215888,1,0,0:0:0:0:
157,131,216070,1,8,0:0:0:0:
354,143,216252,1,0,0:0:0:0:
172,249,216434,1,0,0:0:0:0:
232,32,216615,1,0,0:0:0:0:
278,303,216797,5,0,0:0:0:0:
278,102,216979,1,0,0:0:0:0:
450,206,217161,1,0,0:0:0:0:
282,190,217343,2,0,L|226:158,1,62.5,0|8,0:0|0:0,0:0:0:0:
447,100,217706,1,0,0:0:0:0:
446,304,217888,1,0,0:0:0:0:
282,190,218070,1,0,0:0:0:0:
332,51,218252,5,8,0:0:0:0:
215,194,218434,1,0,0:0:0:0:
399,194,218615,1,0,0:0:0:0:
355,98,218797,1,0,0:0:0:0:
251,250,218979,1,8,0:0:0:0:
431,250,219160,1,0,0:0:0:0:
251,140,219343,2,0,P|216:104|211:48,1,93.75
214,29,219706,5,8,0:0:0:0:
183,216,219888,2,0,L|172:283,2,62.5
233,31,220434,1,8,0:0:0:0:
369,139,220615,1,0,0:0:0:0:
165,191,220797,1,0,0:0:0:0:
257,31,220979,1,0,0:0:0:0:
369,163,221161,5,0,0:0:0:0:
145,179,221343,1,0,0:0:0:0:
277,31,221525,1,0,0:0:0:0:
369,183,221706,1,0,0:0:0:0:
225,123,221888,1,12,0:0:0:0:
196,110,222070,1,0,0:0:0:0:
174,101,222252,1,0,0:0:0:0:
161,94,222434,1,0,0:0:0:0:
247,195,222615,5,0,0:0:0:0:
385,266,222797,2,0,L|456:303,2,62.5
247,174,223343,1,8,0:0:0:0:
322,306,223525,2,0,L|364:378,2,62.5
248,153,224070,5,8,0:0:0:0:
248,305,224252,2,0,L|248:389,2,62.5
248,133,224797,1,8,0:0:0:0:
178,278,224979,2,0,L|151:343,2,62.5
248,112,225525,5,8,0:0:0:0:
228,164,225706,1,0,0:0:0:0:
284,156,225888,1,8,0:0:0:0:
200,84,226070,1,0,0:0:0:0:
232,220,226252,1,8,0:0:0:0:
332,128,226434,1,0,0:0:0:0:
144,80,226615,1,8,0:0:0:0:
252,272,226797,1,0,0:0:0:0:
356,76,226979,5,12,0:0:0:0:
92,100,227161,1,0,0:0:0:0:
292,312,227343,1,12,0:0:0:0:
360,20,227525,1,0,0:0:0:0:
252,272,227706,2,0,L|224:344,1,62.5,8|0,0:0|0:0,0:0:0:0:
356,76,228070,2,0,L|383:7,1,62.5,8|0,0:0|0:0,0:0:0:0:
348,136,240070,6,8,P|384:116|444:116,2,93.7500035762788
264,196,240979,1,0,0:0:0:0:
192,268,241161,2,0,L|144:316,1,62.5,0|8,0:0|0:0,0:0:0:0:
164,172,241525,5,0,0:0:0:0:
264,196,241706,1,0,0:0:0:0:
164,172,241888,2,8,P|112:172|64:196,1,93.7500035762788,0|0,0:0|0:0,0:0:0:0:
192,268,242615,2,0,L|263:289,1,62.5
164,172,242979,5,8,0:0:0:0:
96,99,243161,2,0,L|37:77,1,62.5,0|8,0:0|0:0,0:0:0:0:
195,80,243525,1,0,0:0:0:0:
264,155,243706,2,0,L|326:187,1,62.5,8|0,0:0|0:0,0:0:0:0:
332,190,243979,1,0,0:0:0:0:
345,197,244070,1,0,0:0:0:0:
296,57,244252,1,8,0:0:0:0:
264,155,244434,6,0,L|204:196,1,62.5
366,129,244797,2,0,L|429:114,1,62.5
264,155,245161,1,0,0:0:0:0:
298,254,245343,1,0,0:0:0:0:
165,174,245525,6,0,L|66:151,1,93.7500035762788,8|0,0:0|0:0,0:0:0:0:
256,192,248797,12,0,250797,0:0:0:0:
248,64,250979,5,0,0:0:0:0:
98,201,251161,1,0,0:0:0:0:
376,24,251706,5,8,0:0:0:0:
340,208,251888,2,0,B|332:240|332:240|308:268,2,62.5
333,25,252434,1,8,0:0:0:0:
182,160,252615,2,0,B|158:181|158:181|123:192,2,62.5
291,25,253161,5,8,0:0:0:0:
99,121,253343,1,0,0:0:0:0:
255,209,253525,1,0,0:0:0:0:
231,25,253706,1,0,0:0:0:0:
287,209,253888,1,8,0:0:0:0:
347,25,254070,1,0,0:0:0:0:
319,209,254252,1,0,0:0:0:0:
291,25,254434,1,0,0:0:0:0:
255,209,254615,5,8,0:0:0:0:
152,52,254797,2,0,B|132:24|132:24|96:8,2,62.5
255,209,255343,1,8,0:0:0:0:
64,220,255525,2,0,B|36:220|36:220|8:196,2,62.5
256,208,256070,5,8,0:0:0:0:
152,52,256252,1,0,0:0:0:0:
124,228,256434,1,0,0:0:0:0:
276,128,256615,1,0,0:0:0:0:
168,264,256797,1,8,0:0:0:0:
292,188,256979,1,0,0:0:0:0:
212,304,257161,1,0,0:0:0:0:
308,248,257343,1,0,0:0:0:0:
260,68,257525,5,8,0:0:0:0:
160,132,257706,2,0,L|100:172,2,62.5
260,68,258252,1,8,0:0:0:0:
304,177,258434,2,0,L|328:241,2,62.5
236,68,258979,5,8,0:0:0:0:
228,239,259161,2,0,L|224:315,2,62.5
236,68,259706,1,8,0:0:0:0:
85,153,259888,2,0,L|29:185,2,62.5
256,60,260434,6,0,L|316:16,1,62.5,8|0,0:0|0:0,0:0:0:0:
348,184,260797,2,0,L|364:248,1,62.5,8|0,0:0|0:0,0:0:0:0:
184,196,261161,2,0,L|124:176,1,62.5,8|0,0:0|0:0,0:0:0:0:
284,328,261525,2,0,L|332:368,1,62.5,8|0,0:0|0:0,0:0:0:0:
266,168,261888,6,0,L|240:109,1,62.5,8|0,0:0|0:0,0:0:0:0:
197,288,262252,2,0,L|201:356,1,62.5,8|0,0:0|0:0,0:0:0:0:
117,175,262615,1,8,0:0:0:0:
197,288,262797,1,8,0:0:0:0:
266,168,262979,1,0,0:0:0:0:
286,153,263069,1,0,0:0:0:0:
309,145,263160,1,0,0:0:0:0:
334,143,263251,1,0,0:0:0:0:
359,147,263342,5,0,0:0:0:0:
256,192,263434,12,0,266070,0:0:0:0:
256,192,266252,5,8,0:0:0:0:
256,192,266797,12,0,268979,0:0:0:0:
40,96,269161,6,0,P|104:120|196:84,1,156.25,8|0,0:0|0:0,0:0:0:0:
206,72,269706,2,0,B|240:48|249:15|249:15|253:77|321:104|321:104|280:101|218:148|208:259,1,398.437515199185
205,290,271343,2,0,B|198:323|203:354|203:354|263:282|332:253,1,218.75
356,246,272070,2,0,B|415:227|461:236|461:236|451:189|386:159,1,218.75
354,146,272797,2,0,P|319:90|427:65,1,218.75
444,96,273525,1,8,0:0:0:0:
256,192,273615,12,0,274615,0:0:0:0:
336,156,274737,6,0,L|360:192,1,41.6666666666667
372,224,274979,2,0,L|416:284,2,62.5
248,48,275525,1,0,0:0:0:0:
176,204,275706,1,8,0:0:0:0:
348,188,275888,1,0,0:0:0:0:
176,108,276070,1,0,0:0:0:0:
268,240,276252,1,0,0:0:0:0:
324,96,276434,5,8,0:0:0:0:
176,108,276615,1,0,0:0:0:0:
348,188,276797,1,0,0:0:0:0:
176,108,276979,1,0,0:0:0:0:
268,240,277161,1,8,0:0:0:0:
248,48,277343,1,0,0:0:0:0:
176,204,277525,1,0,0:0:0:0:
324,96,277706,1,0,0:0:0:0:
268,240,277888,5,8,0:0:0:0:
176,108,278070,2,0,L|136:60,2,62.5
268,240,278615,1,8,0:0:0:0:
110,264,278797,2,0,L|40:278,2,62.5
268,240,279343,5,8,0:0:0:0:
73,147,279525,1,0,0:0:0:0:
243,27,279706,1,0,0:0:0:0:
268,240,279888,1,0,0:0:0:0:
320,88,280070,1,8,0:0:0:0:
144,168,280252,1,0,0:0:0:0:
304,96,280434,1,0,0:0:0:0:
128,176,280615,1,0,0:0:0:0:
304,96,280797,5,8,0:0:0:0:
184,236,280979,2,0,L|132:292,2,62.5
304,96,281525,1,8,0:0:0:0:
120,88,281706,2,0,L|48:84,2,62.5
304,96,282252,5,8,0:0:0:0:
350,292,282434,1,0,0:0:0:0:
365,186,282615,1,0,0:0:0:0:
439,344,282797,1,0,0:0:0:0:
280,96,282980,5,8,0:0:0:0:
234,292,283162,1,0,0:0:0:0:
219,186,283343,1,0,0:0:0:0:
145,344,283525,1,0,0:0:0:0:
252,96,283706,5,8,0:0:0:0:
315,235,283888,2,0,L|356:296,2,62.5
228,96,284434,1,8,0:0:0:0:
137,218,284615,2,0,L|96:275,2,62.5
228,96,285161,5,8,0:0:0:0:
418,257,285343,1,0,0:0:0:0:
417,12,285525,1,0,0:0:0:0:
226,199,285706,1,0,0:0:0:0:
383,146,285888,1,8,0:0:0:0:
235,70,286070,2,0,L|175:33,2,62.5,0|8|8,0:0|0:0|0:0,0:0:0:0:
383,146,286615,5,8,0:0:0:0:
120,124,286797,1,8,0:0:0:0:
384,202,286979,1,8,0:0:0:0:
122,178,287161,1,8,0:0:0:0:
435,173,287343,1,0,0:0:0:0:
319,105,287525,1,0,0:0:0:0:
334,239,287706,1,0,0:0:0:0:
435,141,287888,1,0,0:0:0:0:
299,129,288070,5,0,0:0:0:0:
363,245,288252,1,0,0:0:0:0:
423,113,288434,1,0,0:0:0:0:
291,161,288615,1,0,0:0:0:0:
395,241,288797,1,8,0:0:0:0:
391,89,288979,1,0,0:0:0:0:
295,189,289161,1,0,0:0:0:0:
419,229,289343,1,0,0:0:0:0:
187,78,289525,5,8,0:0:0:0:
187,334,289706,1,8,0:0:0:0:
452,334,289888,1,8,0:0:0:0:
452,80,290070,1,8,0:0:0:0:
278,99,290252,1,0,0:0:0:0:
390,143,290434,1,0,0:0:0:0:
278,131,290615,1,0,0:0:0:0:
390,179,290797,1,0,0:0:0:0:
278,167,290979,5,0,0:0:0:0:
390,211,291161,1,0,0:0:0:0:
278,199,291343,1,0,0:0:0:0:
391,245,291525,2,8,L|422:258,2,31.25
278,199,291888,2,0,L|224:161,2,62.5
164,268,292434,5,0,0:0:0:0:
96,92,292615,1,0,0:0:0:0:
281,122,292797,1,0,0:0:0:0:
281,122,293161,5,0,0:0:0:0:
105,191,293342,1,0,0:0:0:0:
251,304,293524,1,0,0:0:0:0:
251,304,293888,5,0,0:0:0:0:
183,128,294069,1,0,0:0:0:0:
368,158,294251,1,0,0:0:0:0:
173,210,294434,2,0,L|100:241,1,62.5
322,92,294797,2,0,L|382:48,1,62.5
372,55,295343,5,8,0:0:0:0:
183,128,295525,2,0,B|161:147|161:147|146:177,2,62.5
372,168,296070,2,0,L|364:224,2,41.6666666666667
270,50,296434,2,0,L|314:-2,2,41.6666666666667
225,196,296797,1,0,0:0:0:0:
256,192,296888,12,0,298252,0:0:0:0:
176,208,301161,5,8,0:0:0:0:
388,112,301343,1,0,0:0:0:0:
156,72,301525,1,0,0:0:0:0:
328,232,301706,1,0,0:0:0:0:
288,8,301888,1,8,0:0:0:0:
176,208,302070,2,0,B|159:241|159:241|163:281,2,78.125
288,8,302615,5,8,0:0:0:0:
248,244,302797,1,0,0:0:0:0:
88,72,302979,1,0,0:0:0:0:
248,268,303161,1,0,0:0:0:0:
288,32,303343,1,8,0:0:0:0:
249,298,303525,2,0,B|241:333|241:333|214:367,2,78.125
288,32,304070,5,8,0:0:0:0:
335,259,304252,1,0,0:0:0:0:
234,113,304434,1,0,0:0:0:0:
324,346,304615,1,0,0:0:0:0:
328,125,304797,1,8,0:0:0:0:
410,319,304979,2,0,B|429:352|429:352|462:373,2,78.125
392,50,305525,5,8,0:0:0:0:
339,255,305706,1,0,0:0:0:0:
491,78,305888,1,0,0:0:0:0:
280,171,306070,1,0,0:0:0:0:
435,286,306252,1,8,0:0:0:0:
301,63,306434,2,0,B|276:32|276:32|229:16,2,78.125
439,251,306979,6,8,L|507:319,1,78.125
301,91,307343,1,0,0:0:0:0:
439,283,307525,1,8,0:0:0:0:
301,63,307706,1,8,0:0:0:0:
439,311,307888,2,0,B|455:339|455:339|454:384,2,78.125
302,39,308434,5,8,0:0:0:0:
418,179,308615,1,0,0:0:0:0:
152,45,308797,1,0,0:0:0:0:
392,75,308979,1,8,0:0:0:0:
148,155,309161,1,8,0:0:0:0:
408,48,309525,5,8,0:0:0:0:
168,216,309888,5,8,0:0:0:0:
236,220,310070,1,0,0:0:0:0:
208,164,310252,1,8,0:0:0:0:
196,292,310434,1,0,0:0:0:0:
288,160,310615,1,8,0:0:0:0:
132,148,310797,1,0,0:0:0:0:
308,268,310979,1,8,0:0:0:0:
216,80,311161,1,0,0:0:0:0:
92,256,311343,5,8,0:0:0:0:
356,120,311525,1,0,0:0:0:0:
64,100,311706,1,8,0:0:0:0:
188,368,311888,1,0,0:0:0:0:
300,64,312070,1,8,0:0:0:0:
40,184,312252,1,0,0:0:0:0:
272,352,312434,1,8,0:0:0:0:
300,64,312615,2,8,L|316:52,3,20.8333333333333
308,268,312979,6,0,L|308:360,1,78.125,0|8,0:0|0:0,0:0:0:0:
376,64,313343,1,8,0:0:0:0:
376,268,313525,2,0,L|376:348,1,78.125,0|8,0:0|0:0,0:0:0:0:
272,116,313888,1,8,0:0:0:0:
376,268,314070,1,0,0:0:0:0:
476,120,314252,1,4,0:0:0:0:
156,80,315706,5,8,0:0:0:0:
180,280,315888,2,0,B|180:316|180:316|168:356,2,78.125
136,80,316434,1,8,0:0:0:0:
312,180,316615,2,0,B|344:200|344:200|372:244,2,78.125
156,80,317161,5,8,0:0:0:0:
340,256,317343,1,0,0:0:0:0:
156,260,317525,1,0,0:0:0:0:
340,72,317706,1,0,0:0:0:0:
248,292,317888,1,8,0:0:0:0:
248,40,318070,1,0,0:0:0:0:
372,172,318252,1,0,0:0:0:0:
124,172,318434,1,0,0:0:0:0:
248,292,318615,5,8,0:0:0:0:
153,77,318797,2,0,B|136:45|136:45|100:21,2,78.125
224,292,319343,1,8,0:0:0:0:
258,73,319525,2,0,B|266:39|266:39|295:6,2,78.125
200,292,320070,5,8,0:0:0:0:
124,116,320252,2,0,B|104:80|104:80|69:57,2,78.125
176,292,320797,1,8,0:0:0:0:
304,160,320979,1,0,0:0:0:0:
124,116,321161,1,0,0:0:0:0:
176,292,321343,1,0,0:0:0:0:
220,112,321525,5,8,0:0:0:0:
360,240,321706,2,0,B|388:268|388:268|400:312,2,78.125
244,112,322252,1,8,0:0:0:0:
100,224,322434,2,0,B|67:247|67:247|51:282,2,78.125
190,359,322979,5,8,0:0:0:0:
206,161,323161,1,0,0:0:0:0:
253,301,323343,1,0,0:0:0:0:
130,152,323525,1,0,0:0:0:0:
269,384,323706,1,8,0:0:0:0:
157,227,323888,1,0,0:0:0:0:
332,330,324070,1,0,0:0:0:0:
206,161,324252,1,0,0:0:0:0:
269,384,324434,5,8,0:0:0:0:
157,227,324615,1,0,0:0:0:0:
269,384,324797,1,0,0:0:0:0:
286,167,324979,1,0,0:0:0:0:
152,309,325161,1,8,0:0:0:0:
157,87,325343,1,0,0:0:0:0:
328,169,325525,1,0,0:0:0:0:
157,199,325706,1,0,0:0:0:0:
389,92,325888,5,8,0:0:0:0:
157,168,326070,2,0,B|119:182|119:182|92:208,2,78.125
389,92,326615,1,0,0:0:0:0:
157,241,326797,1,0,0:0:0:0:
368,224,326979,2,0,P|422:232|496:279,1,117.1875,8|0,0:0|0:0,0:0:0:0:
503,284,327343,5,8,0:0:0:0:
354,155,327525,1,0,0:0:0:0:
148,116,327706,1,0,0:0:0:0:
328,8,327888,1,0,0:0:0:0:
248,204,328070,1,8,0:0:0:0:
196,0,328252,1,0,0:0:0:0:
356,140,328434,1,0,0:0:0:0:
148,116,328615,1,0,0:0:0:0:
356,266,328797,5,8,0:0:0:0:
125,236,328979,2,0,B|87:232|87:232|49:245,2,78.125
356,266,329525,1,8,0:0:0:0:
148,116,329706,2,0,B|112:101|112:101|73:103,2,78.125
358,206,330252,5,8,0:0:0:0:
236,33,330434,2,0,B|214:4|214:4|173:-7,2,78.125
358,206,330979,1,8,0:0:0:0:
311,21,331161,1,0,0:0:0:0:
179,192,331343,1,0,0:0:0:0:
378,133,331525,1,0,0:0:0:0:
189,93,331706,5,8,0:0:0:0:
225,284,331888,2,0,B|232:321|232:321|217:360,2,78.125
266,104,332434,1,8,0:0:0:0:
348,316,332615,1,0,0:0:0:0:
218,163,332797,1,0,0:0:0:0:
426,117,332979,1,0,0:0:0:0:
218,129,333161,5,8,0:0:0:0:
426,85,333343,1,0,0:0:0:0:
218,197,333525,1,0,0:0:0:0:
426,153,333706,1,0,0:0:0:0:
218,93,333888,1,8,0:0:0:0:
426,189,334070,1,0,0:0:0:0:
218,231,334252,1,0,0:0:0:0:
426,49,334434,1,0,0:0:0:0:
218,266,334615,5,8,0:0:0:0:
426,189,334797,2,0,B|462:171|462:171|491:135,2,78.125
218,266,335343,1,8,0:0:0:0:
270,61,335525,2,0,B|286:25|286:25|318:-3,2,78.125
218,266,336070,5,8,0:0:0:0:
423,316,336252,2,0,B|459:324|459:324|503:316,2,78.125
232,260,336797,1,8,0:0:0:0:
412,132,336979,2,0,B|440:112|440:112|492:104,2,78.125
232,260,337525,5,8,0:0:0:0:
373,56,337706,1,0,0:0:0:0:
158,152,337888,1,8,0:0:0:0:
348,281,338070,1,0,0:0:0:0:
244,57,338252,1,8,0:0:0:0:
88,221,338434,1,0,0:0:0:0:
308,126,338615,1,8,0:0:0:0:
170,358,338797,1,0,0:0:0:0:
170,358,339615,6,0,L|178:382,2,20.8333333333333
170,358,339797,2,0,B|210:90|151:26|151:26|368:0|356:80|376:152|248:184|248:184|412:248|288:296|426:385,1,968.75
