osu file format v14

[General]
AudioFilename: audio.mp3
AudioLeadIn: 0
PreviewTime: 164768
Countdown: 0
SampleSet: Soft
StackLeniency: 0.4
Mode: 0
LetterboxInBreaks: 0
WidescreenStoryboard: 1

[Editor]
Bookmarks: 7355,13355,18923,30468,53741,117741,141014,164287,187559,210832,234105,263196,286073,286592
DistanceSpacing: 0.2
BeatDivisor: 8
GridSize: 32
TimelineZoom: 8

[Metadata]
Title:Black*Rock Shooter 2M MIX
TitleUnicode:ブラック★ロックシューター 2M MIX
Artist:supercell feat. Hatsune Miku
ArtistUnicode:supercell feat. 初音ミク
Creator:Anxient
Version:gazimal's Insane
Source:ブラック★ロックシューター
Tags:ryo huke vocaloid japanese rock pop anime full version gazimal simple
BeatmapID:3643454
BeatmapSetID:1774653

[Difficulty]
HPDrainRate:5
CircleSize:4
OverallDifficulty:8
ApproachRate:9
SliderMultiplier:1.8
SliderTickRate:1

[Events]
//Background and Video events
0,0,"bg.jpg",0,0
//Break Periods
2,211604,222440
//Storyboard Layer 0 (Background)
//Storyboard Layer 1 (Fail)
//Storyboard Layer 2 (Pass)
//Storyboard Layer 3 (Foreground)
//Storyboard Layer 4 (Overlay)
//Storyboard Sound Samples

[TimingPoints]
1936,857.142857142857,4,2,1,15,1,0
6222,857.142857142857,4,2,1,15,1,0
6222,-250,4,2,1,15,0,0
16507,-200,4,2,1,15,0,0
17950,363.636363636364,4,2,1,50,1,0
17950,-142.857142857143,4,2,1,50,0,0
19404,363.636363636364,4,2,1,50,1,0
24131,-90.9090909090909,4,2,1,50,0,0
24494,-83.3333333333333,4,2,1,50,0,0
24858,-76.9230769230769,4,2,1,50,0,0
25585,-100,4,2,1,50,0,0
28131,-83.3333333333333,4,2,1,50,0,0
29676,-100,4,2,1,50,0,0
30040,-142.857142857143,4,2,1,50,0,0
31040,-100,4,2,1,50,0,0
31404,-142.857142857143,4,2,1,50,0,0
36858,-100,4,2,1,50,0,0
37222,-142.857142857143,4,2,1,50,0,0
39767,-100,4,2,1,50,0,0
43040,-142.857142857143,4,2,1,50,0,0
51404,-100,4,2,1,50,0,0
54676,-142.857142857143,4,2,1,50,0,0
64131,-100,4,2,1,50,0,0
64858,-125,4,2,1,50,0,0
65949,-100,4,2,1,50,0,0
66676,-125,4,2,1,50,0,0
71040,-83.3333333333333,4,2,1,50,0,0
71404,-142.857142857143,4,2,1,50,0,0
71767,-100,4,2,1,50,0,0
72131,-125,4,2,1,50,0,0
77585,-90.9090909090909,4,2,1,50,0,1
102676,-83.3333333333333,4,2,1,50,0,1
106676,-100,4,2,1,50,0,0
111404,-90.9090909090909,4,2,1,50,0,0
111767,-83.3333333333333,4,2,1,50,0,0
112858,-100,4,2,1,50,0,0
115404,-83.3333333333333,4,2,1,50,0,0
116949,-100,4,2,1,50,0,0
118676,-142.857142857143,4,2,1,50,0,0
124131,-90.9090909090909,4,2,1,50,0,0
124494,-142.857142857143,4,2,1,50,0,0
127040,-100,4,2,1,50,0,0
130313,-142.857142857143,4,2,1,50,0,0
138676,-100,4,2,1,50,0,0
141949,-125,4,2,1,50,0,0
151404,-90.9090909090909,4,2,1,50,0,0
152131,-125,4,2,1,50,0,0
153222,-100,4,2,1,50,0,0
153949,-125,4,2,1,50,0,0
158313,-83.3333333333333,4,2,1,50,0,0
158676,-125,4,2,1,50,0,0
164858,-90.9090909090909,4,2,1,50,0,1
185949,-111.111111111111,4,2,1,50,0,1
186131,-142.857142857143,4,2,1,50,0,1
186313,-200,4,2,1,50,0,1
187040,-111.111111111111,4,2,1,50,0,1
187767,-90.9090909090909,4,2,1,50,0,1
188131,-100,4,2,1,50,0,0
199040,-90.9090909090909,4,2,1,50,0,0
199404,-333.333333333333,4,2,1,50,0,0
199767,-76.9230769230769,4,2,1,50,0,0
200131,-100,4,2,1,50,0,0
209222,-125,4,2,1,50,0,0
209949,-500.000000000003,4,2,1,40,0,0
210768,-500.000000000003,4,2,1,50,0,0
223040,-500.000000000003,4,2,1,40,0,0
225222,-142.857142857143,4,2,1,40,0,0
226222,-142.857142857143,4,2,1,5,0,0
226312,-142.857142857143,4,2,1,40,0,0
226585,-142.857142857143,4,2,1,5,0,0
226676,-142.857142857143,4,2,1,40,0,0
228858,-333.333333333334,4,2,1,40,0,0
231040,-200,4,2,1,50,0,0
231767,-125,4,2,1,50,0,0
234131,-100,4,2,1,50,0,0
234676,-83.3333333333333,4,2,1,50,0,1
244221,-83.3333333333333,4,2,1,5,0,1
244313,-83.3333333333333,4,2,1,50,0,1
244585,-83.3333333333333,4,2,1,5,0,1
244676,-90.9090909090909,4,2,1,50,0,1
244858,-83.3333333333333,4,2,1,50,0,1
263040,-142.857142857143,4,2,1,50,0,1
263404,-111.111111111111,4,2,1,50,0,1
263767,-100,4,2,1,50,0,0
272495,428.571428571429,4,2,1,50,1,0
272655,-100,4,2,1,5,0,0
272731,428.571428571429,4,2,1,50,1,0
272731,-111.111111111111,4,2,1,50,0,0
272891,-111.111111111111,4,2,1,5,0,0
272945,-125,4,2,1,50,0,0
273105,-125,4,2,1,5,0,0
273159,-142.857142857143,4,2,1,50,0,0
273319,-142.857142857143,4,2,1,5,0,0
273419,480,4,2,1,50,1,0
273419,-166.666666666667,4,2,1,50,0,0
273539,-166.666666666667,4,2,1,5,0,0
273599,-133.333333333333,4,2,1,50,0,0
273779,-133.333333333333,4,2,1,5,0,0
273839,-250,4,2,1,50,0,0
274019,-250,4,2,1,5,0,0
274079,-333.333333333333,4,2,1,50,0,0
274259,-333.333333333333,4,2,1,5,0,0
274348,576.923076923077,4,2,1,50,1,0
276358,521.739130434783,4,2,1,50,1,0
276618,405.405405405406,4,2,1,50,1,0
276618,-90.9090909090909,4,2,1,50,0,0
277023,357.142857142858,4,2,1,50,1,0
277023,-90.9090909090909,4,2,1,50,0,0
278094,363.636363636364,4,2,1,50,1,0
278094,-90.9090909090909,4,2,1,50,0,0
280275,-125,4,2,1,50,0,0
281003,-111.111111111111,4,2,1,50,0,0
281366,-100,4,2,1,50,0,0
281730,-90.9090909090909,4,2,1,50,0,0
282275,420.31523642732,4,2,1,50,1,0
282485,346.820809248555,4,2,1,50,1,0
282831,366.412213740458,4,2,1,50,1,0
286403,-156.25,4,2,1,50,0,0
286495,357.142857142857,4,2,1,50,1,0
287075,-100,4,2,1,5,0,0
287164,-100,4,2,1,25,0,0

[Colours]
Combo1 : 234,21,21
Combo2 : 62,183,255
Combo3 : 132,255,9
Combo4 : 255,197,89
Combo5 : 204,204,206

[HitObjects]
440,53,6222,6,0,P|409:81|399:118,3,72,0|0|0|0,2:1|2:0|2:1|2:0,2:0:0:0:
322,168,9436,1,0,2:0:0:0:
322,168,9650,2,0,P|303:158|281:154,1,36,0|0,2:1|2:0,2:0:0:0:
250,86,10293,2,0,P|231:97|217:114,1,36,0|0,2:0|2:0,2:0:0:0:
155,177,10936,5,0,2:0:0:0:
155,177,11150,2,0,P|125:138|81:115,1,90,0|0,2:0|2:0,2:0:0:0:
86,343,12864,1,0,2:0:0:0:
86,343,13079,2,0,P|120:328|161:325,1,72,0|0,2:0|2:0,2:0:0:0:
244,254,14793,2,0,P|273:275|297:309,1,72,0|0,2:0|2:0,2:0:0:0:
390,376,16507,6,0,P|408:308|462:263,1,135,0|0,1:0|1:0,2:0:0:0:
454,266,17950,2,0,L|392:252,1,62.9999999999999,8|8,1:3|1:3,2:0:0:0:
248,355,18313,2,0,L|309:341,1,62.9999999999999,8|8,1:3|1:3,2:0:0:0:
448,181,18677,2,0,L|386:167,1,62.9999999999999,8|8,1:3|1:3,2:0:0:0:
247,104,19040,2,0,L|216:110,3,31.5,8|0|8|0,1:3|2:0|1:3|2:0,2:0:0:0:
127,101,19404,6,0,P|193:140|224:204,1,135,12|0,1:3|2:0,2:0:0:0:
279,241,19767,2,0,P|244:275|224:319,1,90,8|0,1:0|1:0,2:0:0:0:
226,311,20040,1,0,1:0:0:0:
226,311,20131,1,8,1:3:0:0:
124,210,20313,1,8,1:3:0:0:
52,342,20494,2,0,L|141:322,1,90,8|0,1:0|1:0,2:0:0:0:
28,234,20858,5,8,1:3:0:0:
28,234,20949,1,8,1:2:0:0:
28,234,21040,1,8,1:3:0:0:
220,189,21222,1,8,1:0:0:0:
77,109,21404,2,0,L|64:164,2,45,0|0|8,1:0|2:0|2:3,2:0:0:0:
104,0,21767,1,8,2:3:0:0:
251,93,21949,2,0,L|149:71,1,90,8|0,1:0|1:0,2:0:0:0:
342,32,22222,5,0,1:0:0:0:
342,32,22313,2,0,L|443:10,1,90,8|8,1:3|1:3,2:0:0:0:
499,154,22676,2,0,P|448:145|426:97,1,90,8|0,1:0|1:0,2:0:0:0:
428,115,22949,1,0,2:0:0:0:
428,115,23040,1,8,1:3:0:0:
330,247,23222,1,8,1:3:0:0:
251,93,23404,1,8,1:0:0:0:
377,177,23585,5,0,1:0:0:0:
377,177,23676,1,0,2:0:0:0:
377,177,23767,2,0,L|279:155,1,90,12|8,1:3|1:3,2:0:0:0:
150,249,24040,1,8,1:3:0:0:
150,249,24131,2,0,L|248:227,1,99,12|8,1:0|1:3,2:0:0:0:
344,334,24404,1,8,1:3:0:0:
344,334,24494,2,0,L|229:309,1,108,12|8,1:3|1:3,2:0:0:0:
66,275,24767,1,8,1:3:0:0:
66,275,24858,2,0,P|70:205|121:167,1,117,12|8,1:0|1:3,2:0:0:0:
216,157,25131,5,8,1:3:0:0:
216,157,25222,2,0,B|217:111|179:93|136:101|136:101|174:125|179:161,1,175.5,12|0,1:3|2:0,2:0:0:0:
246,227,25585,2,0,L|344:206,1,90,8|0,1:0|1:0,2:0:0:0:
334,208,25858,1,0,1:0:0:0:
334,208,25949,1,8,1:3:0:0:
268,369,26131,1,8,1:3:0:0:
431,326,26313,2,0,L|333:305,1,90,8|0,1:0|1:0,2:0:0:0:
424,236,26585,5,0,2:0:0:0:
424,236,26676,2,0,L|522:215,1,90,8|8,1:3|1:3,2:0:0:0:
343,96,27040,1,8,1:0:0:0:
512,61,27222,2,0,L|500:114,1,45,0|0,1:0|2:0,2:0:0:0:
416,152,27404,2,0,L|435:59,1,90,8|8,1:3|1:3,2:0:0:0:
334,208,27767,2,0,L|345:261,1,45,8|8,1:0|1:3,2:0:0:0:
367,381,27949,1,8,1:3:0:0:
252,286,28131,6,0,B|207:268|168:295|168:295|149:337|93:336,1,162,12|0,1:3|2:0,2:0:0:0:
36,317,28494,1,8,1:0:0:0:
20,240,28676,1,8,1:3:0:0:
73,175,28858,1,8,1:3:0:0:
161,177,29040,1,8,1:3:0:0:
255,154,29222,1,8,1:0:0:0:
262,51,29404,1,8,1:3:0:0:
165,4,29585,5,8,1:3:0:0:
165,4,29676,2,0,L|177:61,1,45,8|8,1:2|1:3,2:0:0:0:
105,101,29858,2,0,L|93:44,1,45,8|8,1:2|1:0,2:0:0:0:
6,40,30040,2,0,L|0:9,2,31.5,0|8|8,1:0|1:2|1:2,2:0:0:0:
39,152,30313,2,0,L|32:182,3,31.5,8|8|8|8,1:3|1:2|1:2|1:2,2:0:0:0:
117,193,30676,1,8,1:0:0:0:
112,216,30767,1,8,1:2:0:0:
107,239,30858,1,8,1:2:0:0:
102,262,30949,1,8,1:2:0:0:
97,285,31040,6,0,B|133:296|163:267|155:263|184:232|243:249,1,135,8|0,1:3|2:0,2:0:0:0:
306,274,31404,2,0,L|292:210,1,62.9999999999999,8|0,1:0|1:0,2:0:0:0:
401,142,31767,2,0,L|387:205,1,62.9999999999999,8|8,1:3|1:3,2:0:0:0:
352,359,32131,2,0,P|391:328|441:330,1,94.4999999999999,8|0,1:0|2:0,2:0:0:0:
433,327,32494,6,0,P|386:310|371:287,1,62.9999999999999,8|8,1:3|1:3,2:0:0:0:
484,174,32858,6,0,L|470:237,1,62.9999999999999,8|0,1:0|1:0,2:0:0:0:
387,203,33131,1,0,1:0:0:0:
387,203,33222,2,0,L|401:142,1,62.9999999999999,8|8,1:3|1:3,2:0:0:0:
407,30,33585,2,0,P|452:34|497:-1,1,94.4999999999999,8|0,1:0|2:0,2:0:0:0:
491,7,33949,6,0,P|457:25|448:54,1,62.9999999999999,8|8,1:3|1:3,2:0:0:0:
401,141,34313,1,8,1:0:0:0:
327,1,34494,1,0,1:0:0:0:
274,93,34676,2,0,L|357:75,1,62.9999999999999,8|8,1:3|1:3,2:0:0:0:
216,19,35040,1,8,1:0:0:0:
158,177,35222,1,0,1:0:0:0:
122,86,35404,6,0,L|205:103,1,62.9999999999999,8|8,1:3|1:3,2:0:0:0:
66,164,35767,1,10,1:0:0:0:
22,25,35949,1,10,1:2:0:0:
129,93,36131,1,8,1:3:0:0:
129,93,36222,1,8,1:2:0:0:
129,93,36313,1,8,1:3:0:0:
80,248,36494,2,0,P|41:247|12:231,1,62.9999999999999,10|0,1:0|1:0,2:0:0:0:
158,177,36767,5,8,1:2:0:0:
158,177,36858,2,0,B|175:215|175:215|153:316,1,135,8|0,1:3|2:0,2:0:0:0:
99,367,37222,2,0,P|66:355|28:352,1,62.9999999999999,8|0,1:0|1:0,2:0:0:0:
280,341,37585,2,0,P|247:352|209:355,1,62.9999999999999,8|8,1:3|1:3,2:0:0:0:
368,280,37949,2,0,P|415:291|443:341,1,94.4999999999999,8|0,1:0|2:0,2:0:0:0:
440,327,38313,6,0,L|457:246,1,62.9999999999999,8|8,1:3|1:3,2:0:0:0:
362,128,38676,2,0,L|379:208,1,62.9999999999999,8|0,1:0|1:0,2:0:0:0:
375,189,38949,1,8,1:2:0:0:
375,189,39040,1,8,1:3:0:0:
273,128,39222,1,8,1:3:0:0:
469,59,39404,2,0,L|451:139,1,62.9999999999999,10|8,1:0|1:3,2:0:0:0:
304,273,39767,6,0,P|272:240|219:237,1,90,12|8,1:0|1:3,2:0:0:0:
83,202,40131,2,0,P|127:190|156:146,1,90,8|8,1:0|1:3,2:0:0:0:
11,14,40494,1,8,1:0:0:0:
82,117,40676,1,8,1:3:0:0:
158,4,40858,1,8,1:0:0:0:
0,97,41040,1,8,1:3:0:0:
153,157,41222,6,0,B|200:183|244:148|244:148|280:106|347:125,1,180,8|8,1:3|1:0,2:0:0:0:
468,189,41767,1,8,1:2:0:0:
471,176,41858,1,8,1:2:0:0:
474,163,41949,1,8,1:3:0:0:
314,196,42131,1,8,1:2:0:0:
317,209,42222,1,8,1:2:0:0:
320,222,42313,1,8,1:0:0:0:
439,371,42494,2,0,P|443:351|463:337,1,45,8|8,1:2|1:2,2:0:0:0:
462,337,42676,6,0,B|402:324|402:324|396:319|396:319|312:301,1,135,12|0,1:3|2:0,2:0:0:0:
244,283,43040,2,0,L|260:354,1,62.9999999999999,8|0,1:0|1:0,2:0:0:0:
122,266,43404,2,0,L|138:194,1,62.9999999999999,8|8,1:3|1:3,2:0:0:0:
158,54,43767,2,0,P|125:84|58:88,1,94.4999999999999,8|0,1:0|2:0,2:0:0:0:
77,92,44131,6,0,P|107:108|128:138,1,62.9999999999999,8|8,1:3|1:3,2:0:0:0:
257,190,44494,2,0,L|237:99,1,62.9999999999999,8|0,1:0|1:0,2:0:0:0:
243,128,44767,1,8,1:2:0:0:
243,128,44858,1,8,1:3:0:0:
135,204,45040,1,8,1:3:0:0:
281,336,45222,2,0,P|260:293|194:267,1,94.4999999999999,8|0,1:0|2:0,2:0:0:0:
221,269,45585,6,0,P|252:274|303:252,1,62.9999999999999,8|0,1:3|1:0,2:0:0:0:
358,190,45949,1,8,1:0:0:0:
512,259,46131,1,0,1:0:0:0:
407,328,46313,2,0,L|390:251,1,62.9999999999999,8|8,1:3|1:3,2:0:0:0:
458,106,46676,2,0,L|435:209,1,94.4999999999999,8|0,1:0|2:0,2:0:0:0:
447,215,47040,6,0,L|463:138,1,62.9999999999999,8|8,1:3|1:3,2:0:0:0:
486,21,47404,1,10,1:0:0:0:
357,95,47585,2,0,P|325:73|284:71,1,62.9999999999999,8|8,1:2|1:3,2:0:0:0:
301,69,47858,1,8,1:2:0:0:
301,69,47949,1,8,1:3:0:0:
397,13,48131,1,10,1:0:0:0:
340,183,48313,2,0,P|318:177|305:168,1,31.5,8|0,1:2|1:2,2:0:0:0:
228,58,48494,6,0,B|189:50|168:74|172:79|150:114|92:99,1,126,8|8,1:3|1:0,2:0:0:0:
7,11,49040,2,0,L|22:85,1,62.9999999999999,0|8,1:0|1:3,2:0:0:0:
44,197,49404,1,8,1:3:0:0:
190,163,49585,2,0,L|167:267,1,94.4999999999999,8|0,1:0|1:0,2:0:0:0:
170,255,49949,6,0,P|136:233|114:234,1,62.9999999999999,8|8,1:3|1:3,2:0:0:0:
0,368,50313,1,8,1:0:0:0:
159,339,50494,1,0,1:0:0:0:
159,339,50585,1,8,1:2:0:0:
159,339,50676,1,8,1:3:0:0:
0,254,50858,1,8,1:3:0:0:
83,384,51040,2,0,L|61:283,1,94.4999999999999,8|0,1:0|2:0,2:0:0:0:
0,254,51404,6,0,L|22:148,1,90,12|8,1:0|1:3,2:0:0:0:
51,9,51767,1,8,1:0:0:0:
155,124,51949,2,0,P|114:96|63:95,1,90,8|8,1:3|1:0,2:0:0:0:
202,20,52313,1,8,1:3:0:0:
308,151,52494,2,0,P|267:179|216:180,1,90,8|8,1:0|1:3,2:0:0:0:
371,38,52858,5,8,1:2:0:0:
402,26,52949,1,8,1:2:0:0:
434,35,53040,1,8,1:2:0:0:
456,60,53131,1,8,1:2:0:0:
459,93,53222,1,8,1:0:0:0:
308,151,53404,5,8,1:2:0:0:
302,124,53494,1,8,1:2:0:0:
296,98,53585,1,8,1:2:0:0:
291,71,53676,1,8,1:2:0:0:
285,45,53767,1,8,1:0:0:0:
400,148,53949,2,0,L|390:194,1,45,8|8,1:0|1:2,2:0:0:0:
461,252,54131,2,0,L|471:208,1,45,8|8,1:3|1:3,2:0:0:0:
365,276,54313,5,12,1:3:0:0:
438,376,54494,1,8,1:3:0:0:
280,365,54676,2,0,L|360:348,1,62.9999999999999,8|0,1:0|1:0,2:0:0:0:
341,352,54949,1,8,1:2:0:0:
341,352,55040,1,8,1:3:0:0:
258,277,55222,1,8,1:3:0:0:
170,357,55404,2,0,L|186:280,1,62.9999999999999,8|0,1:0|1:0,2:0:0:0:
26,355,55767,6,0,P|61:354|91:333,1,62.9999999999999,8|8,1:3|1:3,2:0:0:0:
0,241,56131,2,0,P|27:225|58:226,1,62.9999999999999,8|8,1:0|1:2,2:0:0:0:
58,226,56404,1,8,1:2:0:0:
58,226,56494,1,8,1:3:0:0:
16,97,56676,1,8,1:3:0:0:
168,143,56858,2,0,L|152:216,1,62.9999999999999,8|8,1:0|1:3,2:0:0:0:
281,114,57222,6,0,L|265:40,1,62.9999999999999,8|8,1:3|1:3,2:0:0:0:
267,52,57494,1,8,1:3:0:0:
267,52,57585,1,8,1:0:0:0:
408,100,57767,1,8,1:0:0:0:
337,232,57949,1,8,1:3:0:0:
337,232,58040,2,0,L|351:161,1,62.9999999999999,8|0,1:2|2:0,2:0:0:0:
422,180,58313,2,0,L|415:227,1,31.5,8|8,1:2|1:2,2:0:0:0:
489,300,58494,2,0,L|484:268,1,31.5,8|8,1:3|1:3,2:0:0:0:
369,316,58676,5,12,1:0:0:0:
250,234,58858,1,8,1:2:0:0:
230,378,59040,1,10,1:0:0:0:
286,314,59222,1,8,1:3:0:0:
161,242,59404,2,0,L|175:310,1,62.9999999999999,10|8,1:0|1:3,2:0:0:0:
258,242,59767,1,10,1:0:0:0:
258,242,59858,1,8,1:0:0:0:
258,242,59949,1,8,1:3:0:0:
103,342,60131,6,0,L|89:280,1,62.9999999999999,8|8,1:3|1:3,2:0:0:0:
30,375,60494,1,8,1:0:0:0:
174,303,60676,1,8,1:2:0:0:
174,303,60767,1,8,1:2:0:0:
174,303,60858,2,0,L|161:242,1,62.9999999999999,8|8,1:3|1:3,2:0:0:0:
146,105,61222,1,8,1:0:0:0:
26,210,61404,1,8,1:0:0:0:
43,52,61585,5,8,1:3:0:0:
43,52,61676,1,8,1:3:0:0:
43,52,61767,1,0,1:0:0:0:
229,82,61949,2,0,P|206:46|184:33,1,62.9999999999999,8|8,1:0|1:3,2:0:0:0:
189,35,62222,1,8,1:3:0:0:
189,35,62313,1,8,1:3:0:0:
340,1,62494,1,8,1:3:0:0:
314,138,62676,2,0,P|349:105|402:97,1,94.4999999999999,8|0,1:0|1:0,2:0:0:0:
481,66,63040,6,0,L|466:136,1,62.9999999999999,8|8,1:0|1:3,2:0:0:0:
405,181,63313,1,8,1:3:0:0:
405,181,63404,2,0,L|412:217,1,31.5,8|0,1:3|2:0,2:0:0:0:
430,362,63585,2,0,P|456:340|489:334,1,62.9999999999999,8|8,1:0|1:3,2:0:0:0:
395,286,63858,1,8,1:3:0:0:
395,286,63949,2,0,P|378:295|364:309,1,31.5,8|0,1:3|2:0,2:0:0:0:
291,379,64131,2,0,B|228:365|228:365|218:357|218:357|162:345,1,135,8|8,1:0|1:2,2:0:0:0:
87,326,64494,5,10,1:3:0:0:
239,230,64676,1,8,1:3:0:0:
130,200,64858,2,0,L|145:276,1,72,8|8,1:0|1:3,2:0:0:0:
34,177,65222,2,0,L|42:134,3,36,8|0|8|8,1:3|1:0|1:3|1:3,2:0:0:0:
107,82,65585,1,8,1:0:0:0:
115,48,65676,1,8,1:0:0:0:
94,20,65767,1,8,1:0:0:0:
60,17,65858,1,8,1:0:0:0:
36,43,65949,6,0,B|72:60|111:42|111:42|135:9|182:16,1,135,12|0,1:3|2:0,2:0:0:0:
234,26,66313,1,8,1:0:0:0:
194,165,66494,1,8,1:2:0:0:
323,87,66676,2,0,L|251:102,1,72,8|8,1:3|1:3,2:0:0:0:
367,10,67040,2,0,L|438:25,1,72,8|0,1:0|1:0,2:0:0:0:
478,188,67404,6,0,P|441:144|383:152,1,108,8|0,1:3|2:0,2:0:0:0:
316,178,67767,2,0,L|334:258,1,72,8|0,1:0|1:0,2:0:0:0:
414,358,68131,2,0,L|432:277,1,72,8|8,1:3|1:3,2:0:0:0:
241,376,68494,2,0,P|279:338|342:338,1,108,8|0,1:0|2:0,2:0:0:0:
330,334,68858,5,8,1:3:0:0:
253,256,69040,2,0,L|243:215,1,36,2|0,1:0|1:0,2:0:0:0:
233,252,69222,2,0,L|223:211,1,36,10|0,1:0|1:0,2:0:0:0:
133,316,69404,2,0,L|142:275,1,36,2|0,1:0|1:0,2:0:0:0:
109,323,69585,2,0,L|118:282,1,36,2|0,1:0|1:0,2:0:0:0:
29,230,69767,2,0,L|20:189,1,36,2|0,1:0|1:0,2:0:0:0:
48,213,69949,2,0,L|39:172,1,36,10|0,1:0|1:0,2:0:0:0:
125,119,70131,2,0,L|134:78,1,36,2|0,1:0|1:0,2:0:0:0:
26,28,70313,6,0,L|35:69,2,36,2|8|8,1:0|1:0|1:0,2:0:0:0:
198,32,70676,1,8,1:0:0:0:
162,196,70858,1,8,1:3:0:0:
125,119,71040,2,0,B|171:101|211:125|211:125|239:164|279:159,1,162,12|0,1:3|2:0,2:0:0:0:
279,87,71404,2,0,L|314:79,1,31.5,8|8,1:0|1:3,2:0:0:0:
364,24,71585,2,0,L|388:50,1,31.5,8|8,1:3|1:3,2:0:0:0:
463,71,71767,6,0,L|434:206,1,135,8|0,1:3|2:0,2:0:0:0:
413,298,72131,2,0,P|442:276|485:279,1,72,8|0,1:0|1:0,2:0:0:0:
500,354,72404,1,8,1:2:0:0:
500,354,72494,2,0,P|471:376|428:373,1,72,8|8,1:3|1:3,2:0:0:0:
291,355,72858,6,0,B|301:307|301:307|308:303|308:303|319:249,1,108,8|0,1:0|2:0,2:0:0:0:
334,181,73222,1,8,1:3:0:0:
153,251,73404,1,8,1:3:0:0:
240,248,73585,2,0,L|223:168,1,72,8|0,1:0|1:0,2:0:0:0:
156,133,73858,1,0,1:0:0:0:
156,133,73949,2,0,P|183:107|220:97,1,72,8|8,1:3|1:3,2:0:0:0:
90,60,74313,2,0,P|63:34|26:24,1,72,8|8,1:0|1:3,2:0:0:0:
208,11,74676,5,8,1:0:0:0:
295,147,74858,1,8,1:3:0:0:
295,147,74949,1,8,1:3:0:0:
295,147,75040,1,8,1:3:0:0:
341,34,75222,1,8,1:0:0:0:
341,34,75313,1,8,1:3:0:0:
341,34,75404,2,0,L|296:43,3,36,8|0|8|0,1:3|1:0|1:3|1:0,2:0:0:0:
437,23,75767,2,0,L|429:58,1,36,8|8,1:3|1:3,2:0:0:0:
385,170,75949,2,0,L|377:134,1,36,8|8,1:3|1:3,2:0:0:0:
496,207,76131,5,12,1:0:0:0:
53,293,77585,6,0,B|94:315|141:287|141:287|174:234|237:252,1,198,12|8,1:3|1:0,2:0:0:0:
90,219,78131,1,0,1:0:0:0:
215,341,78313,2,0,L|172:137,1,198,8|8,1:3|1:0,2:0:0:0:
149,0,78858,1,0,1:0:0:0:
54,122,79040,6,0,B|29:120|22:94|22:94|56:63|98:77|126:121,1,148.5,8|0,1:3|2:0,2:0:0:0:
174,147,79404,2,0,P|233:149|269:126,1,99,8|8,1:0|1:2,2:0:0:0:
328,66,79676,1,8,1:2:0:0:
328,66,79767,2,0,P|354:67|385:83,1,49.5,8|0,1:3|2:0,2:0:0:0:
496,144,79949,1,8,1:3:0:0:
308,219,80131,1,8,1:0:0:0:
510,266,80313,1,8,1:3:0:0:
384,152,80494,6,0,L|419:315,1,148.5,8|0,1:3|2:0,2:0:0:0:
428,374,80858,2,0,L|371:361,1,49.5,8|0,1:0|2:0,2:0:0:0:
213,285,81040,1,0,1:0:0:0:
213,285,81131,1,8,1:2:0:0:
213,285,81222,1,8,1:3:0:0:
308,219,81404,1,8,1:3:0:0:
128,206,81585,1,8,1:0:0:0:
197,381,81767,1,0,1:0:0:0:
85,341,81949,5,12,1:3:0:0:
85,341,82040,1,0,1:0:0:0:
85,341,82131,2,0,L|107:281,1,49.5,8|8,1:3|1:3,2:0:0:0:
221,227,82313,1,12,1:0:0:0:
221,227,82404,1,0,1:0:0:0:
221,227,82494,2,0,L|199:167,1,49.5,8|8,1:3|1:3,2:0:0:0:
220,66,82676,2,0,P|196:52|172:49,3,49.5,12|0|8|8,1:3|1:0|1:3|1:3,2:0:0:0:
102,17,83040,2,0,P|78:30|63:50,1,49.5,12|0,1:0|1:0,2:0:0:0:
0,94,83222,2,0,P|0:120|9:144,1,49.5,8|8,1:3|1:3,2:0:0:0:
16,229,83404,6,0,B|110:208|110:208|115:198|115:198|217:176,1,198,12|8,1:3|1:0,2:0:0:0:
110,120,83949,1,0,1:0:0:0:
110,120,84040,1,0,1:0:0:0:
110,120,84131,1,8,1:3:0:0:
165,271,84313,1,8,1:3:0:0:
298,125,84494,2,0,L|273:238,1,99,8|0,1:0|1:0,2:0:0:0:
247,370,84858,6,0,P|347:318|454:347,1,198,8|8,1:3|1:0,2:0:0:0:
354,231,85404,1,8,1:3:0:0:
496,372,85585,2,0,B|519:335|501:292|501:292|463:275|451:222,1,148.5,0|0,1:0|2:0,2:0:0:0:
419,178,85949,2,0,P|440:133|501:115,1,99,8|0,1:0|1:0,2:0:0:0:
503,5,86313,6,0,L|435:19,1,49.5,12|0,1:3|1:0,2:0:0:0:
308,49,86494,1,8,1:2:0:0:
308,49,86585,1,8,1:2:0:0:
308,49,86676,1,8,1:3:0:0:
419,178,86858,2,0,B|386:127|325:152|325:152|355:167|359:195,1,148.5,8|0,1:3|2:0,2:0:0:0:
394,315,87222,2,0,B|454:311|463:246|463:246|435:265|409:254,1,148.5,8|0,1:3|2:0,2:0:0:0:
292,220,87585,2,0,L|242:230,1,49.5,8|0,1:2|2:0,2:0:0:0:
110,252,87767,6,0,P|156:211|159:152,1,99,12|8,1:0|1:3,2:0:0:0:
88,39,88131,1,12,1:0:0:0:
88,39,88222,1,0,1:0:0:0:
88,39,88313,2,0,L|32:50,1,49.5,8|8,1:3|1:3,2:0:0:0:
209,94,88494,2,0,L|153:83,3,49.5,12|0|8|8,1:0|1:0|1:3|1:3,2:0:0:0:
291,48,88858,2,0,L|347:37,1,49.5,8|8,1:3|1:3,2:0:0:0:
419,0,89040,2,0,L|456:42,1,49.5,8|8,1:3|1:3,2:0:0:0:
511,158,89222,6,0,B|461:132|418:162|418:162|383:225|316:210,1,198,12|8,1:3|1:0,2:0:0:0:
437,371,89767,1,0,1:0:0:0:
437,371,89858,1,0,1:0:0:0:
437,371,89949,2,0,B|467:226|467:226|445:258|414:273,1,198,8|8,1:3|1:0,2:0:0:0:
283,284,90494,1,0,1:0:0:0:
340,134,90676,6,0,P|299:85|207:78,1,148.5,8|0,1:3|2:0,2:0:0:0:
145,34,91040,2,0,P|95:66|66:111,1,99,8|8,1:0|1:2,2:0:0:0:
0,143,91313,1,0,2:0:0:0:
0,143,91404,2,0,L|11:197,1,49.5,8|0,1:3|1:0,2:0:0:0:
43,354,91585,1,8,1:3:0:0:
158,179,91767,1,8,1:0:0:0:
5,275,91949,1,8,1:3:0:0:
165,358,92131,6,0,P|215:327|314:324,1,148.5,8|0,1:3|2:0,2:0:0:0:
376,380,92494,2,0,P|402:375|431:353,1,49.5,8|0,1:0|2:0,2:0:0:0:
483,271,92676,1,0,1:0:0:0:
483,271,92767,1,8,1:2:0:0:
483,271,92858,1,8,1:3:0:0:
306,199,93040,1,8,1:3:0:0:
381,292,93222,1,8,1:0:0:0:
436,105,93404,1,8,1:3:0:0:
436,191,93585,6,0,P|407:187|385:171,1,49.5,8|8,1:0|1:3,2:0:0:0:
275,25,93767,1,8,1:3:0:0:
356,109,93949,2,0,L|195:143,1,148.5,8|8,1:0|1:3,2:0:0:0:
178,74,94313,2,0,P|155:89|141:112,1,49.5,8|8,1:0|1:3,2:0:0:0:
34,216,94494,2,0,P|11:201|-3:178,1,49.5,8|8,1:3|1:3,2:0:0:0:
87,0,94676,2,0,L|60:156,1,148.5,12|0,1:0|1:0,2:0:0:0:
34,216,95040,6,0,L|55:318,1,99,12|8,1:3|1:3,2:0:0:0:
148,183,95404,1,8,1:0:0:0:
182,369,95585,1,8,1:2:0:0:
182,369,95676,1,0,2:0:0:0:
182,369,95767,1,8,1:3:0:0:
265,223,95949,1,8,1:3:0:0:
130,289,96131,2,0,P|192:280|260:333,1,148.5,8|0,1:0|2:0,2:0:0:0:
317,384,96494,2,0,L|416:362,1,99,8|8,1:3|1:3,2:0:0:0:
455,145,96858,5,8,1:0:0:0:
370,261,97040,1,8,1:3:0:0:
507,217,97222,1,0,1:0:0:0:
370,172,97404,1,8,1:3:0:0:
455,289,97585,1,8,1:0:0:0:
455,289,97767,1,0,1:0:0:0:
370,172,97949,6,0,L|313:184,1,49.5,8|0,1:3|1:0,2:0:0:0:
163,211,98131,1,8,1:3:0:0:
285,369,98313,2,0,L|259:249,1,99,8|8,1:0|1:3,2:0:0:0:
264,272,98585,1,0,1:0:0:0:
264,272,98676,1,8,1:3:0:0:
377,314,98858,1,8,1:3:0:0:
202,384,99040,2,0,P|163:359|104:359,1,99,8|8,1:0|1:2,2:0:0:0:
35,369,99313,5,0,1:0:0:0:
35,369,99404,2,0,L|48:307,1,49.5,8|0,1:0|2:0,2:0:0:0:
76,167,99585,1,8,1:3:0:0:
168,267,99767,1,8,1:0:0:0:
168,267,99949,1,8,1:3:0:0:
9,253,100131,2,0,L|66:241,1,49.5,8|0,2:3|2:0,2:0:0:0:
169,173,100313,1,8,1:3:0:0:
169,173,100404,1,8,1:3:0:0:
169,173,100494,2,0,L|226:184,1,49.5,8|8,1:3|1:3,2:0:0:0:
288,260,100676,2,0,L|345:249,1,49.5,8|8,2:3|2:3,2:0:0:0:
471,226,100858,6,0,P|425:162|344:157,1,148.5,12|0,1:3|2:0,2:0:0:0:
289,171,101222,1,8,1:0:0:0:
426,38,101404,1,8,1:2:0:0:
426,38,101494,1,8,1:2:0:0:
426,38,101585,1,8,1:3:0:0:
249,40,101767,1,8,1:3:0:0:
360,152,101949,2,0,L|337:41,1,99,8|8,1:0|1:3,2:0:0:0:
481,177,102313,6,0,L|469:230,1,49.5,8|8,1:3|1:3,2:0:0:0:
438,384,102494,1,8,1:3:0:0:
273,309,102676,2,0,B|387:284|387:284|360:301|350:327,1,162,8|0,1:0|2:0,2:0:0:0:
245,384,103040,2,0,P|221:373|201:342,1,54,8|8,1:3|1:3,2:0:0:0:
122,314,103222,2,0,P|119:287|136:254,1,54,8|0,1:3|2:0,2:0:0:0:
199,189,103404,2,0,L|38:154,1,162,12|0,1:0|2:0,2:0:0:0:
40,155,103767,6,0,L|110:140,1,54,10|0,1:0|2:0,2:0:0:0:
282,110,103949,1,8,1:3:0:0:
282,110,104131,1,8,1:3:0:0:
125,33,104313,1,10,1:0:0:0:
199,189,104494,1,8,1:3:0:0:
199,189,104676,1,8,1:3:0:0:
245,11,104858,1,10,1:0:0:0:
92,143,105040,6,0,L|128:314,1,162,12|0,1:3|2:0,2:0:0:0:
64,368,105404,2,0,L|51:309,1,54,8|0,1:3|2:0,2:0:0:0:
218,269,105585,2,0,L|205:327,1,54,8|0,1:3|2:0,2:0:0:0:
372,368,105767,2,0,L|359:309,1,54,8|0,1:3|2:0,2:0:0:0:
337,185,105949,2,0,B|382:152|398:111|398:111|382:152|396:184,1,162,12|0,1:0|2:0,2:0:0:0:
467,151,106313,2,0,L|292:113,1,162,12|0,1:2|2:0,2:0:0:0:
247,64,106676,6,0,L|102:94,1,135,12|0,1:3|2:0,2:0:0:0:
36,92,107040,2,0,P|69:70|76:19,1,90,8|0,1:0|1:0,2:0:0:0:
77,22,107313,1,0,1:0:0:0:
77,22,107404,1,8,1:3:0:0:
182,154,107585,1,8,1:3:0:0:
54,180,107767,2,0,L|32:78,1,90,8|0,1:0|1:0,2:0:0:0:
172,252,108131,5,8,1:3:0:0:
172,252,108222,1,8,1:2:0:0:
172,252,108313,1,8,1:3:0:0:
0,241,108494,1,8,1:0:0:0:
116,362,108676,2,0,L|126:313,2,45,0|8|8,1:0|1:2|1:3,2:0:0:0:
16,325,109040,1,8,1:3:0:0:
205,356,109222,2,0,L|311:333,1,90,8|0,1:0|1:0,2:0:0:0:
391,315,109494,5,0,1:0:0:0:
391,315,109585,2,0,P|355:289|342:230,1,90,8|8,1:3|1:3,2:0:0:0:
503,175,109949,2,0,L|396:152,1,90,8|8,1:0|1:2,2:0:0:0:
414,156,110222,1,0,1:0:0:0:
414,156,110313,1,8,1:3:0:0:
470,257,110494,1,8,1:3:0:0:
456,69,110676,1,8,1:0:0:0:
316,157,110858,5,0,1:0:0:0:
316,157,110949,1,0,2:0:0:0:
316,157,111040,2,0,P|316:113|354:74,1,90,12|8,1:3|1:3,2:0:0:0:
268,233,111313,1,8,1:3:0:0:
268,233,111404,2,0,P|231:207|221:154,1,99,12|8,1:0|1:3,2:0:0:0:
314,308,111676,1,8,1:3:0:0:
314,308,111767,2,0,P|272:327|213:303,1,108,12|8,1:3|1:3,2:0:0:0:
410,301,112040,1,8,1:3:0:0:
410,301,112131,2,0,P|405:346|355:385,1,108,12|8,1:0|1:3,2:0:0:0:
414,156,112404,5,8,1:3:0:0:
414,156,112494,2,0,B|429:94|502:99|502:99|480:125|479:149,1,162,12|0,1:3|2:0,2:0:0:0:
375,224,112858,2,0,L|265:200,1,90,8|0,1:0|1:0,2:0:0:0:
287,204,113131,1,0,1:0:0:0:
287,204,113222,1,8,1:3:0:0:
324,361,113404,1,8,1:3:0:0:
197,309,113585,2,0,L|304:286,1,90,8|0,1:0|1:0,2:0:0:0:
137,384,113858,5,0,2:0:0:0:
137,384,113949,2,0,P|97:335|100:277,1,90,8|8,1:3|1:3,2:0:0:0:
160,146,114313,1,8,1:0:0:0:
159,227,114494,2,0,L|104:215,1,45,8|0,1:2|2:0,2:0:0:0:
71,127,114676,2,0,L|183:150,1,90,8|8,1:3|1:3,2:0:0:0:
361,177,115040,2,0,L|348:120,1,45,8|8,1:0|1:3,2:0:0:0:
327,0,115222,1,8,1:3:0:0:
491,114,115404,6,0,L|455:280,1,162,12|0,1:3|2:0,2:0:0:0:
441,348,115767,1,8,1:0:0:0:
380,283,115949,1,8,1:3:0:0:
291,270,116131,1,8,1:3:0:0:
221,318,116313,1,8,1:3:0:0:
143,373,116494,1,8,1:0:0:0:
52,337,116676,1,8,1:3:0:0:
25,243,116858,5,8,1:3:0:0:
25,243,116949,2,0,L|71:252,1,45,8|8,1:3|1:3,2:0:0:0:
156,191,117131,1,8,1:3:0:0:
156,191,117222,2,0,L|68:172,1,90,8|8,1:2|1:2,2:0:0:0:
13,115,117494,1,8,1:2:0:0:
13,115,117585,2,0,P|28:101|63:94,1,45,8|0,1:3|1:0,2:0:0:0:
74,19,117767,2,0,P|93:24|117:51,1,45,8|8,1:3|1:2,2:0:0:0:
194,112,117949,1,8,1:0:0:0:
220,106,118040,1,0,1:0:0:0:
246,100,118131,1,8,1:2:0:0:
273,95,118222,1,8,1:2:0:0:
299,89,118313,6,0,B|270:117|286:156|286:156|322:180|316:222,1,135,12|0,1:3|2:0,2:0:0:0:
253,284,118676,2,0,L|240:223,1,62.9999999999999,8|8,1:0|1:3,2:0:0:0:
368,307,119040,2,0,L|354:368,1,62.9999999999999,8|8,1:3|1:3,2:0:0:0:
492,267,119404,2,0,P|457:229|399:227,1,94.4999999999999,8|0,1:0|2:0,2:0:0:0:
416,222,119767,6,0,P|452:209|471:170,1,62.9999999999999,8|8,1:3|1:3,2:0:0:0:
495,80,120131,2,0,L|409:98,1,62.9999999999999,8|8,1:0|1:2,2:0:0:0:
375,23,120404,1,8,1:2:0:0:
375,23,120494,2,0,L|460:4,1,62.9999999999999,8|8,1:3|1:3,2:0:0:0:
327,104,120858,2,0,P|280:97|245:67,1,94.4999999999999,8|0,1:0|2:0,2:0:0:0:
245,67,121222,6,0,P|234:96|199:114,1,62.9999999999999,8|8,1:3|1:3,2:0:0:0:
31,99,121585,1,8,1:0:0:0:
173,40,121767,1,0,1:0:0:0:
95,35,121949,2,0,L|111:113,1,62.9999999999999,8|8,1:3|1:3,2:0:0:0:
135,240,122313,1,8,1:0:0:0:
207,112,122494,1,0,1:0:0:0:
43,181,122676,6,0,L|59:259,1,62.9999999999999,8|8,1:3|1:3,2:0:0:0:
82,384,123040,1,8,1:0:0:0:
0,320,123222,2,0,L|41:311,1,31.5,8|0,1:2|2:0,2:0:0:0:
139,243,123404,1,8,1:3:0:0:
139,243,123494,2,0,L|213:258,1,62.9999999999999,8|0,1:2|2:0,2:0:0:0:
288,295,123767,2,0,P|250:313|229:344,1,62.9999999999999,8|0,1:0|1:0,2:0:0:0:
373,316,124040,5,0,2:0:0:0:
373,316,124131,2,0,B|383:277|358:241|358:241|311:221|312:159,1,148.5,12|0,1:3|2:0,2:0:0:0:
388,164,124494,2,0,P|412:140|458:138,1,62.9999999999999,8|0,1:0|1:0,2:0:0:0:
272,77,124858,2,0,P|296:100|342:102,1,62.9999999999999,8|8,1:3|1:3,2:0:0:0:
117,175,125222,2,0,P|147:149|210:146,1,94.4999999999999,8|0,1:0|2:0,2:0:0:0:
200,143,125585,6,0,L|185:72,1,62.9999999999999,8|8,1:3|1:3,2:0:0:0:
89,0,125949,2,0,L|74:70,1,62.9999999999999,8|8,1:0|1:2,2:0:0:0:
75,61,126222,1,8,1:2:0:0:
75,61,126313,1,8,1:3:0:0:
272,77,126494,1,8,1:3:0:0:
130,236,126676,2,0,L|115:165,1,62.9999999999999,12|8,1:0|1:3,2:0:0:0:
11,366,127040,6,0,L|107:345,1,90,12|8,1:0|1:3,2:0:0:0:
304,264,127404,2,0,L|207:243,1,90,8|8,1:0|1:3,2:0:0:0:
302,373,127767,1,8,1:0:0:0:
408,203,127949,1,8,1:3:0:0:
432,367,128131,1,8,1:0:0:0:
304,264,128313,1,8,1:3:0:0:
491,209,128494,6,0,B|501:152|459:126|458:137|384:124|403:47,1,180,12|8,1:3|1:0,2:0:0:0:
486,27,129040,1,8,1:2:0:0:
480,41,129131,1,8,1:2:0:0:
476,54,129222,1,8,1:3:0:0:
340,137,129404,1,8,1:2:0:0:
334,123,129494,1,8,1:2:0:0:
330,110,129585,1,8,1:0:0:0:
408,203,129767,2,0,L|394:253,1,45,8|8,1:2|1:2,2:0:0:0:
321,345,129949,6,0,L|289:203,1,135,12|0,1:3|2:0,2:0:0:0:
227,268,130313,2,0,P|201:289|162:294,1,62.9999999999999,8|0,1:0|1:0,2:0:0:0:
49,264,130676,2,0,L|36:326,1,62.9999999999999,8|8,1:3|1:3,2:0:0:0:
166,210,131040,2,0,P|129:177|76:177,1,94.4999999999999,8|0,1:0|2:0,2:0:0:0:
85,173,131404,6,0,P|119:157|134:122,1,62.9999999999999,8|8,1:3|1:3,2:0:0:0:
41,11,131767,2,0,P|39:48|61:78,1,62.9999999999999,8|8,1:0|1:2,2:0:0:0:
51,69,132040,1,8,1:2:0:0:
51,69,132131,1,8,1:3:0:0:
157,0,132313,1,8,1:3:0:0:
240,87,132494,2,0,L|172:72,1,62.9999999999999,8|0,1:0|1:0,2:0:0:0:
324,13,132858,6,0,L|391:-1,1,62.9999999999999,8|8,1:3|1:3,2:0:0:0:
349,129,133222,1,8,1:0:0:0:
498,91,133404,2,0,L|430:76,1,62.9999999999999,0|8,1:0|1:3,2:0:0:0:
498,0,133767,1,8,1:3:0:0:
461,174,133949,2,0,L|438:280,1,94.4999999999999,8|0,1:0|2:0,2:0:0:0:
451,284,134313,6,0,L|466:217,1,62.9999999999999,8|8,1:3|1:3,2:0:0:0:
296,258,134676,1,8,1:0:0:0:
385,381,134858,2,0,L|370:314,1,62.9999999999999,8|8,1:2|1:3,2:0:0:0:
371,319,135131,1,8,1:2:0:0:
371,319,135222,1,8,1:3:0:0:
481,371,135404,1,8,1:0:0:0:
298,342,135585,2,0,L|260:334,1,31.5,8|8,1:2|1:2,2:0:0:0:
184,279,135767,6,0,B|154:268|123:289|123:289|104:321|54:320,1,126,12|8,1:3|1:0,2:0:0:0:
14,200,136313,2,0,P|43:222|59:252,1,62.9999999999999,0|8,1:0|1:3,2:0:0:0:
192,170,136676,1,8,1:3:0:0:
114,142,136858,2,0,P|130:115|156:97,1,62.9999999999999,8|0,1:0|1:0,2:0:0:0:
6,0,137222,6,0,P|58:30|80:76,1,94.4999999999999,8|0,1:3|2:0,2:0:0:0:
75,58,137585,2,0,P|91:42|118:31,1,31.5,8|0,1:0|2:0,2:0:0:0:
217,17,137767,1,8,1:2:0:0:
217,17,137858,1,8,1:2:0:0:
217,17,137949,1,8,1:3:0:0:
114,142,138131,2,0,L|37:125,1,62.9999999999999,8|8,1:3|1:0,2:0:0:0:
126,226,138494,1,8,1:3:0:0:
245,109,138676,6,0,L|334:89,1,90,8|8,1:0|1:3,2:0:0:0:
486,66,139040,1,8,1:0:0:0:
425,229,139222,2,0,L|405:139,1,90,8|8,1:3|1:0,2:0:0:0:
376,0,139585,1,8,1:3:0:0:
329,173,139767,1,8,1:0:0:0:
486,66,139949,1,8,1:3:0:0:
333,90,140131,5,8,1:2:0:0:
305,83,140222,1,8,1:2:0:0:
279,78,140313,1,8,1:2:0:0:
253,72,140404,1,8,1:2:0:0:
226,66,140494,1,8,1:0:0:0:
106,126,140676,5,8,1:2:0:0:
139,130,140767,1,8,1:2:0:0:
170,118,140858,1,8,1:2:0:0:
192,93,140949,1,8,1:2:0:0:
199,60,141040,1,8,1:0:0:0:
2,10,141222,2,0,L|11:56,1,45,8|8,1:0|1:2,2:0:0:0:
97,50,141404,2,0,L|87:3,1,45,8|8,1:3|1:3,2:0:0:0:
0,138,141585,5,12,1:3:0:0:
142,208,141767,1,8,1:3:0:0:
40,262,141949,2,0,L|56:186,1,72,8|0,1:0|1:0,2:0:0:0:
54,191,142222,1,8,1:2:0:0:
54,191,142313,1,8,1:3:0:0:
136,299,142494,1,8,1:3:0:0:
9,375,142676,2,0,P|37:351|84:348,1,72,8|0,1:0|1:0,2:0:0:0:
232,367,143040,6,0,L|216:291,1,72,8|8,1:3|1:3,2:0:0:0:
153,384,143404,1,8,1:0:0:0:
309,310,143585,1,8,1:2:0:0:
309,310,143676,1,8,1:2:0:0:
309,310,143767,2,0,L|293:234,1,72,8|8,1:3|1:3,2:0:0:0:
162,166,144131,2,0,P|187:200|229:208,1,72,8|8,1:0|1:3,2:0:0:0:
306,116,144494,6,0,L|226:132,1,72,8|8,1:3|1:3,2:0:0:0:
235,130,144767,1,8,1:3:0:0:
235,130,144858,1,8,1:0:0:0:
274,23,145040,1,8,1:0:0:0:
390,107,145222,1,8,1:3:0:0:
390,107,145313,2,0,P|374:65|345:45,1,72,8|0,1:2|1:0,2:0:0:0:
426,9,145585,2,0,P|440:25|449:42,1,36,8|0,1:2|2:0,2:0:0:0:
472,114,145767,2,0,P|470:135|464:153,1,36,8|8,1:2|1:2,2:0:0:0:
314,215,145949,5,12,1:0:0:0:
433,298,146131,1,8,1:2:0:0:
401,188,146313,1,8,1:0:0:0:
295,353,146494,1,8,1:3:0:0:
433,298,146676,2,0,L|360:313,1,72,8|8,1:0|1:3,2:0:0:0:
487,369,147040,1,8,1:0:0:0:
487,369,147131,1,8,1:0:0:0:
487,369,147222,1,8,1:3:0:0:
336,241,147404,6,0,L|263:256,1,72,8|8,1:3|1:3,2:0:0:0:
86,288,147767,1,8,1:0:0:0:
202,366,147949,1,8,1:2:0:0:
190,202,148131,2,0,L|173:281,1,72,8|8,1:3|1:3,2:0:0:0:
53,379,148494,1,8,1:0:0:0:
14,228,148676,1,8,1:0:0:0:
94,295,148858,5,8,1:3:0:0:
94,295,148949,1,8,1:3:0:0:
94,295,149040,1,8,1:3:0:0:
60,135,149222,1,8,1:0:0:0:
197,210,149404,1,8,1:3:0:0:
197,210,149494,1,8,1:3:0:0:
197,210,149585,2,0,L|127:196,1,72,8|8,1:3|1:3,2:0:0:0:
47,30,149949,2,0,P|102:39|149:88,1,108,12|0,1:0|2:0,2:0:0:0:
199,124,150313,6,0,P|238:118|275:92,1,72,8|8,1:0|1:3,2:0:0:0:
316,35,150585,1,8,1:3:0:0:
316,35,150676,2,0,P|334:38|359:52,1,36,8|0,1:3|2:0,2:0:0:0:
450,75,150858,2,0,P|409:116|396:144,1,72,8|8,1:0|1:3,2:0:0:0:
331,178,151131,1,8,1:3:0:0:
331,178,151222,2,0,P|348:193|362:217,1,36,8|0,1:3|2:0,2:0:0:0:
385,309,151404,2,0,B|396:247|473:264|473:264|456:284|458:305,1,148.5,8|8,1:0|1:2,2:0:0:0:
443,372,151767,5,8,1:3:0:0:
309,274,151949,1,8,1:3:0:0:
252,379,152131,2,0,L|341:360,1,72,8|12,1:0|1:3,2:0:0:0:
207,292,152494,1,8,1:3:0:0:
173,276,152585,1,0,1:0:0:0:
138,279,152676,1,8,1:3:0:0:
108,298,152767,1,8,1:3:0:0:
90,329,152858,2,0,L|80:285,1,36,8|8,1:0|1:0,2:0:0:0:
6,342,153040,2,0,L|15:385,1,36,8|8,1:0|1:0,2:0:0:0:
0,247,153222,6,0,B|13:184|13:184|17:179|17:179|34:99,1,135,12|0,1:3|2:0,2:0:0:0:
50,40,153585,1,12,1:0:0:0:
132,189,153767,1,8,1:2:0:0:
178,83,153949,2,0,L|93:100,1,72,8|8,1:3|1:3,2:0:0:0:
244,0,154313,2,0,L|328:17,1,72,8|0,1:0|1:0,2:0:0:0:
459,42,154676,6,0,P|416:48|392:79,1,72,8|8,1:3|1:3,2:0:0:0:
473,200,155040,2,0,L|453:107,1,72,8|0,1:0|1:0,2:0:0:0:
458,129,155313,1,8,1:2:0:0:
458,129,155404,1,8,1:3:0:0:
288,227,155585,1,8,1:3:0:0:
371,315,155767,2,0,L|396:194,1,108,8|0,1:0|2:0,2:0:0:0:
393,209,156131,5,8,1:3:0:0:
494,338,156313,2,0,L|457:330,1,36,2|0,1:0|1:0,2:0:0:0:
504,358,156494,2,0,L|467:350,1,36,10|0,1:0|1:0,2:0:0:0:
382,349,156676,2,0,L|370:312,1,36,2|8,1:0|2:0,2:0:0:0:
370,368,156858,2,0,L|358:331,1,36,10|0,1:0|1:0,2:0:0:0:
263,253,157040,2,0,L|288:224,1,36,2|0,1:0|1:0,2:0:0:0:
241,253,157222,2,0,L|266:224,1,36,10|0,1:0|1:0,2:0:0:0:
305,119,157404,2,0,L|342:126,1,36,2|0,1:0|1:0,2:0:0:0:
467,168,157585,6,0,L|455:116,2,36,2|8|8,1:0|1:0|1:0,2:0:0:0:
497,15,157949,1,8,1:0:0:0:
340,125,158131,1,8,1:3:0:0:
424,66,158313,2,0,P|359:30|267:42,1,162,12|0,1:3|2:0,2:0:0:0:
226,99,158676,2,0,L|187:90,1,36,8|8,1:0|1:3,2:0:0:0:
104,132,158858,2,0,L|91:94,1,36,8|8,1:3|1:3,2:0:0:0:
21,37,159040,5,12,1:3:0:0:
59,210,159222,1,0,1:0:0:0:
137,25,159404,1,8,1:0:0:0:
10,137,159585,1,0,1:0:0:0:
10,137,159676,1,8,1:2:0:0:
10,137,159767,1,8,1:3:0:0:
175,183,159949,1,8,1:3:0:0:
74,280,160131,2,0,L|55:193,1,72,8|0,1:0|1:0,2:0:0:0:
158,278,160494,6,0,L|139:364,1,72,8|8,1:3|1:3,2:0:0:0:
38,363,160858,1,8,1:0:0:0:
240,314,161040,1,0,1:0:0:0:
240,314,161131,1,8,1:2:0:0:
240,314,161222,2,0,L|222:401,1,72,8|8,1:3|1:3,2:0:0:0:
74,280,161585,2,0,L|55:193,1,72,8|8,1:0|1:3,2:0:0:0:
31,48,161949,6,0,P|61:73|118:71,1,72,8|8,1:0|1:3,2:0:0:0:
92,78,162222,1,8,1:3:0:0:
92,78,162313,1,8,1:3:0:0:
211,27,162494,1,8,1:3:0:0:
211,27,162585,1,8,1:3:0:0:
211,27,162676,2,0,L|202:73,3,36,8|8|8|8,1:2|1:3|1:3|1:3,2:0:0:0:
171,161,163040,2,0,L|212:152,1,36,8|8,1:3|1:3,2:0:0:0:
58,209,163222,2,0,L|16:200,1,36,8|8,1:3|1:3,2:0:0:0:
152,270,163404,5,12,1:0:0:0:
411,372,164858,6,0,B|444:319|396:279|389:283|382:287|322:254|358:184,1,198,12|8,1:3|1:0,2:0:0:0:
330,347,165404,1,0,1:0:0:0:
432,220,165585,2,0,L|235:178,1,198,8|8,1:3|1:0,2:0:0:0:
352,93,166131,1,0,1:0:0:0:
128,172,166313,6,0,B|135:118|199:115|199:115|164:138|163:177,1,148.5,8|0,1:3|2:0,2:0:0:0:
151,253,166676,2,0,P|79:244|54:209,1,99,8|8,1:0|1:2,2:0:0:0:
5,54,167040,1,8,1:3:0:0:
5,54,167131,1,0,1:0:0:0:
5,54,167222,1,8,1:3:0:0:
168,150,167404,1,8,1:0:0:0:
138,0,167585,1,8,1:3:0:0:
75,93,167767,6,0,L|242:57,1,148.5,8|0,1:3|2:0,2:0:0:0:
284,17,168131,2,0,L|338:28,1,49.5,8|0,1:0|2:0,2:0:0:0:
487,63,168313,1,0,1:0:0:0:
487,63,168404,1,8,1:2:0:0:
487,63,168494,1,8,1:3:0:0:
309,147,168676,1,8,1:3:0:0:
414,0,168858,1,8,1:0:0:0:
466,196,169040,1,8,1:3:0:0:
379,90,169222,5,12,1:3:0:0:
379,90,169313,1,0,1:0:0:0:
379,90,169404,2,0,L|390:142,1,49.5,8|8,1:3|1:3,2:0:0:0:
474,204,169585,1,12,1:0:0:0:
474,204,169676,1,0,1:0:0:0:
474,204,169767,2,0,L|463:256,1,49.5,8|8,1:3|1:3,2:0:0:0:
434,343,169949,2,0,P|405:360|371:361,3,49.5,12|0|8|8,1:3|1:0|1:3|1:3,2:0:0:0:
294,384,170313,2,0,P|264:367|246:338,1,49.5,12|0,1:0|1:0,2:0:0:0:
188,283,170494,2,0,P|187:249|203:219,1,49.5,8|8,1:3|1:3,2:0:0:0:
225,155,170676,6,0,B|175:139|134:175|134:175|100:230|40:218,1,198,12|8,1:3|1:0,2:0:0:0:
200,242,171222,1,0,1:3:0:0:
200,242,171313,1,0,1:3:0:0:
200,242,171404,1,8,1:3:0:0:
60,140,171585,1,8,1:3:0:0:
245,58,171767,2,0,L|224:156,1,99,8|0,1:0|1:0,2:0:0:0:
0,31,172131,6,0,P|98:20|161:97,1,198,8|8,1:3|1:0,2:0:0:0:
297,194,172676,1,0,1:0:0:0:
297,194,172767,1,0,1:0:0:0:
297,194,172858,2,0,L|318:98,1,99,8|8,1:3|1:3,2:0:0:0:
238,304,173222,2,0,B|202:298|189:252|215:219|215:219|223:248|257:260,1,148.5,8|0,1:0|2:0,2:0:0:0:
297,194,173585,6,0,L|352:205,1,49.5,12|0,1:3|2:0,2:0:0:0:
507,232,173767,1,8,1:2:0:0:
507,232,173858,1,8,1:2:0:0:
507,232,173949,1,8,1:3:0:0:
374,384,174131,2,0,P|414:334|498:329,1,148.5,8|0,1:3|2:0,2:0:0:0:
499,313,174494,2,0,P|470:305|441:311,1,49.5,8|0,1:3|2:0,2:0:0:0:
365,275,174676,2,0,P|339:291|324:316,1,49.5,0|0,1:0|2:0,2:0:0:0:
274,384,174858,1,8,1:2:0:0:
98,332,175040,6,0,P|133:296|190:293,1,99,8|8,1:0|1:3,2:0:0:0:
259,304,175313,1,8,1:3:0:0:
259,304,175404,2,0,L|248:254,1,49.5,8|0,1:0|1:0,2:0:0:0:
178,185,175585,1,8,1:3:0:0:
178,185,175676,1,8,1:3:0:0:
178,185,175767,2,0,L|202:76,1,99,8|8,1:0|1:3,2:0:0:0:
16,8,176131,1,8,1:0:0:0:
20,44,176222,1,8,1:3:0:0:
42,73,176313,1,8,1:3:0:0:
76,86,176404,1,8,1:3:0:0:
112,78,176494,6,0,L|79:228,1,148.5,12|0,1:3|2:0,2:0:0:0:
28,326,176858,2,0,B|13:258|13:258|25:281|52:292,1,99,8|0,1:0|1:0,2:0:0:0:
131,383,177222,2,0,B|153:306|245:318|245:318|263:352|303:354,1,198,8|8,1:3|1:0,2:0:0:0:
479,261,177767,1,0,1:0:0:0:
406,331,177949,6,0,B|384:284|393:230|393:230|363:275|317:281,1,198,8|8,1:3|1:0,2:0:0:0:
176,175,178494,1,8,1:2:0:0:
317,199,178676,2,0,B|302:134|355:107|355:107|412:101|425:44,1,198,8|8,1:3|1:0,2:0:0:0:
227,82,179222,1,8,1:3:0:0:
352,30,179404,6,0,B|313:-16|257:11|257:11|282:23|289:42,1,148.5,8|0,1:3|2:0,2:0:0:0:
345,107,179767,2,0,P|392:95|422:56,1,99,8|8,1:0|1:2,2:0:0:0:
503,23,180040,1,8,1:2:0:0:
503,23,180131,2,0,L|489:87,1,49.5,8|0,1:3|2:0,2:0:0:0:
459,249,180313,1,8,1:3:0:0:
345,107,180494,1,8,1:0:0:0:
512,168,180676,1,8,1:3:0:0:
364,279,180858,6,0,L|390:155,1,99,12|8,1:0|1:3,2:0:0:0:
439,345,181131,1,8,1:3:0:0:
439,345,181222,2,0,L|465:221,1,99,12|8,1:0|1:3,2:0:0:0:
267,344,181494,1,8,1:3:0:0:
267,344,181585,2,0,L|293:220,1,99,12|8,1:0|1:3,2:0:0:0:
279,164,181858,1,8,1:3:0:0:
279,164,181949,2,0,P|255:168|232:187,1,49.5,12|0,1:0|1:0,2:0:0:0:
133,272,182131,2,0,P|109:268|86:249,1,49.5,0|0,1:0|1:0,2:0:0:0:
0,145,182313,6,0,L|151:112,1,148.5,12|0,1:3|2:0,2:0:0:0:
198,51,182676,2,0,L|305:73,1,99,8|8,1:0|1:2,2:0:0:0:
294,71,182949,1,8,1:2:0:0:
294,71,183040,1,8,1:3:0:0:
235,182,183222,1,8,1:3:0:0:
397,81,183404,2,0,P|373:19|346:1,1,99,8|0,1:0|1:0,2:0:0:0:
347,1,183676,1,0,1:0:0:0:
347,1,183767,5,8,1:3:0:0:
494,75,183949,1,8,1:3:0:0:
401,231,184131,2,0,P|425:169|452:151,1,99,8|8,1:0|1:3,2:0:0:0:
450,151,184404,1,0,1:0:0:0:
450,151,184494,1,8,1:3:0:0:
312,208,184676,1,8,1:3:0:0:
459,359,184858,1,8,1:0:0:0:
486,238,185040,1,8,1:3:0:0:
341,337,185222,6,0,L|329:282,1,49.5,8|0,1:3|2:0,2:0:0:0:
296,129,185404,1,8,1:3:0:0:
296,129,185494,1,0,1:0:0:0:
296,129,185585,1,8,1:0:0:0:
242,265,185767,6,0,L|253:319,1,49.5,8|0,1:3|2:0,2:0:0:0:
167,308,185949,2,0,L|125:345,1,40.5,8|0,1:3|2:0,2:0:0:0:
98,261,186131,2,0,L|44:243,1,31.5,8|0,1:3|2:0,2:0:0:0:
104,182,186313,2,0,L|95:143,1,22.5,8|0,1:0|2:0,2:0:0:0:
180,148,186494,1,8,1:2:0:0:
13,29,186676,5,8,1:0:0:0:
173,62,186858,1,8,1:3:0:0:
24,185,187040,2,0,L|3:90,1,81.0000000000001,8|8,1:3|1:3,2:0:0:0:
180,148,187404,2,0,L|159:243,1,81.0000000000001,8|8,1:3|1:3,2:0:0:0:
11,372,187767,2,0,P|60:326|146:342,1,148.5,12|8,1:3|1:3,2:0:0:0:
202,378,188131,6,0,L|335:349,1,135,12|0,1:3|2:0,2:0:0:0:
410,308,188494,2,0,P|375:275|333:270,1,90,8|0,1:0|1:0,2:0:0:0:
334,269,188767,1,0,1:0:0:0:
334,269,188858,1,8,1:3:0:0:
481,194,189040,1,8,1:3:0:0:
316,152,189222,1,8,1:0:0:0:
406,208,189404,2,0,L|396:164,1,45,0|0,1:0|2:0,2:0:0:0:
376,31,189585,6,0,L|466:50,1,90,8|8,1:3|1:3,2:0:0:0:
316,152,189949,2,0,L|227:170,1,90,8|0,1:0|1:0,2:0:0:0:
227,170,190222,1,8,1:2:0:0:
227,170,190313,1,8,1:3:0:0:
300,71,190494,1,8,1:3:0:0:
170,25,190676,2,0,B|132:12|102:38|102:38|76:80|21:75,1,135,8|0,1:0|2:0,2:0:0:0:
12,142,191040,6,0,P|52:165|77:217,1,90,8|8,1:3|1:3,2:0:0:0:
25,374,191404,1,8,1:0:0:0:
144,269,191585,1,8,1:2:0:0:
144,269,191676,1,8,1:2:0:0:
144,269,191767,1,8,1:3:0:0:
22,284,191949,1,8,1:3:0:0:
161,373,192131,2,0,P|207:347|258:333,1,90,8|8,1:0|1:3,2:0:0:0:
315,247,192494,6,0,P|339:254|362:271,1,45,8|0,1:3|1:0,2:0:0:0:
440,370,192676,1,8,1:3:0:0:
440,370,192767,1,0,1:0:0:0:
440,370,192858,1,12,1:0:0:0:
326,371,193040,2,0,L|315:328,2,45,8|0|12,1:3|1:0|1:3,2:0:0:0:
435,276,193404,2,0,L|447:216,1,45,8|0,1:3|1:0,2:0:0:0:
512,165,193585,1,12,1:3:0:0:
504,131,193676,1,0,1:0:0:0:
497,98,193767,1,8,1:2:0:0:
490,65,193858,1,8,1:2:0:0:
483,32,193949,6,0,P|414:41|362:105,1,135,12|0,1:3|2:0,2:0:0:0:
315,154,194313,2,0,P|267:150|231:116,1,90,8|0,1:0|1:0,2:0:0:0:
235,124,194585,1,8,1:2:0:0:
235,124,194676,1,8,1:3:0:0:
315,247,194858,1,8,1:3:0:0:
113,278,195040,2,0,P|144:232|229:221,1,135,8|0,1:0|2:0,2:0:0:0:
218,217,195404,6,0,P|172:200|146:158,1,90,8|8,1:3|1:3,2:0:0:0:
21,40,195767,2,0,L|45:155,1,90,8|8,1:0|2:0,2:0:0:0:
39,128,196040,1,0,2:0:0:0:
39,128,196131,1,8,1:3:0:0:
142,0,196313,1,8,1:3:0:0:
223,141,196494,2,0,P|188:97|102:103,1,135,8|0,1:0|2:0,2:0:0:0:
113,95,196858,6,0,L|166:83,1,45,12|8,1:3|1:3,2:0:0:0:
278,73,197040,1,8,1:3:0:0:
278,73,197131,1,8,1:3:0:0:
278,73,197222,2,0,P|236:111|219:169,1,90,12|8,2:0|1:2,2:0:0:0:
401,163,197494,1,0,1:0:0:0:
401,163,197585,2,0,P|347:145|288:159,1,90,4|8,2:0|1:3,2:0:0:0:
384,314,197858,1,8,1:3:0:0:
384,314,197949,2,0,P|372:258|330:214,1,90,12|8,2:3|1:2,2:0:0:0:
261,225,198222,1,0,1:0:0:0:
261,225,198313,5,12,1:3:0:0:
271,332,198494,2,0,L|225:323,1,45,8|0,1:3|2:0,2:0:0:0:
151,364,198676,2,0,L|135:320,1,45,12|0,1:0|2:0,2:0:0:0:
63,276,198858,2,0,L|93:241,1,45,8|8,1:3|1:2,2:0:0:0:
155,125,199040,2,0,B|145:78|95:70|64:81|64:81|91:96|96:124,1,148.5,8|0,1:3|2:0,2:0:0:0:
27,147,199404,6,0,L|34:189,1,40.5,8|0,1:0|2:0,2:0:0:0:
155,125,199767,6,0,P|223:78|334:72,1,175.5,12|0,1:3|2:0,2:0:0:0:
384,24,200131,2,0,P|422:57|444:94,1,90,8|0,1:0|1:0,2:0:0:0:
442,90,200404,1,8,1:3:0:0:
442,90,200494,1,8,1:3:0:0:
507,6,200676,1,8,1:3:0:0:
363,129,200858,2,0,P|399:168|417:206,1,90,8|8,1:0|1:3,2:0:0:0:
506,158,201222,5,8,1:3:0:0:
422,307,201404,2,0,P|456:269|504:267,2,90,8|8|0,1:3|1:0|1:0,2:0:0:0:
351,376,201858,1,8,1:2:0:0:
351,376,201949,2,0,L|262:357,1,90,8|8,1:3|1:3,2:0:0:0:
161,289,202313,2,0,L|249:270,1,90,8|8,1:0|1:3,2:0:0:0:
32,213,202676,6,0,L|62:356,1,135,12|0,1:3|2:0,2:0:0:0:
60,345,203040,1,8,1:0:0:0:
121,212,203222,2,0,L|179:199,1,45,0|8,1:0|1:2,2:0:0:0:
279,177,203404,2,0,P|259:133|205:108,1,90,8|8,1:3|1:3,2:0:0:0:
161,289,203767,2,0,L|249:270,1,90,8|8,1:0|1:3,2:0:0:0:
422,307,204131,6,0,P|440:262|476:235,1,90,8|8,1:3|1:3,2:0:0:0:
373,381,204404,1,8,1:3:0:0:
373,381,204494,2,0,P|342:342|337:297,1,90,8|8,1:0|1:3,2:0:0:0:
401,150,204767,1,0,1:0:0:0:
401,150,204858,2,0,P|383:195|347:222,1,90,8|8,1:3|1:3,2:0:0:0:
450,76,205131,1,8,1:3:0:0:
450,76,205222,2,0,P|480:114|485:159,1,90,8|8,1:0|1:3,2:0:0:0:
302,111,205585,5,8,1:3:0:0:
288,81,205676,1,8,1:3:0:0:
304,52,205767,1,8,1:3:0:0:
336,46,205858,1,8,1:3:0:0:
360,67,205949,2,0,L|219:37,1,135,8|8,1:0|2:0,2:0:0:0:
147,22,206313,2,0,L|157:70,1,45,8|8,1:3|1:3,2:0:0:0:
54,145,206494,2,0,L|64:96,1,45,8|8,1:3|1:3,2:0:0:0:
157,150,206676,2,0,L|133:261,1,90,8|0,1:0|1:2,2:0:0:0:
32,384,207040,5,8,1:3:0:0:
18,354,207131,1,8,1:3:0:0:
34,325,207222,1,8,1:3:0:0:
66,319,207313,1,8,1:3:0:0:
90,340,207404,2,0,P|156:313|222:316,1,135,8|8,1:0|2:0,2:0:0:0:
291,290,207767,2,0,P|301:311|317:327,1,45,8|8,1:3|1:3,2:0:0:0:
395,272,207949,2,0,P|385:251|370:236,1,45,8|8,1:3|1:3,2:0:0:0:
231,237,208131,2,0,L|249:148,1,90,8|0,1:0|1:2,2:0:0:0:
276,7,208494,5,8,1:3:0:0:
357,114,208676,1,8,1:2:0:0:
386,151,208767,1,8,1:2:0:0:
431,161,208858,1,8,1:0:0:0:
466,152,208949,1,0,1:0:0:0:
485,128,209040,1,8,1:3:0:0:
486,106,209131,1,0,1:0:0:0:
481,92,209222,2,0,P|475:70|470:53,3,36,8|8|8|8,1:3|1:3|1:3|1:3,2:0:0:0:
395,27,209585,6,0,L|342:36,1,36,8|8,1:3|1:3,2:0:0:0:
276,7,209767,2,0,L|257:56,1,36,8|8,1:3|1:3,2:0:0:0:
183,110,209949,6,0,P|173:70|162:36,2,71.9999999999996,12|0|4,1:3|1:0|1:0,2:0:0:0:
256,192,223040,5,12,1:3:0:0:
192,288,223404,1,8,1:2:0:0:
256,96,223767,1,8,1:2:0:0:
320,288,224131,1,8,1:2:0:0:
160,160,224494,1,8,1:2:0:0:
352,160,224858,1,8,1:2:0:0:
192,288,225222,2,0,P|180:259|155:226,1,62.9999999999999,8|0,1:2|2:0,2:0:0:0:
133,369,225585,2,0,P|121:340|96:307,1,62.9999999999999,8|0,1:2|2:0,2:0:0:0:
320,288,225949,6,0,P|366:253|439:241,2,126,8|8|8,1:3|1:2|1:2,2:0:0:0:
133,369,227040,2,0,P|121:340|96:307,1,62.9999999999999,8|0,1:2|1:0,2:0:0:0:
16,192,227404,6,0,P|62:220|145:215,1,126,8|8,1:2|1:2,2:0:0:0:
266,19,228131,2,0,P|218:44|181:119,1,126,8|8,1:2|1:2,2:0:0:0:
463,70,228858,6,0,L|456:40,11,26.9999999999999,12|0|0|0|0|0|0|0|0|0|0|0,1:0|2:0|2:0|2:0|1:0|2:0|2:0|2:0|1:0|2:0|2:0|2:0,2:0:0:0:
394,116,231040,2,0,L|390:98,12,11.25,8|0|0|0|0|0|0|0|0|0|0|0|0,1:3|1:0|1:0|1:0|1:0|1:0|1:0|2:0|1:0|1:0|1:0|1:0|1:0,2:0:0:0:
481,164,231767,6,0,L|472:204,1,36,8|8,1:3|1:3,2:0:0:0:
449,305,231949,1,8,1:3:0:0:
449,305,232040,1,8,1:3:0:0:
449,305,232131,2,0,P|431:295|412:289,1,36,8|8,1:2|1:2,2:0:0:0:
343,230,232313,1,8,1:2:0:0:
343,230,232404,1,8,1:2:0:0:
343,230,232494,2,0,P|325:240|310:254,1,36,8|8,1:3|1:3,2:0:0:0:
225,284,232676,1,8,1:3:0:0:
225,284,232767,1,8,1:3:0:0:
225,284,232858,2,0,P|225:303|229:324,3,36,8|8|8|8,1:2|1:2|1:2|1:2,2:0:0:0:
146,365,233222,5,8,1:3:0:0:
125,335,233313,1,8,1:3:0:0:
94,317,233404,1,8,1:3:0:0:
58,314,233494,1,8,1:3:0:0:
25,326,233585,2,0,L|34:279,1,36,8|0,1:2|1:0,2:0:0:0:
70,135,233767,1,8,1:3:0:0:
110,119,233858,1,0,1:0:0:0:
148,142,233949,1,8,1:3:0:0:
153,185,234040,1,8,1:2:0:0:
123,216,234131,6,0,L|97:209,1,22.5,12|0,1:0|2:0,2:0:0:0:
25,50,234676,6,0,P|104:28|230:115,1,216,12|8,1:3|1:0,2:0:0:0:
123,216,235222,1,0,1:0:0:0:
323,35,235404,2,0,L|279:246,1,216,8|8,1:3|1:0,2:0:0:0:
216,89,235949,1,0,1:0:0:0:
404,262,236131,6,0,B|470:260|466:178|466:178|446:204|421:213,1,162,8|0,1:3|2:0,2:0:0:0:
402,140,236494,2,0,L|295:162,1,108,8|8,1:0|1:2,2:0:0:0:
268,301,236858,1,8,1:3:0:0:
268,301,236949,1,0,1:0:0:0:
268,301,237040,1,8,1:3:0:0:
108,283,237222,1,8,1:0:0:0:
218,182,237404,1,8,1:3:0:0:
34,304,237585,6,0,B|9:264|40:225|40:225|86:213|95:169,1,162,8|0,1:3|2:0,2:0:0:0:
31,111,237949,2,0,L|90:98,1,54,8|0,1:0|2:0,2:0:0:0:
296,77,238131,1,8,1:2:0:0:
296,77,238222,1,8,1:2:0:0:
296,77,238313,1,8,1:3:0:0:
113,0,238494,1,8,1:3:0:0:
183,189,238676,1,8,1:0:0:0:
262,0,238858,1,8,1:3:0:0:
155,76,239040,5,12,1:0:0:0:
155,76,239131,1,8,1:3:0:0:
155,76,239222,2,0,L|216:89,1,54,8|8,1:3|1:3,2:0:0:0:
307,181,239404,1,8,1:3:0:0:
307,181,239494,1,8,1:3:0:0:
307,181,239585,2,0,L|348:134,1,54,12|8,1:2|1:3,2:0:0:0:
473,101,239767,1,8,1:0:0:0:
473,101,239858,1,8,1:3:0:0:
473,101,239949,2,0,L|453:41,1,54,12|8,1:2|1:3,2:0:0:0:
504,192,240131,5,8,1:2:0:0:
495,231,240222,1,8,1:3:0:0:
487,271,240313,1,8,1:3:0:0:
478,310,240404,1,8,1:3:0:0:
470,350,240494,6,0,B|421:300|357:333|357:333|323:386|264:367,1,216,12|12,1:3|1:0,2:0:0:0:
107,266,241040,1,8,2:0:0:0:
107,266,241131,1,8,2:0:0:0:
107,266,241222,2,0,B|92:293|64:306|64:306|228:271,1,216,8|8,1:3|1:0,2:0:0:0:
32,228,241767,1,0,2:0:0:0:
292,298,241949,6,0,B|316:241|269:200|260:204|252:208|184:183|216:109,1,216,8|8,1:3|1:0,2:0:0:0:
300,7,242494,1,0,1:0:0:0:
431,96,242676,2,0,P|351:85|278:151,1,162,8|0,1:3|2:0,2:0:0:0:
234,195,243040,2,0,P|198:196|166:183,1,54,8|0,1:0|2:0,2:0:0:0:
10,133,243222,1,8,1:3:0:0:
136,29,243404,5,8,1:3:0:0:
127,68,243494,1,0,1:0:0:0:
118,108,243585,1,8,1:2:0:0:
110,147,243676,1,8,1:2:0:0:
101,187,243767,1,8,1:3:0:0:
288,130,243949,6,0,B|285:96|311:54|311:54|283:94|243:105,1,162,12|0,1:3|1:0,2:0:0:0:
248,272,244313,2,0,B|278:286|301:329|301:329|280:285|292:245,1,162,12|0,1:3|1:0,2:0:0:0:
101,187,244676,2,0,L|112:239,1,49.5,8|0,2:0|2:0,2:0:0:0:
141,372,244858,6,0,P|88:337|33:339,1,108,12|8,1:0|1:3,2:0:0:0:
202,298,245222,2,0,P|222:281|254:271,1,54,12|0,1:0|1:0,2:0:0:0:
342,191,245404,1,8,1:3:0:0:
342,191,245494,1,8,1:3:0:0:
342,191,245585,2,0,P|366:199|391:222,1,54,8|0,1:0|1:0,2:0:0:0:
472,330,245767,2,0,P|467:304|474:271,1,54,8|8,1:3|1:3,2:0:0:0:
512,126,245949,1,8,1:3:0:0:
488,95,246040,1,8,1:3:0:0:
449,101,246131,1,8,1:3:0:0:
435,137,246222,1,8,1:3:0:0:
459,167,246313,6,0,P|366:109|246:104,1,216,12|8,1:3|1:0,2:0:0:0:
39,159,246858,1,0,1:0:0:0:
191,226,247040,2,0,L|142:-7,1,216,8|8,1:3|1:0,2:0:0:0:
293,228,247585,1,0,1:0:0:0:
175,362,247767,6,0,B|109:352|128:274|128:274|147:302|188:304,1,162,8|0,1:3|2:0,2:0:0:0:
191,226,248131,2,0,P|253:214|305:237,1,108,8|8,1:0|1:0,2:0:0:0:
347,299,248404,1,8,1:2:0:0:
347,299,248494,2,0,P|377:295|414:274,1,54,8|0,1:3|2:0,2:0:0:0:
512,188,248676,1,8,1:3:0:0:
340,127,248858,1,8,1:0:0:0:
475,276,249040,1,8,1:3:0:0:
498,93,249222,6,0,L|332:128,1,162,8|8,1:3|1:3,2:0:0:0:
265,148,249585,2,0,L|209:136,1,54,8|0,1:0|2:0,2:0:0:0:
66,57,249767,2,0,P|99:22|159:22,1,108,0|8,1:0|1:3,2:0:0:0:
238,10,250040,1,0,2:0:0:0:
238,10,250131,2,0,L|224:75,1,54,8|0,1:3|2:0,2:0:0:0:
191,226,250313,1,8,1:0:0:0:
66,57,250494,1,8,1:3:0:0:
21,186,250676,6,0,L|136:161,1,108,8|8,1:0|1:3,2:0:0:0:
204,314,250949,1,8,1:3:0:0:
204,314,251040,2,0,P|141:301|111:258,1,108,8|8,1:0|1:3,2:0:0:0:
337,326,251313,1,8,1:3:0:0:
337,326,251404,2,0,P|294:374|242:378,1,108,8|8,1:0|1:3,2:0:0:0:
362,227,251767,1,8,1:0:0:0:
396,206,251858,1,0,1:0:0:0:
436,205,251949,1,0,1:0:0:0:
471,224,252040,1,0,1:0:0:0:
492,258,252131,6,0,B|511:200|470:155|470:155|410:131|410:76,2,216,12|8|8,1:3|1:0|1:3,2:0:0:0:
491,72,253040,1,8,1:3:0:0:
362,227,253222,2,0,P|297:182|202:188,1,162,8|0,1:0|2:0,2:0:0:0:
128,203,253585,6,0,L|152:87,1,108,8|8,1:3|1:3,2:0:0:0:
10,24,253949,1,8,1:0:0:0:
45,185,254131,1,8,1:3:0:0:
228,77,254313,1,8,1:3:0:0:
228,77,254404,1,0,1:0:0:0:
228,77,254494,2,0,P|192:29|131:21,1,108,8|8,1:3|1:0,2:0:0:0:
25,103,254858,1,0,1:0:0:0:
216,182,255040,6,0,L|193:287,1,108,8|8,1:3|1:3,2:0:0:0:
359,358,255404,2,0,P|328:318|273:313,1,108,12|8,1:0|1:3,2:0:0:0:
273,312,255676,1,8,1:2:0:0:
273,312,255767,1,8,1:3:0:0:
128,203,255949,1,8,1:3:0:0:
193,287,256131,2,0,L|216:182,1,108,8|8,1:0|1:3,2:0:0:0:
251,7,256494,5,8,1:3:0:0:
301,128,256676,1,8,1:3:0:0:
328,150,256767,1,8,1:3:0:0:
362,162,256858,1,8,1:0:0:0:
398,161,256949,1,8,1:2:0:0:
432,149,257040,1,8,1:3:0:0:
459,126,257131,1,8,1:3:0:0:
477,95,257222,2,0,L|464:152,3,54,8|8|8|8,1:2|1:2|1:3|1:3,2:0:0:0:
507,232,257585,2,0,L|450:250,1,54,8|0,1:0|2:0,2:0:0:0:
407,331,257767,2,0,L|363:291,1,54,0|0,1:0|2:0,2:0:0:0:
216,182,257949,6,0,P|136:148|51:180,1,162,12|0,1:3|2:0,2:0:0:0:
21,105,258313,2,0,P|84:76|136:72,1,108,8|8,1:0|1:2,2:0:0:0:
186,15,258585,1,8,1:2:0:0:
186,15,258676,2,0,P|212:30|237:50,1,54,8|0,1:3|2:0,2:0:0:0:
328,150,258858,1,8,1:3:0:0:
424,32,259040,2,0,L|306:56,1,108,8|8,1:0|1:2,2:0:0:0:
440,202,259404,5,8,1:3:0:0:
431,162,259494,1,8,1:3:0:0:
402,135,259585,1,8,1:3:0:0:
362,130,259676,1,8,1:3:0:0:
327,149,259767,2,0,B|338:200|338:200|342:206|342:206|358:281,1,108,8|8,1:0|1:2,2:0:0:0:
207,371,260131,1,8,1:3:0:0:
182,339,260222,1,8,1:3:0:0:
185,300,260313,1,8,1:3:0:0:
214,273,260404,1,8,1:3:0:0:
254,274,260494,2,0,B|206:263|206:263|200:259|200:259|149:248,1,108,8|8,1:0|1:3,2:0:0:0:
19,165,260858,6,0,L|75:152,1,54,12|0,1:0|2:0,2:0:0:0:
258,126,261040,1,8,1:3:0:0:
258,126,261222,1,8,1:3:0:0:
110,9,261404,6,0,L|122:65,1,54,12|0,1:0|2:0,2:0:0:0:
149,248,261585,1,8,1:3:0:0:
149,248,261767,1,8,1:3:0:0:
255,46,261949,5,12,1:0:0:0:
5,86,262131,1,12,1:0:0:0:
5,86,262494,5,8,1:2:0:0:
189,6,262676,1,8,1:2:0:0:
269,190,262858,1,8,1:2:0:0:
85,270,263040,6,0,P|64:222|21:197,1,94.4999999999999,12|0,1:3|2:0,2:0:0:0:
32,184,263404,2,0,P|86:215|109:280,1,121.5,12|0,1:3|2:0,2:0:0:0:
127,352,263767,6,0,P|185:317|277:309,1,135,12|0,1:3|2:0,2:0:0:0:
334,338,264131,2,0,L|314:248,1,90,8|0,1:0|1:0,2:0:0:0:
315,249,264404,1,0,1:0:0:0:
315,249,264494,1,8,1:3:0:0:
262,384,264676,1,8,1:3:0:0:
418,296,264858,2,0,L|398:206,1,90,8|0,1:0|1:0,2:0:0:0:
385,118,265131,5,0,1:0:0:0:
385,118,265222,2,0,P|426:89|471:89,1,90,8|8,1:3|1:3,2:0:0:0:
291,12,265585,1,8,1:0:0:0:
255,171,265767,1,8,1:2:0:0:
255,171,265858,1,0,1:0:0:0:
255,171,265949,1,8,1:3:0:0:
163,33,266131,1,8,1:3:0:0:
305,94,266313,1,8,1:0:0:0:
168,201,266494,5,0,1:0:0:0:
168,201,266585,1,0,1:0:0:0:
168,201,266676,2,0,P|131:174|65:173,1,90,12|8,1:3|1:3,2:0:0:0:
23,358,267040,2,0,L|116:339,1,90,8|8,1:0|1:2,2:0:0:0:
111,340,267313,1,0,1:0:0:0:
111,340,267404,1,8,1:3:0:0:
50,253,267585,1,8,1:3:0:0:
255,171,267767,1,8,1:0:0:0:
223,384,267949,1,8,1:3:0:0:
156,260,268131,6,0,L|199:269,3,45,12|0|8|8,1:3|1:0|1:3|1:3,2:0:0:0:
288,325,268494,1,12,1:0:0:0:
288,325,268585,1,8,1:3:0:0:
288,325,268676,2,0,L|317:292,1,45,8|8,1:3|1:3,2:0:0:0:
410,243,268858,1,12,1:3:0:0:
399,210,268949,1,8,1:3:0:0:
389,178,269040,1,8,1:3:0:0:
378,146,269131,1,8,1:3:0:0:
368,114,269222,2,0,P|387:125|423:129,1,45,12|8,1:0|2:3,2:0:0:0:
253,44,269404,2,0,P|272:33|308:29,1,45,8|8,2:3|2:3,2:0:0:0:
509,30,269585,6,0,L|477:179,1,135,12|0,1:3|2:0,2:0:0:0:
410,243,269949,2,0,P|364:212|320:209,1,90,8|0,1:0|1:0,2:0:0:0:
330,207,270222,1,0,1:0:0:0:
330,207,270313,1,8,1:3:0:0:
419,52,270494,1,8,1:3:0:0:
231,136,270676,1,8,1:0:0:0:
368,114,270858,2,0,L|304:100,1,45,0|0,1:0|1:0,2:0:0:0:
253,44,271040,6,0,L|146:66,1,90,12|8,1:3|1:3,2:0:0:0:
0,104,271404,1,8,1:0:0:0:
163,187,271585,2,0,L|151:135,1,45,8|0,1:2|2:0,2:0:0:0:
70,86,271767,2,0,L|93:195,1,90,12|8,1:3|1:3,2:0:0:0:
0,336,272131,1,8,1:0:0:0:
3,323,272222,1,8,1:2:0:0:
6,310,272313,1,8,1:3:0:0:
98,347,272495,6,0,P|131:331|159:296,1,67.5,12|0,1:3|0:0,2:0:0:0:
156,286,272731,6,0,P|180:308|206:322,1,60.7500000000001,8|0,1:3|2:0,2:0:0:0:
217,351,272945,6,0,P|239:328|266:319,1,54,8|0,1:2|2:0,2:0:0:0:
270,294,273159,6,0,P|285:316|307:326,1,47.25,8|0,1:3|2:0,2:0:0:0:
318,344,273419,6,0,P|333:328|354:315,1,26.9999999999999,8|8,1:3|1:3,2:0:0:0:
359,298,273599,6,0,P|372:318|393:335,1,50.6250000000001,8|0,1:3|0:0,2:0:0:0:
403,349,273839,6,0,P|418:332|424:332,1,27,8|0,1:2|2:0,2:0:0:0:
427,306,274079,6,0,P|439:318|441:318,1,20.25,8|0,2:3|2:0,2:0:0:0:
512,319,274348,5,12,1:3:0:0:
256,192,274492,12,0,276358,1:0:0:0:
440,131,276618,6,0,B|393:117|364:144|364:144|338:185|284:173,1,148.5,12|0,1:3|2:0,2:0:0:0:
222,143,277023,2,0,L|243:244,1,99,8|8,1:0|1:2,2:0:0:0:
242,239,277290,1,8,1:2:0:0:
242,239,277380,1,8,1:3:0:0:
131,174,277558,1,8,1:3:0:0:
299,101,277737,1,8,1:0:0:0:
160,22,277915,5,0,1:0:0:0:
160,22,278005,1,0,1:0:0:0:
160,22,278094,2,0,P|108:18|70:57,1,99,8|8,1:3|1:3,2:0:0:0:
29,189,278457,2,0,L|7:89,1,99,8|8,1:0|1:2,2:0:0:0:
131,174,278821,2,0,L|119:225,1,49.5,8|8,1:3|1:3,2:0:0:0:
80,377,279003,1,8,1:3:0:0:
8,327,279184,2,0,P|59:295|155:312,1,148.5,8|0,1:0|1:0,2:0:0:0:
193,365,279548,6,0,P|213:353|236:330,1,49.5,8|0,1:3|2:0,2:0:0:0:
295,379,279730,2,0,P|309:360|323:331,1,49.5,8|0,1:3|2:0,2:0:0:0:
395,357,279912,2,0,P|402:334|405:302,1,49.5,8|0,1:0|2:0,2:0:0:0:
481,302,280094,2,0,P|480:278|472:247,1,49.5,8|0,1:2|2:0,2:0:0:0:
396,231,280275,6,0,P|376:219|353:196,1,36,8|0,1:3|2:0,2:0:0:0:
294,245,280457,2,0,P|279:226|265:197,1,36,8|0,1:3|2:0,2:0:0:0:
194,223,280639,2,0,P|186:200|183:168,1,36,8|0,1:0|2:0,2:0:0:0:
108,168,280821,2,0,P|108:144|116:113,1,36,8|0,1:2|1:0,2:0:0:0:
132,29,281003,6,0,P|152:41|175:64,1,40.5,8|0,1:3|2:0,2:0:0:0:
270,35,281184,2,0,P|275:57|275:90,1,40.5,8|0,1:3|2:0,2:0:0:0:
365,127,281366,2,0,P|353:147|330:170,1,45,8|0,1:0|2:0,2:0:0:0:
352,271,281548,2,0,P|329:276|296:276,1,45,8|0,1:2|2:0,2:0:0:0:
212,347,281730,6,0,P|191:335|169:312,1,49.5,8|0,1:3|2:0,2:0:0:0:
7,255,281912,2,0,P|27:243|58:235,1,49.5,8|0,1:3|2:0,2:0:0:0:
189,123,282094,2,0,P|188:146|180:177,1,49.5,8|0,1:3|2:0,2:0:0:0:
136,246,282275,1,8,1:3:0:0:
97,109,282485,5,8,1:2:0:0:
70,72,282571,1,8,1:2:0:0:
28,86,282658,1,8,1:2:0:0:
28,131,282745,1,8,1:2:0:0:
70,145,282831,1,12,1:3:0:0:
256,192,282922,12,0,286128,2:0:0:0:
250,248,286403,6,0,L|249:263,1,14.4,0|0,2:0|2:0,2:0:0:0:
244,283,286495,6,0,B|230:221|157:179|157:179|221:139|246:78|246:78|241:130|268:151,1,337.5,0|0,2:0|1:0,2:0:0:0:
