osu file format v14

[General]
AudioFilename: audio.mp3
AudioLeadIn: 0
PreviewTime: 59520
Countdown: 0
SampleSet: Soft
StackLeniency: 0.7
Mode: 0
LetterboxInBreaks: 0
WidescreenStoryboard: 1

[Editor]
DistanceSpacing: 1
BeatDivisor: 4
GridSize: 4
TimelineZoom: 1

[Metadata]
Title:Black*Rock Shooter (TV Size)
TitleUnicode:ブラック★ロックシューター (TV Size)
Artist:supercell feat. Hatsune Miku
ArtistUnicode:supercell feat. 初音ミク
Creator:NotEnough
Version:Kowari's Easy
Source:ブラック★ロックシューター
Tags:tv size opening ryo vocaloid yukiyo potatoboy123 potatoboy kowari brs
BeatmapID:1744629
BeatmapSetID:823487

[Difficulty]
HPDrainRate:2
CircleSize:2.5
OverallDifficulty:2
ApproachRate:3
SliderMultiplier:1
SliderTickRate:1

[Events]
//Background and Video events
Video,335,"brs2.mp4"
0,0,"backgroundd.jpg",0,0
//Break Periods
//Storyboard Layer 0 (Background)
//Storyboard Layer 1 (Fail)
//Storyboard Layer 2 (Pass)
//Storyboard Layer 3 (Foreground)
//Storyboard Sound Samples

[TimingPoints]
1422,363.636363636364,4,2,1,60,1,0
13058,-100,4,2,1,45,0,0
21785,-100,4,2,1,60,0,0
24694,-100,4,2,1,50,0,0
33422,-100,4,2,1,60,0,0
36331,-100,4,2,1,60,0,0
45058,-100,4,2,1,60,0,0
46512,-100,4,2,1,75,0,0
47967,-100,4,2,1,50,0,0
56694,-100,4,2,1,60,0,0
59240,-100,4,2,1,60,0,0
59603,-100,4,2,1,60,0,1
87058,-100,4,2,1,60,0,0

[Colours]
Combo1 : 182,141,250
Combo2 : 27,97,226
Combo3 : 198,198,198

[HitObjects]
73,280,1422,6,0,P|169:311|274:257,1,200,4|0,1:2|1:2,0:0:0:0:
338,238,2512,1,8,0:2:0:0:
418,279,2876,2,0,B|442:189|442:189|423:73,1,200,0|0,1:0|1:2,0:0:0:0:
335,93,3967,1,8,0:2:0:0:
265,36,4331,2,0,B|162:20|170:86|63:56,1,200,0|0,1:2|1:2,0:0:0:0:
13,127,5422,1,8,0:2:0:0:
71,195,5785,6,0,L|56:305,1,100,12|12,0:2|0:2,0:0:0:0:
146,282,6512,2,0,L|159:381,1,100,12|12,0:2|0:2,0:0:0:0:
243,344,7240,6,0,B|305:311|352:348|332:348|381:387|452:338,1,200,4|0,1:2|1:2,0:0:0:0:
454,261,8331,1,8,0:2:0:0:
408,183,8694,2,0,B|383:124|383:124|247:124,1,200,0|0,1:2|1:2,0:0:0:0:
172,73,9785,1,8,0:2:0:0:
86,102,10149,6,0,L|97:236,1,100,0|0,1:2|1:2,0:0:0:0:
178,232,10876,2,0,L|167:366,1,100,0|0,1:2|1:2,0:0:0:0:
243,382,11603,1,8,0:2:0:0:
423,382,12331,1,8,0:2:0:0:
321,220,13058,5,4,1:2:0:0:
276,298,13422,2,0,P|318:315|458:255,1,200,10|10,0:2|0:2,0:0:0:0:
440,172,14512,2,0,P|452:112|450:66,2,100,2|10|2,1:2|0:2|1:2,0:0:0:0:
350,163,15603,1,10,0:2:0:0:
292,93,15967,6,0,P|237:88|169:102,1,100,2|8,1:2|0:2,0:0:0:0:
144,172,16694,2,0,P|94:177|44:171,1,100,2|8,1:2|0:2,0:0:0:0:
7,254,17422,1,2,1:2:0:0:
92,281,17785,1,8,0:2:0:0:
63,366,18149,2,0,L|274:375,1,200,2|4,1:2|1:2,0:0:0:0:
319,292,19240,6,0,B|408:336|408:336|503:296,1,200,10|10,0:2|0:2,0:0:0:0:
490,197,20331,2,0,L|491:88,2,100,2|10|2,1:2|0:2|1:2,0:0:0:0:
403,146,21422,1,10,0:2:0:0:
315,98,21785,6,0,B|267:90|267:90|207:92,1,100,10|8,0:2|0:2,0:0:0:0:
117,109,22512,2,0,L|111:208,1,100,10|8,0:2|0:2,0:0:0:0:
185,276,23240,2,0,L|193:405,1,100,10|8,0:2|0:2,0:0:0:0:
288,352,23967,2,0,L|370:350,2,50,8|0|8,0:0|1:0|0:0,0:0:0:0:
276,252,24694,1,4,1:2:0:0:
375,246,25058,6,0,P|435:257|471:139,1,200,10|10,0:2|0:2,0:0:0:0:
396,87,26149,2,0,L|472:-2,2,100,2|10|2,1:2|0:2|1:2,0:0:0:0:
296,76,27240,1,10,0:2:0:0:
198,54,27603,6,0,P|180:98|192:165,1,100,2|8,1:2|0:2,0:0:0:0:
91,186,28331,2,0,L|84:294,1,100,2|8,1:2|0:2,0:0:0:0:
171,334,29058,2,0,P|221:342|280:332,1,100,2|8,1:2|0:2,0:0:0:0:
367,314,29785,2,0,L|401:365,2,50,0|0|10,1:2|0:2|0:2,0:0:0:0:
356,214,30512,6,0,P|396:170|495:154,2,150,2|2|8,1:2|0:0|0:0,0:0:0:0:
255,206,31967,2,0,B|244:152|244:152|246:97,1,100,2|10,1:2|0:2,0:0:0:0:
174,37,32694,2,0,P|125:26|75:29,1,100,0|8,1:2|0:2,0:0:0:0:
61,128,33422,6,0,L|37:242,1,100,10|10,0:2|0:2,0:0:0:0:
84,315,34149,2,0,L|198:339,1,100,8|8,0:2|0:2,0:0:0:0:
257,269,34876,1,10,0:2:0:0:
337,328,35240,1,8,0:2:0:0:
409,259,35603,2,0,P|417:208|410:156,1,100,10|0,1:2|1:2,0:0:0:0:
375,67,36331,6,0,L|263:74,1,100,6|8,1:2|0:2,0:0:0:0:
190,20,37058,2,0,L|90:13,1,100,2|8,1:2|0:2,0:0:0:0:
35,96,37785,1,2,1:2:0:0:
98,175,38149,2,0,L|86:288,2,100,10|2|10,0:2|1:2|0:2,0:0:0:0:
187,184,39240,5,2,1:2:0:0:
210,270,39603,1,10,0:2:0:0:
284,320,39967,2,0,L|408:331,1,100,2|10,1:2|0:2,0:0:0:0:
446,262,40694,2,0,P|458:200|449:138,1,100,10|8,0:2|0:2,0:0:0:0:
373,124,41422,1,0,1:2:0:0:
428,56,41785,1,8,0:2:0:0:
341,29,42149,6,0,L|231:29,1,100,2|10,1:2|0:2,0:0:0:0:
177,93,42876,2,0,P|113:97|70:76,1,100,2|8,1:2|0:2,0:0:0:0:
41,164,43603,2,0,L|35:281,1,100,2|10,1:2|0:2,0:0:0:0:
82,341,44331,2,0,P|133:354|192:340,1,100,2|10,1:2|0:2,0:0:0:0:
254,297,45058,6,0,L|413:297,2,150,2|8|8,1:2|0:2|0:2,0:0:0:0:
200,224,46512,2,0,P|189:168|206:121,1,100,0|0,1:2|1:2,0:0:0:0:
258,57,47240,2,0,L|371:56,1,100,0|0,1:2|1:2,0:0:0:0:
426,115,47967,6,0,B|432:166|432:166|424:236,1,100,6|10,1:2|0:2,0:0:0:0:
390,296,48694,2,0,P|336:310|284:299,1,100,2|10,1:2|0:2,0:0:0:0:
237,231,49422,1,2,1:2:0:0:
148,246,49785,1,10,0:2:0:0:
129,334,50149,2,0,L|15:320,1,100,2|10,1:2|0:2,0:0:0:0:
14,224,50876,6,0,P|22:171|6:115,1,100,2|8,1:2|0:2,0:0:0:0:
75,63,51603,2,0,L|193:57,1,100,2|8,1:2|0:2,0:0:0:0:
248,110,52331,2,0,L|249:183,2,50,2|0|8,1:2|0:2|0:2,0:0:0:0:
311,47,53058,2,0,B|363:41|363:41|421:47,1,100,2|8,1:2|0:2,0:0:0:0:
443,129,53785,6,0,L|438:238,1,100,2|10,1:2|0:2,0:0:0:0:
480,319,54512,1,2,1:2:0:0:
393,368,54876,1,10,0:2:0:0:
300,331,55240,2,0,P|252:313|183:317,1,100,2|8,1:2|0:2,0:0:0:0:
113,328,55967,2,0,L|128:214,1,100,2|8,1:2|0:2,0:0:0:0:
256,192,56694,12,4,58149,1:0:0:0:
344,111,59603,6,0,P|248:87|152:111,1,200,6|2,1:2|1:2,0:0:0:0:
163,210,60694,1,8,0:2:0:0:
157,309,61058,2,0,P|253:332|349:309,1,200,2|2,1:2|1:2,0:0:0:0:
404,225,62149,1,8,0:2:0:0:
385,126,62512,6,0,B|346:81|346:81|242:77,2,150,2|2|10,1:2|1:2|0:2,0:0:0:0:
304,186,63967,2,0,L|195:183,1,100,14|14,0:2|0:2,0:0:0:0:
131,110,64694,2,0,L|31:116,1,100,14|14,0:2|0:2,0:0:0:0:
18,216,65422,6,0,P|59:262|194:270,1,200,6|2,1:2|1:2,0:0:0:0:
245,189,66512,1,8,0:2:0:0:
300,105,66876,2,0,P|368:71|486:131,1,200,2|2,1:2|1:2,0:0:0:0:
493,215,67967,1,8,0:2:0:0:
451,306,68331,6,0,P|383:328|297:311,1,150,2|14,1:2|0:2,0:0:0:0:
230,251,69240,1,14,0:2:0:0:
87,205,69785,2,0,L|91:92,1,100,12|12,0:2|0:2,0:0:0:0:
190,107,70512,2,0,L|194:-6,1,100,14|14,0:2|0:2,0:0:0:0:
293,13,71240,6,0,B|330:77|330:77|331:206,1,200,6|2,1:2|1:2,0:0:0:0:
281,290,72331,1,8,0:2:0:0:
193,338,72694,2,0,B|156:274|156:274|155:145,1,200,2|2,1:2|1:2,0:0:0:0:
74,88,73785,1,10,0:2:0:0:
36,180,74149,6,0,L|32:335,2,150,2|2|10,1:2|1:2|0:2,0:0:0:0:
74,88,75603,1,14,0:2:0:0:
161,39,75967,1,14,0:2:0:0:
247,88,76331,2,0,L|348:30,1,100,14|14,0:2|0:2,0:0:0:0:
428,71,77058,6,0,P|450:113|426:225,1,150,6|2,1:2|0:2,0:0:0:0:
383,296,77967,2,0,L|219:296,1,150,2|2,1:2|1:2,0:0:0:0:
156,231,78876,2,0,B|41:231,2,100,10|2|10,0:2|0:2|0:2,0:0:0:0:
192,137,79967,5,2,1:2:0:0:
275,82,80331,1,8,0:2:0:0:
365,123,80694,2,0,L|369:242,1,100,0|8,1:2|0:2,0:0:0:0:
319,310,81422,2,0,P|267:322|212:311,2,100,0|8|0,1:2|0:2|1:2,0:0:0:0:
368,222,82512,1,10,0:2:0:0:
288,161,82876,6,0,P|247:149|136:185,1,150,6|2,1:2|0:2,0:0:0:0:
54,216,83785,1,2,1:2:0:0:
127,346,84331,2,0,P|221:373|327:344,1,200,2|2,1:2|1:2,0:0:0:0:
326,249,85422,1,10,0:2:0:0:
362,156,85785,6,0,B|435:149|435:149|529:155,2,150,14|12|12,0:2|0:2|0:2,0:0:0:0:
249,56,87422,2,0,P|211:29|94:48,1,150,8|8,0:0|0:0,0:0:0:0:
71,126,88331,1,8,0:0:0:0:
122,211,88694,1,12,0:0:0:0:
