osu file format v14

[General]
AudioFilename: audio.mp3
AudioLeadIn: 0
PreviewTime: 301683
Countdown: 0
SampleSet: Soft
StackLeniency: 0.3
Mode: 0
LetterboxInBreaks: 0
WidescreenStoryboard: 0

[Editor]
Bookmarks: 317477,320017,337239
DistanceSpacing: 0.4
BeatDivisor: 4
GridSize: 32
TimelineZoom: 3.599998

[Metadata]
Title:The Bravery
TitleUnicode:The Bravery
Artist:supercell
ArtistUnicode:supercell
Creator:Yukiyo
Version:Courage
Source:マギ The labyrinth of magic
Tags:ryo magi full ending 2 koeda ZIGAEXPERIENTIA
BeatmapID:1700568
BeatmapSetID:810543

[Difficulty]
HPDrainRate:3.8
CircleSize:4
OverallDifficulty:8.7
ApproachRate:9
SliderMultiplier:1.76
SliderTickRate:1

[Events]
//Background and Video events
0,0,"UBCmpPs.jpg",0,0
//Break Periods
//Storyboard Layer 0 (Background)
//Storyboard Layer 1 (Fail)
//Storyboard Layer 2 (Pass)
//Storyboard Layer 3 (Foreground)
//Storyboard Sound Samples

[TimingPoints]
753,317.460317460317,4,2,1,60,1,0
11526,317.460317460317,4,2,1,80,1,0
11526,-200,4,2,1,80,0,0
12002,-100,4,2,1,80,0,0
12160,317.460317460317,4,2,1,80,1,0
22636,-133.333333333333,4,2,1,60,0,0
22716,-133.333333333333,4,2,1,5,0,0
22954,-133.333333333333,4,2,1,60,0,0
23033,-133.333333333333,4,2,1,5,0,0
23271,-133.333333333333,4,2,1,60,0,0
23351,-133.333333333333,4,2,1,5,0,0
23430,-133.333333333333,4,2,1,60,0,0
23509,-133.333333333333,4,2,1,5,0,0
23748,-133.333333333333,4,2,1,60,0,0
23827,-133.333333333333,4,2,1,5,0,0
24065,-133.333333333333,4,2,1,60,0,0
24144,-133.333333333333,4,2,1,5,0,0
24224,-133.333333333333,4,2,1,60,0,0
24303,-133.333333333333,4,2,1,5,0,0
24541,-133.333333333333,4,2,1,60,0,0
24621,-133.333333333333,4,2,1,5,0,0
24859,-133.333333333333,4,2,1,60,0,0
24938,-133.333333333333,4,2,1,5,0,0
25176,-133.333333333333,4,2,1,60,0,0
25255,-133.333333333333,4,2,1,5,0,0
25494,-133.333333333333,4,2,1,60,0,0
25573,-133.333333333333,4,2,1,5,0,0
25811,-133.333333333333,4,2,1,60,0,0
25890,-133.333333333333,4,2,1,5,0,0
25970,-133.333333333333,4,2,1,60,0,0
26049,-133.333333333333,4,2,1,5,0,0
26287,-133.333333333333,4,2,1,60,0,0
26367,-133.333333333333,4,2,1,5,0,0
26605,-133.333333333333,4,2,1,60,0,0
26684,-133.333333333333,4,2,1,5,0,0
26763,-133.333333333333,4,2,1,60,0,0
26843,-133.333333333333,4,2,1,5,0,0
27081,-133.333333333333,4,2,1,60,0,0
27160,-133.333333333333,4,2,1,5,0,0
27240,-133.333333333333,4,2,1,60,0,0
46286,-133.333333333333,4,2,1,70,0,0
78509,-133.333333333333,4,2,1,45,0,0
78985,-133.333333333333,4,2,1,50,0,0
79461,-133.333333333333,4,2,1,55,0,0
80096,-133.333333333333,4,2,1,60,0,0
80731,-133.333333333333,4,2,1,70,0,0
81366,-133.333333333333,4,2,1,75,0,0
82001,-133.333333333333,4,2,1,85,0,0
85810,-200,4,2,1,70,0,0
88350,-100,4,2,1,100,0,1
121367,-100,4,2,1,100,0,1
123985,-100,4,2,1,5,0,1
124064,-100,4,2,1,100,0,1
124144,-100,4,2,1,5,0,1
124382,-100,4,2,1,100,0,1
124461,-100,4,2,1,5,0,1
124540,-100,4,2,1,100,0,1
124620,-100,4,2,1,5,0,1
124858,-100,4,2,1,100,0,1
124937,-100,4,2,1,5,0,1
125017,-100,4,2,1,100,0,1
125096,-100,4,2,1,5,0,1
125334,-100,4,2,1,100,0,1
125413,-100,4,2,1,5,0,1
125493,-100,4,2,1,100,0,1
125572,-100,4,2,1,5,0,1
125652,-100,4,2,1,100,0,1
126445,-100,4,2,1,60,0,0
135334,-133.333333333333,4,2,1,60,0,0
146763,-133.333333333333,4,2,1,70,0,0
167398,-133.333333333333,4,2,1,45,0,0
167874,-133.333333333333,4,2,1,50,0,0
168350,-133.333333333333,4,2,1,55,0,0
168985,-133.333333333333,4,2,1,60,0,0
169620,-133.333333333333,4,2,1,70,0,0
170255,-133.333333333333,4,2,1,75,0,0
170890,-133.333333333333,4,2,1,85,0,0
174699,-133.333333333333,4,2,1,100,0,0
177239,-100,4,2,1,100,0,1
212874,-100,4,2,1,5,0,1
212953,-100,4,2,1,100,0,1
213033,-100,4,2,1,5,0,1
213271,-100,4,2,1,100,0,1
213350,-100,4,2,1,5,0,1
213429,-100,4,2,1,100,0,1
213509,-100,4,2,1,5,0,1
213747,-100,4,2,1,100,0,1
213826,-100,4,2,1,5,0,1
213906,-100,4,2,1,100,0,1
213985,-100,4,2,1,5,0,1
214223,-100,4,2,1,100,0,1
214302,-100,4,2,1,5,0,1
214382,-100,4,2,1,100,0,1
214461,-100,4,2,1,5,0,1
214541,-100,4,2,1,100,0,1
215175,-100,4,2,1,100,0,0
235572,-100,4,2,1,5,0,0
235652,-133.333333333333,4,2,1,60,0,0
250890,-200,4,2,1,40,0,0
270413,-133.333333333333,4,2,1,60,0,0
270731,-133.333333333333,4,2,1,60,0,0
271048,-100,4,2,1,100,0,0
281207,-200,4,2,1,40,0,0
286445,-133.333333333333,4,2,1,60,0,0
290255,-133.333333333333,4,2,1,75,0,0
290334,-133.333333333333,4,2,1,5,0,0
290731,-133.333333333333,4,2,1,75,0,0
290810,-133.333333333333,4,2,1,5,0,0
291207,-133.333333333333,4,2,1,75,0,0
291286,-133.333333333333,4,2,1,5,0,0
291525,-133.333333333333,4,2,1,75,0,0
294699,-133.333333333333,4,2,1,75,0,0
294779,-133.333333333333,4,2,1,5,0,0
295017,-133.333333333333,4,2,1,75,0,0
295096,-133.333333333333,4,2,1,5,0,0
295334,-100,4,2,1,75,0,0
297239,-133.333333333333,4,2,1,75,0,0
299064,-133.333333333333,4,2,1,5,0,0
299144,-133.333333333333,4,2,1,75,0,0
300413,-285.714285714286,4,2,1,100,0,0
301683,-100,4,2,1,100,0,1
322080,-100,4,2,1,5,0,1
322159,-100,4,2,1,100,0,1
322239,-100,4,2,1,5,0,1
322477,-100,4,2,1,100,0,1
322556,-100,4,2,1,5,0,1
322635,-100,4,2,1,100,0,1
322715,-100,4,2,1,5,0,1
322794,-100,4,2,1,100,0,1
323032,-100,4,2,1,5,0,1
323112,-100,4,2,1,100,0,1
323191,-100,4,2,1,5,0,1
323429,-100,4,2,1,100,0,1
323508,-100,4,2,1,5,0,1
323588,-100,4,2,1,100,0,1
323667,-100,4,2,1,5,0,1
323747,-100,4,2,1,100,0,1
324382,-100,4,2,1,80,0,0
337239,-133.333333333333,4,2,1,60,0,0
338509,-400,4,2,1,75,0,0
342318,-400,4,2,1,60,0,0
344858,-400,4,2,1,50,0,0
347398,-400,4,2,1,40,0,0
351207,-400,4,2,1,30,0,0
355017,-400,4,2,1,20,0,0
358826,-400,4,2,1,10,0,0

[Colours]
Combo1 : 164,255,255
Combo2 : 255,174,215
Combo3 : 255,147,255
Combo4 : 83,199,255

[HitObjects]
147,80,753,6,0,P|133:121|143:163,2,88,2|0|0,0:0|0:0|0:0,0:0:0:0:
213,122,1229,2,0,L|37:137,1,176,2|0,0:0|0:0,0:0:0:0:
284,0,1705,6,0,P|296:41|285:83,2,88,2|0|0,0:0|0:0|0:0,0:0:0:0:
218,42,2181,2,0,L|393:57,1,176,2|0,0:0|0:0,0:0:0:0:
466,115,2657,1,2,0:0:0:0:
381,138,2816,1,0,0:0:0:0:
475,33,2975,1,2,0:0:0:0:
429,290,3292,6,0,L|445:203,2,88,2|0|0,0:0|0:0|0:0,0:0:0:0:
362,235,3768,2,0,P|439:202|508:251,1,176,2|0,0:0|0:0,0:0:0:0:
285,266,4245,6,0,L|268:352,2,88,2|0|0,0:0|0:0|0:0,0:0:0:0:
352,321,4721,2,0,P|273:352|205:302,1,176,2|0,0:0|0:0,0:0:0:0:
211,220,5197,1,2,0:0:0:0:
129,263,5356,1,0,0:0:0:0:
213,134,5514,1,2,0:0:0:0:
59,224,5832,6,0,P|89:192|130:180,2,88,2|0|0,0:0|0:0|0:0,0:0:0:0:
129,263,6308,2,0,B|166:179|166:179|138:99,1,176,2|0,0:0|0:0,0:0:0:0:
328,37,6784,6,0,P|296:67|254:78,2,88,2|0|0,0:0|0:0|0:0,0:0:0:0:
259,0,7260,2,0,B|222:84|222:84|249:163,1,176,2|0,0:0|0:0,0:0:0:0:
301,246,7737,1,2,0:0:0:0:
334,160,7895,1,0,0:0:0:0:
214,245,8054,1,2,0:0:0:0:
472,220,8372,6,0,L|384:227,2,88,2|0|0,0:0|0:0|0:0,0:0:0:0:
334,160,8848,2,0,P|300:237|351:304,1,176,2|0,0:0|0:0,0:0:0:0:
215,73,9324,6,0,L|302:80,2,88,2|0|0,0:0|0:0|0:0,0:0:0:0:
352,15,9800,2,0,P|384:93|334:160,1,176,2|0,0:0|0:0,0:0:0:0:
249,148,10276,1,2,0:0:0:0:
302,80,10435,1,0,0:0:0:0:
280,227,10594,1,2,0:0:0:0:
280,227,10911,5,2,0:0:0:0:
195,216,11070,1,0,0:0:0:0:
332,159,11229,1,0,0:0:0:0:
229,294,11387,1,2,0:0:0:0:
150,151,11526,6,0,P|144:97|174:51,1,110,2|0,0:0|0:0,0:0:0:0:
216,27,12002,6,0,L|218:117,1,88,4|0,3:2|0:0,0:0:0:0:
220,201,12318,1,0,3:0:0:0:
372,186,12477,2,0,P|338:157|295:150,1,88,8|0,0:0|0:0,0:0:0:0:
159,260,12794,1,0,3:0:0:0:
306,230,12953,1,0,3:0:0:0:
145,164,13112,1,8,0:0:0:0:
247,295,13271,6,0,L|341:307,1,88,0|0,3:2|0:0,0:0:0:0:
429,315,13588,1,0,3:0:0:0:
306,230,13747,1,8,0:0:0:0:
294,380,13906,1,0,0:0:0:0:
294,380,13985,1,8,0:0:0:0:
294,380,14064,1,0,3:0:0:0:
391,236,14223,1,0,3:0:0:0:
247,295,14382,1,8,0:0:0:0:
353,162,14540,6,0,P|395:152|440:169,1,88,4|0,3:2|0:0,0:0:0:0:
334,306,14858,1,0,3:0:0:0:
220,201,15017,2,0,L|214:113,1,88,8|0,0:0|0:0,0:0:0:0:
216,27,15255,1,8,0:0:0:0:
241,33,15334,2,0,P|278:55|300:93,1,88,0|0,3:0|3:0,0:0:0:0:
145,164,15652,1,8,0:0:0:0:
243,279,15810,6,0,P|280:256|299:217,1,88,4|0,3:2|0:0,0:0:0:0:
214,113,16128,1,0,3:0:0:0:
149,252,16286,1,8,0:0:0:0:
220,201,16445,1,0,3:0:0:0:
176,337,16604,1,8,0:0:0:0:
145,164,16763,1,0,3:0:0:0:
243,278,16921,1,8,0:0:0:0:
75,212,17080,6,0,P|67:128|135:77,1,176,4|0,3:2|3:0,0:0:0:0:
280,63,17556,2,0,P|253:97|212:113,1,88,8|0,0:0|0:0,0:0:0:0:
346,6,17874,1,0,3:0:0:0:
297,141,18033,1,0,3:0:0:0:
205,30,18191,1,8,0:0:0:0:
378,91,18350,6,0,B|380:151|380:151|360:196|360:196|363:265,1,176,4|0,3:2|3:0,0:0:0:0:
442,383,18826,2,0,P|452:341|438:299,1,88,8|0,0:0|0:0,0:0:0:0:
288,238,19144,1,0,3:0:0:0:
368,342,19302,1,0,3:0:0:0:
432,224,19461,1,8,0:0:0:0:
279,324,19620,6,0,P|209:278|212:193,1,176,4|0,3:2|3:0,0:0:0:0:
320,74,20096,1,8,0:0:0:0:
375,229,20255,2,0,L|287:238,1,88,0|0,0:0|3:0,0:0:0:0:
129,204,20572,1,0,3:0:0:0:
285,159,20731,1,8,0:0:0:0:
123,284,20890,6,0,P|82:271|55:236,1,88,4|0,3:2|0:0,0:0:0:0:
138,123,21207,2,0,P|179:135|206:171,1,88,0|8,3:0|0:0,0:0:0:0:
50,154,21525,2,0,L|64:58,1,88,0|0,3:0|0:0,0:0:0:0:
210,258,21842,2,0,L|196:354,1,88,0|0,3:0|0:0,0:0:0:0:
129,204,22159,5,12,0:2:0:0:
145,193,22636,2,0,L|148:159,1,33.0000012588501,2|0,0:0|0:0,0:0:0:0:
223,155,22953,2,0,L|226:121,1,33.0000012588501,2|0,0:0|0:0,0:0:0:0:
301,103,23271,6,0,L|304:69,1,33.0000012588501,2|0,0:0|0:0,0:0:0:0:
338,75,23429,2,0,L|341:41,1,33.0000012588501,2|0,0:0|0:0,0:0:0:0:
424,32,23747,2,0,L|427:-2,1,33.0000012588501,2|0,0:0|0:0,0:0:0:0:
405,144,24064,6,0,L|407:90,1,33.0000012588501,2|0,0:0|0:0,0:0:0:0:
377,185,24223,2,0,L|379:131,1,33.0000012588501,2|0,0:0|0:0,0:0:0:0:
332,290,24540,2,0,L|334:236,1,33.0000012588501,2|0,0:0|0:0,0:0:0:0:
199,309,24858,6,0,P|215:307|231:309,1,33.0000012588501,2|0,0:0|0:0,0:0:0:0:
124,379,25175,2,0,P|107:380|91:378,1,33.0000012588501,2|0,0:0|0:0,0:0:0:0:
100,244,25493,2,0,P|100:274|98:290,1,33.0000012588501,2|0,0:0|0:0,0:0:0:0:
7,191,25810,6,0,P|6:160|8:144,1,33.0000012588501,2|0,0:0|0:0,0:0:0:0:
21,164,25969,2,0,P|20:133|22:117,1,33.0000012588501,2|0,0:0|0:0,0:0:0:0:
94,60,26286,2,0,P|94:90|92:106,1,33.0000012588501,2|0,0:0|0:0,0:0:0:0:
192,6,26604,6,0,P|222:5|238:7,1,33.0000012588501,2|0,0:0|0:0,0:0:0:0:
216,19,26763,2,0,P|246:18|262:20,1,33.0000012588501,2|0,0:0|0:0,0:0:0:0:
223,170,27080,2,0,P|222:139|224:123,1,33.0000012588501,2|0,0:0|0:0,0:0:0:0:
283,91,27239,1,2,0:0:0:0:
295,205,27398,6,0,L|163:224,1,132.000005035401,2|0,0:0|0:0,0:0:0:0:
84,235,27874,1,2,0:0:0:0:
92,317,28033,2,0,P|148:286|164:223,1,132.000005035401,2|0,0:0|0:0,0:0:0:0:
34,162,28509,1,2,0:0:0:0:
154,89,28667,6,0,P|178:112|191:142,1,66.0000025177003,2|0,0:0|0:0,0:0:0:0:
112,157,28985,1,2,0:0:0:0:
268,141,29144,2,0,P|262:173|245:201,1,66.0000025177003,2|0,0:0|0:0,0:0:0:0:
294,262,29461,2,0,P|264:276|231:278,1,66.0000025177003,2|0,0:0|0:0,0:0:0:0:
143,318,29779,6,0,P|207:311|257:350,1,132.000005035401,2|0,0:0|0:0,0:0:0:0:
331,334,30255,2,0,L|334:243,1,66.0000025177003,0|2,0:0|0:0,0:0:0:0:
415,184,30572,2,0,P|393:244|334:269,1,132.000005035401,2|0,0:0|0:0,0:0:0:0:
262,236,31048,1,2,0:0:0:0:
280,152,31207,6,0,P|311:163|336:185,1,66.0000025177003,2|0,0:0|0:0,0:0:0:0:
197,173,31525,1,2,0:0:0:0:
219,96,31683,2,0,P|245:76|277:69,1,66.0000025177003,2|0,0:0|0:0,0:0:0:0:
139,112,32001,2,0,P|138:79|150:48,1,66.0000025177003,2|0,0:0|0:0,0:0:0:0:
354,8,32318,6,0,L|214:14,1,132.000005035401,2|0,0:0|0:0,0:0:0:0:
150,48,32794,1,2,0:0:0:0:
46,95,32953,2,0,P|78:98|107:114,1,66.0000025177003,2|0,0:0|0:0,0:0:0:0:
246,102,33271,2,0,P|213:104|184:120,1,66.0000025177003,2|0,0:0|0:0,0:0:0:0:
109,299,33588,6,0,P|149:249|139:185,1,132.000005035401,2|0,0:0|0:0,0:0:0:0:
7,212,34064,2,0,L|72:228,1,66.0000025177003
234,237,34382,2,0,L|169:252,1,66.0000025177003
222,158,34699,2,0,P|254:160|284:174,1,66.0000025177003,2|2,0:0|0:0,0:0:0:0:
247,354,35017,6,0,P|218:313|255:220,1,132.000005035401,2|2,0:0|0:0,0:0:0:0:
358,274,35493,2,0,L|294:289,1,66.0000025177003,2|0,0:0|0:0,0:0:0:0:
365,194,35810,2,0,L|429:208,1,66.0000025177003,2|0,0:0|0:0,0:0:0:0:
504,115,36128,6,0,L|439:129,1,66.0000025177003,2|0,0:0|0:0,0:0:0:0:
334,43,36445,2,0,L|398:57,1,66.0000025177003,2|0,0:0|0:0,0:0:0:0:
329,126,36763,2,0,L|264:140,1,66.0000025177003,2|0,0:0|0:0,0:0:0:0:
189,49,37080,2,0,L|253:63,2,66.0000025177003,2|4|0,0:0|0:0|0:0,0:0:0:0:
65,133,37556,6,0,P|126:113|183:142,1,132.000005035401,2|0,0:0|0:0,0:0:0:0:
217,220,38033,1,2,0:0:0:0:
133,258,38191,2,0,L|121:192,2,66.0000025177003,2|2|0,0:0|0:0|0:0,0:0:0:0:
266,303,38667,6,0,P|235:290|203:294,1,66.0000025177003,2|0,0:0|0:0,0:0:0:0:
70,329,38985,2,0,P|100:341|132:337,1,66.0000025177003,2|0,0:0|0:0,0:0:0:0:
183,220,39302,2,0,P|152:232|132:258,1,66.0000025177003,2|0,0:0|0:0,0:0:0:0:
219,367,39620,2,0,P|249:354|269:328,1,66.0000025177003,2|0,0:0|0:0,0:0:0:0:
262,207,39937,6,0,P|299:260|364:270,1,132.000005035401,2|0,0:0|0:0,0:0:0:0:
342,192,40413,1,0,0:0:0:0:
287,129,40572,2,0,P|222:134|182:185,1,132.000005035401
159,263,41048,6,0,P|223:257|263:206,1,132.000005035401
207,108,41525,2,0,P|143:113|104:164,1,132.000005035401
86,250,42001,2,0,P|149:238|183:184,1,132.000005035401
96,32,42636,6,0,L|105:171,1,132.000005035401,0|2,0:0|0:0,0:0:0:0:
179,108,43112,1,2,0:0:0:0:
251,141,43271,2,0,P|264:172|261:209,2,66.0000025177003,2|2|0,0:0|0:0|0:0,0:0:0:0:
183,184,43747,6,0,P|181:216|194:246,1,66.0000025177003,2|0,0:0|0:0,0:0:0:0:
273,279,44064,2,0,P|274:311|261:341,1,66.0000025177003,2|0,0:0|0:0,0:0:0:0:
180,322,44382,2,0,P|178:354|191:384,1,66.0000025177003,2|0,0:0|0:0,0:0:0:0:
339,356,44699,2,0,P|340:323|327:293,1,66.0000025177003,2|0,0:0|0:0,0:0:0:0:
125,225,45017,6,0,P|175:265|239:257,1,132.000005035401,2|0,0:0|0:0,0:0:0:0:
212,116,45493,2,0,L|198:181,1,66.0000025177003
106,75,45810,2,0,L|120:140,1,66.0000025177003
179,29,46128,1,0,0:0:0:0:
125,225,46286,6,0,L|97:354,1,132.000005035401,2|0,0:0|0:0,0:0:0:0:
39,216,46763,1,0,0:0:0:0:
198,180,46921,1,2,0:0:0:0:
85,148,47080,1,2,0:0:0:0:
205,258,47239,2,0,P|249:239|273:197,1,99.0000037765504,2|0,0:0|0:0,0:0:0:0:
276,151,47556,1,0,0:0:0:0:
205,39,47715,6,0,P|202:71|212:102,1,66.0000025177003,2|0,3:2|0:0,0:0:0:0:
357,119,48033,1,0,0:0:0:0:
283,65,48191,1,2,0:0:0:0:
352,198,48350,2,0,L|417:192,1,66.0000025177003,2|0,0:0|0:0,0:0:0:0:
362,36,48667,1,0,0:0:0:0:
276,151,48826,1,2,0:0:0:0:
438,115,48985,6,0,P|467:128|488:154,1,66.0000025177003,2|0,0:0|3:0,0:0:0:0:
493,235,49302,1,2,0:0:0:0:
343,261,49461,2,0,P|340:228|351:197,1,66.0000025177003,2|0,0:0|0:0,0:0:0:0:
501,315,49779,2,0,P|503:347|492:378,1,66.0000025177003,2|0,3:2|0:0,0:0:0:0:
288,349,50096,6,0,L|419:334,1,132.000005035401,2|0,0:0|0:0,0:0:0:0:
344,261,50572,1,0,0:0:0:0:
206,338,50731,1,2,0:0:0:0:
267,210,50890,2,0,L|262:299,1,66.0000025177003,2|0,0:0|0:0,0:0:0:0:
288,349,51207,1,0,0:0:0:0:
343,176,51366,1,2,0:0:0:0:
182,271,51525,6,0,L|187:360,1,66.0000025177003,2|0,0:2|3:0,0:0:0:0:
112,211,51842,1,2,0:0:0:0:
193,121,52001,2,0,L|189:186,1,66.0000025177003,2|0,0:0|0:0,0:0:0:0:
268,57,52318,2,0,L|271:122,1,66.0000025177003,2|0,3:2|0:0,0:0:0:0:
110,126,52636,6,0,P|132:65|194:39,1,132.000005035401,2|0,0:0|0:0,0:0:0:0:
273,202,53112,1,2,0:0:0:0:
111,211,53271,2,0,P|79:205|52:186,1,66.0000025177003,2|0,0:0|0:0,0:0:0:0:
271,122,53588,2,0,P|303:127|330:146,1,66.0000025177003,2|0,0:0|0:0,0:0:0:0:
199,318,53906,6,0,L|188:186,1,132.000005035401,2|0,0:0|3:0,0:0:0:0:
182,107,54382,1,0,0:0:0:0:
273,202,54540,1,0,0:0:0:0:
120,259,54699,2,0,L|54:269,1,66.0000025177003,0|0,0:0|3:0,0:0:0:0:
188,186,55017,1,2,0:0:0:0:
208,273,55175,1,2,0:0:0:0:
105,128,55334,6,0,P|104:96|115:65,1,66.0000025177003,2|0,3:2|0:0,0:0:0:0:
259,122,55652,1,2,0:0:0:0:
69,196,55810,2,0,P|43:177|31:147,1,66.0000025177003,2|0,0:0|0:0,0:0:0:0:
200,63,56128,2,0,L|285:56,1,66.0000025177003,2|0,0:0|0:0,0:0:0:0:
327,142,56445,6,0,L|242:135,1,66.0000025177003,2|0,0:0|0:0,0:0:0:0:
137,194,56763,2,0,L|222:187,1,66.0000025177003,2|0,3:2|0:0,0:0:0:0:
343,229,57080,2,0,L|258:222,1,66.0000025177003,2|0,0:0|0:0,0:0:0:0:
143,281,57398,2,0,L|228:274,1,66.0000025177003,2|0,3:2|0:0,0:0:0:0:
261,136,57715,1,2,0:0:0:0:
282,301,57874,6,0,L|287:366,1,66.0000025177003,4|0,3:2|0:0,0:0:0:0:
343,229,58191,1,0,0:0:0:0:
202,188,58350,1,2,0:0:0:0:
208,275,58509,1,2,0:0:0:0:
280,174,58667,2,0,P|269:144|245:121,1,66.0000025177003,2|0,0:0|0:0,0:0:0:0:
128,294,58985,6,0,P|139:324|163:347,1,66.0000025177003,2|0,0:0|0:0,0:0:0:0:
317,247,59302,2,0,P|305:277|281:300,1,66.0000025177003,2|0,3:2|0:0,0:0:0:0:
159,187,59620,2,0,P|170:217|194:240,1,66.0000025177003,2|0,0:0|0:0,0:0:0:0:
316,121,59937,2,0,P|304:151|280:174,1,66.0000025177003,2|0,3:2|0:0,0:0:0:0:
104,95,60255,6,0,L|236:103,1,132.000005035401,2|0,0:0|0:0,0:0:0:0:
123,16,60731,1,0,0:0:0:0:
60,164,60890,2,0,L|62:229,1,66.0000025177003
146,151,61207,1,0,0:0:0:0:
143,240,61366,2,0,L|140:305,1,66.0000025177003
212,191,61683,5,0,0:0:0:0:
214,303,61842,2,0,L|216:368,1,66.0000025177003,0|0,3:0|0:0,0:0:0:0:
283,243,62159,1,0,0:0:0:0:
143,240,62318,1,0,0:0:0:0:
296,163,62477,2,0,P|326:174|350:197,1,66.0000025177003,0|0,3:0|0:0,0:0:0:0:
293,323,62794,1,0,0:0:0:0:
212,191,62953,6,0,P|205:158|215:127,1,66.0000025177003,0|0,3:0|0:0,0:0:0:0:
226,114,63191,1,0,0:0:0:0:
237,107,63271,1,0,0:0:0:0:
283,243,63429,1,2,0:0:0:0:
131,164,63588,1,2,0:0:0:0:
296,163,63747,6,0,L|376:166,1,66.0000025177003,2|0,0:0|0:0,0:0:0:0:
476,89,64064,2,0,L|396:92,1,66.0000025177003,2|0,0:0|0:0,0:0:0:0:
441,232,64382,2,0,L|443:166,1,66.0000025177003,2|0,3:2|0:0,0:0:0:0:
332,11,64699,2,0,L|329:76,1,66.0000025177003,2|0,0:0|0:0,0:0:0:0:
366,245,65017,1,2,3:2:0:0:
410,91,65175,1,0,0:0:0:0:
247,93,65334,6,0,P|206:142|215:205,1,132.000005035401,2|0,0:0|0:0,0:0:0:0:
224,215,65731,1,0,0:0:0:0:
236,226,65810,1,0,0:0:0:0:
360,169,65969,2,0,P|328:160|295:162,1,66.0000025177003
256,309,66286,1,0,0:0:0:0:
320,239,66445,1,2,0:0:0:0:
139,183,66604,6,0,L|74:170,1,66.0000025177003,4|0,3:2|0:0,0:0:0:0:
223,123,66921,1,8,0:0:0:0:
236,226,67080,1,8,0:0:0:0:
130,94,67239,1,8,0:0:0:0:
147,269,67398,1,8,0:0:0:0:
223,123,67556,1,8,0:0:0:0:
68,248,67715,2,0,P|70:296|99:336,1,99.0000037765504,8|0,0:0|0:0,0:0:0:0:
140,356,68033,6,0,B|177:363|177:363|204:357,1,66.0000025177003,6|0,3:2|0:0,0:0:0:0:
173,284,68350,2,0,B|207:268|207:268|225:248,1,66.0000025177003
159,200,68667,2,0,B|177:179|177:179|211:164,1,66.0000025177003
180,91,68985,2,0,B|207:85|207:85|244:92,1,66.0000025177003,2|0,0:0|0:0,0:0:0:0:
357,146,69302,6,0,P|326:159|294:158,1,66.0000025177003,2|0,0:0|0:0,0:0:0:0:
320,75,69620,2,0,P|350:62|382:63,1,66.0000025177003
444,120,69937,2,0,P|456:150|455:182,1,66.0000025177003
380,224,70255,2,0,P|367:193|368:161,1,66.0000025177003,2|0,0:0|0:0,0:0:0:0:
454,267,70572,6,0,L|381:279,1,66.0000025177003,2|0,0:0|0:0,0:0:0:0:
312,290,70890,1,2,0:0:0:0:
251,235,71048,2,0,P|277:216|309:209,1,66.0000025177003,2|0,0:0|0:0,0:0:0:0:
369,352,71366,2,0,P|340:368|308:372,1,66.0000025177003,2|0,0:0|0:0,0:0:0:0:
190,290,71683,6,0,P|218:306|238:332,1,66.0000025177003,2|0,0:0|0:0,0:0:0:0:
111,301,72001,2,0,P|110:268|123:238,1,66.0000025177003,2|0,0:0|0:0,0:0:0:0:
257,187,72318,2,0,P|228:203|196:207,1,66.0000025177003,2|0,0:0|0:0,0:0:0:0:
61,192,72636,1,2,3:0:0:0:
202,128,72794,1,0,0:0:0:0:
123,238,72953,1,0,3:0:0:0:
144,67,73112,6,0,P|171:50|203:45,1,66.0000025177003,6|0,3:2|0:0,0:0:0:0:
202,128,73429,2,0,P|234:134|260:154,1,66.0000025177003
196,207,73747,2,0,P|213:234|218:266,1,66.0000025177003
140,262,74064,2,0,P|133:294|113:320,1,66.0000025177003,2|0,0:0|0:0,0:0:0:0:
0,251,74382,6,0,L|81:267,1,66.0000025177003,2|0,0:0|0:0,0:0:0:0:
163,179,74699,2,0,L|82:195,1,66.0000025177003
0,105,75017,2,0,L|81:121,1,66.0000025177003
163,33,75334,2,0,L|82:49,1,66.0000025177003,2|0,0:0|0:0,0:0:0:0:
207,106,75652,6,0,L|288:122,1,66.0000025177003,2|0,0:0|0:0,0:0:0:0:
353,141,75969,1,2,0:0:0:0:
252,38,76128,2,0,P|221:25|188:28,1,66.0000025177003,2|0,0:0|0:0,0:0:0:0:
163,179,76445,2,0,P|193:191|226:188,1,66.0000025177003,2|0,0:0|0:0,0:0:0:0:
353,141,76763,6,0,P|327:161|312:190,1,66.0000025177003,2|0,0:0|0:0,0:0:0:0:
292,314,77080,2,0,P|287:281|269:254,1,66.0000025177003,2|0,0:0|0:0,0:0:0:0:
141,302,77398,2,0,P|145:334|163:361,1,66.0000025177003,2|0,0:0|0:0,0:0:0:0:
190,226,77715,1,0,3:0:0:0:
108,224,77874,1,0,0:0:0:0:
217,306,78033,1,0,3:0:0:0:
255,171,78191,6,0,L|258:105,1,66.0000025177003,4|0,3:2|0:0,0:0:0:0:
265,23,78509,1,8,3:2:0:0:
179,134,78667,1,8,0:2:0:0:
187,52,78826,1,8,3:2:0:0:
254,185,78985,1,8,0:2:0:0:
341,75,79144,1,8,3:2:0:0:
323,236,79302,1,8,0:2:0:0:
258,105,79461,5,8,3:2:0:0:
170,218,79620,1,8,0:2:0:0:
337,156,79779,1,8,3:2:0:0:
163,303,79937,1,8,0:2:0:0:
179,134,80096,1,8,3:2:0:0:
241,267,80255,1,8,0:2:0:0:
341,75,80413,1,8,3:2:0:0:
254,185,80572,1,8,0:2:0:0:
265,23,80731,5,8,3:2:0:0:
323,236,80890,1,8,0:2:0:0:
258,105,81048,1,8,3:2:0:0:
170,218,81207,1,8,0:2:0:0:
337,156,81366,1,8,3:2:0:0:
234,348,81525,1,8,0:2:0:0:
254,185,81683,1,8,3:2:0:0:
318,319,81842,1,8,0:2:0:0:
258,105,82001,5,8,3:2:0:0:
241,267,82159,1,8,0:2:0:0:
187,52,82318,1,8,0:0:0:0:
168,42,82398,1,12,0:3:0:0:
145,39,82477,1,0,3:0:0:0:
126,40,82556,1,0,3:0:0:0:
109,44,82636,1,8,0:0:0:0:
254,185,82794,1,8,0:0:0:0:
336,0,82953,1,0,3:0:0:0:
179,134,83112,1,8,0:0:0:0:
322,235,83271,5,4,3:2:0:0:
257,104,83429,1,0,3:0:0:0:
170,218,83588,1,0,3:0:0:0:
341,75,83747,5,12,0:0:0:0:
179,134,83906,1,0,3:0:0:0:
322,235,84064,1,0,3:0:0:0:
265,23,84223,5,12,0:0:0:0:
170,218,84382,1,0,3:0:0:0:
336,157,84540,5,12,0:0:0:0:
187,52,84699,1,0,3:0:0:0:
170,218,84858,1,0,3:0:0:0:
341,75,85017,5,12,0:0:0:0:
101,165,85175,1,0,3:0:0:0:
299,328,85334,1,0,3:0:0:0:
257,104,85493,5,12,0:0:0:0:
89,251,85652,1,0,3:0:0:0:
299,327,85810,6,0,L|430:312,1,132,2|0,0:0|0:0,0:0:0:0:
501,294,86445,2,0,L|369:279,1,132,2|0,0:0|0:0,0:0:0:0:
298,134,87080,6,0,P|268:192|300:259,1,132,2|0,0:0|0:0,0:0:0:0:
391,191,87715,2,0,L|348:196,1,44,2|0,0:0|0:0,0:0:0:0:
254,129,88033,2,0,L|297:133,1,44,2|0,0:0|0:0,0:0:0:0:
253,41,88350,6,0,P|213:51|180:85,1,88,4|0,3:2|0:0,0:0:0:0:
259,216,88667,2,0,P|299:206|332:172,1,88,8|0,0:0|0:0,0:0:0:0:
184,181,88985,1,0,3:0:0:0:
256,299,89144,1,0,3:0:0:0:
254,129,89302,2,0,L|253:32,1,88,8|0,0:0|0:0,0:0:0:0:
180,265,89620,6,0,P|140:251|113:217,1,88,0|0,3:0|3:0,0:0:0:0:
24,123,89937,2,0,L|114:134,1,88,8|0,0:0|0:0,0:0:0:0:
259,216,90255,1,0,3:0:0:0:
113,217,90413,1,0,3:0:0:0:
254,128,90572,2,0,P|296:138|329:167,1,88,8|0,0:0|0:0,0:0:0:0:
268,382,90890,6,0,P|251:341|255:298,1,88,0|0,3:0|0:0,0:0:0:0:
411,199,91207,2,0,P|384:233|344:251,1,88,8|0,0:0|0:0,0:0:0:0:
180,265,91525,1,0,3:0:0:0:
259,216,91683,1,0,3:0:0:0:
176,349,91842,2,0,P|134:336|106:303,1,88,8|0,0:0|0:0,0:0:0:0:
117,134,92159,6,0,P|127:176|112:216,1,88,0|0,3:0|3:0,0:0:0:0:
44,83,92477,2,0,P|75:52|117:45,1,88,8|0,0:0|0:0,0:0:0:0:
254,128,92794,2,0,P|212:115|184:82,1,88,0|0,3:0|3:0,0:0:0:0:
337,0,93112,2,0,L|327:103,1,88,8|0,0:0|0:0,0:0:0:0:
315,248,93429,6,0,P|309:205|329:166,1,88,4|0,3:2|0:0,0:0:0:0:
467,278,93747,1,8,0:0:0:0:
254,313,93906,1,0,0:0:0:0:
254,313,93985,1,8,0:0:0:0:
254,313,94064,1,0,3:0:0:0:
396,223,94223,1,0,3:0:0:0:
395,383,94382,2,0,L|285:380,1,88,8|0,0:0|0:0,0:0:0:0:
166,315,94699,6,0,L|276:312,1,88,0|0,3:0|3:0,0:0:0:0:
378,192,95017,2,0,P|339:212|314:247,1,88,8|0,0:0|0:0,0:0:0:0:
261,64,95334,2,0,P|299:84|324:119,1,88,0|0,3:0|3:0,0:0:0:0:
231,234,95652,2,0,L|243:146,1,88,8|0,0:0|0:0,0:0:0:0:
106,18,95969,6,0,B|184:78|184:78|261:64,1,176,0|8,3:0|0:0,0:0:0:0:
352,29,96445,1,0,0:0:0:0:
183,77,96604,2,0,P|158:112|151:155,1,88,0|0,3:0|3:0,0:0:0:0:
295,214,96921,1,8,0:0:0:0:
117,242,97080,6,0,L|240:227,1,88,4|0,0:0|3:0,0:0:0:0:
380,203,97398,1,0,0:0:0:0:
265,301,97556,1,8,0:0:0:0:
151,155,97715,2,0,P|67:166|27:240,1,176,4|0,0:2|0:0,0:0:0:0:
144,384,98191,2,0,B|161:321|161:321|129:262,1,132,8|0,0:0|0:0,0:0:0:0:
117,242,98509,5,4,3:2:0:0:
63,337,98667,1,0,0:0:0:0:
216,225,98826,1,8,0:0:0:0:
176,313,98985,1,0,0:0:0:0:
150,154,99144,2,0,L|133:52,1,88,0|0,3:0|3:0,0:0:0:0:
305,200,99461,2,0,L|288:302,1,88,8|0,0:0|0:0,0:0:0:0:
32,246,99779,6,0,P|73:234|116:241,1,88,0|0,3:0|3:0,0:0:0:0:
222,383,100096,2,0,P|190:353|175:312,1,88,8|0,0:0|0:0,0:0:0:0:
236,134,100413,1,0,3:0:0:0:
305,200,100572,1,0,3:0:0:0:
149,153,100731,6,0,P|172:72|253:46,1,176,8|0,0:0|3:0,0:0:0:0:
397,174,101207,1,0,0:0:0:0:
270,288,101366,2,0,P|235:262|215:224,1,88,8|0,0:0|0:0,0:0:0:0:
349,25,101683,2,0,L|321:125,1,88,0|0,3:0|3:0,0:0:0:0:
421,264,102001,6,0,P|483:208|467:125,1,176,8|0,0:0|3:0,0:0:0:0:
305,200,102477,1,0,3:0:0:0:
392,350,102636,1,8,0:0:0:0:
397,174,102794,1,0,0:0:0:0:
397,174,102874,1,8,0:0:0:0:
397,174,102953,1,0,3:0:0:0:
301,291,103112,1,0,3:0:0:0:
466,124,103271,2,0,P|436:93|394:82,1,88,8|0,0:0|0:0,0:0:0:0:
217,209,103588,6,0,L|341:195,1,88,4|0,3:2|0:0,0:0:0:0:
149,156,103906,1,8,0:0:0:0:
205,294,104064,1,0,0:0:0:0:
231,119,104223,1,0,3:0:0:0:
132,241,104382,1,0,3:0:0:0:
75,94,104540,1,8,0:0:0:0:
217,209,104699,1,0,0:0:0:0:
93,11,104858,6,0,P|50:13|15:39,1,88,4|0,3:2|3:0,0:0:0:0:
56,182,105175,1,8,0:0:0:0:
159,65,105334,1,0,0:0:0:0:
217,209,105493,1,0,3:0:0:0:
75,94,105652,1,0,3:0:0:0:
132,241,105810,1,8,0:0:0:0:
228,121,105969,1,0,0:0:0:0:
205,294,106128,5,4,3:2:0:0:
142,145,106286,1,0,3:0:0:0:
122,332,106445,1,8,0:0:0:0:
228,121,106604,1,0,0:0:0:0:
228,121,106683,1,8,0:0:0:0:
228,121,106763,1,0,3:0:0:0:
193,384,106921,1,0,3:0:0:0:
56,182,107080,1,8,0:0:0:0:
0,384,107239,1,0,0:0:0:0:
289,271,107398,6,0,L|205:294,1,88,12|0,0:2|3:0,0:0:0:0:
388,237,107715,1,0,3:0:0:0:
246,126,107874,6,0,L|216:208,1,88,12|0,0:2|3:0,0:0:0:0:
275,26,108191,1,0,3:0:0:0:
91,74,108350,6,0,L|142:146,1,88,12|0,0:2|3:0,0:0:0:0:
269,276,108667,6,0,P|187:290|133:226,1,176,4|8,3:2|0:0,0:0:0:0:
246,126,109144,1,0,0:0:0:0:
185,289,109302,1,0,3:0:0:0:
311,198,109461,1,0,3:0:0:0:
141,145,109620,2,0,P|99:154|67:183,1,88,8|0,0:0|0:0,0:0:0:0:
38,352,109937,6,0,P|83:359|119:384,1,88,0|0,3:0|3:0,0:0:0:0:
198,373,110255,2,0,P|182:326|185:285,1,88,8|0,0:0|0:0,0:0:0:0:
133,226,110572,2,0,P|103:260|49:291,1,88,0|0,3:0|3:0,0:0:0:0:
276,348,110890,6,0,B|369:345|369:345|435:295,1,176,8|0,0:0|3:0,0:0:0:0:
301,178,111366,1,0,0:0:0:0:
335,261,111525,1,8,0:0:0:0:
362,107,111683,1,0,0:0:0:0:
215,162,111842,1,0,3:0:0:0:
402,192,112001,1,0,3:0:0:0:
268,88,112159,2,0,P|227:72|183:76,1,88,8|0,0:0|0:0,0:0:0:0:
198,316,112477,6,0,P|231:288|249:248,1,88,0|0,3:0|3:0,0:0:0:0:
132,155,112794,2,0,P|139:198|164:233,1,88,8|0,0:0|0:0,0:0:0:0:
299,173,113112,2,0,P|258:157|214:161,1,88,0|0,3:0|3:0,0:0:0:0:
25,280,113429,6,0,L|65:77,1,176,8|4,0:0|3:2,0:0:0:0:
93,24,113906,1,0,0:0:0:0:
134,161,114064,1,8,0:0:0:0:
42,186,114223,1,0,0:0:0:0:
42,186,114302,1,8,0:0:0:0:
42,186,114382,1,0,3:0:0:0:
162,75,114540,1,0,3:0:0:0:
106,254,114699,2,0,L|82:364,1,88,8|0,0:0|0:0,0:0:0:0:
198,216,115017,6,0,P|172:180|133:160,1,88,0|0,3:0|3:0,0:0:0:0:
273,269,115334,2,0,P|316:264|353:240,1,88,8|0,0:0|0:0,0:0:0:0:
189,301,115652,2,0,P|171:340|173:384,1,88,0|0,3:0|3:0,0:0:0:0:
454,235,115969,6,0,L|286:183,1,176,8|0,0:0|3:0,0:0:0:0:
219,129,116445,1,0,0:0:0:0:
367,152,116604,1,8,0:0:0:0:
273,269,116763,1,0,0:0:0:0:
300,95,116921,1,0,3:0:0:0:
198,216,117080,1,0,3:0:0:0:
153,65,117239,2,0,P|113:46|70:51,1,88,8|0,0:0|0:0,0:0:0:0:
89,223,117556,6,0,L|98:135,1,88,0|0,3:2|3:0,0:0:0:0:
0,244,117874,1,8,0:0:0:0:
152,288,118033,2,0,L|239:297,1,88,0|0,0:0|3:0,0:0:0:0:
382,228,118350,2,0,L|294:237,1,88,0|8,3:0|0:0,0:0:0:0:
98,135,118667,6,0,P|182:136|220:211,1,176
61,309,119144,1,8,0:0:0:0:
137,211,119302,1,0,0:0:0:0:
195,373,119461,2,0,P|164:343|149:302,1,88,0|0,3:0|3:0,0:0:0:0:
191,132,119779,1,8,0:0:0:0:
326,283,119937,6,0,L|226:299,1,88,4|0,3:2|0:0,0:0:0:0:
52,221,120255,1,0,3:0:0:0:
234,62,120413,2,0,P|264:92|273:134,1,88,8|8,0:0|0:0,0:0:0:0:
152,272,120731,1,0,3:0:0:0:
191,132,120890,1,0,3:0:0:0:
220,210,121048,1,8,0:0:0:0:
49,138,121207,1,0,3:0:0:0:
239,295,121366,6,0,P|277:275|301:238,1,88,8|0,0:0|3:0,0:0:0:0:
234,62,121683,1,0,3:0:0:0:
220,210,121842,1,8,0:0:0:0:
220,210,121921,1,8,0:0:0:0:
220,210,122001,1,0,3:0:0:0:
287,0,122159,1,0,3:0:0:0:
191,132,122318,2,0,L|85:146,1,88,8|0,0:0|3:0,0:0:0:0:
327,70,122636,5,0,3:0:0:0:
114,63,122794,1,8,0:0:0:0:
114,63,122874,1,8,0:0:0:0:
114,63,122953,1,0,3:0:0:0:
273,134,123112,1,0,3:0:0:0:
174,0,123271,1,8,0:0:0:0:
220,210,123429,1,0,3:0:0:0:
234,62,123588,1,4,0:3:0:0:
284,279,123747,1,8,0:3:0:0:
94,219,123906,6,0,L|47:208,1,44,8|0,0:0|0:0,0:0:0:0:
65,190,124064,2,0,L|18:179,1,44,8|0,0:0|0:0,0:0:0:0:
314,43,124382,6,0,L|347:7,1,44,8|0,0:0|0:0,0:0:0:0:
353,32,124540,2,0,L|386:-3,1,44,8|0,0:0|0:0,0:0:0:0:
357,303,124858,6,0,L|370:349,1,44,8|0,0:0|0:0,0:0:0:0:
346,342,125017,2,0,L|359:388,1,44,8|0,0:0|0:0,0:0:0:0:
155,81,125334,6,0,L|141:34,1,44,8|0,0:0|0:0,0:0:0:0:
166,42,125493,2,0,L|152:-4,1,44,8|0,0:0|0:0,0:0:0:0:
260,196,125652,5,8,0:0:0:0:
260,196,125731,1,8,0:0:0:0:
260,196,125810,1,0,0:0:0:0:
493,132,125969,1,8,0:0:0:0:
493,132,126445,6,0,P|501:174|487:216,2,88,2|0|0,0:0|0:0|0:0,0:0:0:0:
415,167,126921,2,0,P|491:133|493:50,1,176,2|0,0:0|0:0,0:0:0:0:
343,121,127398,6,0,P|334:78|348:36,2,88,2|0|0,0:0|0:0|0:0,0:0:0:0:
421,86,127874,2,0,P|345:120|343:203,1,176,2|0,0:0|0:0,0:0:0:0:
411,260,128350,1,2,0:0:0:0:
415,167,128509,1,0,0:0:0:0:
329,287,128667,1,2,0:0:0:0:
132,317,128985,6,0,L|231:306,2,88,2|0|0,0:0|0:0|0:0,0:0:0:0:
221,207,129461,2,0,B|208:264|208:264|241:387,1,176,2|0,0:0|0:0,0:0:0:0:
128,230,129937,6,0,L|29:241,2,88,2|0|0,0:0|0:0|0:0,0:0:0:0:
39,340,130413,2,0,B|52:283|52:283|19:160,1,176,2|0,0:0|0:0,0:0:0:0:
0,95,130890,1,2,0:0:0:0:
100,154,131048,1,0,0:0:0:0:
15,13,131207,1,2,0:0:0:0:
256,110,131525,6,0,P|215:123|172:115,2,88,2|0|0,0:0|0:0|0:0,0:0:0:0:
211,38,132001,2,0,L|186:212,1,176,2|0,0:0|0:0,0:0:0:0:
337,295,132477,6,0,P|295:281|252:289,2,88,2|0|0,0:0|0:0|0:0,0:0:0:0:
291,367,132953,2,0,L|266:192,1,176,2|0,0:0|0:0,0:0:0:0:
256,110,133429,1,2,0:0:0:0:
189,171,133588,1,0,0:0:0:0:
341,216,133747,1,2,0:0:0:0:
422,124,134064,6,0,L|330:136,2,88,2|0|0,0:0|0:0|0:0,0:0:0:0:
318,59,134540,2,0,B|233:88|233:24|122:71,1,176,2|0,0:0|0:0,0:0:0:0:
32,154,135017,6,0,L|124:166,1,88,2|0,0:0|0:0,0:0:0:0:
192,124,135334,6,0,P|151:177|170:258,1,132.000005035401,2|0,0:0|0:0,0:0:0:0:
195,384,135969,2,0,P|236:331|217:250,1,132.000005035401,2|0,0:0|0:0,0:0:0:0:
157,238,136445,1,2,0:0:0:0:
77,226,136604,6,0,B|36:188|36:188|27:112,1,132.000005035401,2|0,0:0|0:0,0:0:0:0:
69,45,137080,1,2,0:0:0:0:
69,45,137239,2,0,B|107:86|107:86|182:94,1,132.000005035401,2|0,0:0|0:0,0:0:0:0:
250,55,137715,1,2,0:0:0:0:
250,55,137874,6,0,P|217:94|229:195,1,132.000005035401,2|0,0:0|0:0,0:0:0:0:
304,197,138350,2,0,P|307:165|298:133,1,66.0000025177003,2|0,0:0|0:0,0:0:0:0:
215,172,138667,2,0,P|211:204|220:236,1,66.0000025177003,2|0,0:0|0:0,0:0:0:0:
294,288,138985,6,0,P|234:268|176:297,1,132.000005035401,2|0,0:0|0:0,0:0:0:0:
240,352,139461,2,0,L|305:363,1,66.0000025177003,0|2,0:0|0:0,0:0:0:0:
382,384,139779,2,0,P|350:328|370:267,1,132.000005035401,2|0,0:0|0:0,0:0:0:0:
434,218,140255,1,2,0:0:0:0:
434,218,140413,6,0,P|465:162|445:101,1,132.000005035401,2|2,0:0|0:0,0:0:0:0:
382,154,140890,2,0,L|306:162,1,66.0000025177003,2|0,0:0|0:0,0:0:0:0:
239,83,141207,2,0,L|315:91,1,66.0000025177003,2|0,0:0|0:0,0:0:0:0:
266,4,141525,6,0,B|203:9|203:9|155:58,1,132.000005035401,2|0,0:0|0:0,0:0:0:0:
164,144,142001,1,2,0:0:0:0:
164,144,142159,2,0,P|182:180|177:228,1,66.0000025177003,2|0,0:0|0:0,0:0:0:0:
122,262,142477,2,0,P|105:233|102:200,1,66.0000025177003,2|0,0:0|0:0,0:0:0:0:
202,285,142794,6,0,P|164:338|101:347,1,132.000005035401,2|0,0:0|0:0,0:0:0:0:
101,347,143906,2,0,L|117:283,1,66.0000025177003,2|0,0:0|0:0,0:0:0:0:
141,206,144223,6,0,B|151:153|151:153|133:69,1,132.000005035401,2|0,0:0|0:0,0:0:0:0:
69,38,144699,2,0,P|133:51|189:19,1,132.000005035401,2|0,0:0|0:0,0:0:0:0:
441,38,145334,2,0,P|378:51|322:19,1,132.000005035401,2|0,0:0|0:0,0:0:0:0:
371,178,145969,2,0,B|361:231|361:231|379:315,1,132.000005035401,2|0,0:0|0:0,0:0:0:0:
377,307,146763,6,0,L|293:330,1,66.0000025177003,0|0,3:0|0:0,0:0:0:0:
195,367,147080,2,0,L|279:390,1,66.0000025177003,0|2,0:0|0:0,0:0:0:0:
236,269,147398,2,0,L|152:292,1,66.0000025177003,2|0,0:0|0:0,0:0:0:0:
96,312,147715,1,2,0:0:0:0:
63,204,147874,6,0,P|98:217|126:254,1,66.0000025177003,2|0,0:0|0:0,0:0:0:0:
243,165,148191,2,0,P|208:178|180:215,1,66.0000025177003,2|0,3:2|0:0,0:0:0:0:
79,114,148509,2,0,P|114:127|142:164,1,66.0000025177003,2|0,0:0|0:0,0:0:0:0:
246,65,148826,2,0,P|211:78|183:115,1,66.0000025177003,2|0,3:2|0:0,0:0:0:0:
275,271,149144,6,0,B|290:212|290:212|266:137,1,132.000005035401,2|0,0:0|0:0,0:0:0:0:
204,214,149620,1,0,0:0:0:0:
200,301,149779,2,0,P|224:335|271:352,1,66.0000025177003
326,338,150096,1,0,0:0:0:0:
337,255,150255,2,0,P|295:258|257:290,1,66.0000025177003
326,338,150572,5,0,0:0:0:0:
400,308,150731,2,0,P|417:270|408:221,1,66.0000025177003,0|0,3:0|0:0,0:0:0:0:
372,185,151048,1,0,0:0:0:0:
356,118,151207,2,0,P|379:152|427:169,1,66.0000025177003,0|0,0:0|3:0,0:0:0:0:
430,81,151525,2,0,P|406:47|359:30,1,66.0000025177003
197,84,151842,6,0,P|261:90|307:45,1,132.000005035401,0|0,3:0|0:0,0:0:0:0:
233,11,152318,1,2,0:0:0:0:
152,16,152477,2,0,P|127:38|114:68,1,66.0000025177003,2|0,0:0|0:0,0:0:0:0:
136,142,152794,1,2,0:0:0:0:
210,169,152953,6,0,L|287:177,1,66.0000025177003,2|0,0:0|0:0,0:0:0:0:
329,248,153271,2,0,L|252:256,1,66.0000025177003,2|0,3:2|0:0,0:0:0:0:
353,172,153588,2,0,L|430:180,1,66.0000025177003,2|0,0:0|0:0,0:0:0:0:
481,249,153906,2,0,L|404:257,1,66.0000025177003,2|0,3:2|0:0,0:0:0:0:
328,318,154223,6,0,B|373:298|373:298|470:323,1,132.000005035401,2|0,0:0|0:0,0:0:0:0:
380,381,154699,1,0,0:0:0:0:
267,369,154858,2,0,L|180:362,1,66.0000025177003
43,347,155175,1,8,0:0:0:0:
226,287,155334,1,8,0:0:0:0:
123,371,155493,5,0,3:0:0:0:
130,353,155810,1,0,0:0:0:0:
137,334,156128,1,0,0:0:0:0:
143,318,156445,1,0,0:0:0:0:
149,300,156921,6,0,L|226:311,1,66.0000025177003,2|0,3:2|0:2,0:2:0:0:
202,230,157239,2,0,L|267:220,1,66.0000025177003,0|0,3:2|0:2,0:2:0:0:
253,144,157556,2,0,L|330:155,1,66.0000025177003,0|0,3:2|0:2,0:2:0:0:
316,77,157874,2,0,L|381:67,1,66.0000025177003,2|0,3:2|0:2,0:2:0:0:
273,6,158191,6,0,P|250:28|237:58,1,66.0000025177003,2|0,3:2|0:2,0:2:0:0:
161,23,158509,2,0,P|154:55|161:87,1,66.0000025177003,0|0,3:2|0:2,0:2:0:0:
227,139,158826,2,0,P|234:171|228:204,1,66.0000025177003,0|0,3:2|0:2,0:2:0:0:
152,168,159144,2,0,P|139:198|116:221,1,66.0000025177003,2|0,3:2|0:2,0:2:0:0:
2,269,159461,6,0,P|34:266|64:280,1,66.0000025177003,2|0,3:2|0:2,0:2:0:0:
118,337,159779,1,2,3:2:0:0:
190,371,159937,2,0,P|222:365|247:344,1,66.0000025177003,2|0,0:2|3:2,0:2:0:0:
242,264,160255,2,0,P|209:269|184:290,1,66.0000025177003,2|0,0:2|3:2,0:2:0:0:
315,307,160572,6,0,L|328:230,1,66.0000025177003,2|0,0:2|3:2,0:2:0:0:
233,164,160890,2,0,L|243:229,1,66.0000025177003,2|0,0:2|3:2,0:2:0:0:
319,164,161207,2,0,L|332:87,1,66.0000025177003,2|0,0:2|3:2,0:2:0:0:
257,5,161525,1,10,0:2:0:0:
247,86,161683,1,0,3:2:0:0:
345,16,161842,1,0,0:2:0:0:
174,49,162001,6,0,P|164:80|167:112,1,66.0000025177003,6|0,3:2|0:2,0:2:0:0:
233,164,162318,2,0,P|243:195|240:227,1,66.0000025177003,0|0,3:2|0:2,0:2:0:0:
156,204,162636,2,0,P|146:235|149:267,1,66.0000025177003,0|0,3:2|0:2,0:2:0:0:
227,300,162953,2,0,P|237:331|234:363,1,66.0000025177003,2|0,3:2|0:2,0:2:0:0:
84,336,163271,6,0,L|178:349,1,66.0000025177003,2|0,3:2|0:2,0:2:0:0:
292,290,163588,2,0,L|198:303,1,66.0000025177003,0|0,3:2|0:2,0:2:0:0:
328,365,163906,2,0,L|422:378,1,66.0000025177003,0|0,3:2|0:2,0:2:0:0:
512,298,164223,2,0,L|418:311,1,66.0000025177003,2|0,3:2|0:2,0:2:0:0:
298,214,164540,6,0,P|329:221|356:240,1,66.0000025177003,2|0,3:2|0:2,0:2:0:0:
412,300,164858,1,2,3:2:0:0:
446,220,165017,2,0,P|453:188|472:161,1,66.0000025177003,2|0,0:2|3:2,0:2:0:0:
373,167,165334,2,0,P|366:135|347:108,1,66.0000025177003,2|0,0:2|3:2,0:2:0:0:
472,39,165652,6,0,P|456:68|429:87,1,66.0000025177003,2|0,0:2|3:2,0:2:0:0:
272,85,165969,2,0,P|287:56|314:37,1,66.0000025177003,2|0,0:2|3:2,0:2:0:0:
288,167,166286,2,0,P|258:181|225:181,1,66.0000025177003,2|0,0:2|3:2,0:2:0:0:
55,155,166604,1,10,0:2:0:0:
197,108,166763,1,0,3:2:0:0:
139,177,166921,1,2,0:2:0:0:
121,31,167080,6,0,L|114:127,1,66.0000025177003,6|0,3:2|0:2,0:2:0:0:
139,177,167398,1,8,3:2:0:0:
40,73,167556,1,8,0:2:0:0:
55,155,167715,1,8,3:2:0:0:
197,108,167874,1,8,0:2:0:0:
77,236,168033,1,8,3:2:0:0:
116,96,168191,1,8,0:2:0:0:
158,259,168350,5,8,3:2:0:0:
55,155,168509,1,8,0:2:0:0:
92,320,168667,1,8,3:2:0:0:
222,196,168826,1,8,0:2:0:0:
259,353,168985,1,8,3:2:0:0:
139,177,169144,1,8,0:2:0:0:
171,342,169302,1,8,3:2:0:0:
277,129,169461,1,8,0:2:0:0:
240,274,169620,5,8,3:2:0:0:
116,96,169779,1,8,0:2:0:0:
158,259,169937,1,8,3:2:0:0:
197,109,170096,1,8,0:2:0:0:
77,236,170255,1,8,3:2:0:0:
222,196,170413,1,8,0:2:0:0:
171,342,170572,1,8,3:2:0:0:
139,177,170731,1,8,0:2:0:0:
252,361,170890,5,8,3:2:0:0:
277,129,171048,1,8,0:2:0:0:
240,274,171207,1,8,3:2:0:0:
254,50,171366,1,8,0:0:0:0:
254,50,171445,1,8,0:0:0:0:
254,50,171525,1,0,3:0:0:0:
306,213,171683,1,8,0:2:0:0:
169,33,171842,1,8,3:2:0:0:
222,196,172001,1,8,0:2:0:0:
337,75,172159,5,12,0:0:0:0:
197,109,172318,1,0,3:0:0:0:
306,213,172477,1,0,3:0:0:0:
315,0,172636,5,12,0:0:0:0:
222,196,172794,1,0,3:0:0:0:
439,179,172953,1,0,3:0:0:0:
254,50,173112,5,12,0:0:0:0:
250,273,173271,1,0,3:0:0:0:
366,146,173429,5,12,0:0:0:0:
197,109,173588,1,0,3:0:0:0:
250,273,173747,1,0,3:0:0:0:
337,75,173906,5,12,0:0:0:0:
139,176,174064,1,0,3:0:0:0:
325,296,174223,1,0,3:0:0:0:
254,50,174382,5,12,0:0:0:0:
164,261,174540,1,0,3:0:0:0:
337,75,174699,6,0,L|402:69,1,66.0000025177003,0|0,3:0|0:0,0:0:0:0:
304,209,175017,1,8,0:0:0:0:
254,50,175175,1,0,0:0:0:0:
250,273,175334,2,0,L|184:267,1,66.0000025177003,0|0,3:0|3:0,0:0:0:0:
279,133,175652,1,8,0:0:0:0:
280,351,175810,1,0,3:0:0:0:
358,150,175969,6,0,L|423:144,1,66.0000025177003,8|0,0:0|0:0,0:0:0:0:
334,287,176286,1,0,3:0:0:0:
200,112,176445,1,8,0:0:0:0:
200,112,176525,1,8,0:0:0:0:
200,112,176604,1,0,3:0:0:0:
250,273,176763,1,4,0:3:0:0:
253,49,176921,2,0,P|211:25|163:30,1,99.0000037765504,8|0,0:3|0:0,0:0:0:0:
106,94,177239,6,0,L|95:181,1,88,4|0,3:2|0:0,0:0:0:0:
156,312,177556,2,0,P|167:270|161:227,1,88,8|0,0:0|0:0,0:0:0:0:
17,203,177874,1,0,3:0:0:0:
88,266,178033,1,0,3:0:0:0:
175,154,178191,2,0,L|276:143,1,88,8|0,0:0|0:0,0:0:0:0:
335,236,178509,6,0,L|234:225,1,88,0|0,3:0|3:0,0:0:0:0:
383,167,178826,2,0,P|412:199|419:242,1,88,8|0,0:0|0:0,0:0:0:0:
290,316,179144,1,0,3:0:0:0:
377,313,179302,1,0,3:0:0:0:
238,379,179461,2,0,P|213:343|211:300,1,88,8|0,0:0|0:0,0:0:0:0:
259,139,179779,6,0,L|245:240,1,88,0|0,3:0|0:0,0:0:0:0:
162,96,180096,2,0,L|176:197,1,88,8|0,0:0|0:0,0:0:0:0:
210,300,180413,1,0,3:0:0:0:
335,236,180572,1,0,3:0:0:0:
134,254,180731,2,0,P|104:221|94:179,1,88,8|0,0:0|0:0,0:0:0:0:
207,25,181048,6,0,P|236:57|246:99,1,88,0|0,3:0|3:0,0:0:0:0:
74,88,181366,2,0,L|182:97,1,88,8|0,0:0|0:0,0:0:0:0:
261,190,181683,2,0,L|153:181,1,88,0|0,3:0|3:0,0:0:0:0:
339,152,182001,2,0,P|347:194|333:235,1,88,8|0,0:0|0:0,0:0:0:0:
182,310,182318,6,0,P|214:281|257:272,1,88,4|0,3:2|0:0,0:0:0:0:
409,275,182636,1,8,0:0:0:0:
261,361,182794,1,0,0:0:0:0:
261,361,182874,1,8,0:0:0:0:
261,361,182953,1,0,3:0:0:0:
261,190,183112,1,0,3:0:0:0:
342,329,183271,2,0,L|442:339,1,88,8|0,0:0|0:0,0:0:0:0:
512,246,183588,6,0,L|412:256,1,88,0|0,3:0|3:0,0:0:0:0:
287,184,183906,2,0,P|324:206|349:241,1,88,8|0,0:0|0:0,0:0:0:0:
469,117,184223,2,0,P|431:139|406:174,1,88,0|0,3:0|3:0,0:0:0:0:
277,63,184540,2,0,P|314:85|339:120,1,88,8|0,0:0|0:0,0:0:0:0:
116,188,184858,6,0,P|198:209|256:148,1,176,0|8,3:0|0:0,0:0:0:0:
98,105,185334,1,0,0:0:0:0:
44,229,185493,2,0,L|58:331,1,88,0|0,3:0|3:0,0:0:0:0:
176,132,185810,1,8,0:0:0:0:
49,65,185969,6,0,L|63:167,1,88,4|0,0:0|3:0,0:0:0:0:
81,250,186286,1,0,0:0:0:0:
176,132,186445,1,8,0:0:0:0:
331,224,186604,2,0,B|273:196|273:196|163:218,1,176,4|0,3:2|3:0,0:0:0:0:
312,316,187080,2,0,P|377:306|422:245,1,132,8|0,0:0|0:0,0:0:0:0:
422,214,187398,5,4,3:2:0:0:
436,361,187556,1,0,0:0:0:0:
331,224,187715,1,8,0:0:0:0:
501,288,187874,1,0,0:0:0:0:
355,140,188033,2,0,P|312:138|273:157,1,88,0|0,3:0|3:0,0:0:0:0:
213,315,188350,2,0,P|237:278|240:235,1,88,8|0,0:0|0:0,0:0:0:0:
134,101,188667,6,0,P|154:140|189:164,1,88,0|0,3:0|3:0,0:0:0:0:
163,16,188985,2,0,P|118:13|80:32,1,88,8|0,0:0|0:0,0:0:0:0:
88,178,189302,1,0,3:0:0:0:
222,82,189461,1,0,3:0:0:0:
44,110,189620,6,0,P|8:185|59:253,1,176,8|0,0:0|3:0,0:0:0:0:
189,164,190096,1,0,0:0:0:0:
119,14,190255,2,0,L|137:121,1,88,8|0,0:0|0:0,0:0:0:0:
257,244,190572,2,0,L|275:137,1,88,0|0,3:0|3:0,0:0:0:0:
337,276,190890,6,0,P|274:331|194:305,1,176,8|0,0:0|3:0,0:0:0:0:
88,178,191366,1,0,3:0:0:0:
253,175,191525,1,8,0:0:0:0:
169,218,191683,1,0,0:0:0:0:
169,218,191763,1,8,0:0:0:0:
169,218,191842,1,0,3:0:0:0:
237,88,192001,1,0,3:0:0:0:
331,215,192159,2,0,L|338:321,1,88,8|0,0:0|0:0,0:0:0:0:
405,158,192477,5,4,3:2:0:0:
256,268,192636,1,0,0:0:0:0:
253,175,192794,1,8,0:0:0:0:
336,302,192953,1,0,0:0:0:0:
328,124,193112,1,0,3:0:0:0:
411,253,193271,1,0,3:0:0:0:
237,88,193429,1,8,0:0:0:0:
331,215,193588,1,0,0:0:0:0:
313,35,193747,6,0,P|282:5|240:-4,1,88,4|0,3:2|3:0,0:0:0:0:
158,132,194064,1,8,0:0:0:0:
237,88,194223,1,0,0:0:0:0:
169,218,194382,1,0,3:0:0:0:
154,52,194540,1,0,3:0:0:0:
253,175,194699,1,8,0:0:0:0:
76,101,194858,1,0,0:0:0:0:
103,282,195017,5,4,3:2:0:0:
158,132,195175,1,0,3:0:0:0:
256,268,195334,1,8,0:0:0:0:
79,187,195493,1,0,3:0:0:0:
181,309,195652,1,8,0:2:0:0:
237,88,195810,1,0,3:0:0:0:
169,218,195969,1,8,0:0:0:0:
226,0,196128,1,0,3:0:0:0:
89,202,196286,6,0,P|92:245|116:281,1,88,8|0,0:0|3:0,0:0:0:0:
158,132,196604,1,0,3:0:0:0:
57,341,196763,6,0,P|94:363|137:362,1,88,8|0,0:0|3:0,0:0:0:0:
0,224,197080,1,8,0:0:0:0:
1,189,197159,1,8,0:0:0:0:
11,154,197239,1,8,0:0:0:0:
17,121,197318,1,8,0:0:0:0:
16,86,197398,1,8,0:0:0:0:
9,54,197477,1,8,0:0:0:0:
0,25,197556,6,0,B|76:65|101:0|178:39,1,176,4|8,3:2|0:0,0:0:0:0:
251,175,198033,1,0,0:0:0:0:
121,113,198191,1,0,3:0:0:0:
297,103,198350,1,0,3:0:0:0:
160,191,198509,1,8,0:0:0:0:
253,33,198667,1,0,0:0:0:0:
334,178,198826,6,0,P|323:220|291:248,1,88,0|0,3:0|3:0,0:0:0:0:
168,173,199144,2,0,P|209:161|250:174,1,88,8|0,0:0|0:0,0:0:0:0:
247,317,199461,2,0,P|215:286|207:244,1,88,0|0,3:0|3:0,0:0:0:0:
332,331,199779,6,0,P|246:324|166:359,1,176,8|0,0:0|3:0,0:0:0:0:
146,201,200255,1,0,0:0:0:0:
67,367,200413,1,8,0:0:0:0:
112,289,200572,1,0,0:0:0:0:
166,359,200731,1,0,3:0:0:0:
60,213,200890,1,0,3:0:0:0:
261,239,201048,2,0,L|369:253,1,88,8|0,0:0|0:0,0:0:0:0:
407,113,201366,6,0,P|367:130|341:165,1,88,0|0,3:0|3:0,0:0:0:0:
500,141,201683,2,0,P|504:97|487:57,1,88,8|0,0:0|0:0,0:0:0:0:
427,206,202001,2,0,P|462:231|505:236,1,88,0|0,3:0|3:0,0:0:0:0:
398,91,202318,6,0,B|296:93|296:93|229:50,1,176,8|4,0:0|3:2,0:0:0:0:
158,5,202794,1,0,0:0:0:0:
296,93,202953,1,8,0:0:0:0:
288,0,203112,1,0,0:0:0:0:
288,0,203191,1,8,0:2:0:0:
288,0,203271,1,0,3:0:0:0:
224,146,203429,1,0,3:0:0:0:
67,52,203588,6,0,P|68:136|142:178,1,176,8|0,0:0|3:0,0:0:0:0:
233,53,204064,1,0,3:0:0:0:
246,228,204223,2,0,P|226:188|223:145,1,88,8|0,0:0|0:0,0:0:0:0:
352,221,204540,2,0,P|349:264|329:303,1,88,0|0,3:0|3:0,0:0:0:0:
79,302,204858,6,0,B|143:280|143:280|245:315,1,176,8|0,0:0|3:0,0:0:0:0:
139,366,205334,1,0,0:0:0:0:
19,242,205493,1,8,0:0:0:0:
53,384,205652,1,0,0:0:0:0:
99,214,205810,1,0,3:0:0:0:
78,308,205969,1,0,3:0:0:0:
36,158,206128,2,0,L|30:64,1,88,8|0,0:0|0:0,0:0:0:0:
174,195,206445,6,0,L|168:289,1,88,0|0,3:0|3:0,0:0:0:0:
19,242,206763,1,8,0:0:0:0:
160,115,206921,1,0,0:0:0:0:
160,115,207001,1,8,0:0:0:0:
160,115,207080,1,0,3:0:0:0:
253,336,207239,2,0,P|245:291|275:235,1,88,0|8,3:0|0:0,0:0:0:0:
376,130,207556,6,0,L|330:300,1,176,0|0,0:0|3:0,0:0:0:0:
175,354,208033,1,8,0:0:0:0:
290,170,208191,1,0,0:0:0:0:
118,286,208350,2,0,P|95:323|91:366,1,88,0|0,3:0|3:0,0:0:0:0:
260,252,208667,1,8,0:0:0:0:
135,134,208826,6,0,P|154:172|191:195,1,88,4|0,3:2|0:0,0:0:0:0:
369,158,209144,1,0,3:0:0:0:
217,115,209302,1,8,0:0:0:0:
359,253,209461,1,0,0:0:0:0:
359,253,209540,1,8,0:0:0:0:
359,253,209620,1,0,3:0:0:0:
300,100,209779,1,0,3:0:0:0:
260,252,209937,1,8,0:0:0:0:
369,158,210096,1,0,0:0:0:0:
191,195,210255,6,0,L|84:217,1,88,12|0,0:2|3:0,0:0:0:0:
18,231,210572,1,0,3:0:0:0:
137,120,210731,1,8,0:0:0:0:
137,120,210810,1,8,0:0:0:0:
137,120,210890,1,0,3:0:0:0:
83,298,211048,1,0,3:0:0:0:
48,137,211207,2,0,L|30:50,1,88,12|0,0:2|3:0,0:0:0:0:
191,195,211525,5,0,3:0:0:0:
109,32,211683,1,8,0:0:0:0:
109,32,211763,1,8,0:0:0:0:
109,32,211842,1,0,3:0:0:0:
104,212,212001,1,0,3:0:0:0:
198,52,212159,1,8,0:0:0:0:
164,287,212318,1,8,0:0:0:0:
137,120,212477,1,4,0:3:0:0:
119,370,212636,1,8,0:3:0:0:
190,199,212794,6,0,L|244:150,1,44,8|0,0:0|0:0,0:0:0:0:
221,196,212953,2,0,L|275:147,1,44,8|0,0:0|0:0,0:0:0:0:
446,0,213271,6,0,L|461:71,1,44,8|0,0:0|0:0,0:0:0:0:
433,28,213429,2,0,L|448:99,1,44,8|0,0:0|0:0,0:0:0:0:
512,326,213747,6,0,L|442:303,1,44,8|0,0:0|0:0,0:0:0:0:
494,300,213906,2,0,L|424:277,1,44,8|0,0:0|0:0,0:0:0:0:
249,12,214223,6,0,L|318:34,1,44,8|0,0:0|0:0,0:0:0:0:
267,38,214382,2,0,L|336:60,1,44,8|0,0:0|0:0,0:0:0:0:
374,202,214540,5,8,0:0:0:0:
374,202,214620,1,8,0:0:0:0:
374,202,214699,1,0,3:0:0:0:
189,176,214858,1,8,0:0:0:0:
297,103,215017,1,8,0:0:0:0:
258,282,215175,6,0,B|156:306|180:253|78:273,1,176,4|0,3:2|3:0,0:0:0:0:
117,355,215652,1,8,0:0:0:0:
214,202,215810,1,0,0:0:0:0:
298,362,215969,2,0,L|391:369,1,88,0|0,3:0|3:0,0:0:0:0:
502,370,216286,1,8,0:0:0:0:
322,148,216445,6,0,P|254:198|257:282,1,176,4|0,3:2|3:0,0:0:0:0:
385,368,216921,1,8,0:0:0:0:
336,238,217080,1,0,0:0:0:0:
169,287,217239,2,0,L|81:277,1,88,0|0,3:0|3:0,0:0:0:0:
0,266,217556,1,8,0:0:0:0:
231,198,217715,6,0,B|292:184|292:184|341:199|341:199|399:179,1,176,4|0,3:2|3:0,0:0:0:0:
222,104,218191,1,8,0:0:0:0:
257,282,218350,1,0,0:0:0:0:
292,49,218509,2,0,P|258:21|215:13,1,88,0|0,3:0|3:0,0:0:0:0:
0,94,218826,1,8,0:0:0:0:
161,239,218985,6,0,P|228:187|221:103,1,176,4|0,3:2|3:0,0:0:0:0:
74,216,219461,1,8,0:0:0:0:
257,282,219620,2,0,B|358:291|330:249|452:274,1,176,0|0,0:0|3:0,0:0:0:0:
286,371,220096,1,8,0:0:0:0:
161,239,220255,1,0,0:0:0:0:
324,106,220413,6,0,L|305:192,1,88,4|0,3:2|0:0,0:0:0:0:
100,376,220731,2,0,L|81:289,1,88,8|0,0:0|0:0,0:0:0:0:
216,154,221048,1,0,3:0:0:0:
161,239,221207,1,0,3:0:0:0:
137,0,221366,1,8,0:0:0:0:
305,192,221525,6,0,L|321:377,1,176,4|0,3:2|3:0,0:0:0:0:
231,312,222001,1,8,0:0:0:0:
403,230,222159,1,0,0:0:0:0:
289,102,222318,2,0,P|248:85|205:90,1,88,0|0,3:0|3:0,0:0:0:0:
83,228,222636,1,8,0:0:0:0:
237,172,222794,1,0,0:0:0:0:
33,157,222953,6,0,P|7:189|8:265,1,88,12|0,0:2|3:0,0:0:0:0:
45,311,223271,1,0,3:0:0:0:
122,150,223429,1,8,0:0:0:0:
122,150,223509,1,8,0:0:0:0:
122,150,223588,1,0,3:0:0:0:
137,310,223747,1,0,3:0:0:0:
33,157,223906,1,8,0:0:0:0:
217,143,224064,1,0,3:0:0:0:
83,228,224223,5,0,3:0:0:0:
168,76,224382,1,8,0:0:0:0:
168,76,224461,1,8,0:0:0:0:
168,76,224540,1,0,3:0:0:0:
257,225,224699,1,0,3:0:0:0:
74,72,224858,1,8,0:0:0:0:
168,221,225017,1,0,3:0:0:0:
251,66,225175,1,0,3:0:0:0:
342,220,225334,6,0,P|309:297|225:308,1,176,4|0,0:2|3:0,0:0:0:0:
0,207,225810,2,0,B|64:187|64:187|167:220,1,176,8|0,0:0|3:0,0:0:0:0:
64,278,226286,1,0,3:0:0:0:
257,225,226445,1,8,0:0:0:0:
241,14,226604,6,0,P|188:79|214:159,1,176,4|0,3:2|3:0,0:0:0:0:
448,93,227080,2,0,B|414:89|391:101|391:101|340:85|340:85|307:97|276:95,1,176,8|0,0:0|3:0,0:0:0:0:
167,220,227556,1,0,3:0:0:0:
334,166,227715,1,8,0:0:0:0:
90,185,227874,6,0,B|59:247|106:320|106:320|125:293,1,176,4|0,0:2|3:0,0:0:0:0:
157,131,228350,1,8,0:0:0:0:
216,296,228509,1,0,3:0:0:0:
78,96,228667,1,8,0:0:0:0:
167,220,228826,1,0,3:0:0:0:
287,0,228985,1,8,0:0:0:0:
512,141,229144,2,0,L|435:150,1,44
237,162,229302,5,0,3:0:0:0:
218,153,229620,1,0,3:0:0:0:
205,143,229937,1,0,3:0:0:0:
192,134,230255,1,0,3:2:0:0:
180,127,230572,5,0,3:2:0:0:
256,192,230652,12,0,235572,0:0:0:0:
92,22,235652,6,0,L|99:88,1,66.0000025177003,4|0,3:2|0:0,0:0:0:0:
184,73,235969,2,0,L|177:139,1,66.0000025177003,8|0,0:0|0:0,0:0:0:0:
88,164,236207,1,8,0:0:0:0:
102,173,236286,2,0,L|109:239,1,66.0000025177003,0|0,3:0|3:0,0:0:0:0:
187,221,236604,1,8,0:0:0:0:
175,304,236763,6,0,L|168:370,1,66.0000025177003,0|0,3:0|0:0,0:0:0:0:
251,221,237080,2,0,L|258:287,1,66.0000025177003,0|8,3:0|0:0,0:0:0:0:
339,155,237398,1,0,0:0:0:0:
339,155,237477,1,8,0:0:0:0:
339,155,237556,2,0,L|332:221,1,66.0000025177003,0|0,3:0|3:0,0:0:0:0:
415,89,237874,2,0,L|422:155,1,66.0000025177003,8|0,0:2|0:0,0:0:0:0:
401,305,238191,6,0,L|408:239,1,66.0000025177003,0|0,3:2|3:0,0:0:0:0:
260,352,238509,2,0,L|326:359,1,66.0000025177003,8|0,0:2|0:0,0:0:0:0:
304,233,238747,1,8,0:0:0:0:
317,214,238826,2,0,L|324:280,1,66.0000025177003,0|0,3:2|3:0,0:0:0:0:
325,358,239144,1,8,0:0:0:0:
234,311,239302,6,0,L|227:377,1,66.0000025177003,0|0,3:2|0:0,0:0:0:0:
149,234,239620,2,0,L|156:300,1,66.0000025177003,0|8,3:2|0:0,0:0:0:0:
102,154,239937,1,0,3:0:0:0:
58,238,240096,1,4,0:3:0:0:
190,153,240255,1,2,0:3:0:0:
20,157,240413,2,0,P|68:148|102:112,1,99.0000037765504,8|0,0:0|0:0,0:0:0:0:
48,62,240731,6,0,L|142:73,1,66.0000025177003,4|0,3:2|0:0,0:0:0:0:
253,26,241048,2,0,L|159:37,1,66.0000025177003,8|0,0:0|0:0,0:0:0:0:
182,112,241366,2,0,L|190:178,2,66.0000025177003,0|0|8,3:0|3:0|0:0,0:0:0:0:
273,216,241842,1,0,3:0:0:0:
270,126,242001,6,0,L|277:60,1,66.0000025177003,0|0,0:0|3:0,0:0:0:0:
357,86,242318,1,8,0:0:0:0:
351,169,242477,2,0,L|358:234,1,66.0000025177003,0|0,0:0|3:0,0:0:0:0:
366,308,242794,1,0,3:0:0:0:
411,362,242953,2,0,P|384:345|351:341,1,66.0000025177003,8|0,0:0|0:0,0:0:0:0:
279,354,243271,5,0,3:0:0:0:
200,371,243429,2,0,P|167:366|139:349,2,66.0000025177003,0|8|0,3:0|0:0|0:0,0:0:0:0:
195,287,243906,1,0,3:0:0:0:
117,275,244064,2,0,L|46:292,2,66.0000025177003,0|8|0,3:0|0:0|3:0,0:0:0:0:
181,142,244540,6,0,L|164:213,1,66.0000025177003,0|0,0:0|3:0,0:0:0:0:
87,187,244858,1,8,0:0:0:0:
107,110,245017,2,0,P|172:118|226:83,1,132.000005035401,0|0,0:0|3:0,0:0:0:0:
226,83,245652,5,0,0:0:0:0:
232,159,245810,2,0,L|236:237,1,66.0000025177003,4|0,3:2|0:0,0:0:0:0:
313,209,246128,2,0,L|309:287,1,66.0000025177003,8|0,0:0|0:0,0:0:0:0:
176,311,246445,2,0,L|258:298,2,66.0000025177003,0|0|8,3:0|3:0|0:0,0:0:0:0:
96,311,246921,1,0,3:0:0:0:
75,235,247080,6,0,P|107:232|139:241,1,66.0000025177003,0|0,0:0|3:0,0:0:0:0:
198,200,247398,1,8,0:0:0:0:
259,156,247556,2,0,P|290:165|323:162,1,66.0000025177003,0|0,0:0|3:0,0:0:0:0:
309,88,247874,1,0,3:0:0:0:
232,78,248033,2,0,P|204:94|186:122,1,66.0000025177003,8|0,0:0|0:0,0:0:0:0:
187,204,248350,6,0,L|114:187,1,66.0000025177003,0|0,3:0|0:0,0:0:0:0:
0,152,248667,2,0,L|73:135,1,66.0000025177003,8|0,0:0|3:0,0:0:0:0:
140,114,248985,1,8,0:0:0:0:
49,216,249144,2,0,L|63:280,1,66.0000025177003,0|0,0:0|3:0,0:0:0:0:
91,359,249461,1,8,0:0:0:0:
141,211,249620,6,0,L|156:147,1,66.0000025177003,0|0,0:0|3:0,0:0:0:0:
140,291,249937,1,8,0:0:0:0:
227,182,250096,1,0,3:0:0:0:
216,261,250255,1,4,0:3:0:0:
141,211,250413,1,2,0:3:0:0:
216,96,250572,1,8,0:0:0:0:
216,96,250890,6,0,P|256:110|299:102,1,88,2|0,0:0|0:0,0:0:0:0:
361,51,251366,2,0,P|337:110|364:168,1,132,2|0,0:0|0:0,0:0:0:0:
450,198,252001,2,0,B|365:168|376:229|268:190,1,176,2|0,0:0|0:0,0:0:0:0:
184,198,252794,2,0,P|246:217|276:273,1,132,2|0,0:0|0:0,0:0:0:0:
193,282,253429,6,0,L|57:287,1,132,2|0,0:0|0:0,0:0:0:0:
0,239,254064,2,0,P|34:212|46:171,1,88,2|0,0:0|0:0,0:0:0:0:
0,107,254540,6,0,P|36:140|71:74,1,132,2|0,0:0|0:0,0:0:0:0:
46,22,255175,2,0,P|86:39|129:38,1,88,2|0,0:0|0:0,0:0:0:0:
220,14,255652,2,0,P|209:32|202:53,1,44,2|0,0:0|0:0,0:0:0:0:
148,114,255969,6,0,P|213:95|276:114,1,132,2|0,0:0|0:0,0:0:0:0:
246,182,256604,2,0,P|238:202|237:224,1,44,2|0,0:0|0:0,0:0:0:0:
330,251,256921,2,0,P|328:229|321:208,1,44,2|0,0:0|0:0,0:0:0:0:
263,302,257239,2,0,B|358:286|341:337|447:318,1,176,2|0,0:0|0:0,0:0:0:0:
435,319,258350,5,2,0:0:0:0:
404,247,258509,2,0,P|396:226|394:204,1,44,2|0,0:0|0:0,0:0:0:0:
483,164,258826,2,0,P|481:185|473:206,1,44,2|0,0:0|0:0,0:0:0:0:
376,130,259144,2,0,P|418:119|447:86,1,88,2|0,0:0|0:0,0:0:0:0:
501,7,259620,6,0,L|437:18,1,44,2|0,0:0|0:0,0:0:0:0:
338,44,259937,2,0,L|402:55,1,44,2|0,0:0|0:0,0:0:0:0:
270,0,260255,2,0,P|256:62|295:112,1,132,2|0,0:0|0:0,0:0:0:0:
295,112,260890,5,2,0:0:0:0:
219,135,261048,2,0,L|175:142,1,44,2|0,0:0|0:0,0:0:0:0:
68,176,261366,2,0,L|111:183,1,44,2|0,0:0|0:0,0:0:0:0:
216,219,261683,2,0,P|174:229|144:260,1,88,2|0,0:0|0:0,0:0:0:0:
150,338,262159,6,0,P|205:356|215:298,1,132,2|0,0:0|0:0,0:0:0:0:
144,260,262794,2,0,P|103:261|52:290,1,88,2|0,0:0|0:0,0:0:0:0:
0,192,263271,2,0,P|33:202|51:215,1,44,2|0,0:0|0:0,0:0:0:0:
154,166,263588,6,0,P|121:176|103:189,1,44,2|0,0:0|0:0,0:0:0:0:
207,260,263906,2,0,P|187:249|166:245,1,44,2|0,0:0|0:0,0:0:0:0:
231,382,264223,2,0,P|204:347|163:332,1,88,2|0,0:0|0:0,0:0:0:0:
275,306,264699,2,0,P|315:323|360:323,1,88,2|0,0:0|0:0,0:0:0:0:
425,258,265175,2,0,L|430:305,1,44,2|0,0:0|0:0,0:0:0:0:
429,301,265969,5,2,0:0:0:0:
454,223,266128,2,0,L|467:177,1,44,2|0,0:0|0:0,0:0:0:0:
363,198,266445,2,0,L|374:240,1,44,2|0,0:0|0:0,0:0:0:0:
413,130,266763,2,0,L|424:87,1,44,2|0,0:0|0:0,0:0:0:0:
319,80,267080,2,0,L|330:122,1,44,2|0,0:0|0:0,0:0:0:0:
373,15,267398,6,0,P|334:-2|291:1,1,88,2|0,0:0|0:0,0:0:0:0:
233,55,267874,2,0,P|169:64|115:29,1,132,2|0,0:0|0:0,0:0:0:0:
115,29,268509,5,2,0:0:0:0:
133,108,268667,2,0,P|133:151|118:192,1,88,2|0,0:0|0:0,0:0:0:0:
62,244,269144,2,0,P|105:245|144:264,1,88,2|0,0:0|0:0,0:0:0:0:
202,314,269620,2,0,L|192:372,1,44,2|0,0:0|0:0,0:0:0:0:
271,257,269937,6,0,L|281:315,1,44,2|0,0:0|0:0,0:0:0:0:
206,154,270255,1,2,0:0:0:0:
182,232,270413,1,0,3:0:0:0:
182,232,270493,1,0,3:0:0:0:
182,232,270572,1,8,0:0:0:0:
284,138,270731,2,0,L|278:53,1,66,8|0,0:0|0:0,0:0:0:0:
305,23,271048,6,0,L|309:110,1,88,4|0,3:2|0:0,0:0:0:0:
316,297,271366,1,0,3:0:0:0:
179,235,271525,5,8,0:0:0:0:
354,211,271683,1,0,3:0:0:0:
106,191,271842,5,8,0:0:0:0:
266,221,272001,1,0,3:0:0:0:
23,214,272159,5,8,0:0:0:0:
212,158,272318,1,0,3:0:0:0:
90,283,272477,5,8,0:0:0:0:
143,114,272636,1,0,3:0:0:0:
153,352,272794,5,8,0:0:0:0:
106,191,272953,1,0,3:0:0:0:
106,191,273033,1,8,0:0:0:0:
106,191,273112,1,8,0:0:0:0:
69,367,273271,5,0,3:0:0:0:
179,235,273429,1,8,0:0:0:0:
240,346,273588,6,0,L|153:352,1,88,4|0,3:2|0:0,0:0:0:0:
8,302,273906,1,0,3:0:0:0:
185,156,274064,5,8,0:0:0:0:
90,283,274223,1,0,3:0:0:0:
143,75,274382,5,8,0:0:0:0:
168,249,274540,1,0,3:0:0:0:
193,0,274699,5,8,0:0:0:0:
101,187,274858,1,0,3:0:0:0:
304,80,275017,5,8,0:0:0:0:
126,112,275175,1,0,3:0:0:0:
394,117,275334,5,8,0:0:0:0:
216,85,275493,1,0,3:0:0:0:
463,63,275652,5,8,0:0:0:0:
255,155,275810,1,0,3:0:0:0:
381,32,275969,1,8,0:0:0:0:
385,201,276128,6,0,L|382:312,1,88,4|0,3:2|0:0,0:0:0:0:
379,378,276445,1,0,3:0:0:0:
265,173,276604,5,8,0:0:0:0:
311,335,276763,1,0,3:0:0:0:
330,101,276921,5,8,0:0:0:0:
288,252,277080,1,0,3:0:0:0:
286,19,277239,5,8,0:0:0:0:
345,185,277398,1,0,3:0:0:0:
171,141,277556,5,8,0:0:0:0:
354,71,277715,1,0,3:0:0:0:
181,228,277874,5,8,0:0:0:0:
217,74,278033,1,0,3:0:0:0:
227,309,278191,5,8,0:0:0:0:
101,198,278350,1,0,3:0:0:0:
165,375,278509,1,8,0:0:0:0:
262,228,278667,6,0,L|370:230,1,88,4|0,3:2|0:0,0:0:0:0:
476,231,278985,1,0,3:0:0:0:
172,198,279144,5,8,0:0:0:0:
418,161,279302,1,0,3:0:0:0:
99,136,279461,5,8,0:0:0:0:
344,201,279620,1,0,3:0:0:0:
31,184,279779,5,8,0:0:0:0:
341,116,279937,1,0,3:0:0:0:
61,56,280096,5,8,0:0:0:0:
107,357,280255,1,0,3:0:0:0:
146,36,280413,5,8,0:0:0:0:
54,278,280572,1,0,3:0:0:0:
2,0,280731,5,4,0:3:0:0:
143,275,280890,1,8,0:3:0:0:
143,275,281207,6,0,B|225:255|246:309|314:280,1,176,6|0,0:2|0:0,0:0:0:0:
308,176,282318,2,0,P|291:190|279:208,1,44,2|0,0:0|0:0,0:0:0:0:
375,125,282636,2,0,P|387:142|394:163,1,44,2|0,0:0|0:0,0:0:0:0:
305,54,282953,2,0,P|292:71|285:92,1,44,2|0,0:0|0:0,0:0:0:0:
366,1,283271,2,0,P|378:18|385:39,1,44,2|0,0:0|0:0,0:0:0:0:
394,163,283588,6,0,L|169:188,1,220,2|0,0:0|0:0,0:0:0:0:
48,199,284858,2,0,L|105:194,1,44,2|0,0:0|0:0,0:0:0:0:
186,263,285175,2,0,L|129:258,1,44,2|0,0:0|0:0,0:0:0:0:
206,185,285493,2,0,L|263:180,1,44,2|0,0:0|0:0,0:0:0:0:
344,249,285810,2,0,L|287:244,1,44,2|0,0:0|0:0,0:0:0:0:
386,168,286128,2,0,P|403:181|417:198,1,44,2|0,0:0|0:0,0:0:0:0:
314,319,286445,6,0,B|381:261|487:296|487:296|447:304|415:332,1,264.000010070801,6|0,3:2|0:0,0:0:0:0:
253,380,287398,1,0,0:0:0:0:
196,318,287715,6,0,B|129:260|23:295|23:295|63:303|94:331,1,264.000010070801,6|0,3:2|0:0,0:0:0:0:
253,380,288667,1,0,0:0:0:0:
255,272,288985,6,0,B|210:134|304:148|256:-6,1,264.000010070801,6|0,3:2|0:0,0:0:0:0:
88,183,290096,5,0,3:0:0:0:
101,202,290175,1,0,3:0:0:0:
118,218,290255,2,0,L|169:212,1,33.0000012588501,8|0,0:0|0:0,0:0:0:0:
302,59,290731,6,0,L|282:106,1,33.0000012588501,2|0,0:3|0:0,0:0:0:0:
347,298,291207,6,0,L|316:257,1,33.0000012588501,4|0,0:3|0:0,0:0:0:0:
227,33,291525,6,0,P|209:109|303:170,1,198.000007553101,4|0,3:2|0:0,0:0:0:0:
438,99,292159,1,8,0:0:0:0:
289,89,292318,1,0,0:0:0:0:
384,179,292477,1,2,0:3:0:0:
453,16,292636,1,2,0:3:0:0:
453,16,292953,5,4,0:3:0:0:
296,171,293112,1,8,0:3:0:0:
438,99,293271,1,8,0:0:0:0:
459,106,293350,1,8,0:0:0:0:
473,115,293429,1,8,0:0:0:0:
341,250,293588,1,4,0:3:0:0:
368,72,293747,1,8,0:3:0:0:
368,71,294064,6,0,P|304:85|241:66,1,132.000005035401,4|0,3:2|0:0,0:0:0:0:
66,101,294699,2,0,L|118:78,1,33.0000012588501,8|0,0:0|0:0,0:0:0:0:
41,133,295017,2,0,L|93:110,1,33.0000012588501,8|0,0:0|0:0,0:0:0:0:
186,177,295334,6,0,P|213:188|242:191,2,58.6666666666667,2|8|8,0:3|0:0|0:0,0:0:0:0:
275,69,295652,2,0,P|251:86|234:110,2,58.6666666666667,8|8|8,0:0|0:0|0:0,0:0:0:0:
311,141,295969,5,2,0:3:0:0:
322,168,296074,1,2,0:3:0:0:
326,196,296180,1,4,0:3:0:0:
283,239,296286,1,4,0:3:0:0:
270,265,296391,1,8,0:3:0:0:
266,294,296497,1,8,0:3:0:0:
317,354,296604,5,8,0:3:0:0:
317,354,297239,2,0,L|401:339,1,66.0000025177003
479,323,297556,1,0,0:0:0:0:
479,323,297874,5,0,0:0:0:0:
427,109,298191,2,0,P|417:140|417:172,1,66.0000025177003
506,63,298509,2,0,P|485:39|456:22,1,66.0000025177003
254,54,298826,2,0,P|297:76|346:76,1,99.0000037765504
384,54,299144,6,0,B|345:124|358:200|358:200|409:175|452:189|452:189|473:259|416:340,1,396
423,328,300413,6,0,P|339:298|258:336,1,184.799994360352
256,337,301683,6,0,L|266:242,1,88,4|0,3:2|0:0,0:0:0:0:
181,105,302001,2,0,L|191:199,1,88,8|0,0:0|0:0,0:0:0:0:
347,264,302318,1,0,3:0:0:0:
267,160,302477,1,0,3:0:0:0:
142,264,302636,2,0,P|99:275|56:268,1,88,8|0,0:0|0:0,0:0:0:0:
135,30,302953,6,0,P|177:19|220:26,1,88,0|0,3:0|3:0,0:0:0:0:
226,177,303271,2,0,P|195:145|180:104,1,88,8|0,0:0|0:0,0:0:0:0:
314,24,303588,2,0,P|302:66|273:99,1,88,0|0,3:0|3:0,0:0:0:0:
4,158,303906,6,0,P|85:137|141:200,1,176,8|0,0:0|3:0,0:0:0:0:
103,368,304382,1,0,0:0:0:0:
62,214,304540,1,8,0:0:0:0:
35,307,304699,1,0,0:0:0:0:
209,244,304858,1,0,3:0:0:0:
121,280,305017,1,0,3:0:0:0:
206,160,305175,2,0,L|318:152,1,88,8|0,0:0|0:0,0:0:0:0:
316,316,305493,6,0,P|295:278|294:235,1,88,0|0,3:0|3:0,0:0:0:0:
429,124,305810,2,0,P|406:161|369:183,1,88,8|0,0:0|0:0,0:0:0:0:
212,131,306128,2,0,P|255:131|293:152,1,88,0|0,3:0|3:0,0:0:0:0:
415,335,306445,6,0,L|230:352,1,176,8|4,0:0|3:2,0:0:0:0:
71,252,306921,1,0,0:0:0:0:
248,264,307080,1,8,0:0:0:0:
164,382,307239,1,0,0:0:0:0:
164,382,307318,1,8,0:0:0:0:
164,382,307398,1,0,3:0:0:0:
201,185,307556,1,0,3:0:0:0:
85,332,307715,2,0,L|-7:338,1,88,8|0,0:0|0:0,0:0:0:0:
142,119,308033,6,0,P|180:100|224:98,1,88,0|0,3:0|3:0,0:0:0:0:
59,132,308350,2,0,P|22:108|0:70,1,88,8|0,0:0|0:0,0:0:0:0:
111,202,308667,2,0,P|108:245|87:284,1,88,0|0,3:0|3:0,0:0:0:0:
179,28,308985,6,0,P|263:22|311:91,1,176,8|0,0:0|3:0,0:0:0:0:
191,264,309461,1,0,0:0:0:0:
224,98,309620,1,8,0:0:0:0:
351,209,309779,1,0,0:0:0:0:
351,209,309858,1,8,0:0:0:0:
351,209,309937,1,0,3:0:0:0:
153,166,310096,1,0,3:0:0:0:
335,108,310255,2,0,L|436:97,1,88,8|0,0:0|0:0,0:0:0:0:
278,273,310572,6,0,L|177:262,1,88,0|0,3:0|3:0,0:0:0:0:
92,251,310890,1,8,0:0:0:0:
247,117,311048,2,0,L|348:106,1,88,0|0,0:0|3:0,0:0:0:0:
365,282,311366,2,0,L|264:271,1,88,0|8,3:0|0:0,0:0:0:0:
8,170,311683,6,0,B|72:160|72:160|119:179|119:179|179:172,1,176,0|0,3:0|3:0,0:0:0:0:
76,84,312159,1,8,0:0:0:0:
99,263,312318,1,0,0:0:0:0:
157,88,312477,1,0,3:0:0:0:
186,258,312636,1,0,3:0:0:0:
95,169,312794,1,8,0:0:0:0:
149,337,312953,1,0,3:0:0:0:
179,172,313112,5,0,0:0:0:0:
242,337,313271,1,0,3:0:0:0:
238,104,313429,1,8,0:0:0:0:
186,258,313588,1,0,0:0:0:0:
330,127,313747,1,0,3:0:0:0:
157,88,313906,1,0,3:0:0:0:
335,212,314064,2,0,P|376:200|404:166,1,88,8|0,0:0|0:0,0:0:0:0:
214,31,314382,6,0,L|126:39,1,88,4|0,3:2|0:0,0:0:0:0:
38,54,314699,1,8,0:0:0:0:
203,181,314858,2,0,P|228:145|237:103,1,88,0|0,0:0|3:0,0:0:0:0:
111,182,315175,1,0,3:0:0:0:
295,197,315334,1,8,0:0:0:0:
180,342,315493,6,0,P|154:306|149:263,1,88,4|0,3:2|0:0,0:0:0:0:
313,280,315810,1,0,3:0:0:0:
203,181,315969,1,8,0:0:0:0:
399,314,316128,2,0,P|405:270|393:228,1,88,4|0,3:2|0:0,0:0:0:0:
230,257,316445,1,0,3:0:0:0:
371,154,316604,1,8,0:0:0:0:
248,339,316763,1,0,0:0:0:0:
256,114,316921,6,0,L|250:20,1,88,4|0,3:2|0:0,0:0:0:0:
203,181,317239,1,8,0:0:0:0:
341,77,317398,1,0,0:0:0:0:
341,77,317477,1,8,0:0:0:0:
341,77,317556,1,0,3:0:0:0:
230,257,317715,1,0,3:0:0:0:
170,90,317874,1,8,0:0:0:0:
314,241,318033,6,0,P|312:284|289:321,1,88,4|0,3:2|0:0,0:0:0:0:
142,253,318350,1,0,3:0:0:0:
266,175,318509,1,8,0:0:0:0:
56,240,318667,2,0,P|57:283|80:320,1,88,4|0,3:2|0:0,0:0:0:0:
230,257,318985,1,0,3:0:0:0:
109,171,319144,1,8,0:0:0:0:
185,336,319302,5,0,0:0:0:0:
185,336,319382,1,8,0:0:0:0:
185,336,319461,1,8,0:0:0:0:
266,175,319620,1,0,3:0:0:0:
364,325,319779,1,0,3:0:0:0:
180,237,319937,5,8,0:0:0:0:
180,237,320017,1,8,0:0:0:0:
180,237,320096,1,0,3:0:0:0:
360,227,320255,1,0,0:0:0:0:
260,77,320413,1,8,0:0:0:0:
274,294,320572,6,0,L|278:385,1,88,4|0,0:2|0:0,0:0:0:0:
277,381,322001,6,0,L|276:308,1,44,8|0,0:0|0:0,0:0:0:0:
274,116,322159,2,0,L|273:43,1,44,8|0,0:0|0:0,0:0:0:0:
186,231,322477,6,0,L|249:266,1,44,8|0,0:0|0:0,0:0:0:0:
416,360,322636,2,0,L|479:395,1,44,8|0,0:0|0:0,0:0:0:0:
429,195,322794,5,8,0:0:0:0:
429,195,322874,1,8,0:0:0:0:
429,195,322953,2,0,L|366:232,1,44,8|0,0:0|0:0,0:0:0:0:
202,329,323112,2,0,L|139:366,1,44,8|0,0:0|0:0,0:0:0:0:
11,126,323429,6,0,L|81:145,1,44,8|0,0:0|0:0,0:0:0:0:
264,196,323588,2,0,L|334:215,1,44,8|0,0:0|0:0,0:0:0:0:
136,32,323747,5,8,0:0:0:0:
136,32,323826,1,8,0:0:0:0:
136,32,323906,1,8,0:0:0:0:
202,329,324064,1,8,0:0:0:0:
202,329,324382,6,0,P|243:342|286:333,1,88,4|0,3:2|0:0,0:0:0:0:
351,288,324699,1,0,3:0:0:0:
262,171,324858,2,0,L|250:259,1,88,8|0,0:0|0:0,0:0:0:0:
182,141,325175,1,0,3:0:0:0:
327,115,325334,1,0,3:0:0:0:
245,88,325493,1,8,0:0:0:0:
349,192,325652,6,0,P|387:172|405:133,1,88,4|0,3:2|0:0,0:0:0:0:
308,36,325969,1,0,3:0:0:0:
262,171,326128,1,8,0:0:0:0:
393,57,326286,1,0,0:0:0:0:
393,57,326366,1,8,0:0:0:0:
393,57,326445,1,0,3:0:0:0:
245,88,326604,2,0,L|124:100,1,88,0|8,3:0|0:0,0:0:0:0:
0,82,326921,6,0,P|43:83|82:103,1,88,4|0,3:2|0:0,0:0:0:0:
135,167,327239,1,0,3:0:0:0:
20,248,327398,2,0,L|24:161,1,88,8|0,0:0|0:0,0:0:0:0:
218,161,327715,2,0,P|210:203|180:238,1,88,0|0,3:0|3:0,0:0:0:0:
100,242,328033,1,8,0:0:0:0:
171,90,328191,6,0,L|261:84,1,88,4|0,3:2|0:0,0:0:0:0:
337,78,328509,1,0,3:0:0:0:
218,161,328667,1,8,0:0:0:0:
285,10,328826,1,0,3:0:0:0:
278,219,328985,1,8,0:0:0:0:
258,84,329144,1,0,3:0:0:0:
192,246,329302,1,8,0:0:0:0:
345,161,329461,6,0,P|363:243|304:304,1,176,4|0,3:2|3:0,0:0:0:0:
122,204,329937,1,8,0:0:0:0:
278,219,330096,1,0,0:0:0:0:
278,219,330175,1,8,0:0:0:0:
278,219,330255,1,0,3:0:0:0:
176,330,330413,1,0,3:0:0:0:
208,150,330572,1,8,0:0:0:0:
91,284,330731,6,0,P|36:219|67:141,1,176,4|0,3:2|3:0,0:0:0:0:
218,64,331207,1,8,0:0:0:0:
122,204,331366,1,0,0:0:0:0:
122,204,331445,1,8,0:0:0:0:
122,204,331525,1,0,3:0:0:0:
290,132,331683,1,0,3:0:0:0:
134,99,331842,1,8,0:0:0:0:
278,219,332001,6,0,B|344:203|344:203|389:220|389:220|447:207,1,176,4|0,3:2|3:0,0:0:0:0:
290,132,332477,1,8,0:0:0:0:
242,302,332636,1,0,0:0:0:0:
208,150,332794,1,0,3:0:0:0:
333,288,332953,1,0,3:0:0:0:
186,232,333112,1,8,0:0:0:0:
371,139,333271,6,0,P|363:97|335:63,1,88,4|0,3:2|0:0,0:0:0:0:
129,139,333588,2,0,P|136:181|164:215,1,88,0|8,3:0|0:0,0:0:0:0:
254,39,333906,2,0,L|146:66,1,88,0|0,3:0|0:0,0:0:0:0:
239,238,334223,2,0,L|347:211,1,88,0|8,3:0|0:0,0:0:0:0:
157,274,334540,6,0,B|170:316|170:316|163:359,1,88,4|0,3:2|0:0,0:0:0:0:
313,143,334858,2,0,B|300:101|300:101|306:57,1,88,0|8,3:0|0:0,0:0:0:0:
85,140,335175,2,0,P|125:124|168:129,1,88,0|0,3:0|0:0,0:0:0:0:
365,275,335493,2,0,P|324:291|281:286,1,88,0|8,3:0|0:0,0:0:0:0:
384,94,335810,6,0,P|434:86|477:38,1,88,4|0,3:2|0:0,0:0:0:0:
128,290,336128,2,0,P|78:298|35:346,1,88,0|8,3:0|0:0,0:0:0:0:
449,260,336445,2,0,L|480:360,1,88,0|0,3:0|0:0,0:0:0:0:
71,84,336763,2,0,L|40:-16,1,88,0|8,3:0|0:0,0:0:0:0:
183,296,337239,5,0,0:0:0:0:
254,327,337398,2,0,P|286:330|319:323,1,66.0000025177003
248,246,337715,5,0,0:0:0:0:
323,230,337874,2,0,P|351:213|373:190,1,66.0000025177003
350,57,338191,2,0,P|344:90|331:120,1,66.0000025177003
71,302,338509,6,0,B|106:364|186:355|186:355|228:316|265:317|265:317|195:264|202:212|202:212|252:190|288:116|203:43|133:67|102:127|116:179|116:179|66:189|27:167|27:167|33:93|69:3|172:-28|263:14|305:77|305:77|361:83|414:50|414:50|427:113|389:145|389:145|323:154|323:154|321:196|296:236|296:236|338:276|338:276|358:318|335:362|335:362|406:340|443:355|443:355|461:310|461:310|414:294|411:256|414:210|462:197|462:197|514:119|499:58,1,2112,4|0,0:2|0:0,0:0:0:0:
256,192,353826,12,0,358826,0:0:0:0:
