osu file format v14

[General]
AudioFilename: audio.mp3
AudioLeadIn: 0
PreviewTime: 275423
Countdown: 0
SampleSet: Soft
StackLeniency: 0.7
Mode: 0
LetterboxInBreaks: 0
WidescreenStoryboard: 1

[Editor]
DistanceSpacing: 1
BeatDivisor: 4
GridSize: 32
TimelineZoom: 1.815609

[Metadata]
Title:Sayonara Memories
TitleUnicode:さよならメモリーズ
Artist:supercell
ArtistUnicode:supercell
Creator:Zallies
Version:My Love Story
Source:
Tags:Today is a Beautiful Day J-Pop Japanese やなぎなぎ Ryo Yanagi Nagi zeroallies
BeatmapID:1398028
BeatmapSetID:449987

[Difficulty]
HPDrainRate:6
CircleSize:4
OverallDifficulty:8
ApproachRate:9
SliderMultiplier:1.6
SliderTickRate:1

[Events]
//Background and Video events
0,0,"BG.jpg",0,0
//Break Periods
2,17710,19910
2,227710,238880
2,275680,280880
//Storyboard Layer 0 (Background)
//Storyboard Layer 1 (Fail)
//Storyboard Layer 2 (Pass)
//Storyboard Layer 3 (Foreground)
//Storyboard Sound Samples

[TimingPoints]
690,747.663551401869,4,2,0,40,1,0
6297,776.699029126214,4,2,0,40,1,0
6685,755.667506297229,4,2,0,40,1,0
7440,789.473684210526,4,2,0,40,1,0
8229,800,4,2,0,40,1,0
8629,769.230769230769,4,2,0,40,1,0
9013,826.446280991736,4,2,0,40,1,0
9839,845.070422535211,4,2,0,40,1,0
10684,902.255639097744,4,2,0,40,1,0
11135,1064.77373558119,4,2,0,40,1,0
11667,1325.96685082873,4,2,0,40,1,0
11667,-200,4,2,0,40,0,0
11749,-200,4,2,2,5,0,0
13655,1131.00848256362,4,2,0,5,1,0
13655,-133.333333333333,4,2,0,5,0,0
14220,785.340314136126,4,2,0,10,1,0
15398,-100,4,2,0,20,0,0
15790,827.586206896552,4,2,0,30,1,0
17031,959.232613908873,4,2,0,40,1,0
17510,375,4,2,0,60,1,0
22760,342.857142857143,4,2,0,60,1,0
22931,348.837209302326,4,2,1,60,1,0
23105,405.405405405405,4,2,1,60,1,0
23307,398.671096345515,4,2,1,60,1,0
23506,375,4,2,1,40,1,0
23506,-133.333333333333,4,2,1,40,0,0
27818,-133.333333333333,4,2,1,60,0,0
31943,375,4,2,1,60,1,0
31943,-133.333333333333,4,2,1,60,0,0
32130,370.37037037037,4,2,1,60,1,0
32130,-133.333333333333,4,2,1,60,0,0
32500,375,4,2,1,60,1,0
32500,-133.333333333333,4,2,1,60,0,0
34750,-100,4,2,1,80,0,0
34937,369.230769230769,4,2,1,80,1,0
35490,385.852090032154,4,2,1,80,1,0
35875,375,4,2,1,80,1,0
37000,375,4,2,1,80,1,0
41125,360.902255639098,4,2,1,80,1,0
41485,375,4,2,1,80,1,0
46735,368.098159509202,4,2,1,80,1,0
47103,397.350993377483,4,2,1,80,1,0
47500,375,4,2,1,50,1,0
47500,-133.333333333333,4,2,1,50,0,0
53125,390.879478827362,4,2,1,50,1,0
53125,-133.333333333333,4,2,1,50,0,0
53320,380.952380952381,4,2,1,50,1,0
53320,-133.333333333333,4,2,1,50,0,0
53510,375,4,2,1,50,1,0
53510,-133.333333333333,4,2,1,50,0,0
54072,387.096774193548,4,2,1,50,1,0
54072,-133.333333333333,4,2,1,50,0,0
54265,373.831775700935,4,2,1,50,1,0
54265,-133.333333333333,4,2,1,50,0,0
55386,359.281437125748,4,2,1,50,1,0
55386,-133.333333333333,4,2,1,50,0,0
55745,375,4,2,1,50,1,0
55745,-133.333333333333,4,2,1,50,0,0
56307,357.142857142857,4,2,1,50,1,0
56307,-133.333333333333,4,2,1,50,0,0
56485,392.156862745098,4,2,1,50,1,0
56485,-133.333333333333,4,2,1,50,0,0
56877,375,4,2,1,50,1,0
56877,-133.333333333333,4,2,1,50,0,0
57814,382.165605095541,4,2,1,50,1,0
57814,-133.333333333333,4,2,1,50,0,0
58005,375,4,2,1,60,1,0
58005,-133.333333333333,4,2,1,60,0,0
58942,372.093023255814,4,2,1,60,1,0
58942,-133.333333333333,4,2,1,60,0,0
59500,375,4,2,1,60,1,0
59500,-111.111111111111,4,2,1,60,0,0
62500,368.098159509202,4,2,1,60,1,0
62500,-111.111111111111,4,2,1,60,0,0
62868,389.61038961039,4,2,1,60,1,0
62868,-111.111111111111,4,2,1,60,0,0
63062,375,4,2,1,60,1,0
63062,-111.111111111111,4,2,1,60,0,0
64749,370.37037037037,4,2,1,60,1,0
64749,-111.111111111111,4,2,1,60,0,0
65304,393.44262295082,4,2,1,60,1,0
65304,-111.111111111111,4,2,1,60,0,0
65500,375,4,2,1,60,1,0
65500,-111.111111111111,4,2,1,60,0,0
66250,363.636363636364,4,2,1,60,1,0
66250,-111.111111111111,4,2,1,60,0,0
66613,387.096774193548,4,2,1,60,1,0
66613,-111.111111111111,4,2,1,60,0,0
67000,375,4,2,1,60,1,0
67000,-111.111111111111,4,2,1,60,0,0
70750,298.507462686567,4,2,1,60,1,0
70750,-111.111111111111,4,2,1,60,0,0
70824,401.33779264214,4,2,1,60,1,0
70824,-111.111111111111,4,2,1,60,0,0
71125,375,4,2,1,60,1,0
71125,-111.111111111111,4,2,1,60,0,0
71500,370.37037037037,4,2,1,70,1,0
71870,384.615384615385,4,2,1,70,1,0
72254,363.636363636364,4,2,1,70,1,0
72799,403.361344537815,4,2,1,70,1,0
73000,375,4,2,1,70,1,0
76000,382.165605095541,4,2,1,70,1,0
76382,359.281437125748,4,2,1,70,1,0
76920,387.096774193548,4,2,1,70,1,0
77113,367.534456355283,4,2,1,70,1,0
77480,395.387149917628,4,2,1,60,1,0
77480,-111.111111111111,4,2,1,60,0,0
77875,375,4,2,1,60,1,0
77875,-111.111111111111,4,2,1,60,0,0
80500,375,4,2,1,60,1,0
80500,-111.111111111111,4,2,1,60,0,0
82000,370.37037037037,4,2,1,60,1,0
82000,-111.111111111111,4,2,1,60,0,0
82925,379.746835443038,4,2,1,60,1,0
82925,-111.111111111111,4,2,1,60,0,0
83114,387.096774193548,4,2,1,60,1,0
83114,-111.111111111111,4,2,1,60,0,0
83307,370.37037037037,4,2,1,60,1,0
83307,-111.111111111111,4,2,1,60,0,0
83492,387.096774193548,4,2,1,60,1,0
83492,-111.111111111111,4,2,1,60,0,0
83879,355.029585798817,4,2,1,60,1,0
83879,-111.111111111111,4,2,1,60,0,0
84234,384.615384615385,4,2,1,60,1,0
84234,-111.111111111111,4,2,1,60,0,0
84618,375,4,2,1,60,1,0
84618,-111.111111111111,4,2,1,60,0,0
84993,370.37037037037,4,2,1,60,1,0
84993,-111.111111111111,4,2,1,60,0,0
85733,397.350993377483,4,2,1,60,1,0
85733,-111.111111111111,4,2,1,60,0,0
86130,375,4,2,1,60,1,0
86130,-111.111111111111,4,2,1,60,0,0
86505,370.37037037037,4,2,1,60,1,0
86505,-111.111111111111,4,2,1,60,0,0
86875,355.029585798817,4,2,1,60,1,0
86875,-111.111111111111,4,2,1,60,0,0
87052,375,4,2,1,60,1,0
87052,-111.111111111111,4,2,1,60,0,0
87989,370.37037037037,4,2,1,60,1,0
87989,-111.111111111111,4,2,1,60,0,0
89100,384.615384615385,4,2,1,60,1,0
89100,-111.111111111111,4,2,1,60,0,0
89485,382.165605095541,4,2,1,50,1,0
89485,-133.333333333333,4,2,1,50,0,0
90440,370.37037037037,4,2,1,50,1,0
90440,-133.333333333333,4,2,1,50,0,0
90625,368.098159509202,4,2,1,50,1,0
90625,-133.333333333333,4,2,1,50,0,0
90993,377.358490566038,4,2,1,50,1,0
90993,-133.333333333333,4,2,1,50,0,0
91370,372.670807453416,4,2,1,50,1,0
91370,-133.333333333333,4,2,1,50,0,0
92115,380.952380952381,4,2,1,50,1,0
92115,-133.333333333333,4,2,1,50,0,0
92495,375,4,2,1,50,1,0
92495,-133.333333333333,4,2,1,50,0,0
93807,387.096774193548,4,2,1,50,1,0
93807,-133.333333333333,4,2,1,50,0,0
94000,375,4,2,1,50,1,0
94000,-133.333333333333,4,2,1,50,0,0
95312,-111.111111111111,4,2,1,60,0,0
95406,337.078651685393,4,2,1,60,1,0
95406,-111.111111111111,4,2,1,60,0,0
95490,376.175548589342,4,2,1,60,1,0
95490,-111.111111111111,4,2,1,60,0,0
97747,368.098159509202,4,2,1,60,1,0
97747,-111.111111111111,4,2,1,60,0,0
98115,419.58041958042,4,2,1,60,1,0
98115,-111.111111111111,4,2,1,60,0,0
98324,333.333333333333,4,2,1,60,1,0
98324,-111.111111111111,4,2,1,60,0,0
98490,375,4,2,1,70,1,0
100552,415.22491349481,4,2,1,70,1,0
100759,352.941176470588,4,2,1,70,1,0
101376,497.92531120332,4,2,1,70,1,0
101500,375,4,2,1,80,1,1
101500,-90.9090909090909,4,2,1,80,0,1
107687,357.142857142857,4,2,1,80,1,1
107687,-90.9090909090909,4,2,1,80,0,1
107865,385.232744783307,4,2,1,80,1,1
107865,-90.9090909090909,4,2,1,80,0,1
108250,375,4,2,1,80,1,1
108250,-90.9090909090909,4,2,1,80,0,1
109750,338.983050847458,4,2,1,80,1,1
109750,-90.9090909090909,4,2,1,80,0,1
109834,394.736842105263,4,2,1,80,1,1
109834,-90.9090909090909,4,2,1,80,0,1
110130,370.37037037037,4,2,1,80,1,1
110130,-90.9090909090909,4,2,1,80,0,1
110500,370.37037037037,4,2,1,80,1,1
110500,-90.9090909090909,4,2,1,80,0,1
111055,384.615384615385,4,2,1,80,1,1
111055,-90.9090909090909,4,2,1,80,0,1
111439,348.837209302326,4,2,1,80,1,1
111439,-90.9090909090909,4,2,1,80,0,1
111613,389.61038961039,4,2,1,80,1,1
111613,-90.9090909090909,4,2,1,80,0,1
112002,361.44578313253,4,2,1,80,1,1
112002,-90.9090909090909,4,2,1,80,0,1
112363,375,4,2,1,80,1,1
112363,-90.9090909090909,4,2,1,80,0,1
113113,387.096774193548,4,2,1,80,1,1
113113,-90.9090909090909,4,2,1,80,0,1
113500,375,4,2,1,80,1,1
113500,-90.9090909090909,4,2,1,80,0,1
115375,379.746835443038,4,2,1,80,1,1
115375,-90.9090909090909,4,2,1,80,0,1
116134,357.142857142857,4,2,1,80,1,1
116134,-90.9090909090909,4,2,1,80,0,1
116506,363.636363636364,4,2,1,80,1,1
116506,-90.9090909090909,4,2,1,80,0,1
116687,375,4,2,1,80,1,1
116687,-90.9090909090909,4,2,1,80,0,1
119312,363.636363636364,4,2,1,80,1,1
119312,-90.9090909090909,4,2,1,80,0,1
119493,382.165605095541,4,2,1,80,1,1
119493,-90.9090909090909,4,2,1,80,0,1
120066,389.61038961039,4,2,1,80,1,1
120066,-90.9090909090909,4,2,1,80,0,1
120260,375,4,2,1,80,1,1
120260,-90.9090909090909,4,2,1,80,0,1
121010,355.029585798817,4,2,1,80,1,1
121010,-90.9090909090909,4,2,1,80,0,1
121365,379.746835443038,4,2,1,80,1,1
121365,-90.9090909090909,4,2,1,80,0,1
121839,389.61038961039,4,2,1,80,1,1
121839,-90.9090909090909,4,2,1,80,0,1
122131,364.741641337386,4,2,1,80,1,1
122131,-90.9090909090909,4,2,1,80,0,1
122313,370.37037037037,4,2,1,80,1,1
122313,-90.9090909090909,4,2,1,80,0,1
122498,377.358490566038,4,2,1,80,1,1
122498,-90.9090909090909,4,2,1,80,0,1
122875,365.853658536585,4,2,1,80,1,1
122875,-90.9090909090909,4,2,1,80,0,1
123057,368.098159509202,4,2,1,80,1,1
123057,-90.9090909090909,4,2,1,80,0,1
123609,376.175548589342,4,2,1,80,1,1
123609,-90.9090909090909,4,2,1,80,0,1
123985,384.615384615385,4,2,1,80,1,1
123985,-90.9090909090909,4,2,1,80,0,1
124561,359.281437125748,4,2,1,80,1,1
124561,-90.9090909090909,4,2,1,80,0,1
124740,368.098159509202,4,2,1,80,1,1
124740,-90.9090909090909,4,2,1,80,0,1
124924,392.156862745098,4,2,1,80,1,1
124924,-90.9090909090909,4,2,1,80,0,1
125120,380.952380952381,4,2,1,80,1,1
125120,-90.9090909090909,4,2,1,80,0,1
125500,375,4,2,0,40,1,0
125500,-133.333333333333,4,2,0,40,0,0
127937,384.615384615385,4,2,0,40,1,0
127937,-133.333333333333,4,2,0,40,0,0
128321,398.671096345515,4,2,0,40,1,0
128321,-133.333333333333,4,2,0,40,0,0
128520,375,4,2,0,40,1,0
128520,-200,4,2,0,40,0,0
130395,355.029585798817,4,2,0,40,1,0
130395,-200,4,2,0,40,0,0
130750,359.281437125748,4,2,1,60,1,0
131378,491.803278688525,4,2,1,60,1,0
131500,375,4,2,1,80,1,0
136375,387.096774193548,4,2,1,80,1,0
136762,359.281437125748,4,2,1,80,1,0
137121,379.746835443038,4,2,1,80,1,0
137500,375,4,2,1,80,1,0
138437,392.156862745098,4,2,1,80,1,0
138829,375,4,2,1,80,1,0
139766,363.636363636364,4,2,1,80,1,0
140493,375,4,2,1,80,1,0
141805,361.44578313253,4,2,1,80,1,0
141985,348.837209302326,4,2,1,80,1,0
142159,392.156862745098,4,2,1,80,1,0
142355,370.37037037037,4,2,1,80,1,0
142540,396.039603960396,4,2,1,80,1,0
142738,375,4,2,1,80,1,0
143394,425.531914893617,4,2,1,80,1,0
143500,375,4,2,1,60,1,0
143500,-125,4,2,1,60,0,0
144250,370.37037037037,4,2,1,60,1,0
144250,-125,4,2,1,60,0,0
144990,370.37037037037,4,2,1,60,1,0
144990,-125,4,2,1,60,0,0
145360,394.736842105263,4,2,1,60,1,0
145360,-125,4,2,1,60,0,0
145754,372.670807453416,4,2,1,60,1,0
145754,-125,4,2,1,60,0,0
146406,416.666666666667,4,2,1,60,1,0
146406,-125,4,2,1,60,0,0
146510,375,4,2,1,60,1,0
146510,-125,4,2,1,60,0,0
152510,-133.333333333333,4,2,0,30,0,0
154010,-200,4,2,1,30,0,0
154947,-100,4,2,1,60,0,0
155322,333.333333333333,4,2,1,60,1,0
155488,392.156862745098,4,2,1,60,1,0
155880,380.952380952381,4,2,1,60,1,0
156260,368.098159509202,4,2,1,60,1,0
156812,397.350993377483,4,2,1,60,1,0
157010,360.36036036036,4,2,1,60,1,0
157370,390.879478827362,4,2,1,60,1,0
157760,367.534456355283,4,2,1,60,1,0
158127,375,4,2,1,60,1,0
158502,372.670807453416,4,2,1,60,1,0
158874,386.473429951691,4,2,1,60,1,0
159260,363.636363636364,4,2,1,60,1,0
159623,387.096774193548,4,2,1,60,1,0
160010,355.029585798817,4,2,1,60,1,0
160187,375,4,2,1,60,1,0
160374,371.517027863777,4,2,1,60,1,0
160745,292.682926829268,4,2,1,60,1,0
160818,402.684563758389,4,2,1,60,1,0
161120,380.348652931854,4,2,1,60,1,0
161500,375,4,2,1,60,1,0
163000,375,4,2,1,60,1,0
164500,375,4,2,1,60,1,0
166000,365.853658536585,4,2,1,60,1,0
166365,384.615384615385,4,2,1,60,1,0
166750,365.853658536585,4,2,1,60,1,0
167480,400,4,2,1,70,1,0
167880,372.670807453416,4,2,1,70,1,0
168811,379.746835443038,4,2,1,70,1,0
169000,375,4,2,1,70,1,0
169937,357.142857142857,4,2,1,70,1,0
170115,375,4,2,1,70,1,0
170490,375,4,2,1,70,1,0
170865,377.358490566038,4,2,1,70,1,0
171242,365.853658536585,4,2,1,70,1,0
171607,365.853658536585,4,2,1,70,1,0
171789,402.010050251256,4,2,1,70,1,0
171990,375,4,2,1,70,1,0
173115,394.088669950739,4,2,1,70,1,0
173312,317.460317460317,4,2,1,70,1,0
173470,394.736842105263,4,2,1,60,1,0
173470,-111.111111111111,4,2,1,60,0,0
173864,342.857142857143,4,2,1,60,1,0
173864,-111.111111111111,4,2,1,60,0,0
174035,377.358490566038,4,2,1,60,1,0
174035,-111.111111111111,4,2,1,60,0,0
174412,406.779661016949,4,2,1,60,1,0
174412,-111.111111111111,4,2,1,60,0,0
174615,375,4,2,1,60,1,0
174615,-111.111111111111,4,2,1,60,0,0
174990,375,4,2,1,60,1,0
174990,-111.111111111111,4,2,1,60,0,0
181365,370.37037037037,4,2,1,60,1,0
181365,-111.111111111111,4,2,1,60,0,0
181735,372.670807453416,4,2,1,60,1,0
181735,-111.111111111111,4,2,1,60,0,0
182107,368.098159509202,4,2,1,60,1,0
182107,-111.111111111111,4,2,1,60,0,0
182475,387.096774193548,4,2,1,60,1,0
182475,-111.111111111111,4,2,1,60,0,0
182862,377.358490566038,4,2,1,60,1,0
182862,-111.111111111111,4,2,1,60,0,0
183616,375,4,2,1,60,1,0
183616,-111.111111111111,4,2,1,60,0,0
183991,359.281437125748,4,2,1,60,1,0
183991,-111.111111111111,4,2,1,60,0,0
184170,375,4,2,1,60,1,0
184170,-111.111111111111,4,2,1,60,0,0
185107,382.165605095541,4,2,1,60,1,0
185107,-111.111111111111,4,2,1,60,0,0
185490,385.852090032154,4,2,1,50,1,0
185490,-133.333333333333,4,2,1,50,0,0
185875,372.670807453416,4,2,1,50,1,0
185875,-133.333333333333,4,2,1,50,0,0
186993,375,4,2,1,50,1,0
186993,-133.333333333333,4,2,1,50,0,0
191305,-111.111111111111,4,2,1,60,0,0
192055,389.61038961039,4,2,1,60,1,0
192055,-111.111111111111,4,2,1,60,0,0
192249,375,4,2,1,60,1,0
192249,-111.111111111111,4,2,1,60,0,0
194311,365.853658536585,4,2,1,70,1,0
194311,-111.111111111111,4,2,1,70,0,0
194493,375,4,2,1,70,1,0
195993,377.358490566038,4,2,1,70,1,0
196747,415.22491349481,4,2,1,40,1,0
196954,368.098159509202,4,2,1,40,1,0
196954,-100,4,2,1,40,0,0
197414,307.692307692308,4,2,1,40,1,0
197490,369.230769230769,4,2,1,80,1,1
197490,-90.9090909090909,4,2,1,80,0,1
197859,391.517128874388,4,2,1,80,1,1
197859,-90.9090909090909,4,2,1,80,0,1
198250,375,4,2,1,80,1,1
198250,-90.9090909090909,4,2,1,80,0,1
200312,400,4,2,1,80,1,1
200312,-90.9090909090909,4,2,1,80,0,1
200512,368.098159509202,4,2,1,80,1,1
200512,-90.9090909090909,4,2,1,80,0,1
200880,375,4,2,1,80,1,1
200880,-90.9090909090909,4,2,1,80,0,1
201817,382.165605095541,4,2,1,80,1,1
201817,-90.9090909090909,4,2,1,80,0,1
202008,367.534456355283,4,2,1,80,1,1
202008,-90.9090909090909,4,2,1,80,0,1
202375,375,4,2,1,80,1,1
202375,-90.9090909090909,4,2,1,80,0,1
203125,385.852090032154,4,2,1,80,1,1
203125,-90.9090909090909,4,2,1,80,0,1
203510,375,4,2,1,80,1,1
203510,-90.9090909090909,4,2,1,80,0,1
204260,361.44578313253,4,2,1,80,1,1
204260,-90.9090909090909,4,2,1,80,0,1
204621,389.61038961039,4,2,1,80,1,1
204621,-90.9090909090909,4,2,1,80,0,1
205010,365.853658536585,4,2,1,80,1,1
205010,-90.9090909090909,4,2,1,80,0,1
205375,375,4,2,1,80,1,1
205375,-90.9090909090909,4,2,1,80,0,1
205750,375,4,2,1,80,1,1
205750,-90.9090909090909,4,2,1,80,0,1
206125,380.348652931854,4,2,1,80,1,1
206125,-90.9090909090909,4,2,1,80,0,1
206505,370.37037037037,4,2,1,80,1,1
206505,-90.9090909090909,4,2,1,80,0,1
206875,375,4,2,1,80,1,1
206875,-90.9090909090909,4,2,1,80,0,1
209125,385.852090032154,4,2,1,80,1,1
209125,-90.9090909090909,4,2,1,80,0,1
209510,375,4,2,1,80,1,1
209510,-90.9090909090909,4,2,1,80,0,1
210260,365.853658536585,4,2,1,80,1,1
210260,-90.9090909090909,4,2,1,80,0,1
210625,375,4,2,1,80,1,1
210625,-90.9090909090909,4,2,1,80,0,1
211000,377.358490566038,4,2,1,80,1,1
211000,-90.9090909090909,4,2,1,80,0,1
211377,382.165605095541,4,2,1,80,1,1
211377,-90.9090909090909,4,2,1,80,0,1
211760,370.37037037037,4,2,1,80,1,1
211760,-90.9090909090909,4,2,1,80,0,1
212130,380.348652931854,4,2,1,80,1,1
212130,-90.9090909090909,4,2,1,80,0,1
212510,375,4,2,1,80,1,1
212510,-90.9090909090909,4,2,1,80,0,1
214572,375,4,2,1,80,1,1
214572,-90.9090909090909,4,2,1,80,0,1
214759,285.714285714286,4,2,1,80,1,1
214759,-90.9090909090909,4,2,1,80,0,1
214830,390.879478827362,4,2,1,80,1,1
214830,-90.9090909090909,4,2,1,80,0,1
215123,377.358490566038,4,2,1,80,1,1
215123,-90.9090909090909,4,2,1,80,0,1
215500,370.37037037037,4,2,1,80,1,1
215500,-90.9090909090909,4,2,1,80,0,1
215870,375,4,2,1,80,1,1
215870,-90.9090909090909,4,2,1,80,0,1
216620,385.852090032154,4,2,1,80,1,1
216620,-90.9090909090909,4,2,1,80,0,1
217005,368.098159509202,4,2,1,80,1,1
217005,-90.9090909090909,4,2,1,80,0,1
217373,377.358490566038,4,2,1,80,1,1
217373,-90.9090909090909,4,2,1,80,0,1
217750,365.853658536585,4,2,1,80,1,1
217750,-90.9090909090909,4,2,1,80,0,1
218115,375,4,2,1,80,1,1
218115,-90.9090909090909,4,2,1,80,0,1
218490,375,4,2,1,80,1,1
218490,-90.9090909090909,4,2,1,80,0,1
219615,400,4,2,1,80,1,1
219615,-90.9090909090909,4,2,1,80,0,1
219815,370.37037037037,4,2,1,80,1,1
219815,-90.9090909090909,4,2,1,80,0,1
220000,370.37037037037,4,2,1,80,1,1
220000,-90.9090909090909,4,2,1,80,0,1
220370,398.671096345515,4,2,1,80,1,1
220370,-90.9090909090909,4,2,1,80,0,1
220569,362.537764350453,4,2,1,80,1,1
220569,-90.9090909090909,4,2,1,80,0,1
220750,352.941176470588,4,2,1,80,1,1
220750,-90.9090909090909,4,2,1,80,0,1
220926,375,4,2,1,80,1,1
220926,-90.9090909090909,4,2,1,80,0,1
221113,397.350993377483,4,2,1,80,1,1
221113,-90.9090909090909,4,2,1,80,0,1
221510,387.096774193548,4,2,1,80,1,1
221510,-90.9090909090909,4,2,1,80,0,1
221897,357.142857142857,4,2,1,80,1,1
221897,-90.9090909090909,4,2,1,80,0,1
222075,359.281437125748,4,2,1,80,1,1
222075,-90.9090909090909,4,2,1,80,0,1
222434,372.670807453416,4,2,1,80,1,1
222434,-90.9090909090909,4,2,1,80,0,1
222620,377.358490566038,4,2,1,80,1,1
222620,-90.9090909090909,4,2,1,80,0,1
223940,379.746835443038,4,2,1,80,1,1
224319,402.684563758389,4,2,1,80,1,1
224520,382.165605095541,4,2,1,70,1,0
224520,-133.333333333333,4,2,1,70,0,0
225093,349.344978165939,4,2,1,70,1,0
225093,-133.333333333333,4,2,1,70,0,0
225617,393.44262295082,4,2,1,70,1,0
225617,-133.333333333333,4,2,1,70,0,0
226010,375,4,2,1,70,1,0
226010,-133.333333333333,4,2,1,70,0,0
227510,374.531835205993,4,2,1,60,1,0
227510,-200,4,2,1,60,0,0
237996,382.165605095541,4,2,1,40,1,0
237996,-200,4,2,1,40,0,0
238760,360.36036036036,4,2,1,40,1,0
238760,-200,4,2,1,40,0,0
239480,384.615384615385,4,2,1,60,1,0
239480,-200,4,2,1,60,0,0
239865,375,4,2,1,60,1,0
239865,-200,4,2,1,60,0,0
240990,375,4,2,1,60,1,0
240990,-200,4,2,1,60,0,0
244740,380.469245402663,4,2,1,60,1,0
244740,-200,4,2,1,60,0,0
245500,375,4,2,1,80,1,0
247000,355.029585798817,4,2,1,80,1,0
247177,365.853658536585,4,2,1,80,1,0
247725,375,4,2,1,80,1,0
247912,414.507772020725,4,2,1,80,1,0
248119,381.558028616852,4,2,1,80,1,0
248309,372.670807453416,4,2,1,80,1,0
248495,375,4,2,1,80,1,0
249057,366.412213740458,4,2,1,80,1,0
249423,382.165605095541,4,2,1,80,1,0
249614,368.098159509202,4,2,1,80,1,0
250166,368.098159509202,4,2,1,30,1,0
250166,-100,4,2,1,30,0,0
250350,363.636363636364,4,2,1,40,1,0
250350,-100,4,2,1,40,0,0
250531,-100,4,2,1,50,0,0
250713,375,4,2,1,60,1,0
250713,-100,4,2,1,60,0,0
250900,410.958904109589,4,2,1,70,1,0
250900,-100,4,2,1,70,0,0
251105,375,4,2,1,80,1,0
251105,-100,4,2,1,80,0,0
251480,385.232744783307,4,2,1,70,1,0
251480,-100,4,2,1,70,0,0
251865,375,4,2,1,70,1,0
254490,375,4,2,1,70,1,0
255990,375,4,2,1,70,1,0
256177,355.029585798817,4,2,1,70,1,0
256354,387.096774193548,4,2,1,70,1,0
256741,355.029585798817,4,2,1,70,1,0
256918,375,4,2,1,70,1,0
257480,375,4,2,1,70,1,0
259917,-133.333333333333,4,2,1,80,0,0
260292,396.039603960396,4,2,1,80,1,0
260490,375,4,2,1,70,1,0
260490,-100,4,2,1,70,0,0
261240,368.098159509202,4,2,1,70,1,0
261608,375,4,2,1,70,1,0
262733,379.746835443038,4,2,1,70,1,0
262922,379.14691943128,4,2,1,80,1,0
262922,-133.333333333333,4,2,1,80,0,0
263490,368.098159509202,4,2,1,70,1,0
263490,-100,4,2,1,70,0,0
264226,378.548895899054,4,2,1,70,1,0
264604,387.096774193548,4,2,1,70,1,0
265184,342.857142857143,4,2,1,70,1,0
265355,375,4,2,1,70,1,0
265917,382.165605095541,4,2,1,70,1,0
266299,402.684563758389,4,2,1,70,1,0
266500,375,4,2,1,70,1,0
267437,363.636363636364,4,2,1,70,1,0
267800,390.879478827362,4,2,1,70,1,0
267995,389.61038961039,4,2,1,70,1,0
268384,355.029585798817,4,2,1,70,1,0
268561,372.670807453416,4,2,1,70,1,0
269492,381.558028616852,4,2,1,70,1,0
269873,384.615384615385,4,2,1,10,1,0
270257,359.281437125748,4,2,1,15,1,0
270616,378.548895899054,4,2,1,20,1,0
270994,-100,4,2,1,25,0,0
271373,382.165605095541,4,2,1,30,1,0
271755,365.853658536585,4,2,1,35,1,0
272120,365.853658536585,4,2,1,40,1,0
272485,375,4,2,1,45,1,0
272860,-100,4,2,1,50,0,0
273235,-100,4,2,1,55,0,0
273610,-100,4,2,1,60,0,0
273985,-100,4,2,1,65,0,0
274360,-100,4,2,1,70,0,0
274547,357.142857142857,4,2,1,73,1,0
274725,375,4,2,1,75,1,0
275100,-100,4,2,1,80,0,0
275480,375,4,2,1,20,1,0
275480,-200,4,2,1,20,0,0
281480,764.331210191083,4,2,0,30,1,0
281480,-133.333333333333,4,2,0,30,0,0
282244,-133.333333333333,4,2,0,5,0,0
282626,-133.333333333333,4,2,0,30,0,0
283008,752.351097178683,4,2,0,30,1,0
283008,-133.333333333333,4,2,0,30,0,0
283760,-133.333333333333,4,2,0,5,0,0
284136,-133.333333333333,4,2,0,30,0,0
285265,-133.333333333333,4,2,0,5,0,0
285641,-133.333333333333,4,2,0,30,0,0
286017,725.075528700906,4,2,0,30,1,0
286017,-133.333333333333,4,2,0,30,0,0
286742,-133.333333333333,4,2,0,5,0,0
287104,406.779661016949,4,2,0,30,1,0
287510,375,4,2,0,30,1,0
287510,-200,4,2,0,40,0,0
296322,357.142857142857,4,2,1,40,1,0
296322,-200,4,2,1,40,0,0
296500,375,4,2,1,50,1,0
296500,-133.333333333333,4,2,1,50,0,0
296875,361.44578313253,4,2,1,50,1,0
296875,-133.333333333333,4,2,1,50,0,0
297236,-133.333333333333,4,2,1,50,0,0
297597,375,4,2,1,50,1,0
297597,-133.333333333333,4,2,1,50,0,0
297972,375,4,2,1,60,1,0
299284,-100,4,2,1,70,0,0
300222,413.793103448276,4,2,1,70,1,0
300635,337.078651685393,4,2,1,70,1,0
300803,394.736842105263,4,2,1,70,1,0
301000,350.877192982456,4,2,1,70,1,0
301350,377.358490566038,4,2,1,70,1,0
301538,383.386581469649,4,2,1,70,1,0
301921,389.61038961039,4,2,1,70,1,0
302115,359.281437125748,4,2,1,70,1,0
302475,379.746835443038,4,2,1,80,1,1
302475,-90.9090909090909,4,2,1,80,0,1
302854,386.473429951691,4,2,1,80,1,1
302854,-90.9090909090909,4,2,1,80,0,1
303240,375,4,2,1,80,1,1
303240,-90.9090909090909,4,2,1,80,0,1
303427,387.096774193548,4,2,1,80,1,1
303427,-90.9090909090909,4,2,1,80,0,1
303620,361.44578313253,4,2,1,80,1,1
303620,-90.9090909090909,4,2,1,80,0,1
303800,380.952380952381,4,2,1,80,1,1
303800,-90.9090909090909,4,2,1,80,0,1
303990,375,4,2,1,80,1,1
303990,-90.9090909090909,4,2,1,80,0,1
305115,361.44578313253,4,2,1,80,1,1
305115,-90.9090909090909,4,2,1,80,0,1
305295,380.952380952381,4,2,1,80,1,1
305295,-90.9090909090909,4,2,1,80,0,1
305485,382.165605095541,4,2,1,80,1,1
305485,-90.9090909090909,4,2,1,80,0,1
306249,375,4,2,1,80,1,1
306249,-90.9090909090909,4,2,1,80,0,1
306999,368.098159509202,4,2,1,80,1,1
306999,-90.9090909090909,4,2,1,80,0,1
307367,387.096774193548,4,2,1,80,1,1
307367,-90.9090909090909,4,2,1,80,0,1
307754,363.636363636364,4,2,1,80,1,1
307754,-90.9090909090909,4,2,1,80,0,1
308299,372.670807453416,4,2,1,80,1,1
308299,-90.9090909090909,4,2,1,80,0,1
308485,382.165605095541,4,2,1,80,1,1
308485,-90.9090909090909,4,2,1,80,0,1
309631,365.853658536585,4,2,1,80,1,1
309631,-90.9090909090909,4,2,1,80,0,1
309996,375,4,2,1,80,1,1
309996,-90.9090909090909,4,2,1,80,0,1
310746,368.098159509202,4,2,1,80,1,1
310746,-90.9090909090909,4,2,1,80,0,1
311114,381.558028616852,4,2,1,80,1,1
311114,-90.9090909090909,4,2,1,80,0,1
311495,375,4,2,1,70,1,0
311495,-111.111111111111,4,2,1,70,0,0
315245,387.096774193548,4,2,1,70,1,0
315245,-111.111111111111,4,2,1,70,0,0
315825,361.990950226244,4,2,1,70,1,0
315825,-111.111111111111,4,2,1,70,0,0
316005,368.098159509202,4,2,1,40,1,0
316189,-100,4,2,1,45,0,0
316373,-100,4,2,1,50,0,0
316741,365.853658536585,4,2,1,60,1,0
317106,-100,4,2,1,70,0,0
317381,416.666666666667,4,2,1,79,1,0
317485,377.358490566038,4,2,1,80,1,0
317485,-133.333333333333,4,2,1,80,0,0
318994,357.675111773472,4,2,1,80,1,0
318994,-133.333333333333,4,2,1,80,0,0
319530,410.958904109589,4,2,1,80,1,0
319530,-133.333333333333,4,2,1,80,0,0
319735,384.615384615385,4,2,1,80,1,0
319735,-133.333333333333,4,2,1,80,0,0
320311,368.098159509202,4,2,1,80,1,0
320311,-133.333333333333,4,2,1,80,0,0
320495,375,4,2,1,80,1,0
321245,350.877192982456,4,2,1,80,1,0
321595,385.852090032154,4,2,1,70,1,0
322366,372.670807453416,4,2,1,70,1,0
323484,375,4,2,1,70,1,0
323484,-100,4,2,1,80,0,1
323859,389.61038961039,4,2,1,80,1,1
324248,372.670807453416,4,2,1,80,1,1
324620,377.358490566038,4,2,1,80,1,1
324997,377.358490566038,4,2,1,80,1,1
326506,368.098159509202,4,2,1,80,1,1
326874,381.558028616852,4,2,1,80,1,1
327255,361.44578313253,4,2,1,80,1,1
327616,384.615384615385,4,2,1,80,1,1
328000,375,4,2,1,80,1,1
329125,380.348652931854,4,2,1,80,1,1
329505,390.879478827362,4,2,1,60,1,0
329505,-133.333333333333,4,2,1,60,0,0
329700,370.37037037037,4,2,1,60,1,0
329700,-133.333333333333,4,2,1,60,0,0
330440,372.670807453416,4,2,1,60,1,0
330440,-133.333333333333,4,2,1,60,0,0
330626,375,4,2,1,60,1,0
330626,-133.333333333333,4,2,1,60,0,0
331001,375,4,2,1,60,1,0
331001,-133.333333333333,4,2,1,60,0,0
332126,431.654676258993,4,2,1,60,1,0
332126,-133.333333333333,4,2,1,60,0,0
332341,338.983050847458,4,2,1,60,1,0
332341,-133.333333333333,4,2,1,60,0,0
332510,375,4,2,1,80,1,1
332885,375,4,2,1,15,1,1
333260,-100,4,2,1,20,0,1
333635,-100,4,2,1,25,0,1
333916,359.281437125748,4,2,1,27,1,1
334005,375,4,2,1,30,1,1
334380,-100,4,2,1,35,0,1
334755,-100,4,2,1,40,0,1
335130,-100,4,2,1,45,0,1
335411,379.746835443038,4,2,1,48,1,1
335505,365.853658536585,4,2,1,50,1,1
335870,-100,4,2,1,55,0,1
336236,-100,4,2,1,60,0,1
336602,-100,4,2,1,65,0,1
336879,382.165605095541,4,2,1,68,1,1
336974,370.37037037037,4,2,1,70,1,1
337344,-100,4,2,1,75,0,1
337621,459.770114942529,4,2,1,80,1,1
337735,379.746835443038,4,2,0,40,1,0
337735,-200,4,2,0,40,0,0
338494,379.746835443038,4,2,1,80,1,1
339253,370.37037037037,4,2,1,80,1,1
339623,387.096774193548,4,2,1,80,1,1
340010,370.37037037037,4,2,1,80,1,1
340380,375,4,2,1,80,1,1
341130,387.096774193548,4,2,1,80,1,1
341517,361.44578313253,4,2,1,80,1,1
341878,379.746835443038,4,2,1,80,1,1
342257,365.853658536585,4,2,1,80,1,1
342622,383.386581469649,4,2,1,80,1,1
343005,368.098159509202,4,2,1,80,1,1
344109,391.517128874388,4,2,1,80,1,1
344500,375,4,2,1,80,1,1
346375,370.37037037037,4,2,1,80,1,1
346745,357.142857142857,4,2,1,80,1,1
346923,416.666666666667,4,2,1,80,1,1
347130,355.029585798817,4,2,1,80,1,1
347485,372.670807453416,4,2,1,80,1,1
350093,397.350993377483,4,2,1,80,1,1
350490,379.746835443038,4,2,1,70,1,0
350490,-133.333333333333,4,2,1,70,0,0
351059,413.793103448276,4,2,1,70,1,0
351059,-133.333333333333,4,2,1,70,0,0
351265,394.736842105263,4,2,1,70,1,0
351265,-133.333333333333,4,2,1,70,0,0
351659,359.281437125748,4,2,1,70,1,0
351659,-133.333333333333,4,2,1,70,0,0
351838,434.782608695652,4,2,1,70,1,0
351838,-133.333333333333,4,2,1,70,0,0
352055,444.444444444444,4,2,1,70,1,0
352055,-133.333333333333,4,2,1,70,0,0
352277,422.535211267606,4,2,1,65,1,0
352277,-133.333333333333,4,2,1,65,0,0
352699,474.308300395257,4,2,1,65,1,0
352699,-133.333333333333,4,2,1,65,0,0
352936,451.127819548872,4,2,1,65,1,0
352936,-133.333333333333,4,2,1,65,0,0
353161,459.770114942529,4,2,1,65,1,0
353161,-133.333333333333,4,2,1,65,0,0
353390,508.474576271186,4,2,1,65,1,0
353390,-133.333333333333,4,2,1,65,0,0
353644,422.535211267606,4,2,1,65,1,0
353644,-133.333333333333,4,2,1,65,0,0
353855,500,4,2,1,60,1,0
353855,-133.333333333333,4,2,1,60,0,0
354855,476.190476190476,4,2,1,80,1,0
354855,-200,4,2,1,80,0,0
355807,-200,4,2,2,70,0,0
356759,-200,4,2,1,60,0,0
357712,-200,4,2,2,50,0,0
358664,-200,4,2,1,40,0,0
359616,-200,4,2,2,30,0,0
360569,-200,4,2,1,20,0,0
361521,-200,4,2,2,10,0,0
362474,-100,4,2,0,40,0,0

[Colours]
Combo1 : 128,0,255
Combo2 : 255,191,223
Combo3 : 253,216,179
Combo4 : 179,102,102
Combo5 : 221,187,255
Combo6 : 255,255,0
Combo7 : 255,0,128

[HitObjects]
28,30,690,6,0,L|24:109,1,80,2|0,0:0|0:0,0:0:0:0:
107,177,1437,2,0,L|103:97,1,80,2|0,0:0|0:0,0:0:0:0:
186,29,2185,2,0,L|182:108,1,80,2|0,0:0|0:0,0:0:0:0:
270,175,2932,2,0,L|266:95,1,80,2|0,0:0|0:0,0:0:0:0:
362,50,3680,6,0,P|401:54|440:62,1,80,2|0,0:0|0:0,0:0:0:0:
510,144,4428,2,0,P|470:148|431:156,1,80,2|2,0:0|0:0,0:0:0:0:
347,223,4989,1,0,0:0:0:0:
347,223,5175,2,0,L|351:303,1,80,2|0,0:0|0:0,0:0:0:0:
234,347,5923,2,0,L|230:267,1,80,2|0,0:0|0:0,0:0:0:0:
162,169,6685,6,0,P|91:141|36:193,1,160,2|2,0:0|0:0,0:0:0:0:
230,267,7834,1,0,0:0:0:0:
266,188,8229,2,0,B|271:146|271:146|266:108,1,80,2|0,0:0|0:0,0:0:0:0:
186,67,9013,2,0,B|181:109|181:109|185:146,1,80,2|0,0:0|0:0,0:0:0:0:
324,248,9839,6,0,P|395:276|450:224,1,160,2|2,0:0|0:0,0:0:0:0:
449,128,11135,2,0,P|450:109|454:89,1,40
500,16,11667,54,0,L|380:18,1,120.000004577637,2|0,0:0|0:0,0:0:0:0:
241,54,14220,5,2,0:0:0:0:
241,54,15398,1,0,0:0:0:0:
226,158,15790,5,2,0:0:0:0:
226,158,17031,1,0,0:0:0:0:
148,95,17510,5,2,0:0:0:0:
256,192,20510,12,0,22760,0:0:0:0:
357,198,22931,53,2,0:0:0:0:
284,111,23105,2,0,L|288:31,1,80,12|0,0:0|0:0,0:0:0:0:
415,41,23506,6,0,L|419:107,1,60.0000022888184,6|0,0:1|0:0,0:0:0:0:
357,198,23881,1,2,0:0:0:0:
474,167,24068,2,0,P|507:216|512:275,1,120.000004577637
415,374,24631,2,0,L|418:314,1,60.0000022888184,2|0,0:0|0:0,0:0:0:0:
287,250,25193,6,0,L|289:309,1,60.0000022888184,0|2,0:0|0:0,0:0:0:0:
356,199,25568,2,0,P|303:167|239:182,1,120.000004577637
332,338,26131,1,2,0:0:0:0:
287,250,26318,1,4,0:0:0:0:
184,353,26506,6,0,L|182:294,1,60.0000022888184,2|0,0:0|0:0,0:0:0:0:
174,169,26881,1,2,0:0:0:0:
0,243,27068,2,0,P|51:270|108:255,1,120.000004577637
174,169,27631,1,2,0:0:0:0:
14,144,27818,54,0,L|80:147,1,60.0000022888184,8|0,0:0|0:0,0:0:0:0:
206,78,28193,2,0,L|146:80,1,60.0000022888184,2|0,0:0|0:0,0:0:0:0:
266,221,28568,2,0,P|271:191|274:161,1,60.0000022888184,8|0,0:0|0:0,0:0:0:0:
206,78,28943,1,2,0:0:0:0:
346,116,29131,2,0,L|405:112,1,60.0000022888184,2|0,0:0|0:0,0:0:0:0:
273,161,29506,5,6,0:1:0:0:
341,281,29693,1,0,0:0:0:0:
346,116,29881,1,2,0:0:0:0:
191,254,30068,2,0,L|72:259,1,120.000004577637
206,161,30631,2,0,P|211:131|214:101,1,60.0000022888184,2|0,0:0|0:0,0:0:0:0:
98,1,31006,5,2,0:0:0:0:
105,138,31193,1,0,0:0:0:0:
18,62,31381,1,2,0:0:0:0:
181,49,31568,2,0,P|208:101|207:160,1,120.000004577637
130,238,32130,2,0,L|133:298,1,60.0000022888184,2|4,0:0|0:0,0:0:0:0:
50,180,32500,5,2,0:0:0:0:
209,233,32687,1,0,0:0:0:0:
49,309,32875,1,2,0:0:0:0:
260,358,33062,2,0,L|254:239,1,120.000004577637
236,106,33625,1,2,0:0:0:0:
402,181,33812,54,0,P|487:133|400:88,1,240.000009155274,12|0,0:0|0:0,0:0:0:0:
315,138,34750,5,8,0:0:0:0:
332,356,34937,1,8,0:0:0:0:
332,356,35490,6,0,P|293:354|253:352,1,80,6|0,0:1|0:0,0:0:0:0:
115,364,35875,1,8,0:0:0:0:
187,217,36062,1,4,0:0:0:0:
60,259,36250,2,0,P|63:220|72:181,1,80,2|4,0:0|0:0,0:0:0:0:
130,65,36625,2,0,P|92:56|52:52,1,80,8|4,0:0|0:0,0:0:0:0:
262,148,37000,5,2,0:0:0:0:
333,50,37187,1,4,0:0:0:0:
168,155,37375,2,0,B|165:196|165:196|171:234,1,80,8|4,0:0|0:0,0:0:0:0:
372,306,37750,1,2,0:0:0:0:
262,148,37937,1,4,0:0:0:0:
234,354,38125,1,8,0:0:0:0:
362,193,38312,1,4,0:0:0:0:
184,264,38500,54,0,L|263:270,1,80,2|4,0:0|0:0,0:0:0:0:
442,226,38875,1,8,0:0:0:0:
449,341,39062,1,4,0:0:0:0:
362,193,39250,2,0,P|360:153|367:113,1,80,2|4,0:0|0:0,0:0:0:0:
336,328,39625,2,0,L|257:334,1,80,8|4,0:0|0:0,0:0:0:0:
224,143,40000,5,2,0:0:0:0:
143,363,40187,1,4,0:0:0:0:
131,172,40375,1,8,0:0:0:0:
362,193,40562,5,12,0:0:0:0:
201,269,40750,1,0,0:0:0:0:
201,269,40843,2,0,L|121:261,1,80,8|0,0:0|0:0,0:0:0:0:
271,208,41125,2,0,P|287:265|277:323,1,120,8|0,0:0|0:0,0:0:0:0:
260,349,41485,5,12,0:1:0:0:
346,170,41672,1,2,0:0:0:0:
397,370,41860,1,2,0:0:0:0:
241,178,42047,53,12,0:1:0:0:
497,201,42235,1,2,0:0:0:0:
339,319,42422,1,2,0:0:0:0:
405,91,42610,5,12,0:1:0:0:
468,299,42797,1,2,0:0:0:0:
265,89,42985,1,2,0:0:0:0:
494,107,43172,5,12,0:1:0:0:
255,235,43360,1,2,0:0:0:0:
352,16,43547,1,2,0:0:0:0:
398,218,43735,5,12,0:1:0:0:
235,64,43922,1,2,0:0:0:0:
398,218,44110,2,0,P|403:257|401:297,1,80,12|0,0:0|0:0,0:0:0:0:
242,357,44485,54,0,P|237:317|238:277,1,80,6|0,0:1|0:0,0:0:0:0:
230,121,44860,1,2,0:0:0:0:
318,306,45047,1,0,0:0:0:0:
348,123,45235,1,2,0:0:0:0:
162,314,45422,1,8,0:0:0:0:
310,206,45610,1,8,0:0:0:0:
120,155,45797,1,8,0:0:0:0:
324,227,45985,5,8,0:0:0:0:
84,268,46172,1,2,0:0:0:0:
275,126,46360,1,2,0:0:0:0:
109,71,46547,1,8,0:0:0:0:
196,249,46735,6,0,L|193:288,3,40,2|0|0|0,0:0|0:0|0:0|0:0,0:0:0:0:
297,360,47103,2,0,L|294:321,3,40,12|0|0|0,0:0|0:0|0:0|0:0,0:0:0:0:
370,246,47500,5,6,0:1:0:0:
370,246,48250,2,0,L|429:248,1,60.0000022888184,2|0,0:0|0:0,0:0:0:0:
495,162,48625,2,0,L|435:164,1,60.0000022888184,2|0,0:0|0:0,0:0:0:0:
345,155,49000,54,0,P|344:125|347:95,1,60.0000022888184,2|0,0:0|0:0,0:0:0:0:
256,23,49375,2,0,P|258:52|258:82,1,60.0000022888184,2|0,0:0|0:0,0:0:0:0:
165,146,49750,2,0,P|164:116|167:86,1,60.0000022888184,2|0,0:0|0:0,0:0:0:0:
76,14,50125,2,0,P|78:43|78:73,1,60.0000022888184,2|0,0:0|0:0,0:0:0:0:
21,167,50500,6,0,P|18:226|47:277,1,120.000004577637,2|2,0:0|0:0,0:0:0:0:
126,235,51062,1,0,0:0:0:0:
126,235,51250,2,0,L|185:234,1,60.0000022888184,2|0,0:0|0:0,0:0:0:0:
265,280,51625,2,0,L|324:279,1,60.0000022888184,2|0,0:0|0:0,0:0:0:0:
402,246,52000,6,0,P|408:276|407:306,1,60.0000022888184,2|0,0:0|0:0,0:0:0:0:
502,173,52375,2,0,P|495:203|496:233,1,60.0000022888184,2|0,0:0|0:0,0:0:0:0:
383,110,52750,2,0,P|388:139|388:169,1,60.0000022888184,2|0,0:0|0:0,0:0:0:0:
485,40,53125,2,0,P|478:69|479:99,1,60.0000022888184,2|0,0:0|0:0,0:0:0:0:
367,16,53510,6,0,P|312:36|252:37,1,120.000004577637,2|2,0:0|0:0,0:0:0:0:
164,24,54072,1,0,0:0:0:0:
84,64,54265,2,0,P|79:92|80:124,1,60.0000022888184,2|0,0:0|0:0,0:0:0:0:
110,206,54638,2,0,L|169:204,1,60.0000022888184,2|0,0:0|0:0,0:0:0:0:
250,163,55012,54,0,L|309:161,1,60.0000022888184,2|0,0:0|0:0,0:0:0:0:
438,227,55386,2,0,L|379:225,1,60.0000022888184,2|0,0:0|0:0,0:0:0:0:
249,285,55745,2,0,L|308:283,1,60.0000022888184,2|0,0:0|0:0,0:0:0:0:
433,353,56120,2,0,L|374:351,1,60.0000022888184,2|0,0:0|0:0,0:0:0:0:
183,336,56485,6,0,P|169:278|189:222,1,120.000004577637,2|2,0:0|0:0,0:0:0:0:
256,164,57064,1,0,0:0:0:0:
180,112,57252,2,0,P|174:82|174:52,1,60.0000022888184,2|0,0:0|0:0,0:0:0:0:
336,52,57627,2,0,P|335:81|330:111,1,60.0000022888184,2|0,0:0|0:0,0:0:0:0:
189,222,58005,5,8,0:0:0:0:
189,222,58942,1,8,0:0:0:0:
152,40,59128,1,8,0:0:0:0:
152,39,59500,6,0,P|218:65|287:50,1,143.999995605469,6|8,2:1|0:0,0:0:0:0:
384,4,60062,1,0,0:0:0:0:
484,88,60250,2,0,P|492:122|492:158,1,71.9999978027344,2|0,0:0|0:0,0:0:0:0:
380,248,60625,2,0,L|382:176,1,71.9999978027344,8|0,0:0|0:0,0:0:0:0:
280,93,61000,54,0,P|248:93|208:95,1,71.9999978027344,2|0,0:0|0:0,0:0:0:0:
48,182,61375,2,0,P|83:184|119:184,1,71.9999978027344,8|0,0:0|0:0,0:0:0:0:
220,222,61750,2,0,L|217:293,1,71.9999978027344,2|0,0:0|0:0,0:0:0:0:
322,358,62125,2,0,L|319:286,1,71.9999978027344,8|4,0:0|0:0,0:0:0:0:
431,229,62500,6,0,P|466:168|454:99,1,143.999995605469,2|8,0:0|0:0,0:0:0:0:
389,28,63062,1,0,0:0:0:0:
335,164,63249,2,0,P|300:165|264:166,1,71.9999978027344,2|0,0:0|0:0,0:0:0:0:
199,63,63624,2,0,P|234:61|270:60,1,71.9999978027344,8|0,0:0|0:0,0:0:0:0:
461,145,63999,6,0,L|456:224,1,71.9999978027344,2|0,0:0|0:0,0:0:0:0:
354,313,64374,2,0,L|349:241,1,71.9999978027344,8|0,0:0|0:0,0:0:0:0:
263,119,64749,1,2,0:0:0:0:
263,119,64841,2,0,P|210:131|157:120,1,107.999996704102,8|8,0:0|0:0,0:0:0:0:
116,18,65304,1,4,0:0:0:0:
16,111,65500,6,0,B|24:262,1,143.999995605469,2|8,0:0|0:0,0:0:0:0:
32,368,66062,1,0,0:0:0:0:
118,255,66250,2,0,B|153:250|153:250|189:254,1,71.9999978027344,2|0,0:0|0:0,0:0:0:0:
253,366,66613,2,0,B|288:371|288:371|324:367,1,71.9999978027344,8|0,0:0|0:0,0:0:0:0:
444,332,67000,53,2,0:0:0:0:
322,250,67187,1,0,0:0:0:0:
450,237,67375,2,0,L|447:166,1,71.9999978027344,8|0,0:0|0:0,0:0:0:0:
339,66,67750,2,0,P|331:101|328:136,1,71.9999978027344,2|0,0:0|0:0,0:0:0:0:
218,246,68125,2,0,P|214:210|207:175,1,71.9999978027344,8|4,0:0|0:0,0:0:0:0:
68,92,68500,6,0,P|135:112|202:88,1,143.999995605469,2|8,0:0|0:0,0:0:0:0:
320,40,69062,1,0,0:0:0:0:
428,120,69250,2,0,P|426:155|425:196,1,71.9999978027344,2|0,0:0|0:0,0:0:0:0:
308,268,69625,2,0,P|310:233|311:192,1,71.9999978027344,8|0,0:0|0:0,0:0:0:0:
188,136,70000,6,0,L|68:139,1,107.999996704102,2|0,0:0|0:0,0:0:0:0:
47,122,70375,1,8,0:0:0:0:
0,288,70562,1,0,0:0:0:0:
144,224,70750,1,2,0:0:0:0:
144,224,70824,2,0,P|164:273|157:326,1,107.999996704102,12|8,0:0|0:0,0:0:0:0:
288,368,71312,1,8,0:0:0:0:
288,368,71406,1,8,0:0:0:0:
288,368,71500,6,0,P|305:290|288:213,1,160,6|8,0:1|0:0,0:0:0:0:
216,88,72062,1,0,0:0:0:0:
392,164,72254,2,0,B|434:167|434:167|471:162,1,80,2|0,0:0|0:0,0:0:0:0:
472,24,72617,2,0,B|430:21|430:21|392:25,1,80,8|0,0:0|0:0,0:0:0:0:
208,172,73000,54,0,L|128:175,1,80,2|0,0:0|0:0,0:0:0:0:
126,55,73375,1,8,0:0:0:0:
292,120,73562,2,0,P|302:158|305:198,1,80,0|2,0:0|0:0,0:0:0:0:
128,174,73937,1,0,0:0:0:0:
241,41,74125,2,0,P|279:31|319:28,1,80,8|0,0:0|0:0,0:0:0:0:
432,168,74500,6,0,P|504:161|504:87,1,160,2|8,0:0|0:0,0:0:0:0:
400,48,75062,1,0,0:0:0:0:
338,193,75250,2,0,P|340:232|344:272,1,80,2|0,0:0|0:0,0:0:0:0:
441,365,75625,1,8,0:0:0:0:
269,360,75812,1,0,0:0:0:0:
462,278,76000,6,0,P|466:238|468:198,1,80,2|0,0:0|0:0,0:0:0:0:
400,48,76382,1,8,0:0:0:0:
338,193,76561,1,0,0:0:0:0:
481,1,76741,1,8,0:0:0:0:
468,198,76920,1,8,0:0:0:0:
285,101,77113,1,12,0:0:0:0:
284,101,77480,6,0,P|226:139|160:118,1,143.999995605469,6|0,0:0|0:0,0:0:0:0:
94,31,78062,1,0,0:0:0:0:
43,153,78250,2,0,L|47:224,1,71.9999978027344,2|0,0:0|0:0,0:0:0:0:
47,224,78625,1,2,0:0:0:0:
166,326,79000,53,0,0:0:0:0:
29,340,79187,1,2,0:0:0:0:
175,246,79375,2,0,L|246:250,1,71.9999978027344
359,262,79750,2,0,P|361:297|357:333,1,71.9999978027344,8|0,0:0|0:0,0:0:0:0:
276,177,80125,2,0,P|273:141|277:105,1,71.9999978027344,2|0,0:0|0:0,0:0:0:0:
506,129,80500,6,0,L|362:136,1,143.999995605469,2|0,0:0|0:0,0:0:0:0:
175,80,81062,1,2,0:0:0:0:
296,219,81250,1,0,0:0:0:0:
282,40,81437,1,0,0:0:0:0:
183,187,81625,1,2,0:0:0:0:
183,187,82000,5,0,0:0:0:0:
286,135,82185,1,2,0:0:0:0:
95,126,82370,2,0,L|98:197,1,71.9999978027344,0|0,0:0|0:0,0:0:0:0:
223,345,82740,2,0,P|228:309|231:273,1,71.9999978027344,12|0,0:0|0:0,0:0:0:0:
174,123,83114,1,2,0:0:0:0:
142,298,83307,1,0,0:0:0:0:
287,196,83492,6,0,L|359:199,1,71.9999978027344,6|0,0:1|0:0,0:0:0:0:
512,207,83879,1,0,0:0:0:0:
428,282,84056,1,2,0:0:0:0:
439,140,84234,2,0,P|437:102|433:69,1,71.9999978027344
432,68,84618,1,2,0:0:0:0:
238,54,84993,54,0,P|229:88|223:124,1,71.9999978027344,0|2,0:0|0:0,0:0:0:0:
189,229,85363,2,0,P|223:218|257:205,1,71.9999978027344
365,177,85733,2,0,P|339:153|310:130,1,71.9999978027344,8|0,0:0|0:0,0:0:0:0:
238,54,86130,1,2,0:0:0:0:
142,150,86505,6,0,P|106:153|70:155,2,71.9999978027344,2|0|0,0:0|0:0|0:0,0:0:0:0:
257,205,87052,2,0,L|253:281,1,71.9999978027344,2|0,0:0|0:0,0:0:0:0:
160,343,87427,1,0,0:0:0:0:
336,298,87614,2,0,P|348:331|353:367,1,71.9999978027344,12|0,0:0|0:0,0:0:0:0:
296,192,87989,5,2,0:0:0:0:
250,318,88174,1,0,0:0:0:0:
383,179,88359,1,2,0:0:0:0:
431,346,88544,1,8,0:0:0:0:
277,159,88729,1,10,0:0:0:0:
495,272,88914,1,8,0:0:0:0:
321,366,89100,1,6,0:1:0:0:
420,177,89292,1,0,0:0:0:0:
192,248,89485,5,6,0:1:0:0:
312,255,89867,1,2,0:0:0:0:
318,134,90249,1,2,0:0:0:0:
199,128,90625,1,2,0:0:0:0:
248,302,90993,53,2,0:0:0:0:
365,198,91370,1,2,0:0:0:0:
260,82,91742,1,2,0:0:0:0:
145,186,92115,1,2,0:0:0:0:
350,299,92495,5,2,0:0:0:0:
362,96,92870,1,2,0:0:0:0:
159,86,93245,1,2,0:0:0:0:
149,288,93620,1,2,0:0:0:0:
430,203,94000,5,2,0:0:0:0:
265,17,94375,1,2,0:0:0:0:
81,184,94750,1,2,0:0:0:0:
246,367,95125,1,2,0:0:0:0:
433,203,95312,5,8,0:0:0:0:
433,203,95406,1,8,0:0:0:0:
433,203,95490,2,0,L|431:122,1,71.9999978027344,6|0,0:1|0:0,0:0:0:0:
337,60,95866,2,0,P|302:59|266:53,1,71.9999978027344,2|0,0:0|0:0,0:0:0:0:
165,197,96242,2,0,P|219:153|288:167,1,143.999995605469,2|2,0:0|0:0,0:0:0:0:
345,272,96806,1,0,0:0:0:0:
237,240,96994,53,2,0:0:0:0:
409,189,97182,1,0,0:0:0:0:
354,344,97370,2,0,P|347:308|345:272,1,71.9999978027344,2|0,0:0|0:0,0:0:0:0:
497,188,97747,1,2,0:0:0:0:
325,162,97931,1,0,0:0:0:0:
428,289,98115,1,2,0:0:0:0:
411,142,98324,1,8,0:0:0:0:
407,114,98407,1,8,0:0:0:0:
404,86,98490,5,6,0:1:0:0:
248,166,98677,2,0,P|207:169|156:170,1,80,8|4,0:0|0:0,0:0:0:0:
320,49,99052,1,2,0:0:0:0:
333,207,99240,2,0,P|330:243|320:295,1,80,12|0,0:0|0:0,0:0:0:0:
220,78,99615,1,6,0:0:0:0:
400,148,99802,5,8,0:0:0:0:
225,257,99990,1,2,0:0:0:0:
225,257,100552,1,0,0:0:0:0:
309,46,100759,5,8,0:0:0:0:
310,69,100847,1,8,0:0:0:0:
311,93,100935,1,8,0:0:0:0:
312,117,101023,1,8,0:0:0:0:
314,141,101111,1,8,0:0:0:0:
315,165,101200,1,8,0:0:0:0:
316,189,101288,1,8,0:0:0:0:
318,213,101376,1,8,0:0:0:0:
319,237,101500,5,6,0:1:0:0:
415,92,101687,1,0,0:0:0:0:
215,180,101875,1,8,0:0:0:0:
425,259,102062,1,4,0:0:0:0:
219,66,102250,5,2,0:0:0:0:
179,266,102437,1,4,0:0:0:0:
312,117,102625,1,8,0:0:0:0:
352,317,102812,1,4,0:0:0:0:
112,163,103000,5,2,0:0:0:0:
319,237,103187,1,4,0:0:0:0:
86,329,103375,1,8,0:0:0:0:
319,237,103562,69,4,0:0:0:0:
219,66,103750,1,2,0:0:0:0:
219,66,103843,2,0,P|213:124|208:200,1,132.00000402832,8|8,0:0|0:0,0:0:0:0:
208,197,104312,1,4,0:0:0:0:
392,230,104500,5,2,0:0:0:0:
284,348,104687,1,4,0:0:0:0:
512,285,104875,1,8,0:0:0:0:
356,122,105062,1,4,0:0:0:0:
434,353,105250,5,2,0:0:0:0:
209,197,105437,1,4,0:0:0:0:
446,171,105625,1,8,0:0:0:0:
267,374,105812,1,4,0:0:0:0:
145,117,106000,69,2,0:0:0:0:
319,263,106187,1,4,0:0:0:0:
74,302,106375,1,8,0:0:0:0:
319,263,106562,5,12,0:1:0:0:
168,374,106750,1,2,0:0:0:0:
168,374,106843,2,0,L|178:242,1,132.00000402832,8|8,0:0|0:0,0:0:0:0:
178,242,107312,1,4,0:0:0:0:
235,72,107500,5,6,0:1:0:0:
348,160,107687,1,4,0:0:0:0:
153,258,107865,1,8,0:0:0:0:
370,326,108057,1,4,0:0:0:0:
144,141,108250,69,2,0:0:0:0:
333,246,108437,1,4,0:0:0:0:
64,333,108625,1,8,0:0:0:0:
216,186,108812,1,4,0:0:0:0:
31,108,109000,5,2,0:0:0:0:
303,172,109187,1,4,0:0:0:0:
63,255,109375,1,8,0:0:0:0:
248,59,109562,1,4,0:0:0:0:
346,298,109750,5,2,0:0:0:0:
346,298,109834,2,0,L|214:306,1,132.00000402832,8|8,0:0|0:0,0:0:0:0:
214,305,110315,1,4,0:0:0:0:
486,235,110500,70,0,P|485:191|480:147,1,88.000002685547,2|4,0:0|0:0,0:0:0:0:
286,67,110870,2,0,P|281:110|279:154,1,88.000002685547,8|4,0:0|0:0,0:0:0:0:
355,296,111247,1,2,0:0:0:0:
186,140,111439,1,4,0:0:0:0:
354,205,111613,1,8,0:0:0:0:
177,295,111807,1,4,0:0:0:0:
440,365,112002,6,0,L|435:277,1,88.000002685547,2|0,0:0|0:0,0:0:0:0:
382,124,112363,1,2,0:0:0:0:
355,296,112550,1,2,0:0:0:0:
251,102,112738,1,8,0:0:0:0:
226,303,112925,1,8,0:0:0:0:
127,95,113113,2,0,P|84:90|40:87,1,88.000002685547,6|0,0:1|0:0,0:0:0:0:
212,188,113500,6,0,L|343:190,1,132.00000402832,6|0,0:1|0:0,0:0:0:0:
388,192,113875,1,8,0:0:0:0:
251,102,114062,2,0,P|245:58|257:16,1,88.000002685547,4|2,0:0|0:0,0:0:0:0:
296,266,114437,1,4,0:0:0:0:
336,60,114625,1,8,0:0:0:0:
123,135,114812,1,4,0:0:0:0:
388,192,115000,69,2,0:0:0:0:
146,247,115187,1,4,0:0:0:0:
338,342,115375,1,8,0:0:0:0:
146,247,115564,5,4,0:0:0:0:
291,76,115754,1,2,0:0:0:0:
291,76,115849,2,0,L|284:207,1,132.00000402832,8|8,0:0|0:0,0:0:0:0:
369,346,116312,1,4,0:0:0:0:
400,348,116401,1,0,0:0:0:0:
431,351,116506,5,2,0:0:0:0:
198,291,116687,1,4,0:0:0:0:
372,174,116874,1,8,0:0:0:0:
372,174,117249,69,2,0:0:0:0:
256,373,117437,1,4,0:0:0:0:
252,141,117624,1,8,0:0:0:0:
422,272,117812,1,4,0:0:0:0:
225,238,117999,5,2,0:0:0:0:
466,157,118187,1,4,0:0:0:0:
245,57,118374,1,8,0:0:0:0:
466,157,118562,5,12,0:1:0:0:
322,320,118749,1,2,0:0:0:0:
322,320,118843,2,0,L|336:186,1,132.00000402832,8|8,0:0|0:0,0:0:0:0:
336,188,119312,1,4,0:0:0:0:
185,157,119493,69,6,0:1:0:0:
375,107,119684,1,4,0:0:0:0:
182,245,119875,1,8,0:0:0:0:
395,316,120066,1,4,0:0:0:0:
260,95,120260,5,2,0:0:0:0:
471,210,120447,1,4,0:0:0:0:
275,263,120635,1,8,0:0:0:0:
438,80,120822,1,4,0:0:0:0:
144,72,121010,5,2,0:0:0:0:
346,180,121187,1,4,0:0:0:0:
119,278,121365,1,8,0:0:0:0:
395,316,121554,1,4,0:0:0:0:
213,172,121744,69,2,0:0:0:0:
213,172,121839,2,0,L|220:306,1,132.00000402832,8|8,0:0|0:0,0:0:0:0:
219,303,122313,1,4,0:0:0:0:
360,95,122498,5,12,0:1:0:0:
144,230,122686,1,2,0:0:0:0:
343,320,122875,1,2,0:0:0:0:
96,99,123057,5,12,0:1:0:0:
312,234,123241,1,2,0:0:0:0:
113,324,123425,1,2,0:0:0:0:
251,132,123609,69,12,0:1:0:0:
219,303,123797,1,2,0:1:0:0:
374,316,123985,5,14,0:1:0:0:
164,223,124177,1,0,0:0:0:0:
354,189,124369,1,2,0:0:0:0:
197,343,124561,1,8,0:0:0:0:
251,132,124740,5,2,0:0:0:0:
63,152,124924,1,8,0:0:0:0:
277,256,125120,1,8,0:0:0:0:
30,329,125310,1,0,0:0:0:0:
303,357,125500,6,0,L|444:353,1,120.000004577637,2|0,0:0|0:0,0:0:0:0:
486,288,126062,2,0,P|506:233|501:173,1,120.000004577637,2|0,0:0|0:0,0:0:0:0:
456,96,126625,2,0,L|336:99,1,120.000004577637,2|0,0:0|0:0,0:0:0:0:
275,165,127187,1,0,0:0:0:0:
275,165,127375,2,0,P|267:222|306:266,1,120.000004577637,2|0,0:0|0:0,0:0:0:0:
406,226,127937,2,0,P|435:225|465:230,2,60.0000022888184,0|2|0,0:0|0:0|0:0,0:0:0:0:
327,283,128520,6,0,B|284:293|235:275|235:275|211:351|211:351|275:387|353:364,1,320,6|0,0:0|0:0,0:0:0:0:
365,361,130750,5,8,0:0:0:0:
366,337,130839,1,8,0:0:0:0:
368,313,130929,1,8,0:0:0:0:
369,289,131019,1,8,0:0:0:0:
370,265,131109,1,8,0:0:0:0:
372,241,131199,1,8,0:0:0:0:
373,217,131288,1,8,0:0:0:0:
374,193,131378,1,8,0:0:0:0:
376,169,131500,6,0,P|374:129|369:89,1,80,6|0,0:1|0:0,0:0:0:0:
194,29,131875,1,8,0:0:0:0:
287,156,132062,1,4,0:0:0:0:
132,114,132250,2,0,L|137:194,1,80,2|4,0:0|0:0,0:0:0:0:
114,323,132625,2,0,P|74:321|34:313,1,80,8|4,0:0|0:0,0:0:0:0:
208,215,133000,53,2,0:0:0:0:
239,344,133187,1,4,0:0:0:0:
404,239,133375,2,0,P|414:274|419:317,1,80,8|4,0:0|0:0,0:0:0:0:
292,170,133750,1,2,0:0:0:0:
323,299,133937,1,4,0:0:0:0:
385,130,134125,1,8,0:0:0:0:
193,178,134312,1,4,0:0:0:0:
282,3,134500,6,0,L|280:83,1,80,2|4,0:0|0:0,0:0:0:0:
264,243,134875,1,10,0:0:0:0:
201,103,135062,1,4,0:0:0:0:
367,199,135250,2,0,P|372:238|370:278,1,80,2|4,0:0|0:0,0:0:0:0:
210,367,135625,2,0,L|290:369,1,80,8|4,0:0|0:0,0:0:0:0:
450,317,136000,5,2,0:0:0:0:
264,242,136187,1,4,0:0:0:0:
457,168,136375,1,8,0:0:0:0:
370,374,136568,5,12,0:0:0:0:
264,242,136762,1,0,0:0:0:0:
264,242,136851,2,0,L|256:322,1,80,8|0,0:0|0:0,0:0:0:0:
338,185,137121,2,0,P|284:208|227:194,1,120,8|0,0:0|0:0,0:0:0:0:
197,167,137500,53,12,0:1:0:0:
182,347,137687,1,0,0:0:0:0:
287,123,137875,1,0,0:0:0:0:
64,311,138062,5,12,0:1:0:0:
264,242,138250,1,0,0:0:0:0:
0,200,138437,1,0,0:0:0:0:
273,355,138633,5,12,0:1:0:0:
176,100,138829,1,0,0:0:0:0:
162,323,139016,1,0,0:0:0:0:
337,137,139204,5,12,0:1:0:0:
64,128,139391,1,0,0:0:0:0:
294,267,139579,1,0,0:0:0:0:
220,65,139766,53,12,0:1:0:0:
112,268,139947,1,0,0:0:0:0:
220,65,140129,2,0,P|234:102|240:141,1,80,12|0,0:0|0:0,0:0:0:0:
289,283,140493,6,0,L|369:282,1,80,6|0,0:1|0:0,0:0:0:0:
454,214,140868,1,2,0:0:0:0:
304,178,141055,1,0,0:0:0:0:
338,368,141243,1,2,0:0:0:0:
403,143,141430,1,8,0:0:0:0:
261,275,141618,1,8,0:0:0:0:
476,339,141805,1,8,0:0:0:0:
229,267,141985,5,8,0:0:0:0:
463,212,142159,1,2,0:0:0:0:
249,145,142355,1,2,0:0:0:0:
438,87,142540,1,8,0:0:0:0:
327,243,142738,6,0,L|330:282,3,40,2|0|0|0,0:0|0:0|0:0|0:0,0:0:0:0:
221,357,143113,2,0,L|224:318,3,40,12|0|0|0,0:0|0:0|0:0|0:0,0:0:0:0:
132,242,143500,53,6,0:1:0:0:
132,242,144250,2,0,L|128:178,1,64,2|0,0:0|0:0,0:0:0:0:
41,123,144620,2,0,L|37:186,1,64,2|0,0:0|0:0,0:0:0:0:
99,320,144990,6,0,P|130:323|162:322,1,64,2|0,0:0|0:0,0:0:0:0:
217,250,145360,2,0,P|248:246|280:247,1,64,2|0,0:0|0:0,0:0:0:0:
328,323,145754,2,0,P|359:326|391:325,1,64,2|0,0:0|0:0,0:0:0:0:
476,272,146126,2,0,P|479:289|484:302,3,32,6|4|4|4,0:0|0:0|0:0|0:0,0:0:0:0:
400,216,146510,6,0,L|406:88,1,128,2|2,0:0|0:0,0:0:0:0:
348,32,147072,1,0,0:0:0:0:
348,32,147260,2,0,P|316:37|284:39,1,64,2|0,0:0|0:0,0:0:0:0:
188,7,147635,2,0,P|156:1|124:-1,1,64,2|0,0:0|0:0,0:0:0:0:
49,104,148010,6,0,L|53:168,1,64,2|0,0:0|0:0,0:0:0:0:
130,242,148385,2,0,L|134:178,1,64,2|0,0:0|0:0,0:0:0:0:
211,99,148666,1,0,0:0:0:0:
211,99,148760,2,0,L|215:163,1,64,2|0,0:0|0:0,0:0:0:0:
292,237,149135,2,0,L|296:173,1,64,2|4,0:0|0:0,0:0:0:0:
365,103,149510,54,0,P|424:123|483:101,1,128,2|2,0:0|0:0,0:0:0:0:
506,202,150072,1,0,0:0:0:0:
506,202,150260,2,0,L|514:277,1,64,2|0,0:0|0:0,0:0:0:0:
462,332,150635,2,0,P|430:325|398:322,1,64,2|0,0:0|0:0,0:0:0:0:
277,357,151010,6,0,L|195:360,1,64,2|0,0:0|0:0,0:0:0:0:
102,285,151385,2,0,L|165:282,1,64,2|0,0:0|0:0,0:0:0:0:
248,198,151760,2,0,L|208:202,3,32,6|4|4|4,0:0|0:0|0:0|0:0,0:0:0:0:
83,147,152135,2,0,L|146:144,1,64,6|0,0:0|0:0,0:0:0:0:
319,122,152510,5,2,0:0:0:0:
398,248,152697,1,0,0:0:0:0:
363,42,152885,5,2,0:0:0:0:
271,198,153072,1,0,0:0:0:0:
278,60,153260,53,2,0:0:0:0:
354,188,153447,1,0,0:0:0:0:
407,114,153635,5,2,0:0:0:0:
315,270,153822,1,2,0:0:0:0:
278,60,154010,6,0,P|214:38|214:107,1,160,0|4,0:0|0:0,0:0:0:0:
278,60,154947,6,0,L|115:54,1,160,6|0,0:1|0:0,0:0:0:0:
43,171,155488,54,0,L|206:177,1,160,6|8,0:1|0:0,0:0:0:0:
306,183,156070,1,4,0:0:0:0:
306,183,156260,2,0,P|310:144|311:104,1,80,2|4,0:0|0:0,0:0:0:0:
212,250,156628,2,0,L|219:329,1,80,8|4,0:0|0:0,0:0:0:0:
356,372,157010,6,0,P|398:372|437:370,1,80,2|4,0:0|0:0,0:0:0:0:
487,215,157370,2,0,P|445:215|406:217,1,80,8|4,0:0|0:0,0:0:0:0:
306,183,157760,2,0,P|310:144|311:104,1,80,2|4,0:0|0:0,0:0:0:0:
179,44,158127,2,0,P|179:83|184:123,1,80,8|4,0:0|0:0,0:0:0:0:
259,261,158502,6,0,P|337:267|392:213,1,160,2|8,0:0|0:0,0:0:0:0:
356,97,159067,1,4,0:0:0:0:
200,195,159260,2,0,P|159:197|115:197,1,80,2|4,0:0|0:0,0:0:0:0:
28,305,159623,2,0,P|67:305|107:307,1,80,8|4,0:0|0:0,0:0:0:0:
253,364,160010,6,0,L|250:284,1,80,2|4,0:0|0:0,0:0:0:0:
354,182,160374,2,0,L|356:261,1,80,8|4,0:0|0:0,0:0:0:0:
457,362,160745,1,2,0:0:0:0:
457,362,160818,2,0,P|480:308|478:249,1,120,8|8,0:0|0:0,0:0:0:0:
448,134,161310,1,4,0:0:0:0:
321,224,161500,54,0,B|262:232|262:232|216:223|216:223|162:228,1,160,2|8,0:0|0:0,0:0:0:0:
54,246,162062,1,4,0:0:0:0:
220,304,162250,2,0,B|259:310|259:310|299:306,1,80,2|4,0:0|0:0,0:0:0:0:
260,152,162625,2,0,B|221:146|221:146|180:149,1,80,8|4,0:0|0:0,0:0:0:0:
368,208,163000,6,0,P|375:168|373:128,1,80,2|4,0:0|0:0,0:0:0:0:
272,44,163375,2,0,L|266:123,1,80,8|4,0:0|0:0,0:0:0:0:
160,215,163750,2,0,P|167:175|165:135,1,80,2|4,0:0|0:0,0:0:0:0:
71,41,164125,2,0,L|65:120,1,80,8|4,0:0|0:0,0:0:0:0:
88,276,164500,6,0,P|161:246|236:268,1,160,2|8,0:0|0:0,0:0:0:0:
309,346,165062,1,4,0:0:0:0:
436,277,165250,2,0,P|446:245|446:196,1,80,2|4,0:0|0:0,0:0:0:0:
324,72,165625,1,8,0:0:0:0:
352,226,165812,1,4,0:0:0:0:
214,73,166000,6,0,L|75:77,1,120,2|0,0:0|0:0,0:0:0:0:
53,78,166365,1,8,0:0:0:0:
176,212,166557,1,4,0:0:0:0:
30,166,166749,1,2,0:0:0:0:
30,166,166841,2,0,P|8:220|22:277,1,120,8|12,0:0|0:0,0:0:0:0:
120,352,167298,1,8,0:0:0:0:
120,352,167390,1,8,0:0:0:0:
120,352,167480,54,0,L|199:350,1,80,6|0,0:1|0:0,0:0:0:0:
356,272,167880,2,0,L|277:274,1,80,8|4,0:0|0:0,0:0:0:0:
460,348,168252,2,0,P|473:269|458:191,1,160,2|8,0:0|0:0,0:0:0:0:
408,96,168811,1,4,0:0:0:0:
299,184,169000,6,0,L|211:188,1,80,2|4,0:0|0:0,0:0:0:0:
68,195,169375,1,8,0:0:0:0:
167,50,169562,2,0,P|166:89|162:129,1,80,4|2,0:0|0:0,0:0:0:0:
120,280,169937,1,4,0:0:0:0:
283,266,170115,2,0,L|362:262,1,80,8|4,0:0|0:0,0:0:0:0:
509,171,170490,6,0,P|451:120|379:146,1,160,2|8,0:0|0:0,0:0:0:0:
362,261,171053,1,4,0:0:0:0:
273,128,171242,2,0,L|275:48,1,80,2|4,0:0|0:0,0:0:0:0:
144,122,171607,2,0,L|146:201,1,80,8|4,0:0|0:0,0:0:0:0:
231,334,171990,6,0,P|270:338|310:337,1,80,2|0,0:0|0:0,0:0:0:0:
472,190,172365,1,2,0:0:0:0:
321,218,172552,1,8,0:0:0:0:
504,288,172740,1,10,0:0:0:0:
350,327,172927,1,8,0:0:0:0:
389,161,173115,1,12,0:1:0:0:
389,161,173470,54,0,P|331:124|266:149,1,143.999995605469,6|0,0:1|0:0,0:0:0:0:
208,228,174035,1,0,0:0:0:0:
130,142,174223,2,0,L|59:138,1,71.9999978027344,2|0,0:0|0:0,0:0:0:0:
59,138,174615,1,2,0:0:0:0:
208,227,174990,5,0,0:0:0:0:
208,104,175177,1,2,0:0:0:0:
115,235,175365,2,0,L|119:306,1,71.9999978027344
209,365,175740,2,0,P|247:368|282:367,1,71.9999978027344,8|0,0:0|0:0,0:0:0:0:
393,273,176115,2,0,P|355:270|320:271,1,71.9999978027344,2|0,0:0|0:0,0:0:0:0:
471,352,176490,6,0,P|498:286|488:216,1,143.999995605469,2|0,0:0|0:0,0:0:0:0:
428,87,177052,1,2,0:0:0:0:
393,273,177240,1,0,0:0:0:0:
481,188,177427,1,0,0:0:0:0:
316,156,177615,1,2,0:0:0:0:
316,156,177990,5,0,0:0:0:0:
286,46,178177,1,2,0:0:0:0:
136,144,178365,2,0,L|65:147,1,71.9999978027344
213,279,178740,2,0,P|216:243|220:207,1,71.9999978027344,12|0,0:0|0:0,0:0:0:0:
316,156,179115,1,2,0:0:0:0:
328,307,179302,1,0,0:0:0:0:
412,196,179490,54,0,L|484:193,1,71.9999978027344,6|0,0:1|0:0,0:0:0:0:
387,102,179865,1,0,0:0:0:0:
495,104,180052,1,2,0:0:0:0:
356,25,180240,2,0,L|284:28,1,71.9999978027344
284,27,180615,1,2,0:0:0:0:
212,165,180990,6,0,P|221:199|227:235,1,71.9999978027344,0|2,0:0|0:0,0:0:0:0:
132,212,181365,2,0,P|97:200|64:188,1,71.9999978027344
131,115,181735,2,0,P|157:91|185:69,1,71.9999978027344,8|0,0:0|0:0,0:0:0:0:
227,235,182107,1,2,0:0:0:0:
370,150,182475,6,0,P|405:152|441:154,2,71.9999978027344,6|0|0,0:1|0:0|0:0,0:0:0:0:
274,190,183050,2,0,P|274:228|277:261,1,71.9999978027344,2|0,0:0|0:0,0:0:0:0:
385,336,183428,1,0,0:0:0:0:
215,343,183616,2,0,L|143:339,1,71.9999978027344,12|0,0:0|0:0,0:0:0:0:
53,195,183991,5,2,0:0:0:0:
115,343,184170,1,0,0:0:0:0:
132,168,184357,1,2,0:0:0:0:
20,317,184545,1,8,0:0:0:0:
123,134,184732,1,10,0:0:0:0:
207,263,184920,1,8,0:0:0:0:
114,97,185107,1,6,0:1:0:0:
31,281,185298,1,0,0:0:0:0:
327,240,185490,53,6,0:1:0:0:
207,263,185875,1,2,0:0:0:0:
184,144,186247,1,2,0:0:0:0:
303,120,186620,1,2,0:0:0:0:
277,301,186993,5,2,0:0:0:0:
145,213,187368,1,2,0:0:0:0:
233,82,187743,1,2,0:0:0:0:
364,170,188118,1,2,0:0:0:0:
174,312,188493,5,2,0:0:0:0:
134,110,188868,1,2,0:0:0:0:
336,70,189243,1,2,0:0:0:0:
376,272,189618,1,2,0:0:0:0:
70,227,189993,5,2,0:0:0:0:
219,5,190368,1,2,0:0:0:0:
441,153,190743,1,2,0:0:0:0:
292,375,191118,1,2,0:0:0:0:
70,227,191305,54,0,L|58:185,1,35.9999989013672,8|8,0:0|0:0,0:0:0:0:
36,118,191493,2,0,L|110:120,1,71.9999978027344,6|0,0:1|0:0,0:0:0:0:
187,192,191868,2,0,L|258:190,1,71.9999978027344,2|0,0:0|0:0,0:0:0:0:
318,111,192249,2,0,P|385:89|455:102,1,143.999995605469,2|2,0:0|0:0,0:0:0:0:
512,194,192811,1,0,0:0:0:0:
393,215,192999,6,0,L|399:292,1,71.9999978027344,2|0,0:0|0:0,0:0:0:0:
288,353,193374,2,0,L|293:281,1,71.9999978027344,2|0,0:0|0:0,0:0:0:0:
180,125,193749,1,2,0:0:0:0:
181,296,193936,1,0,0:0:0:0:
287,174,194124,1,2,0:0:0:0:
113,211,194311,1,8,0:0:0:0:
87,211,194402,1,8,0:0:0:0:
62,211,194493,5,6,0:1:0:0:
173,45,194680,2,0,P|178:84|181:124,1,80,8|4,0:0|0:0,0:0:0:0:
195,266,195055,1,2,0:0:0:0:
328,160,195243,2,0,L|407:161,1,80,12|2,0:0|0:0,0:0:0:0:
286,58,195618,1,0,0:0:0:0:
329,285,195805,1,8,0:0:0:0:
184,150,195993,5,2,0:0:0:0:
184,150,196559,1,0,0:0:0:0:
329,285,196747,1,2,0:0:0:0:
130,322,196954,53,4,0:0:0:0:
103,329,197046,1,4,0:0:0:0:
75,326,197138,1,4,0:0:0:0:
51,313,197230,1,4,0:0:0:0:
32,291,197322,1,4,0:0:0:0:
24,264,197414,1,4,0:0:0:0:
24,235,197490,53,6,0:1:0:0:
146,44,197674,1,0,0:0:0:0:
108,252,197859,1,8,0:0:0:0:
30,35,198054,1,4,0:0:0:0:
293,180,198250,5,2,0:0:0:0:
90,147,198437,1,4,0:0:0:0:
262,38,198625,1,8,0:0:0:0:
108,252,198812,1,4,0:0:0:0:
146,44,199000,5,2,0:0:0:0:
395,107,199187,1,4,0:0:0:0:
186,189,199375,1,8,0:0:0:0:
395,107,199562,69,4,0:0:0:0:
282,311,199750,1,2,0:0:0:0:
282,311,199843,2,0,P|285:246|292:180,1,132.00000402832,8|8,0:0|0:0,0:0:0:0:
292,179,200312,1,4,0:0:0:0:
72,282,200512,5,2,0:0:0:0:
248,255,200696,1,4,0:0:0:0:
23,146,200880,1,8,0:0:0:0:
199,119,201067,1,4,0:0:0:0:
166,373,201255,5,2,0:0:0:0:
297,183,201442,1,4,0:0:0:0:
301,375,201630,1,8,0:0:0:0:
145,201,201817,1,4,0:0:0:0:
350,112,202008,69,2,0:0:0:0:
280,292,202191,1,4,0:0:0:0:
243,62,202375,1,8,0:0:0:0:
280,292,202562,5,12,0:1:0:0:
507,185,202750,1,2,0:0:0:0:
507,185,202843,2,0,B|371:193,1,132.00000402832,8|8,0:0|0:0,0:0:0:0:
375,192,203317,1,4,0:0:0:0:
232,142,203510,5,6,0:1:0:0:
375,296,203697,1,4,0:0:0:0:
326,100,203885,1,8,0:0:0:0:
237,327,204072,1,4,0:0:0:0:
237,57,204260,69,2,0:0:0:0:
271,240,204440,1,4,0:0:0:0:
420,67,204621,1,8,0:0:0:0:
375,296,204815,1,4,0:0:0:0:
142,134,205010,5,2,0:0:0:0:
237,327,205192,1,4,0:0:0:0:
252,137,205375,1,8,0:0:0:0:
83,281,205562,1,4,0:0:0:0:
161,59,205750,5,2,0:0:0:0:
161,59,205843,2,0,L|171:191,1,132.00000402832,8|8,0:0|0:0,0:0:0:0:
170,190,206315,1,4,0:0:0:0:
209,365,206505,70,0,B|164:370|164:370|121:366,1,88.000002685547,2|4,0:0|0:0,0:0:0:0:
274,184,206875,2,0,B|319:179|319:179|361:184,1,88.000002685547,8|4,0:0|0:0,0:0:0:0:
162,289,207250,1,2,0:0:0:0:
383,267,207437,1,4,0:0:0:0:
181,198,207625,1,8,0:0:0:0:
309,359,207812,1,4,0:0:0:0:
262,153,208000,6,0,P|264:110|269:66,1,88.000002685547,6|0,0:1|0:0,0:0:0:0:
111,69,208375,1,2,0:0:0:0:
305,50,208562,1,2,0:0:0:0:
136,168,208750,1,8,0:0:0:0:
322,207,208937,1,8,0:0:0:0:
103,276,209125,2,0,P|98:319|95:363,1,88.000002685547,6|0,0:1|0:0,0:0:0:0:
324,370,209510,5,6,0:1:0:0:
136,168,209697,1,4,0:0:0:0:
187,384,209885,1,8,0:0:0:0:
259,137,210072,1,4,0:0:0:0:
103,276,210260,69,2,0:0:0:0:
283,156,210442,1,4,0:0:0:0:
33,221,210625,1,8,0:0:0:0:
269,296,210812,1,4,0:0:0:0:
98,141,211000,5,2,0:0:0:0:
173,342,211188,1,4,0:0:0:0:
205,75,211377,1,8,0:0:0:0:
173,342,211568,5,4,0:0:0:0:
383,157,211759,1,2,0:0:0:0:
383,157,211852,2,0,L|252:164,1,132.00000402832,8|8,0:0|0:0,0:0:0:0:
251,164,212320,1,4,0:0:0:0:
455,330,212510,69,2,0:0:0:0:
512,163,212697,1,4,0:0:0:0:
315,243,212885,2,0,L|402:238,1,88.000002685547,8|4,0:0|0:0,0:0:0:0:
202,316,213260,5,2,0:0:0:0:
251,164,213447,1,4,0:0:0:0:
93,294,213635,1,8,0:0:0:0:
307,374,213822,1,4,0:0:0:0:
169,123,214010,5,2,0:0:0:0:
139,380,214197,1,4,0:0:0:0:
47,148,214385,1,8,0:0:0:0:
139,380,214572,69,12,0:1:0:0:
302,234,214759,1,2,0:0:0:0:
302,234,214830,2,0,L|168:228,1,132.00000402832,8|8,0:0|0:0,0:0:0:0:
171,229,215311,1,4,0:0:0:0:
278,384,215500,5,6,0:1:0:0:
308,157,215685,1,4,0:0:0:0:
133,353,215870,1,8,0:0:0:0:
102,138,216057,1,4,0:0:0:0:
253,308,216245,5,2,0:0:0:0:
180,88,216432,1,4,0:0:0:0:
120,253,216620,1,8,0:0:0:0:
281,49,216812,1,4,0:0:0:0:
334,350,217005,69,2,0:0:0:0:
289,138,217189,1,4,0:0:0:0:
452,255,217373,1,8,0:0:0:0:
219,231,217561,1,4,0:0:0:0:
382,47,217750,5,2,0:0:0:0:
382,47,217841,2,0,L|388:178,1,132.00000402832,8|8,0:0|0:0,0:0:0:0:
388,178,218302,1,4,0:0:0:0:
424,360,218490,5,12,0:1:0:0:
180,271,218677,1,2,0:0:0:0:
333,125,218865,1,2,0:0:0:0:
91,337,219052,69,12,0:1:0:0:
335,248,219240,1,2,0:0:0:0:
191,103,219427,1,2,0:0:0:0:
239,341,219615,5,12,0:1:0:0:
265,184,219815,1,2,0:0:0:0:
393,325,220000,5,14,0:1:0:0:
325,109,220185,1,0,0:0:0:0:
207,256,220370,1,0,0:0:0:0:
405,151,220569,1,8,0:0:0:0:
320,350,220750,69,2,0:0:0:0:
252,153,220926,1,8,0:0:0:0:
512,241,221113,2,0,L|372:235,1,132.00000402832,10|0,0:0|0:0,0:0:0:0:
336,234,221510,5,12,0:1:0:0:
144,118,221703,1,2,0:0:0:0:
378,42,221897,1,2,0:0:0:0:
162,221,222075,5,12,0:1:0:0:
344,142,222254,1,2,0:0:0:0:
91,27,222434,1,2,0:0:0:0:
321,233,222620,70,0,P|404:215|442:139,1,176.000005371094,12|2,0:1|0:0,0:0:0:0:
226,196,223186,2,0,B|221:239|221:239|229:283,1,88.000002685547,8|0,0:0|0:0,0:0:0:0:
347,355,223563,1,2,0:0:0:0:
122,360,223752,2,0,L|124:272,1,88.000002685547,8|0,0:0|0:0,0:0:0:0:
66,116,224129,1,2,0:0:0:0:
30,277,224319,1,2,0:0:0:0:
152,170,224520,54,0,P|210:159|269:170,1,120.000004577637,12|0,0:1|0:0,0:0:0:0:
368,79,225093,2,0,P|309:90|250:79,1,120.000004577637,2|0,0:0|0:0,0:0:0:0:
446,40,225617,2,0,P|452:69|451:99,1,60.0000022888184,2|0,0:0|0:0,0:0:0:0:
358,169,226010,5,6,0:1:0:0:
487,184,226197,2,0,L|479:304,1,120.000004577637,8|8,0:0|0:0,0:0:0:0:
387,354,226760,6,0,L|385:314,2,40.000001525879,2|2|2,0:0|0:0|0:0,0:0:0:0:
291,246,227135,2,0,L|289:285,2,40.000001525879,2|2|2,0:0|0:0|0:0,0:0:0:0:
206,352,227510,53,6,0:1:0:0:
27,151,239480,6,0,P|66:156|106:153,1,80,6|4,0:1|0:0,0:0:0:0:
176,113,240052,1,2,0:0:0:0:
174,193,240240,2,0,L|173:232,1,40,12|0,0:0|0:0,0:0:0:0:
172,313,240615,1,6,0:0:0:0:
172,313,240990,5,4,0:0:0:0:
238,268,241177,2,0,L|285:270,1,40,8|6,0:0|0:0,0:0:0:0:
357,277,241552,1,0,0:0:0:0:
436,283,241740,2,0,P|441:243|442:203,1,80,12|4,0:0|0:0,0:0:0:0:
423,126,242302,1,2,0:0:0:0:
423,126,242490,6,0,L|342:129,1,80,6|4,0:0|0:0,0:0:0:0:
343,128,243052,1,2,0:0:0:0:
262,210,243240,2,0,L|182:207,1,80,12|4,0:0|0:0,0:0:0:0:
182,207,243990,53,4,0:0:0:0:
177,127,244177,1,8,0:0:0:0:
107,213,244365,2,0,L|110:252,1,40,6|2,0:0|0:0,0:0:0:0:
121,332,244740,1,12,0:0:0:0:
182,281,244930,1,2,0:0:0:0:
261,271,245120,1,2,0:0:0:0:
329,311,245310,1,2,0:0:0:0:
363,383,245500,5,12,0:1:0:0:
319,142,245687,1,2,0:0:0:0:
470,339,245875,1,2,0:0:0:0:
228,352,246062,5,12,0:1:0:0:
404,231,246250,1,2,0:0:0:0:
178,200,246437,1,2,0:0:0:0:
421,116,246625,5,12,0:1:0:0:
363,383,246812,1,2,0:0:0:0:
319,142,247000,1,2,0:0:0:0:
492,217,247177,53,12,0:1:0:0:
261,271,247359,1,2,0:0:0:0:
470,339,247542,1,2,0:0:0:0:
421,116,247725,5,12,0:0:0:0:
356,349,247912,2,0,L|352:322,3,26.6666666666667,2|2|2|2,0:0|0:0|0:0|0:0,0:0:0:0:
229,131,248309,1,2,0:0:0:0:
394,207,248495,5,12,0:1:0:0:
129,194,248682,1,2,0:0:0:0:
348,293,248870,1,2,0:0:0:0:
248,98,249057,5,12,0:1:0:0:
187,346,249240,1,2,0:0:0:0:
115,110,249423,1,2,0:0:0:0:
39,279,249614,53,12,0:1:0:0:
268,212,249798,1,2,0:0:0:0:
124,192,249982,5,14,0:1:0:0:
350,282,250166,1,0,0:0:0:0:
198,162,250350,1,8,0:0:0:0:
162,358,250531,1,8,0:0:0:0:
355,193,250713,5,8,0:0:0:0:
181,268,250900,1,8,0:0:0:0:
392,358,251105,1,12,0:0:0:0:
392,358,251480,6,0,P|466:339|487:266,1,160,6|14,0:1|0:0,0:0:0:0:
355,193,252052,1,0,0:0:0:0:
509,65,252240,2,0,P|507:105|504:144,1,80,2|2,0:0|0:0,0:0:0:0:
328,57,252615,1,12,0:0:0:0:
428,93,252802,1,0,0:0:0:0:
273,154,252990,54,0,B|268:195|268:195|274:233,1,80,2|2,0:0|0:0,0:0:0:0:
393,360,253365,1,12,0:0:0:0:
355,193,253552,1,2,0:0:0:0:
213,332,253740,2,0,L|292:330,1,80,4|2,0:0|0:0,0:0:0:0:
157,193,254115,1,12,0:0:0:0:
119,360,254302,1,0,0:0:0:0:
270,234,254490,6,0,B|263:74,1,160,2|12,0:0|0:0,0:0:0:0:
167,8,255052,1,0,0:0:0:0:
44,90,255240,2,0,P|44:129|50:169,1,80,2|2,0:0|0:0,0:0:0:0:
160,228,255615,1,12,0:0:0:0:
131,117,255802,1,0,0:0:0:0:
67,250,255990,6,0,L|62:329,1,80,2|2,0:0|0:0,0:0:0:0:
190,371,256354,1,12,0:0:0:0:
166,253,256547,1,2,0:0:0:0:
284,335,256741,2,0,P|323:338|363:338,1,80,4|2,0:0|0:0,0:0:0:0:
512,267,257105,2,0,P|478:220|421:229,1,120,12|0,0:0|0:0,0:0:0:0:
398,262,257480,5,6,0:1:0:0:
359,127,257667,1,0,0:0:0:0:
278,290,257855,1,8,0:0:0:0:
254,119,258042,1,0,0:0:0:0:
173,305,258230,2,0,P|171:344|175:384,1,80,2|2,0:0|0:0,0:0:0:0:
311,195,258605,1,12,0:0:0:0:
138,151,258792,53,6,0:0:0:0:
344,204,259167,1,6,0:0:0:0:
107,266,259542,1,6,0:0:0:0:
334,335,259917,6,0,L|453:330,1,120.000004577637,6|8,0:1|0:0,0:0:0:0:
512,260,260490,6,0,P|513:220|510:180,1,80,6|0,0:1|0:0,0:0:0:0:
474,63,260865,1,12,0:0:0:0:
347,223,261052,2,0,L|426:226,1,80,0|2,0:0|0:0,0:0:0:0:
270,126,261424,1,2,0:0:0:0:
289,310,261608,1,12,0:0:0:0:
362,135,261795,1,0,0:0:0:0:
231,241,261983,69,12,0:0:0:0:
424,238,262170,1,2,0:0:0:0:
199,171,262358,1,12,0:0:0:0:
429,263,262545,1,2,0:0:0:0:
202,335,262733,1,10,0:0:0:0:
357,382,262922,6,0,L|345:262,1,120.000004577637,6|2,0:1|0:0,0:0:0:0:
329,182,263490,6,0,P|387:227|446:181,1,160,6|12,0:1|0:0,0:0:0:0:
378,96,264042,1,0,0:0:0:0:
251,226,264226,2,0,P|212:227|172:224,1,80,6|2,0:0|0:0,0:0:0:0:
61,103,264604,2,0,P|100:100|140:101,1,80,12|0,0:0|0:0,0:0:0:0:
336,189,264991,6,0,P|337:228|335:268,1,80,6|2,0:0|0:0,0:0:0:0:
244,116,265355,2,0,P|242:76|244:36,1,80,12|2,0:0|0:0,0:0:0:0:
370,14,265730,2,0,L|462:16,1,80,4|2,0:0|0:0,0:0:0:0:
505,142,266108,2,0,L|425:140,1,80,12|0,0:0|0:0,0:0:0:0:
282,200,266500,54,0,P|266:276|308:342,1,160,6|12,0:0|0:0,0:0:0:0:
393,215,267062,1,0,0:0:0:0:
320,118,267250,2,0,P|280:117|240:119,1,80,6|2,0:0|0:0,0:0:0:0:
419,60,267618,2,0,P|458:60|498:58,1,80,12|0,0:0|0:0,0:0:0:0:
327,14,267995,5,12,0:1:0:0:
399,151,268189,1,2,0:0:0:0:
224,49,268384,1,2,0:0:0:0:
419,60,268561,5,8,0:0:0:0:
387,246,268747,1,2,0:0:0:0:
311,90,268933,1,2,0:0:0:0:
475,206,269120,6,0,B|480:248|480:248|476:285,1,80,12|0,0:1|0:0,0:0:0:0:
447,364,269492,1,6,0:1:0:0:
447,364,269873,53,10,0:0:0:0:
424,354,269969,1,8,0:0:0:0:
402,346,270065,1,8,0:0:0:0:
379,340,270161,1,8,0:0:0:0:
355,337,270257,1,10,0:0:0:0:
331,339,270346,1,8,0:0:0:0:
308,345,270436,1,8,0:0:0:0:
285,353,270526,1,8,0:0:0:0:
262,359,270616,1,10,0:0:0:0:
238,361,270710,1,8,0:0:0:0:
214,360,270805,1,8,0:0:0:0:
191,355,270899,1,8,0:0:0:0:
168,348,270994,6,0,L|163:308,3,40,10|8|8|8,0:0|0:0|0:0|0:0,0:0:0:0:
67,279,271373,2,0,L|91:247,3,40,10|8|8|8,0:0|0:0|0:0|0:0,0:0:0:0:
33,166,271755,2,0,L|72:161,3,40,10|8|8|8,0:0|0:0|0:0|0:0,0:0:0:0:
82,61,272120,2,0,L|113:85,3,40,10|8|8|8,0:0|0:0|0:0|0:0,0:0:0:0:
208,39,272485,5,10,0:0:0:0:
221,64,272578,1,8,0:0:0:0:
240,84,272672,1,8,0:0:0:0:
265,97,272766,1,8,0:0:0:0:
292,103,272860,1,10,0:0:0:0:
320,101,272953,1,8,0:0:0:0:
346,90,273047,1,8,0:0:0:0:
368,73,273141,1,8,0:0:0:0:
384,49,273235,2,0,P|382:30|380:10,7,40,10|8|8|8|10|8|8|8,0:0|0:0|0:0|0:0|0:0|0:0|0:0|0:0,0:0:0:0:
508,196,273985,5,10,0:0:0:0:
484,175,274078,1,8,0:0:0:0:
455,163,274172,1,8,0:0:0:0:
423,161,274266,1,8,0:0:0:0:
392,169,274360,1,10,0:0:0:0:
365,186,274453,1,8,0:0:0:0:
345,211,274547,1,8,0:0:0:0:
333,241,274636,1,8,0:0:0:0:
333,273,274725,53,10,0:0:0:0:
298,257,274818,1,8,0:0:0:0:
259,256,274912,1,8,0:0:0:0:
223,266,275006,1,8,0:0:0:0:
187,280,275100,1,10,0:0:0:0:
150,290,275193,1,8,0:0:0:0:
112,288,275287,1,8,0:0:0:0:
77,272,275381,1,8,0:0:0:0:
52,243,275480,5,6,0:0:0:0:
68,48,281480,6,0,B|82:227,1,180.000006866455,2|0,0:0|0:0,0:0:0:0:
55,301,283008,2,0,P|118:244|194:281,1,180.000006866455,2|0,0:0|0:0,0:0:0:0:
248,337,284512,2,0,B|315:329|315:329|357:339|357:339|426:332,1,180.000006866455,2|2,0:0|0:0,0:0:0:0:
491,285,286017,2,0,P|498:195|473:109,1,180.000006866455,2|0,0:0|0:0,0:0:0:0:
473,109,287510,6,0,L|393:112,1,80,2|0,0:0|0:0,0:0:0:0:
318,122,288072,1,0,0:0:0:0:
241,130,288260,2,0,P|220:125|198:118,1,40
155,31,288635,1,0,0:0:0:0:
251,52,288822,1,0,0:0:0:0:
126,121,289010,54,0,L|130:207,1,80,2|0,0:0|0:0,0:0:0:0:
138,280,289572,1,0,0:0:0:0:
138,280,289760,2,0,P|176:269|216:273,1,80,2|0,0:0|0:0,0:0:0:0:
275,327,290322,1,0,0:0:0:0:
275,327,290510,6,0,B|354:325,1,80,2|0,0:0|0:0,0:0:0:0:
435,322,291072,1,0,0:0:0:0:
430,241,291260,2,0,L|428:196,1,40
340,206,291635,2,0,L|341:245,1,40
273,291,292010,6,0,L|232:288,1,40,2|0,0:0|0:0,0:0:0:0:
140,225,292385,2,0,L|179:223,1,40
276,165,292760,2,0,L|235:162,1,40,2|0,0:0|0:0,0:0:0:0:
142,106,293135,2,0,L|181:104,1,40
136,200,293510,5,2,0:0:0:0:
136,200,293697,1,0,0:0:0:0:
40,136,293885,1,0,0:0:0:0:
40,136,294072,1,0,0:0:0:0:
112,24,294260,1,2,0:0:0:0:
112,24,294447,1,0,0:0:0:0:
208,88,294635,1,0,0:0:0:0:
208,88,294822,1,0,0:0:0:0:
303,30,295010,53,2,0:0:0:0:
303,30,295197,1,0,0:0:0:0:
338,148,295385,1,0,0:0:0:0:
338,148,295572,1,0,0:0:0:0:
422,56,295760,1,2,0:0:0:0:
422,56,295947,1,0,0:0:0:0:
457,174,296135,2,0,P|460:193|465:212,1,40
496,338,296500,6,0,L|436:335,1,60.0000022888184,6|0,0:1|0:0,0:0:0:0:
390,271,296875,2,0,L|330:273,1,60.0000022888184,2|0,0:0|0:0,0:0:0:0:
267,363,297236,2,0,L|207:360,1,60.0000022888184,2|0,0:0|0:0,0:0:0:0:
169,254,297597,2,0,L|109:256,1,60.0000022888184,2|0,0:0|0:0,0:0:0:0:
69,373,297972,5,8,0:0:0:0:
35,153,298159,1,8,0:0:0:0:
201,253,298347,1,8,0:0:0:0:
0,302,298534,1,8,0:0:0:0:
139,123,298722,5,8,0:0:0:0:
174,357,298909,1,8,0:0:0:0:
265,155,299097,1,8,0:0:0:0:
387,355,299284,54,0,P|426:356|466:357,1,80,12|0,0:0|0:0,0:0:0:0:
466,357,300635,2,0,P|426:356|386:354,1,80,14|2,0:0|0:0,0:0:0:0:
265,155,301000,1,12,0:1:0:0:
287,379,301175,1,2,0:0:0:0:
409,217,301350,1,2,0:0:0:0:
158,195,301538,6,0,L|169:354,1,160,12|8,0:1|0:0,0:0:0:0:
50,155,302115,1,8,0:0:0:0:
81,178,302204,1,8,0:0:0:0:
120,183,302294,1,8,0:0:0:0:
156,166,302384,1,8,0:0:0:0:
178,133,302475,37,6,0:1:0:0:
53,25,302664,1,4,0:0:0:0:
258,89,302854,1,8,0:0:0:0:
97,220,303047,1,4,0:0:0:0:
191,30,303240,5,2,0:0:0:0:
246,243,303427,1,4,0:0:0:0:
342,25,303620,1,8,0:0:0:0:
106,106,303800,1,4,0:0:0:0:
380,176,303990,5,2,0:0:0:0:
141,246,304177,1,4,0:0:0:0:
370,353,304365,1,8,0:0:0:0:
141,246,304552,69,4,0:1:0:0:
285,125,304740,1,2,0:0:0:0:
285,125,304833,2,0,L|294:256,1,132.00000402832,8|8,0:0|0:0,0:0:0:0:
185,136,305295,1,8,0:0:0:0:
187,105,305390,1,8,0:0:0:0:
190,74,305485,5,6,0:1:0:0:
380,176,305676,1,4,0:0:0:0:
176,287,305867,1,8,0:0:0:0:
384,253,306058,1,4,0:0:0:0:
87,158,306249,5,2,0:0:0:0:
293,347,306436,1,4,0:0:0:0:
48,270,306624,1,8,0:0:0:0:
278,206,306811,1,4,0:0:0:0:
167,349,306999,69,2,0:0:0:0:
230,126,307183,1,4,0:0:0:0:
40,306,307367,1,8,0:0:0:0:
21,71,307560,1,4,0:0:0:0:
192,230,307754,5,2,0:0:0:0:
192,230,307844,2,0,L|323:221,1,132.00000402832,8|8,0:0|0:0,0:0:0:0:
323,221,308299,1,4,0:0:0:0:
178,339,308485,6,0,P|135:342|91:342,1,88.000002685547,6|0,0:1|0:0,0:0:0:0:
0,208,308867,2,0,P|43:204|87:204,1,88.000002685547,8|4,0:0|0:0,0:0:0:0:
214,183,309249,2,0,L|209:90,1,88.000002685547,2|4,0:0|0:0,0:0:0:0:
391,183,309631,2,0,L|386:270,1,88.000002685547,8|4,0:0|0:0,0:0:0:0:
281,352,309996,69,6,0:1:0:0:
494,371,310183,1,0,0:0:0:0:
293,252,310371,1,2,0:0:0:0:
496,205,310558,1,8,0:0:0:0:
305,93,310746,1,10,0:0:0:0:
390,307,310930,1,8,0:0:0:0:
214,183,311114,6,0,L|203:314,1,132.00000402832,6|0,0:1|0:0,0:0:0:0:
194,356,311495,38,0,P|137:318|74:346,1,143.999995605469,6|4,0:1|0:0,0:0:0:0:
15,272,312057,1,2,0:0:0:0:
15,272,312245,2,0,L|18:200,1,71.9999978027344,8|0,0:0|0:0,0:0:0:0:
119,130,312620,2,0,L|122:201,1,71.9999978027344,4|0,0:0|0:0,0:0:0:0:
182,281,312995,5,2,0:0:0:0:
293,319,313182,2,0,L|373:320,1,71.9999978027344,8|4,0:0|0:0,0:0:0:0:
194,364,313557,1,2,0:0:0:0:
272,235,313745,2,0,P|283:201|290:165,1,71.9999978027344,8|0,0:0|0:0,0:0:0:0:
157,141,314120,2,0,L|161:213,1,71.9999978027344,4|2,0:0|0:0,0:0:0:0:
280,338,314495,6,0,L|423:339,1,143.999995605469,6|4,0:1|0:0,0:0:0:0:
508,295,315057,1,2,0:0:0:0:
508,295,315245,2,0,P|513:226|465:175,1,143.999995605469,8|0,0:0|0:0,0:0:0:0:
341,153,315825,1,0,0:0:0:0:
252,288,316005,54,0,L|169:292,1,80,2|8,0:0|0:0,0:0:0:0:
144,280,316281,1,8,0:0:0:0:
129,253,316373,1,8,0:0:0:0:
119,225,316465,1,8,0:0:0:0:
119,195,316557,1,8,0:0:0:0:
128,167,316649,1,8,0:0:0:0:
140,139,316741,5,8,0:0:0:0:
145,110,316832,1,8,0:0:0:0:
141,80,316923,1,8,0:0:0:0:
136,56,317015,1,8,0:0:0:0:
128,32,317106,1,8,0:0:0:0:
100,22,317198,1,8,0:0:0:0:
70,27,317289,1,8,0:0:0:0:
48,47,317381,1,8,0:0:0:0:
39,76,317485,6,0,L|41:195,1,120.000004577637,6|0,0:1|0:0,0:0:0:0:
136,323,318051,1,8,0:0:0:0:
136,323,318145,1,8,0:0:0:0:
136,323,318239,2,0,L|133:203,1,120.000004577637,6|0,0:1|0:0,0:0:0:0:
223,80,318805,1,8,0:0:0:0:
223,80,318900,1,8,0:0:0:0:
223,80,318994,6,0,L|225:199,1,120.000004577637,6|0,0:1|0:0,0:0:0:0:
329,324,319530,1,8,0:0:0:0:
329,324,319632,1,8,0:0:0:0:
329,324,319735,2,0,L|326:204,1,120.000004577637,6|0,0:1|0:0,0:0:0:0:
327,205,320495,53,12,0:1:0:0:
493,178,320682,1,2,0:0:0:0:
383,136,320870,1,2,0:0:0:0:
415,242,321057,5,12,0:1:0:0:
432,59,321245,1,2,0:0:0:0:
283,137,321420,1,2,0:0:0:0:
498,197,321595,6,0,B|505:238|505:238|501:276,1,80,12|0,0:1|0:0,0:0:0:0:
420,343,321980,5,2,0:0:0:0:
396,311,322077,1,0,0:0:0:0:
359,298,322173,1,0,0:0:0:0:
321,309,322270,1,0,0:0:0:0:
295,339,322366,2,0,P|256:343|216:342,1,80,2|12,0:0|0:0,0:0:0:0:
146,267,322738,2,0,P|151:247|156:228,1,40,2|0,0:0|0:0,0:0:0:0:
310,220,322925,2,0,P|304:200|299:181,1,40,12|0,0:0|0:0,0:0:0:0:
167,107,323111,2,0,L|87:111,1,80,2|0,0:0|0:0,0:0:0:0:
341,31,323484,6,0,P|388:92|374:168,1,160,6|8,0:1|0:0,0:0:0:0:
229,234,324053,1,4,0:0:0:0:
381,265,324248,2,0,L|460:263,1,80,2|4,0:0|0:0,0:0:0:0:
288,167,324620,1,8,0:0:0:0:
317,354,324808,1,4,0:0:0:0:
132,230,324997,6,0,P|136:269|141:309,1,80,2|4,0:0|0:0,0:0:0:0:
22,220,325374,2,0,P|27:180|31:140,1,80,8|4,0:0|0:0,0:0:0:0:
156,78,325751,1,2,0:0:0:0:
156,78,325846,2,0,P|211:99|270:91,1,120,8|8,0:0|0:0,0:0:0:0:
360,24,326317,1,4,0:0:0:0:
488,96,326506,6,0,P|491:135|495:175,1,80,2|4,0:0|0:0,0:0:0:0:
365,268,326874,2,0,P|369:228|372:188,1,80,8|4,0:0|0:0,0:0:0:0:
275,106,327255,2,0,B|234:101|234:101|195:104,1,80,2|4,0:0|0:0,0:0:0:0:
92,228,327616,2,0,B|133:233|133:233|171:229,1,80,8|4,0:0|0:0,0:0:0:0:
324,264,328000,70,0,P|331:303|329:347,1,80,2|4,0:0|0:0,0:0:0:0:
260,192,328375,1,8,0:0:0:0:
404,200,328562,1,6,0:1:0:0:
216,113,328750,1,2,0:0:0:0:
216,113,328843,2,8,L|96:118,1,120
260,192,329315,1,4,0:0:0:0:
26,246,329505,38,0,L|85:243,1,60.0000022888184,2|0,0:0|0:0,0:0:0:0:
122,332,329885,2,0,L|181:335,1,60.0000022888184,2|0,0:0|0:0,0:0:0:0:
264,234,330255,2,0,L|323:231,1,60.0000022888184,2|0,0:0|0:0,0:0:0:0:
360,344,330626,2,0,L|419:347,1,60.0000022888184,2|0,0:0|0:0,0:0:0:0:
493,215,331001,6,0,P|495:185|494:155,1,60.0000022888184,2|0,0:0|0:0,0:0:0:0:
381,77,331376,2,0,P|380:106|382:136,1,60.0000022888184,2|0,0:0|0:0,0:0:0:0:
277,217,331751,2,0,P|279:187|278:157,1,60.0000022888184,2|0,0:0|0:0,0:0:0:0:
217,36,332126,1,2,0:0:0:0:
172,200,332341,1,8,0:0:0:0:
172,200,332425,1,8,0:0:0:0:
172,200,332510,38,0,L|179:279,1,80,6|0,0:1|0:0,0:0:0:0:
322,339,332885,6,0,L|369:345,3,40,10|8|8|8,0:0|0:0|0:0|0:0,0:0:0:0:
397,270,333260,2,0,L|456:268,3,40,10|8|8|8,0:0|0:0|0:0|0:0,0:0:0:0:
440,182,333635,2,0,L|487:179,3,40,10|8|8|8,0:0|0:0|0:0|0:0,0:0:0:0:
331,157,334005,6,0,L|327:117,3,40,10|8|8|8,0:0|0:0|0:0|0:0,0:0:0:0:
234,69,334380,2,0,L|230:108,3,40,10|8|8|8,0:0|0:0|0:0|0:0,0:0:0:0:
138,157,334755,2,0,L|134:117,3,40,8|8|8|8,0:0|0:0|0:0|0:0,0:0:0:0:
42,70,335130,2,0,L|38:109,3,40,10|8|8|8,0:0|0:0|0:0|0:0,0:0:0:0:
64,204,335505,69,10,0:0:0:0:
91,220,335596,1,8,0:0:0:0:
121,231,335687,1,8,0:0:0:0:
153,230,335779,1,8,0:0:0:0:
182,218,335870,1,10,0:0:0:0:
209,201,335962,1,8,0:0:0:0:
238,187,336053,1,8,0:0:0:0:
269,183,336145,1,8,0:0:0:0:
300,188,336236,1,10,0:0:0:0:
329,199,336328,1,8,0:0:0:0:
348,224,336419,1,8,0:0:0:0:
348,260,336511,1,8,0:0:0:0:
344,292,336602,6,0,P|340:312|324:336,3,40,10|8|8|8,0:0|0:0|0:0|0:0,0:0:0:0:
252,348,336974,2,0,P|232:344|208:328,3,40,10|8|8|8,0:0|0:0|0:0|0:0,0:0:0:0:
185,247,337344,2,0,P|189:227|205:203,3,40,10|8|8|8,0:0|0:0|0:0|0:0,0:0:0:0:
302,208,337735,53,2,0:0:0:0:
302,208,337924,2,0,L|299:128,1,80,2|2,0:0|0:0,0:0:0:0:
184,35,338494,54,0,L|181:115,1,80,6|0,0:1|0:0,0:0:0:0:
57,208,338873,1,8,0:0:0:0:
71,93,339063,1,4,0:0:0:0:
217,198,339253,2,0,P|226:236|229:276,1,80,2|4,0:0|0:0,0:0:0:0:
124,368,339623,2,0,L|130:288,1,80,8|4,0:0|0:0,0:0:0:0:
318,150,340010,69,2,0:0:0:0:
130,192,340195,1,4,0:0:0:0:
192,0,340380,2,0,L|198:79,1,80,8|4,0:0|0:0,0:0:0:0:
308,270,340755,1,2,0:0:0:0:
218,162,340942,1,4,0:0:0:0:
396,205,341130,1,8,0:0:0:0:
216,327,341323,1,4,0:0:0:0:
431,362,341517,6,0,B|510:357,1,80,2|4,0:0|0:0,0:0:0:0:
297,179,341878,1,10,0:0:0:0:
334,353,342067,1,4,0:0:0:0:
500,267,342257,2,0,P|509:229|512:189,1,80,2|4,0:0|0:0,0:0:0:0:
382,43,342622,2,0,L|388:122,1,80,8|4,0:0|0:0,0:0:0:0:
383,284,343005,5,2,0:0:0:0:
179,226,343189,1,4,0:0:0:0:
389,123,343373,1,8,0:0:0:0:
190,42,343557,69,12,0:1:0:0:
295,209,343741,1,0,0:0:0:0:
295,209,343833,2,0,L|291:299,1,80,8|0,0:0|0:0,0:0:0:0:
212,149,344109,2,0,P|153:149|107:186,1,120,8|0,0:0|0:0,0:0:0:0:
104,225,344500,5,12,0:1:0:0:
147,31,344687,1,2,0:0:0:0:
201,273,344875,1,2,0:0:0:0:
39,107,345062,5,12,0:1:0:0:
258,157,345250,1,2,0:0:0:0:
0,232,345437,1,2,0:0:0:0:
230,58,345625,69,12,0:1:0:0:
143,343,345812,1,2,0:0:0:0:
124,124,346000,1,2,0:0:0:0:
264,302,346187,5,12,0:1:0:0:
0,232,346375,1,2,0:0:0:0:
183,196,346560,1,2,0:0:0:0:
72,374,346745,5,12,0:0:0:0:
282,204,346923,1,2,0:0:0:0:
72,374,347130,2,0,P|85:337|93:298,1,80,12|0,0:1|0:0,0:0:0:0:
178,82,347485,70,0,L|182:161,1,80,2|2,0:0|0:0,0:0:0:0:
247,355,347857,1,12,0:0:0:0:
153,241,348044,1,0,0:0:0:0:
322,289,348230,2,0,P|361:291|401:292,1,80,8|2,0:0|0:0,0:0:0:0:
417,292,348509,1,0,0:0:0:0:
433,292,348603,1,2,0:0:0:0:
367,115,348789,1,2,0:0:0:0:
230,263,348975,5,12,0:0:0:0:
136,148,349162,1,2,0:0:0:0:
138,294,349348,1,2,0:0:0:0:
246,167,349534,5,12,0:0:0:0:
60,220,349721,1,2,0:0:0:0:
209,349,349907,1,2,0:0:0:0:
136,147,350093,70,0,L|142:68,1,80,12|0,0:0|0:0,0:0:0:0:
226,39,350490,37,6,0:1:0:0:
226,39,350679,2,0,P|285:49|344:46,1,120.000004577637,2|2,0:0|0:0,0:0:0:0:
421,103,351265,2,0,P|416:132|412:162,1,60.0000022888184,8|0,0:0|0:0,0:0:0:0:
337,201,351659,2,0,P|341:230|345:260,1,60.0000022888184,4|2,0:0|0:0,0:0:0:0:
301,323,352055,5,2,0:0:0:0:
380,350,352277,2,0,L|446:354,2,60.0000022888184,8|2|8,0:0|0:0|0:0,0:0:0:0:
301,323,352936,1,8,0:0:0:0:
233,260,353161,1,2,0:0:0:0:
224,176,353390,1,2,0:0:0:0:
276,109,353644,1,0,0:0:0:0:
354,78,353855,6,0,L|473:92,1,120.000004577637,2|0,0:0|0:0,0:0:0:0:
297,35,354855,22,0,B|401:-76|593:15|569:277|399:262|293:383|293:383|158:296|-1:358|-95:112|61:-29|179:41,1,1280,6|2,0:1|0:0,0:0:0:0:
