osu file format v14

[General]
AudioFilename: 12 Sayonara Memories.mp3
AudioLeadIn: 1500
PreviewTime: 101343
Countdown: 1
SampleSet: Soft
StackLeniency: 0.7
Mode: 0
LetterboxInBreaks: 1
WidescreenStoryboard: 1

[Editor]
DistanceSpacing: 0.5
BeatDivisor: 4
GridSize: 8
TimelineZoom: 2.5

[Metadata]
Title:Sayonara Memories
TitleUnicode:Sayonara Memories
Artist:supercell
ArtistUnicode:supercell
Creator:Xivaxi
Version:Sayonara
Source:
Tags:yanaginagi やなぎなぎ ryo
BeatmapID:327490
BeatmapSetID:127853

[Difficulty]
HPDrainRate:7
CircleSize:4
OverallDifficulty:8
ApproachRate:9
SliderMultiplier:1.4
SliderTickRate:1

[Events]
//Background and Video events
0,0,"18363616.jpg",0,0
//Break Periods
//Storyboard Layer 0 (Background)
//Storyboard Layer 1 (Fail)
//Storyboard Layer 2 (Pass)
//Storyboard Layer 3 (Foreground)
//Storyboard Sound Samples

[TimingPoints]
551,750,4,2,1,30,1,0
7301,789.473684210526,4,2,1,30,1,0
9669,882.352941176471,4,2,1,30,1,0
10992,1052.63157894737,4,2,1,30,1,0
11518,2000,4,2,1,30,1,0
14018,810.810810810811,4,2,1,30,1,0
17343,375,4,2,1,30,1,0
22780,-100,4,2,1,75,0,0
23530,-100,4,2,1,50,0,0
33702,-100,4,2,1,30,0,0
34593,-100,4,2,1,50,0,0
44718,-100,4,2,1,40,0,0
45093,-100,4,2,1,60,0,0
45468,-100,4,2,1,80,0,0
48093,-100,4,2,1,30,0,0
57843,-100,4,2,1,50,0,0
75843,-100,4,2,1,20,0,0
76218,-100,4,2,1,40,0,0
76593,-100,4,2,1,60,0,0
76968,-100,4,2,1,80,0,0
77061,-100,4,2,1,50,0,0
87843,-100,4,2,1,20,0,0
88218,-100,4,2,1,40,0,0
88593,-100,4,2,1,60,0,0
89155,-100,4,2,1,50,0,0
100593,-100,4,2,1,30,0,0
101343,-100,4,2,1,60,0,1
111843,-100,4,2,1,40,0,1
112218,-100,4,2,1,60,0,1
112593,-100,4,2,1,80,0,1
112968,-100,4,2,1,100,0,1
113061,-100,4,2,1,60,0,1
113343,-100,4,2,1,80,0,1
113530,-100,4,2,1,60,0,1
122343,-100,4,2,1,70,0,1
123561,-100,4,2,1,40,0,1
124218,-100,4,2,1,60,0,1
124593,-100,4,2,1,80,0,1
125061,-100,4,2,1,30,0,0
129843,-100,4,2,1,10,0,0
130030,-100,4,2,1,20,0,0
130218,-100,4,2,1,30,0,0
130405,-100,4,2,1,40,0,0
130593,-100,4,2,1,30,0,0
130968,-100,4,2,1,40,0,0
131343,-100,4,2,1,50,0,0
140343,-100,4,2,1,30,0,0
140718,-100,4,2,1,40,0,0
141093,-100,4,2,1,50,0,0
141468,-100,4,2,1,60,0,0
141843,-100,4,2,1,80,0,0
144093,-100,4,2,1,50,0,0
152343,-100,4,2,1,30,0,0
153468,-100,4,2,1,40,0,0
153843,-100,4,2,1,50,0,0
167155,-100,4,2,1,40,0,0
167343,-100,4,2,1,50,0,0
171843,-100,4,2,1,20,0,0
172218,-100,4,2,1,40,0,0
172593,-100,4,2,1,60,0,0
172968,-100,4,2,1,80,0,0
173061,-100,4,2,1,50,0,0
183843,-100,4,2,1,20,0,0
184218,-100,4,2,1,40,0,0
184593,-100,4,2,1,60,0,0
184968,-100,4,2,1,80,0,0
185155,-100,4,2,1,50,0,0
195843,-100,4,2,1,10,0,0
196030,-100,4,2,1,20,0,0
196218,-100,4,2,1,30,0,0
196405,-100,4,2,1,40,0,0
196593,-100,4,2,1,50,0,0
197343,-100,4,2,1,60,0,1
207843,-100,4,2,1,40,0,1
208218,-100,4,2,1,60,0,1
208593,-100,4,2,1,80,0,1
208968,-100,4,2,1,100,0,1
209061,-100,4,2,1,60,0,1
209343,-100,4,2,1,80,0,1
209530,-100,4,2,1,60,0,1
218343,-100,4,2,1,80,0,1
219843,-100,4,2,1,40,0,1
220218,-100,4,2,1,60,0,1
220593,-100,4,2,1,80,0,1
220968,-100,4,2,1,100,0,1
221061,-100,4,2,1,60,0,1
221343,-100,4,2,1,80,0,1
221530,-100,4,2,1,70,0,1
222093,-100,4,2,1,60,0,1
226405,-100,4,2,1,40,0,1
227343,-200,4,2,1,30,0,0
239343,-200,4,2,1,50,0,0
245343,-100,4,2,1,60,0,0
247780,-100,4,2,1,40,0,0
248343,-100,4,2,1,70,0,0
249843,-100,4,2,1,40,0,0
250218,-100,4,2,1,60,0,0
250593,-100,4,2,1,80,0,0
250968,-100,4,2,1,100,0,0
251343,-100,4,2,1,60,0,1
269530,-100,4,2,1,20,0,1
270280,-100,4,2,1,21,0,1
270843,-100,4,2,1,22,0,1
271218,-100,4,2,1,23,0,1
271593,-100,4,2,1,25,0,1
271968,-100,4,2,1,28,0,1
272343,-100,4,2,1,30,0,1
272718,-100,4,2,1,33,0,1
273093,-100,4,2,1,35,0,1
273468,-100,4,2,1,38,0,1
273843,-100,4,2,1,40,0,1
274030,-100,4,2,1,45,0,1
274218,-100,4,2,1,50,0,1
274405,-100,4,2,1,55,0,1
274593,-100,4,2,1,60,0,1
274780,-100,4,2,1,65,0,1
274968,-100,4,2,1,70,0,1
275155,-100,4,2,1,75,0,1
275343,-200,4,2,1,20,0,0
287343,-100,4,2,1,40,0,0
296718,-100,4,2,1,20,0,0
297093,-100,4,2,1,30,0,0
297468,-100,4,2,1,40,0,0
297843,-100,4,2,1,50,0,0
298218,-100,4,2,1,60,0,0
298593,-100,4,2,1,70,0,0
298968,-100,4,2,1,80,0,0
299155,-100,4,2,1,80,0,0
300093,-100,4,2,1,20,0,0
300280,-100,4,2,1,40,0,0
300468,-100,4,2,1,60,0,0
302343,-100,4,2,1,60,0,1
309843,-100,4,2,1,40,0,1
310218,-100,4,2,1,60,0,1
310593,-100,4,2,1,80,0,1
310968,-100,4,2,1,100,0,1
311343,-100,4,2,1,80,0,0
311718,-100,4,2,1,60,0,0
316030,-100,4,2,1,40,0,0
316405,-100,4,2,1,60,0,0
316780,-100,4,2,1,80,0,0
317155,-100,4,2,1,100,0,0
317718,-100,4,2,1,20,0,0
317905,-100,4,2,1,60,0,0
318093,-100,4,2,1,80,0,0
318468,-100,4,2,1,20,0,0
318655,-100,4,2,1,60,0,0
318843,-100,4,2,1,80,0,0
319218,-100,4,2,1,20,0,0
319405,-100,4,2,1,60,0,0
319593,-100,4,2,1,80,0,0
319968,-100,4,2,1,20,0,0
320155,-100,4,2,1,60,0,0
320343,-100,4,2,1,80,0,0
329343,-100,4,2,1,40,0,0
332155,-100,4,2,1,60,0,0
335718,-100,4,2,1,30,0,0
336093,-100,4,2,1,40,0,0
336468,-100,4,2,1,50,0,0
336843,-100,4,2,1,60,0,0
337030,-100,4,2,1,70,0,0
337218,-100,4,2,1,80,0,0
337405,-100,4,2,1,90,0,0
337593,-100,4,2,1,40,0,0
338343,-100,4,2,1,100,0,1
340968,-100,4,2,1,60,0,1
351843,480,4,2,1,60,1,0
354243,-100,4,2,1,20,0,0

[Colours]
Combo1 : 128,255,255
Combo2 : 255,128,128
Combo3 : 255,255,128

[HitObjects]
87,120,551,6,0,P|140:76|209:69,2,140
424,120,2801,1,0,0:0:0:0:
209,69,3551,6,0,P|141:76|88:120,1,140
88,264,4676,1,0,0:0:0:0:
112,288,4863,1,0,0:0:0:0:
143,304,5051,2,0,P|171:318|210:317,1,70
490,321,5801,5,0,0:0:0:0:
341,220,6176,1,0,0:0:0:0:
302,314,6551,2,0,P|378:317|433:264,1,140
472,144,7695,1,0,0:0:0:0:
276,60,8090,2,0,P|304:93|348:108,1,70
401,255,8879,2,0,P|371:231|337:218,1,70
114,220,9669,6,0,P|210:204|250:164,1,140
306,35,10992,1,0,0:0:0:0:
241,62,11255,1,0,0:0:0:0:
198,118,11518,2,0,P|267:153|336:138,1,140
150,306,14018,6,0,P|224:291|264:238,1,140
311,73,15234,1,0,0:0:0:0:
64,176,15639,2,0,P|137:191|195:157,1,140
309,82,16855,5,0,0:0:0:0:
256,192,17343,12,0,20343,0:0:0:0:
256,192,20436,12,0,22593,0:0:0:0:
168,112,22780,5,8,0:0:0:0:
256,72,22968,1,0,1:0:0:0:
344,112,23155,1,8,0:0:0:0:
256,272,23343,5,12,0:1:0:0:
144,232,23530,1,0,0:0:0:0:
256,160,23718,1,0,3:0:0:0:
368,232,23905,2,0,P|416:200|432:120,1,140
256,168,24468,1,0,3:0:0:0:
144,232,24655,2,0,P|96:264|80:344,1,140
256,176,25218,1,0,3:0:0:0:
320,64,25405,2,0,P|256:40|192:64,1,140
256,184,25968,1,0,3:0:0:0:
256,336,26155,5,2,0:0:0:0:
273,332,26249,1,0,0:0:0:0:
289,327,26343,2,0,P|329:303|345:279,1,70,0|0,0:0|0:0,0:0:0:0:
448,312,26718,1,0,3:0:0:0:
256,232,26905,2,0,P|192:240|128:288,1,140
80,160,27468,1,0,3:0:0:0:
256,240,27655,6,0,P|320:232|384:184,1,140,0|8,1:0|0:0,0:0:0:0:
168,80,28218,1,0,3:0:0:0:
344,80,28405,1,0,1:0:0:0:
256,328,28780,1,8,0:3:0:0:
256,136,28968,1,8,0:3:0:0:
88,184,29155,5,0,0:0:0:0:
76,197,29249,1,0,0:0:0:0:
65,211,29343,2,0,L|111:278,1,70,12|0,0:1|0:0,0:0:0:0:
272,236,29718,2,0,L|210:205,1,70,8|0,0:0|0:0,0:0:0:0:
207,327,30093,2,0,L|250:389,1,70,8|0,0:0|0:0,0:0:0:0:
415,323,30468,2,0,L|346:316,1,70,8|0,0:0|0:0,0:0:0:0:
408,31,30843,6,0,L|472:3,1,70,8|0,0:0|0:0,0:0:0:0:
468,153,31218,2,0,L|435:223,1,70,8|0,0:0|0:0,0:0:0:0:
268,157,31593,2,0,L|332:127,1,70,8|0,0:0|0:0,0:0:0:0:
346,275,31968,2,0,L|294:341,1,70,8|2,0:0|0:0,0:0:0:0:
271,346,32249,1,0,0:0:0:0:
241,326,32343,6,0,L|186:282,1,70,8|0,0:0|0:0,0:0:0:0:
12,287,32718,2,0,L|78:311,1,70,8|0,0:0|0:0,0:0:0:0:
125,154,33093,2,0,L|82:98,1,70,8|0,0:0|0:0,0:0:0:0:
0,192,33468,1,8,0:0:0:0:
256,192,33655,6,0,L|256:216,19,17.5,0|0|0|0|0|0|0|0|0|0|0|0|0|0|0|0|0|0|0|0,1:0|0:0|0:0|0:0|0:0|0:0|0:0|0:0|0:0|0:0|0:0|0:0|0:0|0:0|0:0|0:0|0:0|0:0|0:0|0:0,0:0:0:0:
256,160,34593,5,0,1:0:0:0:
512,192,34781,1,0,1:0:0:0:
40,200,35343,6,0,P|39:262|101:313,1,140,4|8,1:0|1:0,0:0:0:0:
256,192,35905,1,2,0:0:0:0:
472,184,36093,2,0,P|472:121|410:70,1,140,8|8,0:0|1:0,0:0:0:0:
256,200,36655,1,2,0:0:0:0:
186,277,36843,1,8,0:0:0:0:
356,230,37030,1,2,0:0:0:0:
457,69,37218,6,0,P|424:51|369:72,1,70,8|2,1:0|0:0,0:0:0:0:
376,61,37499,1,0,0:0:0:0:
360,69,37593,1,8,0:0:0:0:
413,157,37780,1,2,0:0:0:0:
232,186,37968,1,8,1:0:0:0:
336,337,38155,1,2,0:0:0:0:
161,110,38343,6,0,P|234:104|288:51,1,140,8|8,0:0|1:0,0:0:0:0:
257,280,38905,1,2,0:0:0:0:
64,65,39093,2,0,P|119:23|197:33,1,140,8|8,0:0|1:0,0:0:0:0:
256,192,39655,1,2,0:0:0:0:
168,328,39843,1,8,0:0:0:0:
342,326,40030,1,2,0:0:0:0:
406,97,40218,6,0,P|370:90|334:97,1,70,0|2,1:0|1:2,0:0:0:0:
92,253,40593,1,8,1:0:0:0:
66,264,40686,1,0,1:0:0:0:
39,274,40780,2,0,P|71:332|100:351,1,70,8|8,3:2|0:0,0:0:0:0:
88,50,41155,5,0,0:0:0:0:
113,61,41249,1,0,0:0:0:0:
140,67,41343,2,0,P|171:53|198:30,1,70,4|8,1:0|0:0,0:0:0:0:
256,292,41718,1,8,0:0:0:0:
374,114,41905,2,0,P|340:104|315:80,1,70,0|8,1:0|0:0,0:0:0:0:
256,300,42280,1,8,0:0:0:0:
84,176,42468,2,0,P|117:166|142:142,1,70,4|8,1:0|0:0,0:0:0:0:
256,308,42843,1,8,0:0:0:0:
416,198,43030,2,0,P|381:197|351:182,1,70,0|8,1:0|0:0,0:0:0:0:
256,316,43405,1,8,0:0:0:0:
27,283,43593,2,0,P|62:281|93:266,1,70,0|0,1:0|0:0,0:0:0:0:
447,297,43968,5,4,1:0:0:0:
422,283,44061,1,0,0:0:0:0:
394,277,44155,1,4,3:0:0:0:
366,279,44249,1,0,3:0:0:0:
339,287,44343,2,0,P|305:295|266:292,1,70,4|0,3:0|0:0,0:0:0:0:
40,224,44718,5,8,1:0:0:0:
104,192,44905,1,0,1:0:0:0:
472,224,45093,5,8,1:0:0:0:
408,192,45280,1,0,1:0:0:0:
256,328,45468,5,8,1:0:0:0:
256,256,45655,1,0,1:0:0:0:
128,80,45843,6,0,P|256:32|384:80,1,280,4|8,1:0|0:0,0:0:0:0:
357,86,46686,1,0,0:0:0:0:
331,97,46780,1,8,0:0:0:0:
308,113,46874,1,0,0:0:0:0:
288,133,46968,1,4,1:0:0:0:
273,156,47061,1,0,0:0:0:0:
263,182,47155,1,0,0:0:0:0:
257,209,47249,1,0,0:0:0:0:
257,237,47343,1,4,0:1:0:0:
29,153,48093,6,0,P|104:143|157:94,2,140,8|8|8,0:0|0:0|0:0,0:0:0:0:
256,64,49218,1,8,0:0:0:0:
483,153,49593,2,0,P|408:143|355:94,1,140,8|8,0:0|0:0,0:0:0:0:
256,192,50343,2,0,B|136:192|144:104|144:104|216:80|256:128|256:128|296:80|368:104|368:104|376:192|256:192,1,560,8|8,0:0|0:0,0:0:0:0:
16,192,52218,5,8,0:0:0:0:
256,48,52593,1,8,0:0:0:0:
496,192,52968,1,8,0:0:0:0:
240,146,53343,2,0,P|256:243|272:146,1,280,8|8,0:0|0:0,0:0:0:0:
144,232,54468,1,8,0:0:0:0:
256,304,54655,1,0,0:0:0:0:
368,232,54843,1,8,0:0:0:0:
256,192,55218,6,0,L|256:40,1,140,8|8,0:0|0:0,0:0:0:0:
256,312,55968,1,8,0:0:0:0:
392,64,56343,2,0,B|320:48|256:80|256:80|192:48|120:64,1,280,8|8,0:0|0:0,0:0:0:0:
256,320,57468,1,8,0:0:0:0:
256,104,57843,5,0,1:0:0:0:
128,80,58030,1,0,0:0:0:0:
384,80,58218,1,0,0:0:0:0:
256,112,58405,1,0,0:0:0:0:
256,248,58780,5,0,1:0:0:0:
160,216,58968,1,0,1:0:0:0:
352,216,59155,1,0,0:0:0:0:
80,304,59343,2,0,P|140:352|206:353,1,140,4|0,1:0|1:0,0:0:0:0:
499,45,60093,6,0,L|466:117,1,70,8|0,0:0|0:0,0:0:0:0:
427,330,60468,2,0,L|455:266,1,70,0|0,1:0|0:0,0:0:0:0:
377,105,60843,2,0,L|305:161,1,70,8|0,0:0|0:0,0:0:0:0:
286,329,61218,2,0,L|347:281,1,70,0|0,1:0|0:0,0:0:0:0:
239,124,61593,2,0,L|166:137,1,70,8|0,0:0|0:0,0:0:0:0:
128,255,61968,2,0,L|208:239,1,70,0|0,1:0|0:0,0:0:0:0:
222,254,62249,1,0,0:0:0:0:
248,264,62343,6,0,L|340:243,1,70,8|0,0:0|0:0,0:0:0:0:
448,72,62718,1,0,1:0:0:0:
440,80,62905,1,0,0:0:0:0:
298,283,63093,2,0,L|368:291,1,70,8|0,0:0|0:0,0:0:0:0:
432,88,63468,1,0,1:0:0:0:
424,96,63655,1,0,0:0:0:0:
333,321,63843,2,0,L|397:353,1,70,8|0,0:0|0:0,0:0:0:0:
489,216,64218,6,0,P|461:246|416:262,1,70,0|0,1:0|0:0,0:0:0:0:
256,192,64593,1,8,0:0:0:0:
279,175,64686,1,0,1:0:0:0:
307,168,64780,1,0,0:0:0:0:
496,208,64968,1,0,1:0:0:0:
256,281,65155,5,0,0:0:0:0:
233,297,65249,1,0,0:0:0:0:
206,306,65343,2,0,P|168:306|135:294,1,70,8|0,0:0|0:0,0:0:0:0:
88,56,65718,1,0,1:0:0:0:
184,136,65905,1,0,0:0:0:0:
306,306,66093,2,0,P|344:306|377:294,1,70,8|0,0:0|0:0,0:0:0:0:
424,56,66468,1,0,1:0:0:0:
328,136,66655,1,0,0:0:0:0:
256,352,66843,2,0,L|256:282,1,70,8|0,0:0|0:0,0:0:0:0:
111,110,67218,6,0,P|138:88|171:78,1,70,0|0,1:0|0:0,0:0:0:0:
412,222,67593,2,0,P|380:246|340:254,1,70,8|0,0:0|0:0,0:0:0:0:
136,215,67968,2,0,P|174:190|213:184,1,70,0|0,1:0|0:0,0:0:0:0:
225,184,68249,1,0,0:0:0:0:
252,190,68343,6,0,P|291:189|332:164,1,70,8|0,0:0|0:0,0:0:0:0:
323,51,68718,1,0,1:0:0:0:
469,171,68905,1,0,0:0:0:0:
342,311,69093,2,0,P|299:304|266:275,1,70,8|0,0:0|0:0,0:0:0:0:
160,144,69468,1,0,1:0:0:0:
30,237,69655,5,0,0:0:0:0:
47,259,69749,1,0,0:0:0:0:
69,275,69843,2,0,P|103:290|157:282,1,70,8|0,0:0|0:0,0:0:0:0:
256,112,70218,1,0,1:0:0:0:
199,338,70405,2,0,P|242:334|271:314,1,70,0|8,0:0|0:0,0:0:0:0:
286,303,70686,1,0,1:0:0:0:
305,283,70780,1,0,0:0:0:0:
344,80,70968,1,0,1:0:0:0:
378,265,71155,5,8,1:0:0:0:
406,265,71249,1,0,1:0:0:0:
433,257,71343,2,0,P|489:223|512:154,1,140,4|0,1:0|1:0,0:0:0:0:
256,192,72093,1,8,0:0:0:0:
304,64,72280,1,0,0:0:0:0:
208,64,72468,1,0,1:0:0:0:
265,217,72655,1,0,0:0:0:0:
273,243,72749,1,0,0:0:0:0:
282,269,72843,2,0,P|212:288|145:260,1,140,8|0,0:0|1:0,0:0:0:0:
321,141,73405,2,0,P|391:122|458:150,1,140,8|0,0:0|0:0,0:0:0:0:
348,284,73968,2,0,P|310:283|275:264,1,70,0|0,1:0|0:0,0:0:0:0:
256,282,74249,1,0,0:0:0:0:
229,290,74343,2,0,P|155:283|95:239,1,140,0|0,0:0|1:0,0:0:0:0:
96,85,75093,5,8,0:0:0:0:
230,46,75280,1,0,0:0:0:0:
207,184,75468,2,0,P|236:205|289:208,1,70,0|0,1:0|0:0,0:0:0:0:
297,209,75749,1,0,0:0:0:0:
324,201,75843,1,8,1:0:0:0:
272,120,76030,1,0,1:0:0:0:
375,209,76218,1,8,1:0:0:0:
280,116,76405,1,0,1:0:0:0:
429,218,76593,1,0,1:0:0:0:
288,112,76780,1,0,1:0:0:0:
512,242,76968,5,4,1:0:0:0:
512,214,77061,1,0,0:0:0:0:
505,186,77155,1,0,0:0:0:0:
490,162,77249,1,0,0:0:0:0:
467,144,77343,2,0,P|407:123|363:49,1,140,4|4,0:3|0:3,0:0:0:0:
350,273,77905,2,0,P|387:295|414:337,1,70,8|4,0:3|0:3,0:0:0:0:
236,302,78280,1,0,0:0:0:0:
109,191,78468,1,4,0:3:0:0:
117,280,78655,1,0,0:0:0:0:
130,277,78749,1,0,0:0:0:0:
143,273,78843,2,0,P|176:247|196:193,1,70,4|8,0:3|0:3,0:0:0:0:
180,72,79218,1,4,0:3:0:0:
180,80,79405,1,0,0:0:0:0:
332,288,79593,6,0,P|295:273|270:246,1,70,0|0,1:0|0:0,0:0:0:0:
309,156,79968,2,0,P|281:125|268:83,1,70,8|0,0:3|0:0,0:0:0:0:
278,87,80249,1,0,0:0:0:0:
291,83,80343,2,0,P|360:108|428:68,1,140,4|4,0:3|0:3,0:0:0:0:
460,222,80905,2,0,P|426:222|391:235,1,70,8|4,0:3|0:3,0:0:0:0:
452,317,81280,1,0,0:0:0:0:
289,202,81468,1,4,0:3:0:0:
344,291,81655,1,0,0:0:0:0:
333,300,81749,1,0,0:0:0:0:
320,307,81843,2,0,P|286:313|240:292,1,70,4|8,0:3|0:3,0:0:0:0:
101,128,82218,1,4,0:3:0:0:
45,235,82405,1,0,0:0:0:0:
56,243,82499,1,0,0:0:0:0:
67,251,82593,2,0,P|103:258|143:248,1,70,4|0,1:3|0:3,0:0:0:0:
256,56,82968,1,8,0:3:0:0:
216,144,83155,5,4,0:3:0:0:
221,156,83249,1,0,0:0:0:0:
226,168,83343,2,0,P|280:199|358:188,1,140,4|0,1:0|0:0,0:0:0:0:
487,82,83905,2,0,P|454:73|409:79,1,70,8|4,0:3|0:3,0:0:0:0:
451,180,84280,1,0,0:0:0:0:
309,106,84468,1,4,0:3:0:0:
374,262,84655,1,0,0:0:0:0:
384,270,84749,1,0,0:0:0:0:
395,278,84843,2,0,P|436:284|483:262,1,70,4|8,0:3|0:3,0:0:0:0:
318,324,85218,2,0,P|284:324|249:336,1,70,4|0,0:3|0:0,0:0:0:0:
152,269,85593,2,0,P|198:267|232:249,1,70,0|0,1:0|0:0,0:0:0:0:
100,337,85968,2,0,P|69:323|32:317,1,70,8|0,0:3|0:0,0:0:0:0:
35,303,86249,1,0,0:0:0:0:
35,288,86343,6,0,P|78:252|98:157,1,140,4|0,0:3|0:0,0:0:0:0:
70,27,86905,2,0,P|51:56|43:99,1,70,8|4,0:3|0:3,0:0:0:0:
191,242,87280,1,0,0:0:0:0:
155,97,87468,1,4,1:0:0:0:
262,215,87655,1,0,0:0:0:0:
272,224,87749,1,0,0:0:0:0:
282,233,87843,5,8,1:0:0:0:
318,125,88030,1,0,1:0:0:0:
291,240,88218,1,8,1:0:0:0:
406,164,88405,1,0,1:0:0:0:
301,251,88593,1,8,1:0:0:0:
501,199,88780,1,0,1:0:0:0:
308,260,88968,5,4,1:0:0:0:
481,108,89155,1,0,0:0:0:0:
422,355,89343,2,8,P|353:376|287:323,1,140,12|0,0:1|0:0,0:0:0:0:
75,247,89905,2,8,P|122:295|195:293,1,140,8|0,0:0|0:0,0:0:0:0:
124,60,90468,1,8,0:0:0:0:
140,188,90655,1,0,0:0:0:0:
152,196,90749,1,0,0:0:0:0:
164,204,90843,2,0,P|205:209|248:184,1,70,8|0,0:0|0:0,0:0:0:0:
388,60,91218,1,8,0:0:0:0:
348,204,91405,2,0,P|307:209|264:184,1,70,0|8,0:0|0:0,0:0:0:0:
256,28,91968,5,8,0:0:0:0:
156,292,92155,1,0,0:0:0:0:
172,292,92249,1,0,0:0:0:0:
184,292,92343,2,0,P|224:284|256:248,1,70,8|0,0:0|0:0,0:0:0:0:
176,160,92718,1,8,0:0:0:0:
340,296,92905,2,0,P|376:292|407:277,1,70,0|8,0:0|0:0,0:0:0:0:
336,160,93280,1,0,0:0:0:0:
256,80,93468,1,8,0:0:0:0:
256,240,93655,1,0,0:0:0:0:
72,324,93843,2,0,P|112:328|144:316,1,70,8|0,0:0|0:0,0:0:0:0:
256,232,94218,1,8,0:0:0:0:
440,324,94405,2,0,P|360:312|316:264,1,140,0|0,0:0|0:0,0:0:0:0:
256,108,94968,1,8,0:0:0:0:
56,104,95155,5,0,1:0:0:0:
63,131,95249,1,0,0:0:0:0:
71,157,95343,2,0,P|94:189|143:205,1,70,12|0,0:1|0:0,0:0:0:0:
441,227,95718,2,0,P|418:195|369:179,1,70,8|0,0:0|0:0,0:0:0:0:
128,304,96093,2,0,P|165:291|198:251,1,70,8|0,0:0|0:0,0:0:0:0:
210,285,96374,1,0,0:0:0:0:
237,291,96468,1,8,0:0:0:0:
310,179,96655,1,0,0:0:0:0:
496,182,96843,2,0,P|464:172|435:144,1,70,8|0,0:0|0:0,0:0:0:0:
264,39,97218,2,0,P|296:49|325:77,1,70,8|0,0:0|0:0,0:0:0:0:
85,117,97593,5,8,0:0:0:0:
63,212,97780,1,0,0:0:0:0:
188,84,97968,1,8,0:0:0:0:
157,177,98155,1,0,1:0:0:0:
180,191,98249,1,0,1:0:0:0:
207,198,98343,2,0,P|282:195|348:138,1,140,4|0,1:0|3:0,0:0:0:0:
196,88,98905,5,4,0:3:0:0:
264,240,99093,2,0,P|336:256|408:224,1,140,8|0,1:0|1:0,0:0:0:0:
204,92,99655,5,0,0:0:0:0:
324,288,99843,2,0,P|372:332|460:340,1,140,4|0,1:0|0:0,0:0:0:0:
212,96,100405,1,0,0:0:0:0:
424,96,100593,5,0,1:0:0:0:
416,100,100686,1,0,1:0:0:0:
408,104,100780,1,0,1:0:0:0:
400,108,100874,1,0,1:0:0:0:
392,112,100968,1,0,1:0:0:0:
384,116,101061,1,0,1:0:0:0:
376,120,101155,1,0,1:0:0:0:
368,124,101249,1,0,1:0:0:0:
360,128,101343,5,4,1:0:0:0:
256,288,101530,1,0,0:0:0:0:
280,136,101718,1,8,1:0:0:0:
256,296,101905,1,0,0:0:0:0:
200,144,102093,1,8,0:0:0:0:
256,304,102280,1,0,0:0:0:0:
120,152,102468,1,8,1:0:0:0:
256,312,102655,5,0,0:0:0:0:
282,303,102749,1,0,0:0:0:0:
308,292,102843,2,0,P|333:262|333:204,1,70,8|0,0:0|0:0,0:0:0:0:
256,32,103218,1,8,1:0:0:0:
172,232,103405,2,0,P|180:266|204:292,1,70,0|0,0:0|3:2,0:0:0:0:
230,303,103686,1,0,1:0:0:0:
256,312,103780,1,0,1:0:0:0:
256,40,103968,1,8,0:0:0:0:
88,328,104155,5,0,0:0:0:0:
112,320,104249,1,0,0:0:0:0:
136,312,104343,1,0,0:0:0:0:
56,192,104530,1,0,0:0:0:0:
208,264,104718,1,8,1:0:0:0:
64,192,104905,1,0,0:0:0:0:
248,192,105093,1,8,0:0:0:0:
72,192,105280,1,0,0:0:0:0:
256,104,105468,1,8,1:0:0:0:
80,192,105655,5,0,0:0:0:0:
104,178,105749,1,0,0:0:0:0:
121,155,105843,2,8,P|131:117|113:86,1,70,8|0,0:0|0:0,0:0:0:0:
57,298,106218,1,8,0:0:0:0:
263,334,106405,2,0,P|308:327|351:294,1,70,4|4,1:0|0:3,0:0:0:0:
349,296,106686,1,0,1:0:0:0:
360,270,106780,1,0,1:0:0:0:
332,56,106968,1,8,0:0:0:0:
294,193,107155,1,0,0:0:0:0:
218,334,107343,6,0,P|179:321|144:288,1,70,4|0,0:1|0:0,0:0:0:0:
200,56,107718,1,8,1:0:0:0:
256,192,107905,1,0,0:0:0:0:
344,304,108093,2,0,P|376:280|400:232,1,70,8|0,0:0|0:0,0:0:0:0:
304,32,108468,1,8,1:0:0:0:
256,184,108655,1,0,0:0:0:0:
80,240,108843,2,0,P|63:201|61:162,1,70,8|0,0:0|0:0,0:0:0:0:
208,24,109218,1,8,1:0:0:0:
256,176,109405,1,0,0:0:0:0:
456,256,109593,5,0,3:0:0:0:
475,235,109686,1,0,1:0:0:0:
493,213,109780,2,0,P|502:176|497:139,1,70,0|8,0:0|0:0,0:0:0:0:
256,40,110155,1,0,0:0:0:0:
85,301,110343,2,0,P|164:294|211:243,1,140,12|0,0:1|1:0,0:0:0:0:
120,204,110905,1,0,0:0:0:0:
305,293,111093,2,0,L|275:221,1,70,8|0,0:0|0:0,0:0:0:0:
252,24,111468,2,0,L|274:94,1,70,0|0,1:0|0:0,1:0:0:0:
376,312,111843,5,8,1:0:0:0:
255,308,112030,1,0,1:0:0:0:
368,288,112218,1,8,1:0:0:0:
204,233,112405,1,0,1:0:0:0:
360,264,112593,1,8,1:0:0:0:
154,151,112780,1,0,1:0:0:0:
352,240,112968,1,4,1:0:0:0:
373,222,113061,1,0,0:0:0:0:
395,205,113155,1,0,0:0:0:0:
418,190,113249,1,0,0:0:0:0:
441,173,113343,6,0,P|438:145|408:99,1,70,12|0,0:1|0:0,0:0:0:0:
256,160,113718,1,0,1:0:0:0:
139,282,113905,1,0,0:0:0:0:
156,304,113999,1,0,0:0:0:0:
180,317,114093,2,0,P|219:327|270:312,1,70,8|0,0:0|0:0,0:0:0:0:
160,160,114468,1,0,1:0:0:0:
352,160,114655,1,0,0:0:0:0:
432,336,114843,2,0,P|392:328|367:309,1,70,8|0,0:0|0:0,0:0:0:0:
256,216,115218,1,0,1:0:0:0:
69,360,115405,2,0,P|109:352|134:333,1,70,0|8,0:0|0:0,0:0:0:0:
152,315,115686,1,0,1:0:0:0:
167,291,115780,1,0,3:0:0:0:
256,208,115968,1,0,0:0:0:0:
48,128,116155,5,0,0:0:0:0:
74,136,116249,1,0,0:0:0:0:
101,140,116343,1,8,0:0:0:0:
140,46,116530,1,0,0:0:0:0:
52,259,116718,2,0,P|93:248|126:223,1,70,0|0,1:0|0:0,0:0:0:0:
217,85,117093,1,8,0:0:0:0:
148,214,117280,1,0,0:0:0:0:
297,123,117468,1,0,1:0:0:0:
174,190,117655,1,0,0:0:0:0:
379,169,117843,6,0,P|348:191|302:194,1,70,8|0,0:0|0:0,0:0:0:0:
144,104,118218,1,0,1:0:0:0:
157,357,118405,2,0,P|192:352|230:327,1,70,4|0,1:0|0:0,0:0:0:0:
241,314,118686,1,0,1:0:0:0:
254,289,118780,1,8,0:2:0:0:
216,64,118968,1,8,0:0:0:0:
368,296,119155,1,0,0:0:0:0:
144,336,119343,6,0,P|125:307|96:284,1,70,12|0,1:0|0:0,0:0:0:0:
256,88,119718,1,0,1:0:0:0:
256,272,119905,1,0,0:0:0:0:
376,296,120093,2,0,P|392:272|436:244,1,70,8|0,0:0|0:0,0:0:0:0:
256,72,120468,1,0,1:0:0:0:
256,288,120655,1,0,0:0:0:0:
72,156,120843,2,0,P|40:128|0:120,1,70,8|0,0:0|0:0,0:0:0:0:
256,56,121218,1,0,1:0:0:0:
256,304,121405,1,0,0:0:0:0:
416,152,121593,1,8,0:0:0:0:
420,124,121686,1,0,1:0:0:0:
428,96,121780,2,0,P|440:72|472:36,1,70
256,40,122155,1,0,0:0:0:0:
432,292,122343,6,0,P|404:288|364:260,1,70,4|8,1:0|0:0,0:0:0:0:
256,68,122718,1,8,0:0:0:0:
80,292,122905,2,0,P|108:288|148:260,1,70,4|8,1:0|0:0,0:0:0:0:
256,76,123280,1,8,0:0:0:0:
256,328,123468,1,4,1:0:0:0:
283,321,123561,1,0,0:0:0:0:
308,308,123655,1,0,0:0:0:0:
329,289,123749,1,0,0:0:0:0:
344,264,123843,5,8,1:0:0:0:
256,192,124030,1,0,1:0:0:0:
392,168,124218,1,8,1:0:0:0:
256,184,124405,1,0,1:0:0:0:
408,64,124593,1,8,1:0:0:0:
256,176,124780,1,0,1:0:0:0:
104,64,124968,5,4,1:0:0:0:
105,91,125061,1,0,0:0:0:0:
111,118,125155,1,0,0:0:0:0:
121,143,125249,1,0,0:0:0:0:
139,164,125343,6,0,P|164:193|192:208,1,70,8|0,0:0|0:0,0:0:0:0:
256,288,125718,1,0,3:0:0:0:
373,163,125905,2,0,P|350:189|320:207,1,70
256,96,126280,1,8,0:0:0:0:
104,256,126468,2,0,P|192:256|256:208,1,140,0|0,3:0|0:0,0:0:0:0:
256,104,127030,1,8,0:0:0:0:
256,296,127218,1,0,3:0:0:0:
283,296,127311,1,0,0:0:0:0:
310,292,127405,1,0,0:0:0:0:
337,284,127499,1,0,0:0:0:0:
363,274,127593,1,8,0:0:0:0:
386,258,127686,1,0,0:0:0:0:
407,240,127780,1,8,0:0:0:0:
425,218,127874,1,0,0:0:0:0:
434,191,127968,5,0,3:0:0:0:
303,77,128155,1,0,0:0:0:0:
140,187,128343,2,0,P|280:192|296:64,1,280
256,296,129843,6,0,L|256:328,14,17.5
256,272,130593,5,0,1:0:0:0:
261,244,130686,1,0,1:0:0:0:
275,219,130780,1,0,1:0:0:0:
295,199,130874,1,0,1:0:0:0:
320,186,130968,1,0,1:0:0:0:
347,181,131061,1,0,1:0:0:0:
374,183,131155,1,0,1:0:0:0:
400,193,131249,1,0,1:0:0:0:
422,210,131343,6,0,P|491:185|499:125,1,140,4|0,1:0|1:0,0:0:0:0:
374,293,131905,1,0,0:0:0:0:
381,95,132093,2,0,P|343:43|270:48,1,140,8|0,0:0|1:0,0:0:0:0:
88,280,132655,1,0,0:0:0:0:
114,270,132749,1,0,0:0:0:0:
133,249,132843,1,8,0:0:0:0:
40,121,133030,1,0,0:0:0:0:
336,50,133218,2,0,P|307:57|276:84,1,70,0|0,1:0|0:0,0:0:0:0:
266,108,133499,1,0,0:0:0:0:
265,136,133593,1,8,0:0:0:0:
424,122,133780,1,0,0:0:0:0:
297,206,133968,1,0,1:0:0:0:
466,197,134155,1,0,0:0:0:0:
455,223,134249,1,0,0:0:0:0:
438,245,134343,6,0,P|391:283|316:272,1,140,8|0,0:0|1:0,0:0:0:0:
355,158,134905,1,0,0:0:0:0:
61,111,135093,2,0,P|93:89|131:88,1,70,8|0,0:0|0:0,0:0:0:0:
150,91,135374,1,0,0:0:0:0:
176,100,135468,2,0,P|207:112|250:102,1,70,0|0,1:0|0:0,0:0:0:0:
336,29,135843,5,8,0:0:0:0:
191,213,136030,1,0,0:0:0:0:
378,166,136218,2,0,P|336:153|300:164,1,70,0|0,1:0|1:0,0:0:0:0:
286,170,136499,1,0,3:0:0:0:
268,192,136593,1,8,0:0:0:0:
262,219,136686,1,0,1:0:0:0:
267,245,136780,1,0,1:0:0:0:
419,305,136968,1,0,1:0:0:0:
78,305,137155,5,0,0:0:0:0:
103,294,137249,1,0,0:0:0:0:
128,282,137343,2,0,P|161:261|185:229,1,70,4|8,1:0|0:0,0:0:0:0:
256,56,137718,1,8,0:0:0:0:
384,282,137905,2,0,P|351:261|327:229,1,70,4|8,1:0|0:0,0:0:0:0:
256,64,138280,1,8,0:0:0:0:
160,296,138468,2,0,P|200:288|224:264,1,70,0|8,1:0|0:0,0:0:0:0:
256,72,138843,1,8,0:0:0:0:
352,296,139030,2,0,P|312:288|288:264,1,70,4|8,1:0|0:0,0:0:0:0:
256,80,139405,1,8,0:0:0:0:
136,256,139593,2,0,P|103:268|68:269,1,70,0|8,1:0|0:0,0:0:0:0:
376,256,139968,2,0,P|408:268|443:269,1,70,4|0,1:0|0:0,0:0:0:0:
216,344,140343,5,8,1:0:0:0:
296,320,140530,1,0,1:0:0:0:
176,256,140718,1,0,1:0:0:0:
336,232,140905,1,0,1:0:0:0:
128,168,141093,1,0,1:0:0:0:
384,144,141280,1,0,1:0:0:0:
80,72,141468,1,0,1:0:0:0:
432,56,141655,1,0,1:0:0:0:
256,24,141843,5,0,1:0:0:0:
256,152,142030,1,8,0:0:0:0:
256,160,142218,1,8,0:0:0:0:
256,360,142405,5,0,1:0:0:0:
148,210,142593,2,0,L|193:191,1,35,8|0,0:0|0:0,0:0:0:0:
362,206,142780,2,0,L|324:188,1,35,8|0,0:0|0:0,0:0:0:0:
192,108,142968,5,4,1:0:0:0:
224,92,143061,1,0,0:0:0:0:
256,88,143155,1,0,0:0:0:0:
288,92,143249,1,0,0:0:0:0:
320,108,143343,1,4,0:1:0:0:
80,176,144093,6,0,P|108:204|160:220,1,70,8|0,0:0|0:0,0:0:0:0:
344,72,144468,2,0,P|316:44|264:28,1,70,8|0,0:0|0:0,0:0:0:0:
208,288,144843,2,0,P|252:300|296:292,1,70,8|0,0:0|0:0,0:0:0:0:
424,160,145218,2,0,P|380:148|336:156,1,70,8|0,0:0|0:0,0:0:0:0:
364,344,145593,2,0,P|404:332|436:312,1,70,8|0,0:0|0:0,0:0:0:0:
488,140,145968,5,8,0:0:0:0:
460,137,146061,1,0,0:0:0:0:
432,144,146155,1,0,0:0:0:0:
409,160,146249,1,0,3:0:0:0:
395,184,146343,2,0,P|331:221|243:200,1,140,8|8,0:0|0:0,0:0:0:0:
299,51,146905,1,0,0:0:0:0:
40,160,147093,2,0,P|73:149|101:129,1,70,8|0,0:0|0:0,0:0:0:0:
40,312,147468,2,0,P|73:301|101:281,1,70,8|0,0:0|0:0,0:0:0:0:
304,325,147843,1,8,0:0:0:0:
384,128,148218,6,0,P|360:80|264:32,2,140,8|8|8,0:0|0:0|0:0,0:0:0:0:
367,150,149061,1,0,0:0:0:0:
350,173,149155,1,0,0:0:0:0:
334,196,149249,1,0,3:0:0:0:
319,220,149343,2,0,P|343:268|439:316,1,140,8|8,0:0|0:0,0:0:0:0:
448,197,149905,1,0,0:0:0:0:
273,119,150093,2,0,P|236:131|193:127,1,70,8|0,0:0|0:0,0:0:0:0:
205,231,150468,2,0,P|169:253|122:257,1,70,8|0,0:0|0:0,0:0:0:0:
42,99,150843,1,8,0:0:0:0:
384,136,151218,6,0,P|371:64|299:10,2,140,8|8|8,0:0|0:0|0:0,0:0:0:0:
384,163,152061,1,0,0:0:0:0:
384,191,152155,1,0,0:0:0:0:
384,219,152249,1,0,0:0:0:0:
384,247,152343,5,0,0:0:0:0:
296,336,152530,1,0,0:0:0:0:
320,240,152718,1,0,0:0:0:0:
167,327,152905,1,0,0:0:0:0:
256,232,153093,1,0,0:0:0:0:
48,314,153280,1,0,0:0:0:0:
192,224,153468,1,0,0:0:0:0:
164,219,153561,1,0,0:0:0:0:
136,214,153655,1,0,0:0:0:0:
108,211,153749,1,0,0:0:0:0:
80,206,153843,1,0,0:0:0:0:
256,40,154780,1,4,1:0:0:0:
256,48,155155,5,0,0:0:0:0:
472,92,155343,2,0,P|447:120|397:129,1,70,12|0,0:1|0:0,0:0:0:0:
389,135,155624,1,0,0:0:0:0:
361,131,155718,1,0,1:0:0:0:
411,21,155905,1,0,0:0:0:0:
226,124,156093,2,0,P|193:130|157:128,1,70,8|0,0:0|0:0,0:0:0:0:
58,295,156468,2,0,P|84:273|116:256,1,70,0|0,1:0|0:0,0:0:0:0:
301,182,156843,2,0,P|287:210|259:238,1,70,8|0,0:0|0:0,0:0:0:0:
230,367,157218,2,0,P|254:334|294:311,1,70,0|0,1:0|0:0,0:0:0:0:
482,314,157593,2,0,P|455:333|419:340,1,70,8|0,0:0|0:0,0:0:0:0:
325,254,157968,2,0,P|361:240|397:238,1,70,0|0,1:0|0:0,0:0:0:0:
418,248,158249,1,0,0:0:0:0:
443,259,158343,6,0,P|456:229|448:182,1,70,8|0,0:0|0:0,0:0:0:0:
360,32,158718,1,0,1:0:0:0:
459,85,158905,1,0,0:0:0:0:
176,168,159093,2,0,P|212:162|243:139,1,70,8|0,0:0|0:0,0:0:0:0:
143,36,159468,1,0,1:0:0:0:
395,158,159655,1,0,0:0:0:0:
379,181,159749,1,0,0:0:0:0:
357,199,159843,2,0,P|318:216|266:212,1,70,8|0,0:0|0:0,0:0:0:0:
162,328,160218,1,0,1:0:0:0:
6,240,160405,1,0,0:0:0:0:
117,226,160593,1,8,0:0:0:0:
133,203,160687,1,0,1:0:0:0:
155,185,160781,2,0,P|194:168|246:172,1,70,0|8,0:0|0:0,0:0:0:0:
256,312,161155,1,0,0:0:0:0:
472,340,161343,6,0,P|428:336|388:312,1,70,8|0,0:0|0:0,0:0:0:0:
296,115,161718,1,0,1:0:0:0:
439,161,161905,1,0,0:0:0:0:
156,272,162093,6,0,P|200:268|240:244,1,70,8|0,0:0|0:0,0:0:0:0:
188,132,162468,1,0,1:0:0:0:
108,28,162655,1,0,0:0:0:0:
85,45,162749,1,0,0:0:0:0:
63,63,162843,2,0,P|49:106|59:158,1,70,8|0,0:0|0:0,0:0:0:0:
460,304,163218,6,0,P|448:272|421:245,1,70,0|0,1:0|0:0,0:0:0:0:
428,96,163593,2,0,P|395:83|367:63,1,70,8|0,0:0|0:0,0:0:0:0:
188,132,163968,2,0,P|220:148|260:148,1,70,0|0,1:0|0:0,0:0:0:0:
255,177,164249,1,0,0:0:0:0:
257,204,164343,2,0,P|298:209|335:195,1,70,8|0,0:0|0:0,0:0:0:0:
317,71,164718,1,0,1:0:0:0:
452,248,164905,1,0,0:0:0:0:
256,332,165093,2,0,P|222:335|182:319,1,70,8|0,0:0|0:0,0:0:0:0:
52,192,165468,5,0,1:0:0:0:
128,32,165655,1,0,0:0:0:0:
128,192,165843,2,0,P|172:248|248:248,1,140,8|0,0:0|1:0,0:0:0:0:
464,132,166405,2,0,P|444:102|406:77,1,70,8|0,0:0|0:0,0:0:0:0:
390,73,166686,1,0,1:0:0:0:
361,72,166780,1,0,0:0:0:0:
256,320,166968,1,8,0:0:0:0:
40,228,167155,1,0,1:0:0:0:
54,251,167249,1,0,1:0:0:0:
78,265,167343,2,0,P|149:269|202:201,1,140,4|0,1:0|1:0,0:0:0:0:
256,40,168093,5,8,0:0:0:0:
140,80,168280,1,0,0:0:0:0:
372,80,168468,1,0,1:0:0:0:
476,216,168843,6,0,P|412:188|328:204,1,140,8|0,0:0|1:0,0:0:0:0:
64,332,169405,2,0,P|140:316|188:260,1,140
88,40,169968,2,0,P|128:48|164:84,1,70,0|0,1:0|0:0,0:0:0:0:
143,92,170249,1,0,0:0:0:0:
136,119,170343,2,0,P|196:154|277:138,1,140,8|0,0:0|1:0,0:0:0:0:
460,100,171093,5,8,0:0:0:0:
488,208,171280,1,0,0:0:0:0:
352,68,171468,1,0,1:0:0:0:
256,320,171843,5,0,1:0:0:0:
336,264,172030,1,0,1:0:0:0:
256,296,172218,1,0,1:0:0:0:
368,192,172405,1,0,1:0:0:0:
256,272,172593,1,0,1:0:0:0:
376,112,172780,1,0,1:0:0:0:
256,248,172968,5,4,1:0:0:0:
249,220,173061,1,0,0:0:0:0:
239,193,173155,1,0,0:0:0:0:
228,166,173249,1,0,0:0:0:0:
218,139,173343,2,0,P|206:102|210:51,1,70,4|0,0:3|0:0,0:0:0:0:
348,27,173718,1,4,0:3:0:0:
71,91,173905,1,8,0:3:0:0:
66,78,173999,1,0,0:0:0:0:
60,65,174093,2,0,P|27:89|2:132,1,70,4|0,0:3|0:0,0:0:0:0:
128,232,174468,5,4,0:3:0:0:
37,206,174655,1,0,0:2:0:0:
179,312,174843,2,0,P|218:313|249:298,1,70,8|8,0:2|0:3,0:0:0:0:
388,262,175218,2,0,P|345:250|319:249,1,70,4|0,0:3|0:0,0:0:0:0:
311,237,175499,1,0,0:0:0:0:
303,224,175593,2,0,P|326:194|331:148,1,70,0|0,1:0|0:0,0:0:0:0:
245,68,175968,1,8,0:3:0:0:
154,155,176155,1,0,0:0:0:0:
166,160,176249,1,0,0:0:0:0:
178,166,176343,2,0,P|221:165|266:134,1,70,4|0,0:3|0:0,0:0:0:0:
252,77,176718,1,8,0:0:0:0:
228,238,176905,1,8,0:3:0:0:
217,246,176999,1,0,0:0:0:0:
206,254,177093,2,0,P|134:244|77:204,1,140,4|4,0:3|0:3,0:0:0:0:
49,118,177655,5,0,0:0:0:0:
64,24,177843,2,0,P|98:39|130:72,1,70,8|8,0:0|0:3,0:0:0:0:
218,60,178218,1,0,0:0:0:0:
244,154,178405,2,0,P|278:139|310:106,1,70,4|0,0:3|1:0,0:0:0:0:
403,133,178780,1,0,0:0:0:0:
258,239,178968,1,8,0:3:0:0:
451,305,179155,1,0,0:0:0:0:
438,298,179249,1,0,0:0:0:0:
425,291,179343,2,0,P|365:247|335:174,1,140,4|0,1:1|0:0,0:0:0:0:
447,36,179905,2,0,P|471:75|479:116,1,70,8|4,0:3|0:3,0:0:0:0:
454,196,180280,1,0,0:0:0:0:
301,162,180468,6,0,P|337:134|386:133,1,70,4|0,0:3|0:0,0:0:0:0:
296,292,180843,2,0,P|264:312|216:304,1,70,8|4,0:3|0:3,0:0:0:0:
109,202,181218,2,0,P|145:189|189:196,1,70,4|0,0:3|0:0,0:0:0:0:
176,205,181499,1,0,0:0:0:0:
176,219,181593,2,0,P|210:227|245:217,1,70,0|0,1:0|0:0,0:0:0:0:
472,168,181968,2,0,P|435:169|403:183,1,70,8|0,0:3|0:0,0:0:0:0:
411,194,182249,1,0,0:0:0:0:
417,206,182343,6,0,P|385:222|340:217,1,70,4|0,1:0|0:0,0:0:0:0:
282,139,182718,1,4,0:3:0:0:
124,109,182905,2,0,P|156:125|201:120,1,70,8|4,0:3|0:3,0:0:0:0:
249,54,183280,1,0,0:0:0:0:
213,210,183468,1,4,1:0:0:0:
383,294,183655,2,0,P|343:283|319:262,1,70,0|8,0:0|1:0,0:0:0:0:
414,156,184030,1,0,1:0:0:0:
261,207,184218,1,8,1:0:0:0:
412,150,184405,1,0,1:0:0:0:
219,139,184593,1,8,1:0:0:0:
408,144,184780,1,0,1:0:0:0:
192,64,184968,5,4,1:0:0:0:
388,56,185155,1,0,0:0:0:0:
56,177,185343,2,0,P|116:217|196:201,1,140,12|8,0:1|0:0,0:0:0:0:
455,269,185905,2,0,P|395:229|315:245,1,140,8|0,0:0|0:0,0:0:0:0:
256,108,186468,1,8,0:0:0:0:
153,233,186655,1,0,0:0:0:0:
164,241,186749,1,0,0:0:0:0:
175,248,186843,2,0,P|214:250|251:226,1,70,8|0,0:0|0:0,0:0:0:0:
256,117,187218,1,8,0:0:0:0:
238,284,187405,2,0,P|271:304|317:302,1,70,0|8,0:0|0:0,0:0:0:0:
100,132,187968,5,8,0:0:0:0:
256,56,188155,1,0,0:0:0:0:
412,132,188343,2,0,P|349:161|279:162,1,140,8|8,0:0|0:0,0:0:0:0:
100,132,188905,2,0,P|136:112|168:108,1,70,0|8,0:0|0:0,0:0:0:0:
316,264,189280,1,0,0:0:0:0:
444,228,189468,1,8,0:0:0:0:
360,328,189655,1,0,0:0:0:0:
348,335,189749,1,0,0:0:0:0:
336,342,189843,2,0,P|300:343|262:322,1,70,8|0,0:0|0:0,0:0:0:0:
338,186,190218,1,8,0:0:0:0:
89,255,190405,2,0,P|142:305|223:302,1,140,8|0,0:0|0:0,0:0:0:0:
358,108,190968,1,8,0:0:0:0:
68,68,191155,5,0,1:0:0:0:
80,76,191249,1,0,1:0:0:0:
92,84,191343,2,0,L|152:120,1,70,4|0,0:1|0:0,1:0:0:0:
300,64,191718,1,8,0:0:0:0:
212,64,191905,1,0,0:0:0:0:
280,192,192093,2,0,L|202:152,1,70,8|0,0:0|0:0,0:0:0:0:
212,284,192468,1,8,0:0:0:0:
300,284,192655,1,0,0:0:0:0:
108,248,192843,2,0,L|192:212,1,70,8|0,0:0|0:0,0:0:0:0:
400,108,193218,2,0,L|316:144,1,70,8|0,0:0|0:0,0:0:0:0:
64,164,193593,5,8,0:0:0:0:
198,46,193780,1,0,0:0:0:0:
88,68,193968,1,8,0:0:0:0:
174,147,194155,1,0,1:0:0:0:
185,154,194249,1,0,1:0:0:0:
197,160,194343,2,0,P|239:161|277:144,1,70,0|0,0:0|1:0,1:0:0:0:
204,52,194718,1,8,0:0:0:0:
372,56,194905,1,8,0:0:0:0:
248,208,195093,2,0,P|281:231|316:233,1,70,0|8,1:0|0:0,0:0:0:0:
212,56,195468,1,8,0:0:0:0:
380,60,195655,1,0,1:0:0:0:
288,280,195843,6,0,L|288:313,16,17.5
75,303,196780,2,0,L|115:287,1,35
259,188,196968,2,0,L|219:204,1,35,0|0,0:0|0:0,0:0:0:0:
60,165,197155,2,0,L|100:149,1,35
248,104,197343,5,4,1:0:0:0:
362,21,197530,1,0,0:0:0:0:
232,96,197718,1,0,1:0:0:0:
410,82,197905,1,0,0:0:0:0:
216,88,198093,1,8,0:0:0:0:
431,151,198280,1,0,0:0:0:0:
200,80,198468,1,0,1:0:0:0:
429,220,198655,5,0,0:0:0:0:
419,246,198749,1,0,0:0:0:0:
411,272,198843,2,0,P|381:295|345:295,1,70,8|0,0:0|0:0,0:0:0:0:
256,176,199218,1,0,1:0:0:0:
256,336,199405,1,0,0:0:0:0:
74,284,199593,1,8,0:0:0:0:
66,258,199686,1,0,1:0:0:0:
56,232,199780,1,0,1:0:0:0:
112,112,199968,1,8,0:0:0:0:
256,256,200155,5,0,0:0:0:0:
283,249,200249,1,0,0:0:0:0:
308,236,200343,1,8,0:0:0:0:
200,127,200530,1,0,0:0:0:0:
348,172,200718,1,0,1:0:0:0:
160,191,200905,1,0,0:0:0:0:
364,100,201093,1,8,0:0:0:0:
144,263,201280,1,0,0:0:0:0:
256,72,201468,1,0,1:0:0:0:
256,312,201655,5,0,0:0:0:0:
283,305,201749,1,0,0:0:0:0:
308,294,201843,2,0,P|340:277|364:242,1,70,8|0,0:0|0:0,0:0:0:0:
256,200,202218,1,0,1:0:0:0:
464,296,202405,2,0,P|486:257|486:214,1,70,4|0,1:0|0:0,0:0:0:0:
486,204,202686,1,0,1:0:0:0:
476,177,202780,1,0,1:0:0:0:
256,192,202968,2,0,L|256:112,1,70,8|0,0:0|0:0,0:0:0:0:
36,296,203343,6,0,P|73:307|114:298,1,70,4|0,1:0|0:0,0:0:0:0:
256,104,203718,1,8,1:0:0:0:
256,296,203905,1,0,0:0:0:0:
480,296,204093,2,0,P|443:307|402:298,1,70,8|0,0:0|0:0,0:0:0:0:
256,96,204468,1,8,1:0:0:0:
256,304,204655,1,0,0:0:0:0:
222,30,204843,6,0,P|255:22|294:32,1,70,8|0,0:0|0:0,0:0:0:0:
400,192,205218,1,8,1:0:0:0:
112,192,205405,1,0,0:0:0:0:
256,40,205593,1,8,0:0:0:0:
256,67,205686,1,0,1:0:0:0:
256,95,205780,2,0,L|256:176,1,70,0|8,0:0|0:0,0:0:0:0:
256,312,206155,1,0,0:0:0:0:
40,192,206343,6,0,P|88:192|120:168,1,70,4|0,1:0|0:0,0:0:0:0:
76,87,206718,1,0,1:0:0:0:
204,195,206905,1,0,0:0:0:0:
121,335,207093,2,0,P|154:317|173:289,1,70,8|0,0:0|0:0,0:0:0:0:
391,49,207468,6,0,P|358:67|339:95,1,70,0|0,1:0|0:0,0:0:0:0:
483,173,207843,1,8,1:0:0:0:
159,73,208030,1,0,1:0:0:0:
254,194,208218,1,8,1:0:0:0:
391,49,208405,1,0,1:0:0:0:
438,110,208593,1,0,1:0:0:0:
206,134,208780,1,8,1:0:0:0:
67,308,208968,1,4,1:0:0:0:
92,319,209061,1,0,0:0:0:0:
119,322,209155,1,0,0:0:0:0:
147,321,209249,1,0,0:0:0:0:
174,313,209343,5,12,0:1:0:0:
345,243,209530,1,0,0:0:0:0:
193,290,209718,1,0,1:0:0:0:
366,141,209905,1,0,0:0:0:0:
207,247,210093,1,8,0:0:0:0:
303,50,210280,1,0,0:0:0:0:
204,205,210468,1,0,1:0:0:0:
180,30,210655,5,0,0:0:0:0:
155,44,210749,1,0,0:0:0:0:
131,59,210843,2,0,P|139:95|185:102,1,70,8|0,0:0|0:0,0:0:0:0:
421,70,211218,1,0,1:0:0:0:
275,173,211405,1,0,0:0:0:0:
471,209,211593,1,8,0:0:0:0:
448,224,211686,1,0,1:0:0:0:
425,241,211780,2,0,P|395:272|345:273,1,70,0|8,1:0|0:0,0:0:0:0:
238,249,212155,5,0,0:0:0:0:
347,188,212343,1,8,0:0:0:0:
119,229,212530,2,0,P|118:186|138:142,1,70,0|8,0:0|0:0,0:0:0:0:
246,334,212905,5,0,0:0:0:0:
226,175,213093,1,8,0:0:0:0:
128,307,213280,1,0,0:0:0:0:
364,274,213468,1,0,1:0:0:0:
221,146,213655,1,0,0:0:0:0:
466,175,213843,2,0,P|431:190|370:183,1,70,8|0,0:0|0:0,0:0:0:0:
217,119,214218,1,0,1:0:0:0:
128,307,214405,2,0,P|167:312|216:291,1,70,4|8,1:0|0:0,0:0:0:0:
222,294,214686,1,0,1:0:0:0:
243,276,214780,1,0,1:0:0:0:
129,152,214968,2,0,P|161:165|209:158,1,70,8|0,0:0|0:0,0:0:0:0:
490,318,215343,6,0,P|449:317|406:291,1,70,4|0,1:0|0:0,0:0:0:0:
448,118,215718,1,8,1:0:0:0:
256,168,215905,1,0,0:0:0:0:
22,66,216093,6,0,P|63:67|106:93,1,70,8|0,0:0|0:0,0:0:0:0:
64,266,216468,1,8,1:0:0:0:
256,176,216655,1,0,0:0:0:0:
289,30,216843,6,8,P|255:24|220:31,1,70,8|0,0:0|0:0,0:0:0:0:
152,192,217218,1,0,1:0:0:0:
360,192,217405,1,0,0:0:0:0:
166,71,217593,1,8,0:0:0:0:
192,61,217686,1,0,1:0:0:0:
221,51,217780,2,8,P|255:57|290:50,1,70,8|0,0:0|0:0,0:0:0:0:
256,304,218155,1,0,0:0:0:0:
328,112,218343,6,0,P|336:144|360:176,1,70,4|8,1:0|0:0,0:0:0:0:
256,296,218718,1,8,0:0:0:0:
176,144,218905,2,0,P|168:176|144:208,1,70,4|8,1:0|0:0,0:0:0:0:
256,288,219280,1,8,0:0:0:0:
256,128,219468,2,0,L|256:56,1,70,4|0,1:0|0:0,0:0:0:0:
192,32,219843,5,8,1:0:0:0:
320,32,220030,1,0,1:0:0:0:
152,112,220218,1,8,1:0:0:0:
360,112,220405,1,0,1:0:0:0:
120,192,220593,1,8,1:0:0:0:
392,192,220780,1,0,1:0:0:0:
256,356,220968,1,4,1:0:0:0:
256,328,221061,1,0,0:0:0:0:
256,299,221155,1,0,0:0:0:0:
256,270,221249,1,0,0:0:0:0:
256,241,221343,6,0,L|256:172,1,70,4|8,1:0|0:0,0:0:0:0:
256,16,221718,1,8,0:0:0:0:
112,272,221905,2,0,P|160:256|184:232,1,70,4|8,1:0|0:0,0:0:0:0:
256,24,222280,1,8,0:0:0:0:
400,272,222468,2,0,P|325:254|282:189,1,140,4|8,1:0|0:0,0:0:0:0:
400,136,223030,5,10,0:0:0:0:
256,32,223218,1,0,0:0:0:0:
112,136,223405,1,10,0:0:0:0:
112,272,223593,2,0,P|187:254|230:189,1,140,0|8,1:0|0:3,0:0:0:0:
256,40,224155,1,8,0:0:0:0:
464,184,224343,6,0,P|440:88|336:48,1,210,4|4,1:0|0:3,0:0:0:0:
48,200,225093,2,0,P|72:296|176:336,1,210,8|4,0:3|0:3,0:0:0:0:
256,232,225843,2,0,L|256:16,1,210,4|0,0:1|1:0,0:0:0:0:
173,25,226593,5,8,0:3:0:0:
145,50,226718,5,8,0:3:0:0:
131,84,226843,5,4,0:3:0:0:
133,121,226968,5,4,0:3:0:0:
152,152,227093,5,4,0:3:0:0:
186,167,227218,5,4,0:3:0:0:
223,162,227343,5,12,1:0:0:0:
256,320,228468,5,0,0:0:0:0:
320,64,228843,2,0,P|256:39|192:64,2,140,2|2|2,0:0|0:0|0:0,0:0:0:0:
256,248,230718,1,0,0:0:0:0:
256,136,231093,1,2,0:0:0:0:
360,192,231468,1,0,0:0:0:0:
128,128,231843,6,0,P|103:192|128:256,1,140,2|2,0:0|0:0,0:0:0:0:
440,192,232968,1,0,0:0:0:0:
360,192,233155,1,0,0:0:0:0:
280,192,233343,6,0,P|249:128|281:72,1,140,2|2,0:0|0:0,0:0:0:0:
96,120,234468,1,0,0:0:0:0:
176,120,234655,1,0,0:0:0:0:
136,192,234843,1,2,0:0:0:0:
136,320,235218,1,0,0:0:0:0:
376,64,235593,1,2,0:0:0:0:
416,264,235968,5,0,0:0:0:0:
336,264,236155,1,0,0:0:0:0:
376,192,236343,1,2,0:0:0:0:
256,72,236718,1,0,0:0:0:0:
256,312,237093,1,2,0:0:0:0:
216,144,237468,5,0,0:0:0:0:
296,144,237655,1,0,0:0:0:0:
256,216,237843,1,2,0:0:0:0:
160,240,238030,1,0,0:0:0:0:
352,240,238218,1,0,0:0:0:0:
176,272,238405,1,0,0:0:0:0:
336,272,238593,1,2,0:0:0:0:
200,288,238780,1,0,0:0:0:0:
312,288,238968,1,0,0:0:0:0:
224,296,239155,1,0,0:0:0:0:
280,296,239343,1,4,1:0:0:0:
256,176,239530,5,0,0:0:0:0:
256,152,239624,1,0,0:0:0:0:
256,128,239718,1,0,0:0:0:0:
152,200,239905,1,8,0:0:0:0:
352,112,240093,1,0,1:0:0:0:
392,200,240468,1,2,0:0:0:0:
144,110,240843,2,0,L|104:94,1,35,0|0,0:0|1:0,0:0:0:0:
95,90,241124,1,0,0:0:0:0:
78,83,241218,1,8,0:0:0:0:
72,232,241405,1,0,0:0:0:0:
168,36,241593,2,0,L|244:63,1,70,0|0,1:0|0:0,0:0:0:0:
440,232,242155,1,8,0:0:0:0:
456,336,242343,6,0,L|416:321,1,35,8|0,0:0|0:0,0:0:0:0:
406,317,242624,1,0,0:0:0:0:
389,310,242718,1,0,0:0:0:0:
145,197,242905,1,8,0:0:0:0:
281,134,243093,2,0,L|214:166,1,70,0|0,1:0|0:0,0:0:0:0:
72,231,243655,1,0,0:0:0:0:
223,305,243843,2,0,L|256:288,1,35,0|0,0:0|1:0,0:0:0:0:
256,216,244218,1,8,0:0:0:0:
352,240,244405,1,8,0:0:0:0:
490,160,244593,2,0,L|454:180,1,35,0|8,1:0|0:3,0:0:0:0:
387,142,244968,1,8,0:3:0:0:
256,48,245155,1,4,0:3:0:0:
256,65,245249,1,0,0:0:0:0:
256,82,245343,6,0,L|256:154,1,70,4|8,1:0|0:0,0:0:0:0:
256,240,245718,1,8,0:0:0:0:
40,80,245905,2,0,L|107:101,1,70,4|8,1:0|0:0,0:0:0:0:
256,232,246280,1,8,0:0:0:0:
472,80,246468,2,0,L|404:103,1,70,4|8,1:0|0:0,0:0:0:0:
256,224,246843,1,8,0:0:0:0:
167,46,247030,2,0,L|218:95,1,70,4|8,1:0|0:0,0:0:0:0:
256,216,247405,1,8,0:0:0:0:
343,46,247593,2,0,L|288:97,1,70,0|8,1:0|0:3,0:0:0:0:
280,105,247874,1,8,0:0:0:0:
268,117,247968,1,12,0:3:0:0:
168,232,248155,5,8,0:0:0:0:
88,120,248343,2,0,L|156:138,1,70,4|8,1:0|0:0,0:0:0:0:
344,232,248718,1,8,0:0:0:0:
424,120,248905,2,0,L|352:138,1,70,4|8,1:0|0:0,0:0:0:0:
136,320,249280,1,8,0:0:0:0:
376,320,249468,1,4,1:0:0:0:
240,352,249843,5,8,1:0:0:0:
280,320,250030,1,0,1:0:0:0:
176,248,250218,1,8,1:0:0:0:
328,216,250405,1,0,1:0:0:0:
112,144,250593,1,8,1:0:0:0:
384,80,250780,1,0,1:0:0:0:
48,48,250968,2,0,P|110:21|180:49,1,140,4|12,1:0|1:0,0:0:0:0:
451,110,251530,5,0,0:0:0:0:
448,137,251624,1,0,0:0:0:0:
445,164,251718,1,0,1:0:0:0:
256,192,251905,1,2,0:0:0:0:
256,40,252093,1,10,0:0:0:0:
96,208,252280,1,8,0:0:0:0:
92,235,252374,1,0,0:0:0:0:
89,262,252468,1,0,1:0:0:0:
328,160,252655,5,2,0:0:0:0:
184,72,252843,1,10,0:0:0:0:
224,296,253030,1,8,0:0:0:0:
251,300,253124,1,0,0:0:0:0:
278,304,253218,1,0,1:0:0:0:
328,72,253405,1,10,0:0:0:0:
184,160,253593,1,2,0:0:0:0:
400,192,253780,1,8,0:0:0:0:
404,164,253874,1,0,0:0:0:0:
409,136,253968,1,0,1:0:0:0:
168,32,254155,5,2,0:0:0:0:
344,32,254343,1,10,0:0:0:0:
256,280,254530,1,0,0:0:0:0:
256,251,254624,1,0,0:0:0:0:
256,222,254718,1,0,1:0:0:0:
176,80,254905,1,2,0:0:0:0:
336,80,255093,1,10,0:0:0:0:
120,264,255280,1,8,0:0:0:0:
142,247,255374,1,0,0:0:0:0:
165,231,255468,1,0,1:0:0:0:
184,128,255655,5,2,0:0:0:0:
328,128,255843,1,10,0:0:0:0:
399,265,256030,1,8,0:0:0:0:
376,248,256124,1,0,0:0:0:0:
354,230,256218,1,0,1:0:0:0:
256,128,256405,1,10,0:0:0:0:
256,8,256593,1,2,0:0:0:0:
256,200,256780,1,8,0:0:0:0:
256,228,256874,1,0,0:0:0:0:
256,256,256968,2,0,L|256:349,1,70,0|0,1:0|0:0,0:0:0:0:
368,344,257343,5,12,1:0:0:0:
136,288,257530,1,0,0:0:0:0:
416,192,257718,1,0,1:0:0:0:
112,120,257905,2,0,P|160:112|192:88,1,70,0|8,0:0|0:0,0:0:0:0:
312,40,258280,1,8,0:0:0:0:
339,47,258374,1,0,0:0:0:0:
365,55,258468,1,0,1:0:0:0:
72,40,258655,5,8,1:0:0:0:
440,112,259030,1,8,1:0:0:0:
72,184,259405,1,8,1:0:0:0:
440,256,259780,1,12,1:0:0:0:
411,276,259874,1,0,0:0:0:0:
378,290,259968,1,0,0:0:0:0:
343,296,260061,1,0,0:0:0:0:
307,294,260155,1,0,1:0:0:0:
272,286,260249,1,0,0:0:0:0:
239,272,260343,6,0,P|195:321|101:343,1,140,4|0,1:0|1:0,0:0:0:0:
202,139,260905,1,0,0:0:0:0:
226,125,260999,1,0,0:0:0:0:
249,110,261093,1,8,0:0:0:0:
345,166,261280,1,8,0:0:0:0:
146,83,261468,1,0,1:0:0:0:
368,75,261655,1,8,0:0:0:0:
109,183,261843,2,0,P|42:158|29:90,1,140,0|0,1:0|1:0,0:0:0:0:
200,226,262405,1,8,0:0:0:0:
226,235,262499,1,0,0:0:0:0:
252,245,262593,1,8,1:0:0:0:
423,357,262780,2,0,P|356:332|343:264,1,140,4|8,1:0|0:0,0:0:0:0:
350,26,263343,6,0,P|284:41|259:104,1,140,12|0,1:0|1:0,0:0:0:0:
385,206,264093,1,8,0:0:0:0:
350,115,264280,1,8,0:0:0:0:
288,187,264468,1,0,1:0:0:0:
24,208,264843,2,0,P|67:140|145:123,1,140,8|0,0:0|1:0,0:0:0:0:
488,208,265593,2,0,P|444:140|366:123,1,140,8|0,0:0|1:0,0:0:0:0:
232,95,266155,5,0,0:0:0:0:
210,77,266249,1,0,0:0:0:0:
192,64,266343,2,0,P|256:40|320:64,1,140,8|0,0:0|1:0,0:0:0:0:
200,224,267093,1,8,0:0:0:0:
256,304,267280,1,8,0:0:0:0:
312,224,267468,1,0,1:0:0:0:
444,190,267655,1,0,0:0:0:0:
455,164,267749,1,0,0:0:0:0:
465,137,267843,2,0,P|422:137|396:121,1,70,4|8,1:0|0:0,0:0:0:0:
256,312,268218,1,8,0:0:0:0:
41,125,268405,2,0,P|84:125|109:109,1,70,0|8,1:0|0:0,0:0:0:0:
256,320,268780,1,8,0:0:0:0:
291,103,268968,2,0,P|256:112|223:103,1,70,4|0,1:0|0:0,0:0:0:0:
256,30,269343,5,4,1:0:0:0:
342,151,269530,1,0,1:0:0:0:
367,175,269624,1,0,1:0:0:0:
399,188,269718,1,8,1:0:0:0:
167,186,269905,1,0,1:0:0:0:
138,207,269999,1,0,1:0:0:0:
104,217,270093,1,8,1:0:0:0:
385,331,270280,1,0,1:0:0:0:
354,314,270374,1,0,1:0:0:0:
331,287,270468,1,8,1:0:0:0:
189,305,270655,1,0,1:0:0:0:
216,283,270749,1,0,1:0:0:0:
242,259,270843,2,0,L|269:223,3,35,8|0|0|0,1:0|1:0|1:0|1:0,1:0:0:0:
259,213,271218,2,0,L|242:183,3,35,8|0|0|0,1:0|1:0|1:0|1:0,1:0:0:0:
248,166,271593,2,0,L|282:115,3,35,8|0|0|0,1:0|1:0|1:0|1:0,1:0:0:0:
262,119,271968,2,0,L|240:73,3,35,8|0|0|0,1:0|1:0|1:0|1:0,1:0:0:0:
244,59,272343,5,8,1:0:0:0:
222,41,272436,1,0,1:0:0:0:
194,34,272530,1,0,1:0:0:0:
166,31,272624,1,0,1:0:0:0:
138,36,272718,1,8,1:0:0:0:
113,48,272811,1,0,1:0:0:0:
94,68,272905,1,0,1:0:0:0:
88,95,272999,1,0,1:0:0:0:
88,123,273093,1,8,1:0:0:0:
95,149,273186,1,0,1:0:0:0:
113,170,273280,1,0,1:0:0:0:
131,190,273374,1,0,1:0:0:0:
150,210,273468,1,8,1:0:0:0:
168,230,273561,1,0,1:0:0:0:
179,255,273655,1,0,1:0:0:0:
182,282,273749,1,0,1:0:0:0:
178,309,273843,6,0,L|205:349,1,35,8|0,1:0|1:0,1:0:0:0:
321,359,274030,2,0,L|301:329,1,35,0|0,1:0|1:0,1:0:0:0:
250,203,274218,2,0,L|269:232,1,35,8|0,1:0|1:0,1:0:0:0:
388,307,274405,2,0,L|368:277,1,35,0|0,1:0|1:0,1:0:0:0:
295,117,274593,2,0,L|314:146,1,35,8|0,1:0|1:0,1:0:0:0:
449,249,274780,2,0,L|429:219,1,35,0|0,1:0|1:0,1:0:0:0:
342,25,274968,2,0,L|361:54,1,35,8|0,1:0|1:0,1:0:0:0:
512,194,275155,2,0,L|492:164,1,35,0|0,1:0|1:0,1:0:0:0:
509,45,275343,6,0,L|465:40,1,35,2|0,0:0|0:0,0:0:0:0:
421,114,275718,2,0,L|372:123,1,35
360,206,276093,2,0,L|321:224,1,35,0|0,0:0|0:0,0:0:0:0:
221,301,276468,1,0,0:0:0:0:
62,217,276655,1,0,0:0:0:0:
155,80,276843,1,2,0:0:0:0:
165,203,277030,2,0,P|199:200|230:178,2,70
160,65,278155,5,0,0:0:0:0:
69,284,278343,2,0,P|93:283|125:267,1,52.5,2|0,0:0|0:0,0:0:0:0:
145,287,278718,2,0,P|167:295|187:295,1,35
300,226,279093,1,0,0:0:0:0:
316,317,279280,1,0,0:0:0:0:
387,255,279468,1,0,0:0:0:0:
374,160,279655,1,0,0:0:0:0:
463,114,279843,2,0,L|503:92,1,35,2|0,0:0|0:0,0:0:0:0:
414,26,280218,1,0,0:0:0:0:
332,76,280405,2,0,P|313:44|282:24,1,70
80,292,281343,6,0,P|157:294|206:251,2,140,2|0|2,0:0|0:0|0:0,0:0:0:0:
256,48,283593,1,0,0:0:0:0:
432,292,284343,2,0,P|355:294|306:251,1,140,2|0,0:0|0:0,0:0:0:0:
256,352,285468,5,0,0:0:0:0:
114,211,285843,2,0,P|74:195|50:163,1,70,2|0,0:0|0:0,0:0:0:0:
377,61,286405,2,0,P|417:77|441:109,1,70
160,56,287343,6,0,L|111:116,1,70,2|0,0:0|0:0,0:0:0:0:
160,193,287718,2,0,L|128:256,1,70
256,336,288093,1,0,3:0:0:0:
384,256,288280,2,0,P|336:204|326:128,1,140
342,137,288749,1,0,0:0:0:0:
359,137,288843,2,0,P|352:98|333:69,1,70,2|0,0:0|0:0,0:0:0:0:
256,192,289218,1,0,0:0:0:0:
117,138,289405,2,0,P|176:107|192:80,1,70,0|0,0:0|3:0,0:0:0:0:
96,40,289780,1,0,0:0:0:0:
256,312,290155,5,0,0:0:0:0:
272,317,290249,1,0,0:0:0:0:
288,323,290343,2,0,L|352:291,1,70,2|0,0:0|0:0,0:0:0:0:
444,171,290718,2,0,L|368:213,1,70
280,235,291093,1,0,3:0:0:0:
340,145,291280,1,0,0:0:0:0:
220,180,291468,1,0,0:0:0:0:
307,76,291655,1,0,0:0:0:0:
160,124,291843,2,0,P|123:125|86:99,1,70,2|0,0:0|0:0,0:0:0:0:
264,12,292218,1,0,0:0:0:0:
17,237,292405,2,0,P|64:240|96:224,1,70,0|0,0:0|3:0,0:0:0:0:
152,144,292780,1,0,0:0:0:0:
56,336,292968,1,0,0:0:0:0:
248,232,293155,5,0,0:0:0:0:
256,216,293249,1,0,0:0:0:0:
264,200,293343,2,0,P|304:208|336:240,1,70,2|0,0:0|0:0,0:0:0:0:
359,347,293718,1,0,0:0:0:0:
447,257,293905,1,0,0:0:0:0:
248,184,294093,2,0,P|208:176|176:144,1,70,0|0,3:0|0:0,0:0:0:0:
153,37,294468,1,0,0:0:0:0:
65,127,294655,1,0,0:0:0:0:
264,184,294843,2,0,P|272:144|304:112,1,70,2|0,0:0|0:0,0:0:0:0:
415,133,295218,1,0,0:0:0:0:
365,17,295405,1,0,0:0:0:0:
248,200,295593,2,0,P|232:240|200:272,1,70,0|0,3:0|0:0,0:0:0:0:
89,243,295968,1,0,0:0:0:0:
134,360,296155,1,0,0:0:0:0:
256,56,296343,5,4,1:0:0:0:
256,341,296718,5,8,1:0:0:0:
195,309,296905,1,0,1:0:0:0:
317,309,297093,1,8,1:0:0:0:
145,264,297280,1,0,1:0:0:0:
367,264,297468,1,8,1:0:0:0:
108,210,297655,1,0,1:0:0:0:
404,210,297843,1,8,1:0:0:0:
91,146,298030,1,0,1:0:0:0:
421,146,298218,1,8,1:0:0:0:
117,85,298405,1,0,1:0:0:0:
395,85,298593,1,8,1:0:0:0:
178,66,298780,1,0,1:0:0:0:
334,66,298968,1,8,1:0:0:0:
210,212,299155,5,0,0:0:0:0:
255,192,299249,1,0,0:0:0:0:
300,172,299343,1,0,0:0:0:0:
256,336,300093,2,0,L|256:360,7,17.5
256,304,300468,2,0,P|284:255|369:268,1,140,4|4,1:3|1:0,0:0:0:0:
353,147,301030,1,0,0:0:0:0:
506,219,301218,1,4,1:3:0:0:
496,80,301405,2,0,P|424:88|352:40,1,140,4|4,0:3|0:3,0:0:0:0:
27,65,301968,6,0,L|74:48,1,35,0|0,1:3|0:0,0:0:0:0:
267,45,302155,2,0,L|220:62,1,35,0|0,1:0|1:0,0:0:0:0:
141,250,302343,5,4,1:0:0:0:
88,138,302530,1,0,0:0:0:0:
180,257,302718,1,0,1:0:0:0:
193,122,302905,1,0,0:0:0:0:
218,263,303093,1,8,0:0:0:0:
301,105,303280,1,0,0:0:0:0:
255,268,303468,1,0,1:0:0:0:
407,89,303655,1,0,0:0:0:0:
293,277,303843,2,0,P|324:280|362:270,1,70,8|0,0:0|0:0,0:0:0:0:
512,73,304218,1,0,1:0:0:0:
216,329,304405,2,0,P|184:331|139:303,1,70,0|8,0:0|0:0,0:0:0:0:
122,293,304686,1,0,1:0:0:0:
105,261,304780,1,0,1:0:0:0:
256,94,304968,1,8,0:0:0:0:
302,283,305155,5,0,1:0:0:0:
309,299,305249,1,0,1:0:0:0:
318,315,305343,2,0,P|361:328|399:311,1,70,12|0,1:0|0:0,0:0:0:0:
350,158,305718,1,8,1:0:0:0:
164,193,305905,1,0,0:0:0:0:
448,72,306093,2,8,P|416:40|384:32,1,70,8|0,0:0|0:0,0:0:0:0:
160,160,306468,1,8,1:0:0:0:
355,191,306655,1,0,0:0:0:0:
64,72,306843,2,8,P|96:40|128:32,1,70,8|0,0:0|0:0,0:0:0:0:
358,217,307218,1,8,1:0:0:0:
158,135,307405,1,0,0:0:0:0:
210,282,307593,1,8,0:0:0:0:
202,299,307686,1,0,1:0:0:0:
194,315,307780,2,0,P|161:327|118:317,1,70,0|8,0:0|0:0,0:0:0:0:
256,96,308155,1,0,0:0:0:0:
334,291,308343,2,0,P|293:344|219:337,1,140,4|8,1:0|1:0,0:0:0:0:
256,80,308905,1,0,0:0:0:0:
256,272,309093,1,8,0:0:0:0:
152,64,309468,5,4,1:0:0:0:
344,16,309655,1,0,0:0:0:0:
256,168,309843,2,0,L|256:80,1,70,8|0,1:0|1:0,0:0:0:0:
472,176,310218,1,8,1:0:0:0:
400,136,310405,1,0,1:0:0:0:
40,176,310593,1,8,1:0:0:0:
112,136,310780,1,0,1:0:0:0:
257,21,310968,1,12,1:0:0:0:
201,354,311343,6,0,P|150:308|144:240,1,140,4|0,1:0|0:0,0:0:0:0:
256,192,311905,1,8,0:0:0:0:
448,264,312093,1,0,1:0:0:0:
256,56,312468,1,0,0:0:0:0:
64,160,312843,6,0,P|104:160|134:138,1,70,8|0,0:0|1:0,0:0:0:0:
56,48,313218,1,0,0:0:0:0:
256,184,313405,1,8,0:0:0:0:
448,160,313593,2,0,P|405:155|368:128,1,70,0|0,1:0|0:0,0:0:0:0:
456,48,313968,1,0,0:0:0:0:
147,282,314155,1,8,0:0:0:0:
159,294,314249,1,0,0:0:0:0:
171,305,314343,2,0,P|203:326|252:327,1,70,12|0,1:0|0:0,0:0:0:0:
257,213,314905,1,8,0:0:0:0:
375,38,315093,2,0,P|408:58|431:86,1,70,0|0,1:0|0:0,0:0:0:0:
400,265,315468,2,0,P|366:243|342:208,1,70,8|0,0:0|0:0,0:0:0:0:
256,32,315843,5,4,1:0:0:0:
94,266,316030,6,0,L|136:289,1,35,4|0,1:3|1:0,0:0:0:0:
230,346,316218,2,0,L|195:330,1,35,8|0,1:0|1:0,0:0:0:0:
141,100,316405,2,0,L|156:137,1,35,4|0,1:3|1:0,0:0:0:0:
224,310,316593,2,0,L|194:273,1,35,4|0,1:0|1:0,0:0:0:0:
275,33,316780,2,0,L|272:73,1,35,4|0,1:3|1:0,0:0:0:0:
233,273,316968,2,0,L|223:238,1,35,12|0,1:0|1:0,0:0:0:0:
449,29,317155,2,0,L|428:70,1,35,4|0,1:3|1:0,0:0:0:0:
462,351,317343,6,0,P|392:329|346:271,1,140,4|0,1:0|0:0,0:0:0:0:
48,69,317905,1,0,1:0:0:0:
48,51,317999,1,0,1:0:0:0:
50,33,318093,2,0,P|120:55|166:113,1,140,4|0,1:0|0:0,0:0:0:0:
428,257,318655,1,0,1:0:0:0:
442,267,318749,1,0,1:0:0:0:
456,277,318843,2,0,P|410:328|343:348,1,140,4|0,1:0|0:0,0:0:0:0:
84,127,319405,1,0,1:0:0:0:
70,117,319499,1,0,1:0:0:0:
56,107,319593,2,0,P|101:55|168:35,1,140,4|0,1:0|0:0,0:0:0:0:
256,256,320155,1,8,0:0:0:0:
256,48,320343,5,4,1:0:0:0:
144,214,320530,1,8,0:0:0:0:
28,262,320718,1,8,0:0:0:0:
256,56,320905,1,4,1:0:0:0:
368,214,321093,1,8,0:0:0:0:
484,262,321280,1,8,0:0:0:0:
256,64,321468,2,0,P|272:104|312:120,1,70,4|0,1:0|0:0,0:0:0:0:
320,127,321749,1,0,0:0:0:0:
318,155,321843,2,0,P|386:167|460:126,1,140,8|8,0:0|1:0,0:0:0:0:
378,54,322405,1,0,0:0:0:0:
462,256,322593,2,0,P|428:260|392:279,1,70,4|4,3:0|1:3,0:0:0:0:
384,288,322874,1,0,0:0:0:0:
374,302,322968,1,12,1:0:0:0:
256,320,323155,5,0,0:0:0:0:
32,272,323343,2,0,P|104:264|160:216,1,140,4|8,1:0|0:0,0:0:0:0:
320,256,323905,1,0,0:0:0:0:
199,87,324093,1,8,0:0:0:0:
232,224,324468,5,8,0:0:0:0:
312,40,324655,1,0,0:0:0:0:
448,200,324843,2,0,P|368:192|317:148,1,140,12|0,0:1|0:0,0:0:0:0:
413,83,325405,1,0,0:0:0:0:
191,170,325593,1,8,0:0:0:0:
167,185,325686,1,0,3:0:0:0:
143,199,325780,1,0,0:0:0:0:
51,139,325968,5,8,0:0:0:0:
253,259,326155,1,0,0:0:0:0:
32,352,326343,2,0,P|103:342|168:283,1,140,4|0,0:1|0:0,0:0:0:0:
60,248,326905,1,0,0:0:0:0:
267,342,327093,1,0,0:0:0:0:
375,301,327468,5,0,0:0:0:0:
174,203,327655,1,0,0:0:0:0:
378,94,327843,2,0,P|451:87|516:28,1,140,12|8,0:1|0:0,0:0:0:0:
144,35,328405,2,0,P|71:42|6:101,1,140,0|8,3:0|0:0,0:0:0:0:
256,72,328968,1,0,0:0:0:0:
179,109,329155,5,0,0:0:0:0:
172,125,329249,1,0,0:0:0:0:
165,141,329343,2,0,P|135:164|100:171,1,70,8|0,0:0|0:0,0:0:0:0:
342,170,329718,2,0,P|372:194|412:203,1,70,8|0,0:0|0:0,0:0:0:0:
118,239,330093,2,0,P|87:256|49:262,1,70,8|0,0:0|0:0,0:0:0:0:
374,264,330468,2,0,P|404:285|448:295,1,70,8|0,0:0|0:0,0:0:0:0:
413,320,330749,1,0,0:0:0:0:
391,348,330843,2,0,L|319:368,1,70,8|0,0:0|0:0,0:0:0:0:
121,348,331218,2,0,L|193:368,1,70,8|0,0:0|0:0,0:0:0:0:
256,256,331593,2,0,L|256:337,1,70,8|0,0:0|0:0,0:0:0:0:
256,152,331968,6,0,L|256:56,1,70,8|0,0:0|0:0,0:0:0:0:
291,83,332249,1,0,1:0:0:0:
326,84,332343,2,0,L|326:8,1,70,4|0,1:0|0:0,0:0:0:0:
326,218,332718,1,8,0:0:0:0:
326,292,332905,1,0,0:0:0:0:
418,14,333093,2,0,L|418:84,1,70,8|0,0:0|0:0,0:0:0:0:
418,218,333468,1,8,0:0:0:0:
418,292,333655,1,0,0:0:0:0:
256,320,333843,6,0,L|183:281,1,70,8|0,0:0|0:0,0:0:0:0:
38,254,334218,1,8,0:0:0:0:
63,242,334311,1,0,0:0:0:0:
88,231,334405,1,0,0:0:0:0:
244,141,334593,2,0,L|169:93,1,70,8|0,0:0|0:0,0:0:0:0:
0,98,334968,1,8,0:0:0:0:
25,86,335061,1,0,0:0:0:0:
51,76,335155,1,0,0:0:0:0:
260,231,335343,6,0,L|329:201,1,70,8|0,0:0|0:0,0:0:0:0:
496,84,335718,1,8,1:0:0:0:
471,97,335811,1,0,1:0:0:0:
446,109,335905,1,0,1:0:0:0:
421,122,335999,1,0,1:0:0:0:
396,135,336093,5,8,1:0:0:0:
404,161,336186,1,0,1:0:0:0:
413,187,336280,1,0,1:0:0:0:
422,213,336374,1,0,1:0:0:0:
429,239,336468,5,8,1:0:0:0:
404,252,336561,1,0,1:0:0:0:
379,264,336655,1,0,1:0:0:0:
354,278,336749,1,0,1:0:0:0:
329,290,336843,6,0,L|297:265,1,35,8|0,1:0|1:0,0:0:0:0:
238,81,337031,2,0,L|274:120,1,35,0|0,1:0|1:0,0:0:0:0:
143,319,337218,2,0,L|111:288,1,35,0|0,1:0|1:0,0:0:0:0:
47,40,337405,2,0,L|90:87,1,35,0|0,1:0|1:0,0:0:0:0:
64,176,337593,5,2,0:0:0:0:
448,176,337780,1,0,0:0:0:0:
256,16,338155,1,0,0:0:0:0:
256,120,338343,6,4,B|296:56|360:48|400:72|416:120|416:120|432:176|400:272|256:344|256:344|112:272|80:176|96:120|96:120|112:72|152:48|216:56|256:120,1,980,4|8,1:0|0:0,2:0:0:0:
180,178,341155,5,0,0:0:0:0:
192,190,341249,1,0,0:0:0:0:
204,202,341343,2,0,B|232:220|256:248|256:248|280:220|308:200,1,140,8|0,0:0|1:0,0:0:0:0:
402,265,341905,1,0,0:0:0:0:
256,120,342093,2,0,B|240:100|236:80|236:80|188:88|136:80,1,140,8|0,0:0|1:0,0:0:0:0:
22,306,342655,1,0,0:0:0:0:
39,308,342749,1,0,0:0:0:0:
56,310,342843,2,0,P|96:309|136:272,1,70,8|0,0:0|0:0,0:0:0:0:
256,192,343218,1,8,1:0:0:0:
424,72,343405,1,4,1:0:0:0:
256,40,343593,1,8,0:0:0:0:
223,51,343686,1,0,1:0:0:0:
190,65,343780,1,0,0:0:0:0:
256,344,343968,1,8,0:0:0:0:
289,333,344061,1,0,0:0:0:0:
322,319,344155,1,0,0:0:0:0:
80,192,344343,6,0,L|168:224,1,70,4|8,1:0|0:0,0:0:0:0:
256,136,344718,1,8,0:0:0:0:
432,192,344905,2,0,L|344:224,1,70,4|8,1:0|0:0,0:0:0:0:
256,144,345280,1,8,0:0:0:0:
48,136,345468,2,0,L|120:152,1,70,4|8,1:0|0:0,0:0:0:0:
256,152,345843,1,8,0:0:0:0:
464,136,346030,2,0,L|392:152,1,70,4|8,1:0|0:0,0:0:0:0:
256,160,346405,1,8,0:0:0:0:
16,80,346593,2,0,L|88:88,1,70,0|8,1:0|0:0,0:0:0:0:
496,80,346968,2,0,L|424:88,1,70,4|0,1:0|0:0,0:0:0:0:
136,224,347343,5,8,0:0:0:0:
376,224,347530,1,0,0:0:0:0:
200,331,347718,2,0,P|224:307|236:269,1,70,0|0,1:0|0:0,0:0:0:0:
312,80,348093,2,0,P|288:104|276:142,1,70,8|0,1:0|0:0,0:0:0:0:
275,155,348374,1,8,0:0:0:0:
278,172,348468,1,4,0:3:0:0:
312,331,348655,1,8,0:0:0:0:
210,99,348843,6,0,P|184:123|144:135,1,70,0|8,1:0|0:0,0:0:0:0:
13,160,349218,1,8,0:0:0:0:
302,99,349405,2,0,P|328:123|368:135,1,70,0|8,1:0|0:0,0:0:0:0:
499,160,349780,1,8,0:0:0:0:
475,284,349968,2,0,P|403:258|352:185,1,140,4|8,1:0|0:0,0:0:0:0:
424,72,350530,1,8,0:0:0:0:
264,264,350718,1,0,0:0:0:0:
256,40,350905,1,8,0:0:0:0:
80,224,351093,1,0,1:0:0:0:
256,152,351280,5,0,0:0:0:0:
282,143,351374,1,0,0:0:0:0:
308,134,351468,1,0,0:0:0:0:
179,95,351655,1,8,0:0:0:0:
375,203,351843,2,0,L|462:179,1,70,8|0,0:0|1:0,0:0:0:0:
497,89,352323,5,0,0:0:0:0:
405,299,352563,1,0,1:0:0:0:
327,332,352803,1,0,1:0:0:0:
316,251,353043,1,8,1:3:0:0:
232,278,353283,1,4,1:3:0:0:
144,298,353523,2,0,P|165:208|264:138,1,210
256,48,354723,5,0,0:0:0:0:
256,192,354843,12,0,362403,0:0:0:0:
