osu file format v14

[General]
AudioFilename: audio.mp3
AudioLeadIn: 0
PreviewTime: 275397
Countdown: 0
SampleSet: Soft
StackLeniency: 0.5
Mode: 0
LetterboxInBreaks: 0
WidescreenStoryboard: 0

[Editor]
DistanceSpacing: 1
BeatDivisor: 4
GridSize: 32
TimelineZoom: 1.9

[Metadata]
Title:Sayonara Memories
TitleUnicode:さよならメモリーズ
Artist:supercell
ArtistUnicode:supercell
Creator:Moeri
Version:Mankai no Sakura
Source:
Tags:Today Is A Beautiful Moecho Day SME J-Pop Japanese Nagi Yanagi Ryo
BeatmapID:925724
BeatmapSetID:424888

[Difficulty]
HPDrainRate:6.6
CircleSize:4.2
OverallDifficulty:8.4
ApproachRate:9.1
SliderMultiplier:1.6
SliderTickRate:1

[Events]
//Background and Video events
0,0,"BG.jpg",0,0
//Break Periods
2,227614,238813
2,275597,286841
//Storyboard Layer 0 (Background)
//Storyboard Layer 1 (Fail)
//Storyboard Layer 2 (Pass)
//Storyboard Layer 3 (Foreground)
//Storyboard Sound Samples

[TimingPoints]
605,750,4,2,1,100,1,0
605,-133.333333333333,4,2,1,35,0,0
4345,750,4,2,1,35,1,0
4345,-133.333333333333,4,2,1,35,0,0
5105,750,4,2,1,35,1,0
5105,-133.333333333333,4,2,1,35,0,0
8159,750,4,2,1,35,1,0
8159,-133.333333333333,4,2,1,35,0,0
8931,833.333333333333,4,2,1,35,1,0
11068,833.333333333333,4,2,1,35,1,0
11594,833.333333333333,4,2,1,35,1,0
13677,-100,4,2,1,5,0,0
14141,731.707317073171,4,2,1,35,1,0
15713,833.333333333333,4,2,1,35,1,0
17421,375,4,2,1,50,1,0
17421,-133.333333333333,4,2,1,50,0,0
17796,-133.333333333333,4,2,1,20,0,0
18171,-133.333333333333,4,2,1,50,0,0
18546,-133.333333333333,4,2,1,20,0,0
18921,-133.333333333333,4,2,1,50,0,0
19296,-133.333333333333,4,2,1,25,0,0
19671,-133.333333333333,4,2,1,50,0,0
20046,-133.333333333333,4,2,1,25,0,0
20233,-133.333333333333,4,2,1,50,0,0
20421,-133.333333333333,4,2,1,65,0,0
20796,-133.333333333333,4,2,1,35,0,0
20819,-133.333333333333,4,2,1,65,0,0
21546,-133.333333333333,4,2,1,35,0,0
21569,-133.333333333333,4,2,1,65,0,0
22296,-133.333333333333,4,2,1,40,0,0
22319,-133.333333333333,4,2,1,65,0,0
22858,-200,4,2,1,70,0,0
23423,375,4,2,1,100,1,0
23423,-133.333333333333,4,2,1,75,0,0
33735,-200,4,2,1,70,0,0
34673,-200,4,2,1,75,0,0
35421,375,4,2,1,80,1,0
35421,-100,4,2,1,80,0,1
41400,375,4,2,1,80,1,0
41400,-100,4,2,1,80,0,1
44400,-100,4,2,1,80,0,0
47400,-100,4,2,1,50,0,0
56400,-133.333333333333,4,2,1,60,0,0
57912,375,4,2,1,60,1,0
59412,-133.333333333333,4,2,1,60,0,0
66068,-133.333333333333,4,2,1,40,0,0
66091,-133.333333333333,4,2,1,60,0,0
94287,-149.253731343284,4,2,1,55,0,0
94662,-172.413793103448,4,2,1,50,0,0
95037,-200,4,2,1,45,0,0
95224,-200,4,2,1,60,0,0
95412,-133.333333333333,4,2,1,60,0,0
101412,-100,4,2,1,80,0,1
125412,-200,4,2,1,65,0,0
130662,-111.111111111111,4,2,1,65,0,0
143412,-133.333333333333,4,2,1,60,0,0
149224,-133.333333333333,4,2,1,25,0,0
149247,-133.333333333333,4,2,1,60,0,0
152037,-133.333333333333,4,2,1,20,0,0
152224,-133.333333333333,4,2,1,25,0,0
152427,375,4,2,1,30,1,0
152427,-133.333333333333,4,2,1,30,0,0
152802,-133.333333333333,4,2,1,38,0,0
153177,-133.333333333333,4,2,1,45,0,0
153552,-133.333333333333,4,2,1,53,0,0
153927,-200,4,2,1,60,0,0
155414,375,4,2,1,60,1,0
155414,-133.333333333333,4,2,1,60,0,0
190289,-149.253731343284,4,2,1,55,0,0
190664,-172.413793103448,4,2,1,50,0,0
191039,-200,4,2,1,45,0,0
191226,-200,4,2,1,60,0,0
191414,-133.333333333333,4,2,1,65,0,0
197414,-100,4,2,1,65,0,1
221414,-133.333333333333,4,2,1,65,0,0
224414,-166.666666666667,4,2,1,65,0,0
239397,375,4,2,1,65,1,0
239397,-166.666666666667,4,2,1,65,0,0
245416,394.736842105263,4,2,1,65,1,0
245992,384.615384615385,4,2,1,65,1,0
246545,384.615384615385,4,2,1,65,1,0
247097,375,4,2,1,65,1,0
247631,375,4,2,1,65,1,0
247847,375,4,2,1,65,1,0
247847,-133.333333333333,4,2,1,65,0,0
248397,375,4,2,1,65,1,0
249897,-100,4,2,1,65,0,0
251022,-166.666666666667,4,2,1,65,0,0
251397,-117.647058823529,4,2,1,65,0,0
259834,-166.666666666667,4,2,1,65,0,0
260397,-117.647058823529,4,2,1,65,0,0
269410,375,4,1,0,50,1,0
269410,-117.647058823529,4,2,1,50,0,0
272022,375,4,1,0,50,1,0
272022,-117.647058823529,4,2,1,53,0,0
272397,-117.647058823529,4,2,1,55,0,0
273147,-117.647058823529,4,2,1,60,0,0
273897,-117.647058823529,4,2,1,63,0,0
274272,-117.647058823529,4,2,1,65,0,0
274647,-117.647058823529,4,2,1,68,0,0
274834,-117.647058823529,4,2,1,70,0,0
275209,-117.647058823529,4,2,1,75,0,0
275397,-117.647058823529,4,2,1,50,0,0
287425,375,4,2,1,65,1,0
287425,-166.666666666667,4,2,1,50,0,0
291456,-166.666666666667,4,2,1,20,0,0
291550,-166.666666666667,4,2,1,50,0,0
293425,-153.846153846154,4,2,1,60,0,0
296425,-125,4,2,1,65,0,0
297155,375,4,2,1,65,1,0
297155,-125,4,2,1,65,0,0
297518,375,4,2,1,65,1,0
297518,-125,4,2,1,65,0,0
297899,375,4,2,1,80,1,0
297899,-100,4,2,1,80,0,1
299234,-133.333333333333,4,2,1,65,0,0
300899,-100,4,2,1,65,0,1
311399,-133.333333333333,4,2,1,65,0,0
317399,-166.666666666667,4,2,1,65,0,1
317422,-166.666666666667,4,2,1,65,0,0
318149,-153.846153846154,4,2,1,65,0,1
318172,-153.846153846154,4,2,1,65,0,0
318899,-142.857142857143,4,2,1,65,0,1
318922,-142.857142857143,4,2,1,65,0,0
319649,-133.333333333333,4,2,1,65,0,1
319672,-133.333333333333,4,2,1,65,0,0
320399,-125,4,2,1,65,0,1
320422,-125,4,2,1,65,0,0
323399,-100,4,2,1,65,0,1
329423,375,4,1,0,50,1,0
329423,-153.846153846154,4,2,1,65,0,0
333923,-133.333333333333,4,2,1,65,0,0
335399,375,4,1,0,50,1,0
335399,-133.333333333333,4,2,1,65,0,0
338439,375,4,2,1,65,1,1
338439,-100,4,2,1,65,0,1
347064,-133.333333333333,4,2,1,65,0,1
347439,-133.333333333333,4,2,1,65,0,0
347970,375,4,2,1,65,1,0
348345,-133.333333333333,4,2,1,65,0,0
348907,375,4,2,1,65,1,0
348907,-133.333333333333,4,2,1,65,0,0
350997,394.736842105263,4,2,1,60,1,0
350997,-142.857142857143,4,2,1,60,0,0
351985,431.654676258993,4,2,1,60,1,0
351985,-158.730158730159,4,2,1,60,0,0
352870,461.538461538462,4,2,1,60,1,0
352870,-181.818181818182,4,2,1,60,0,0
353331,-200,4,2,1,60,0,0
354788,480,4,2,1,60,1,0
362480,-100,4,2,1,5,0,0

[HitObjects]
256,60,605,6,0,P|249:89|255:118,1,60.0000022888184,2|0,0:0|0:0,0:0:0:0:
381,151,1355,2,0,P|351:154|325:169,1,60.0000022888184,2|0,0:0|0:0,0:0:0:0:
333,298,2105,2,0,P|321:271|299:251,1,60.0000022888184,2|0,0:0|0:0,0:0:0:0:
178,298,2855,2,0,P|200:278|212:251,1,60.0000022888184,2|0,0:0|0:0,0:0:0:0:
130,151,3605,6,0,P|156:166|185:169,1,60.0000022888184,2|0,0:0|0:0,0:0:0:0:
354,103,4345,2,0,P|328:118|310:142,1,60.0000022888184,2|0,0:0|0:0,0:0:0:0:
271,263,4907,1,0,0:0:0:0:
283,321,5105,2,0,P|283:291|271:263,1,60.0000022888184,2|0,0:0|0:0,0:0:0:0:
185,169,5855,6,0,L|121:166,1,60.0000022888184,2|0,0:0|0:0,0:0:0:0:
238,67,6605,2,0,L|368:60,1,120.000004577637,2|2,0:0|0:0,0:0:0:0:
457,156,7730,1,0,0:0:0:0:
498,69,8159,6,0,P|470:58|440:59,1,60.0000022888184,2|0,0:0|0:0,0:0:0:0:
336,149,8931,2,0,P|299:160|260:151,1,80,2|0,0:0|0:0,0:0:0:0:
135,55,9764,6,0,L|145:214,1,160,2|2,0:0|0:0,0:0:0:0:
344,318,11068,2,0,L|350:265,1,53.3333333333333,2|0,0:0|0:0,0:0:0:0:
256,192,11594,1,2,0:0:0:0:
256,192,11802,12,0,13677,0:0:0:0:
256,192,14141,5,2,0:0:0:0:
256,192,15713,5,2,0:0:0:0:
256,192,17421,6,0,L|375:197,1,120.000004577637,0|0,0:0|1:0,0:0:0:0:
420,140,18171,2,0,L|349:143,1,60.0000022888184
256,192,18546,1,0,1:0:0:0:
256,192,18921,6,0,L|136:197,1,120.000004577637,0|0,0:0|1:0,0:0:0:0:
92,140,19671,2,0,L|163:143,1,60.0000022888184
256,192,20046,1,0,1:0:0:0:
228,352,20233,2,0,L|233:322,1,30.0000011444092
290,275,20421,6,0,L|170:269,2,120.000004577637,0|0|0,0:0|1:0|0:0,0:0:0:0:
430,142,21358,1,0,0:0:0:0:
469,217,21546,2,0,P|427:228|385:213,1,90.0000034332277,0|0,1:0|0:0,0:0:0:0:
343,141,21921,6,0,L|347:170,1,30.0000011444092
319,1,22108,2,0,L|314:30,1,30.0000011444092
246,93,22296,2,0,L|186:89,2,60.0000022888184,0|0|0,1:0|0:0|0:0,0:0:0:0:
343,141,22858,6,0,L|395:138,2,40,0|8|0,3:0|0:0|0:0,0:0:0:0:
374,240,23421,5,4,3:2:0:0:
273,218,23610,1,0,0:0:0:0:
343,141,23798,1,2,0:0:0:0:
374,240,23985,2,0,L|371:299,1,60.0000022888184
209,366,24360,5,0,3:0:0:0:
139,308,24548,1,2,0:0:0:0:
55,340,24735,1,0,0:0:0:0:
71,361,25110,5,0,3:0:0:0:
119,285,25298,1,2,0:0:0:0:
47,191,25485,2,0,P|39:162|43:132,2,60.0000022888184,0|0|0,0:0|0:0|3:0,0:0:0:0:
100,264,26048,1,2,0:0:0:0:
169,158,26235,6,0,L|173:134,3,20.0000007629395
246,202,26610,1,0,3:0:0:0:
326,160,26798,1,2,0:0:0:0:
323,70,26985,1,0,0:0:0:0:
486,165,27360,5,0,3:0:0:0:
406,206,27548,1,2,0:0:0:0:
246,114,27735,1,8,0:0:0:0:
380,320,28110,5,0,3:0:0:0:
294,292,28298,1,2,0:0:0:0:
246,114,28485,1,8,0:0:0:0:
196,355,28860,5,0,3:0:0:0:
154,274,29048,1,2,3:2:0:0:
201,191,29235,1,0,3:0:0:0:
201,191,29423,6,0,L|141:190,2,60.0000022888184,4|0|2,3:2|0:0|3:2,0:0:0:0:
332,99,29985,2,0,L|392:98,1,60.0000022888184,0|0,0:0|3:0,0:0:0:0:
267,261,30360,1,0,0:0:0:0:
141,190,30548,2,0,L|201:191,1,60.0000022888184,2|0,3:2|0:0,0:0:0:0:
347,192,30923,5,0,3:0:0:0:
261,131,31110,2,0,P|253:103|258:73,1,60.0000022888184,0|2,0:0|3:2,0:0:0:0:
347,192,31485,2,0,L|407:191,1,60.0000022888184,0|0,0:0|3:0,0:0:0:0:
267,261,31860,1,0,0:0:0:0:
201,191,32048,2,0,L|141:190,1,60.0000022888184,2|0,3:2|0:0,0:0:0:0:
76,237,32423,5,0,3:0:0:0:
137,309,32610,1,0,0:0:0:0:
75,138,32798,1,2,3:2:0:0:
18,316,32985,2,0,L|150:309,1,120.000004577637
137,309,33548,1,2,3:2:0:0:
259,255,33735,6,0,B|264:289|264:289|244:370|244:370|231:330,1,160,12|0,0:0|0:0,0:0:0:0:
221,302,34673,5,14,0:0:0:0:
395,145,34860,1,2,0:0:0:0:
382,168,35421,6,0,P|342:169|306:152,1,80,6|0,3:2|0:0,0:0:0:0:
360,86,35796,1,8,1:2:0:0:
256,219,35983,1,0,0:0:0:0:
360,86,36171,2,0,L|496:77,1,120,2|0,3:2|0:0,0:0:0:0:
502,76,36546,2,0,L|494:155,1,80,8|0,1:2|0:0,0:0:0:0:
374,280,36921,5,2,3:2:0:0:
367,183,37108,1,0,0:0:0:0:
442,341,37296,2,0,P|392:372|334:362,1,120,8|0,1:2|0:0,0:0:0:0:
307,345,37671,2,0,P|270:334|230:338,1,80,2|0,3:2|0:0,0:0:0:0:
152,379,38046,1,8,1:2:0:0:
68,218,38233,1,0,0:0:0:0:
17,282,38421,6,0,P|52:300|91:297,1,80,2|0,3:2|0:0,0:0:0:0:
255,221,38796,1,8,1:2:0:0:
173,259,38983,1,0,0:0:0:0:
337,183,39171,2,0,P|376:181|410:200,1,80,2|0,3:2|0:0,0:0:0:0:
349,339,39546,2,0,L|356:259,1,80,8|0,1:2|0:0,0:0:0:0:
231,60,39921,5,2,3:2:0:0:
175,189,40108,1,0,0:0:0:0:
255,221,40296,2,0,L|247:141,1,80,8|0,1:2|0:0,0:0:0:0:
185,275,40671,5,10,3:2:0:0:
188,283,40765,2,0,P|217:308|256:314,1,80,8|0,0:0|0:0,0:0:0:0:
326,268,41046,1,8,1:2:0:0:
346,256,41140,1,8,0:0:0:0:
371,253,41233,1,8,0:0:0:0:
394,257,41327,1,8,0:0:0:0:
431,278,41400,5,6,1:2:0:0:
373,351,41587,1,0,3:2:0:0:
415,164,41775,1,0,3:2:0:0:
512,329,41962,1,12,1:2:0:0:
293,188,42150,5,2,3:2:0:0:
351,261,42337,1,0,3:2:0:0:
309,74,42525,1,12,1:2:0:0:
212,239,42712,1,0,3:2:0:0:
116,88,42900,5,2,3:2:0:0:
174,15,43087,1,12,1:2:0:0:
132,202,43275,1,0,3:2:0:0:
35,37,43462,1,0,3:2:0:0:
316,88,43650,5,10,1:2:0:0:
258,15,43837,1,0,3:2:0:0:
300,202,44025,1,12,1:2:0:0:
397,37,44212,1,0,3:2:0:0:
420,32,44306,1,0,3:2:0:0:
443,38,44400,5,6,3:2:0:0:
316,88,44587,1,0,3:2:0:0:
102,40,44775,5,0,3:2:0:0:
214,137,44962,1,0,3:2:0:0:
316,88,45150,5,2,3:2:0:0:
272,221,45337,1,8,1:2:0:0:
214,137,45525,5,8,1:2:0:0:
255,368,45712,1,8,1:2:0:0:
315,297,45900,5,10,1:2:0:0:
136,184,46087,2,0,L|52:181,1,80,0|0,3:0|3:0,0:0:0:0:
197,297,46462,5,8,1:2:0:0:
376,184,46650,2,0,L|416:183,1,40,2|0,3:2|0:0,0:0:0:0:
305,121,46837,2,0,L|265:122,1,40,2|0,3:2|0:0,0:0:0:0:
221,208,47025,5,8,1:2:0:0:
215,231,47119,1,8,1:2:0:0:
209,254,47212,1,8,1:2:0:0:
203,277,47306,1,8,1:2:0:0:
197,297,47400,5,6,3:2:0:0:
271,356,47775,1,0,3:2:0:0:
363,328,48150,1,0,3:2:0:0:
386,234,48525,1,0,3:2:0:0:
325,159,48900,5,2,3:2:0:0:
481,230,49275,1,0,3:2:0:0:
386,234,49650,1,0,3:2:0:0:
325,159,50025,1,0,3:2:0:0:
360,0,50400,5,2,3:2:0:0:
325,159,50775,1,0,3:2:0:0:
242,208,51150,1,0,3:2:0:0:
152,173,51525,1,0,3:2:0:0:
240,294,51900,5,2,3:2:0:0:
63,364,52275,1,0,3:2:0:0:
240,294,52650,1,0,3:2:0:0:
325,337,53025,1,0,3:2:0:0:
407,287,53400,5,2,3:2:0:0:
399,191,53775,1,0,3:2:0:0:
311,151,54150,1,0,3:2:0:0:
228,200,54525,1,0,3:2:0:0:
244,8,54900,5,2,3:2:0:0:
236,104,55275,1,0,3:2:0:0:
148,144,55650,1,0,3:2:0:0:
65,95,56025,1,0,3:2:0:0:
12,300,56400,6,0,L|71:294,1,60.0000022888184,2|0,3:2|0:0,0:0:0:0:
149,285,56775,2,0,L|208:279,1,60.0000022888184,0|0,3:0|0:0,0:0:0:0:
286,270,57150,2,0,L|345:264,1,60.0000022888184,0|0,3:0|0:0,0:0:0:0:
423,255,57525,2,0,L|482:249,1,60.0000022888184,0|0,3:0|0:0,0:0:0:0:
149,285,57912,5,10,1:2:0:0:
174,305,58849,5,8,1:2:0:0:
171,97,59037,1,8,1:2:0:0:
155,121,59412,6,0,L|95:115,1,60.0000022888184,6|0,3:2|0:0,0:0:0:0:
32,48,59787,1,8,1:2:0:0:
144,210,59974,1,0,0:0:0:0:
247,86,60162,2,0,P|276:79|305:82,1,60.0000022888184,0|0,3:0|0:0,0:0:0:0:
436,166,60537,2,0,P|465:173|494:170,1,60.0000022888184,8|0,1:2|0:0,0:0:0:0:
382,14,60912,6,0,L|386:103,1,90.0000034332277,0|0,3:0|0:0,0:0:0:0:
373,123,61287,1,8,1:2:0:0:
278,196,61474,1,0,0:0:0:0:
89,123,61662,2,0,P|130:107|173:115,1,90.0000034332277,0|0,3:0|0:0,0:0:0:0:
278,196,62037,2,0,L|281:255,1,60.0000022888184,8|0,1:2|0:0,0:0:0:0:
229,368,62412,6,0,L|318:360,1,90.0000034332277,2|0,3:2|0:0,0:0:0:0:
389,383,62787,2,0,P|393:354|385:325,1,60.0000022888184,8|0,1:2|0:0,0:0:0:0:
278,196,63162,1,0,3:0:0:0:
331,261,63349,1,0,0:0:0:0:
225,131,63537,2,0,L|135:123,1,90.0000034332277,8|0,1:2|0:0,0:0:0:0:
64,147,63912,6,0,P|59:117|67:88,1,60.0000022888184,2|0,3:2|0:0,0:0:0:0:
244,54,64287,2,0,P|271:64|292:85,1,60.0000022888184,8|0,1:2|0:0,0:0:0:0:
201,204,64662,5,10,3:2:0:0:
195,210,64756,2,0,L|135:204,1,60.0000022888184,8|0,0:0|0:0,0:0:0:0:
269,256,65037,2,0,P|312:261|351:240,1,90.0000034332277,8|0,1:2|0:0,0:0:0:0:
371,217,65412,6,0,L|366:281,1,60.0000022888184,2|0,3:2|0:0,0:0:0:0:
319,149,65787,1,8,1:2:0:0:
437,40,65974,2,0,L|480:37,2,30.0000011444092,0|8|0,0:0|0:0|3:0,0:0:0:0:
319,149,66349,1,0,0:0:0:0:
239,99,66537,2,0,P|209:92|180:98,1,60.0000022888184,8|0,1:2|0:0,0:0:0:0:
58,203,66912,5,2,3:2:0:0:
111,284,67099,1,0,0:0:0:0:
58,203,67287,2,0,L|118:203,1,60.0000022888184,8|0,1:2|0:0,0:0:0:0:
194,347,67662,2,0,L|254:347,1,60.0000022888184,0|0,3:0|0:0,0:0:0:0:
425,231,68037,2,0,L|365:231,1,60.0000022888184,8|8,1:2|0:0,0:0:0:0:
338,224,68318,1,8,0:0:0:0:
337,224,68412,6,0,P|293:233|254:213,1,90.0000034332277,2|0,3:2|0:0,0:0:0:0:
205,108,68787,2,0,L|203:48,1,60.0000022888184,8|0,1:2|0:0,0:0:0:0:
120,150,69162,1,0,3:0:0:0:
161,244,69349,1,0,0:0:0:0:
120,150,69537,2,0,L|121:90,1,60.0000022888184,8|0,1:2|0:0,0:0:0:0:
75,242,69912,6,0,P|117:255|161:243,1,90.0000034332277,2|0,3:2|0:0,0:0:0:0:
237,209,70287,2,0,L|236:238,1,30.0000011444092,8|0,1:2|0:0,0:0:0:0:
232,322,70474,1,0,1:0:0:0:
374,275,70662,5,8,3:2:0:0:
368,282,70756,2,0,P|338:286|309:279,1,60.0000022888184,8|0,0:0|0:0,0:0:0:0:
237,209,71037,2,0,L|235:127,1,60.0000022888184,8|8,1:2|0:0,0:0:0:0:
237,65,71318,1,8,0:0:0:0:
237,65,71412,5,6,3:2:0:0:
387,134,71599,1,0,0:0:0:0:
318,101,71787,2,0,P|309:129|313:159,1,60.0000022888184,8|0,1:2|0:0,0:0:0:0:
152,236,72162,2,0,P|160:207|156:177,1,60.0000022888184,0|0,3:0|0:0,0:0:0:0:
70,16,72537,1,8,1:2:0:0:
70,16,72724,2,0,L|75:54,1,30.0000011444092,0|8,0:0|0:0,0:0:0:0:
11,100,72912,6,0,P|62:127|120:114,1,120.000004577637,2|8,3:2|1:2,0:0:0:0:
211,144,73474,2,0,P|262:116|320:129,1,120.000004577637,2|0,0:0|0:0,0:0:0:0:
400,190,74037,2,0,L|405:264,1,60.0000022888184,10|8,1:2|0:0,0:0:0:0:
467,308,74318,1,8,0:0:0:0:
467,308,74412,6,0,P|415:335|357:322,1,120.000004577637,2|8,3:2|1:2,0:0:0:0:
249,200,74974,1,0,0:0:0:0:
224,283,75162,2,0,L|306:279,1,60.0000022888184,0|0,3:0|0:0,0:0:0:0:
63,177,75537,2,0,L|123:180,1,60.0000022888184,8|8,1:2|0:0,0:0:0:0:
136,173,75818,1,8,0:0:0:0:
146,167,75912,5,2,3:2:0:0:
219,207,76099,1,0,3:0:0:0:
299,183,76287,1,0,3:2:0:0:
354,120,76474,1,8,3:2:0:0:
438,117,76662,1,8,3:2:0:0:
504,168,76849,1,8,3:2:0:0:
354,120,77037,6,0,P|332:81|336:37,1,90.0000034332277,12|0,1:2|0:0,0:0:0:0:
357,13,77412,6,0,L|237:23,1,120.000004577637,4|10,3:2|3:0,3:0:0:0:
122,159,77974,1,8,3:0:0:0:
70,73,78162,2,0,L|129:79,1,60.0000022888184,8|8,3:0|3:0,3:0:0:0:
278,98,78537,1,2,3:0:0:0:
373,241,78912,5,12,3:0:0:0:
413,162,79099,2,0,L|454:159,1,30.0000011444092,8|0,3:0|3:0,3:0:0:0:
328,168,79287,1,10,3:0:0:0:
362,92,79474,1,0,3:0:0:0:
328,168,79662,2,0,P|284:172|246:150,1,90.0000034332277,8|0,3:2|3:0,3:0:0:0:
411,108,80037,2,0,L|470:104,1,60.0000022888184,10|0,3:0|3:0,3:0:0:0:
295,37,80412,6,0,P|292:67|301:96,1,60.0000022888184,12|0,3:0|3:0,3:0:0:0:
168,194,80787,1,2,3:0:0:0:
140,115,80974,2,0,L|199:116,1,60.0000022888184,8|0,3:0|3:0,3:0:0:0:
167,278,81349,1,8,3:0:0:0:
168,194,81537,1,10,3:0:0:0:
236,327,81912,5,12,3:0:0:0:
364,219,82099,2,0,L|394:219,1,30.0000011444092,8|0,3:0|3:0,3:0:0:0:
298,271,82287,1,10,3:0:0:0:
168,194,82474,1,0,3:0:0:0:
316,353,82662,5,8,3:2:0:0:
236,327,82849,1,0,3:0:0:0:
159,362,83037,1,10,3:0:0:0:
65,222,83224,2,0,L|61:180,1,30.0000011444092,8|0,3:0|3:0,3:0:0:0:
17,287,83412,6,0,P|73:303|125:277,1,120.000004577637,4|10,3:2|3:0,3:0:0:0:
125,277,83974,1,8,3:0:0:0:
231,221,84162,2,0,P|260:217|289:221,1,60.0000022888184,8|8,3:0|3:0,3:0:0:0:
490,306,84537,2,0,P|460:310|431:305,1,60.0000022888184,10|0,3:0|3:0,3:0:0:0:
362,265,84912,5,12,3:0:0:0:
359,116,85099,2,0,L|360:175,2,60.0000022888184,8|2|8,3:0|3:0|3:0,0:0:0:0:
204,85,85662,2,0,P|159:101|93:74,1,120.000004577637,8|10,3:2|3:0,0:0:0:0:
155,20,86412,5,4,3:0:0:0:
72,221,86787,1,10,3:0:0:0:
6,160,86974,1,8,3:0:0:0:
72,221,87162,2,0,L|131:212,1,60.0000022888184,8|8,3:0|3:0,0:0:0:0:
398,104,87537,1,14,3:2:0:0:
413,190,87724,6,0,L|353:181,1,60.0000022888184,0|8,3:0|3:0,0:0:0:0:
478,132,88099,2,0,L|513:129,2,30.0000011444092,0|0|8,3:0|3:0|3:0,0:0:0:0:
436,271,88474,1,8,3:2:0:0:
398,104,88662,5,8,1:2:0:0:
324,63,88849,1,8,1:2:0:0:
241,81,89037,1,12,1:2:0:0:
199,154,89224,1,8,1:2:0:0:
317,217,89412,6,0,L|436:207,1,120.000004577637,6|0,3:2|1:0,0:0:0:0:
79,143,90162,2,0,L|198:153,1,120.000004577637,0|0,3:0|1:0,0:0:0:0:
317,217,90724,1,0,0:0:0:0:
425,193,90912,6,0,P|367:186|317:217,1,120.000004577637,2|0,3:2|1:0,0:0:0:0:
179,258,91474,2,0,P|120:265|70:234,1,120.000004577637
138,180,92037,1,0,1:0:0:0:
132,31,92224,2,0,L|135:77,1,30.0000011444092
74,103,92412,6,0,L|193:108,1,120.000004577637,2|0,3:2|1:0,0:0:0:0:
222,26,92974,1,0,0:0:0:0:
342,21,93162,2,0,L|222:26,1,120.000004577637,0|0,3:0|1:0,0:0:0:0:
222,26,93724,1,0,0:0:0:0:
374,102,93912,6,0,P|401:88|420:65,1,60.0000022888184,2|0,3:2|0:0,0:0:0:0:
335,196,94287,6,0,P|360:205|386:204,1,53.5999974645997,2|0,3:2|0:0,0:0:0:0:
234,227,94662,6,0,P|242:248|258:265,1,46.4000014160157,2|0,3:2|0:0,0:0:0:0:
144,183,95037,6,0,P|137:201|135:221,1,40,2|8,3:2|0:0,0:0:0:0:
170,358,95318,1,8,0:0:0:0:
170,358,95412,6,0,L|110:350,1,60.0000022888184,6|0,3:2|0:0,0:0:0:0:
352,332,95787,1,0,1:0:0:0:
288,177,95974,1,0,0:0:0:0:
258,265,96162,6,0,L|317:257,1,60.0000022888184,2|0,3:2|0:0,0:0:0:0:
143,147,96537,1,0,1:0:0:0:
258,265,96724,1,0,0:0:0:0:
143,147,96912,6,0,P|115:139|86:144,1,60.0000022888184,2|0,3:2|0:0,0:0:0:0:
345,180,97287,2,0,P|316:185|288:177,1,60.0000022888184,0|0,1:0|0:0,0:0:0:0:
114,217,97662,1,2,3:2:0:0:
323,108,97849,1,0,0:0:0:0:
312,343,98037,2,0,P|282:337|254:346,1,60.0000022888184,0|8,1:0|0:0,0:0:0:0:
164,315,98318,1,8,0:0:0:0:
164,315,98412,5,6,3:2:0:0:
53,310,98599,2,0,P|108:331|165:315,1,120.000004577637,8|0,3:2|3:0,0:0:0:0:
430,173,99162,2,0,L|435:53,1,120.000004577637,10|0,3:2|0:0,0:0:0:0:
246,25,99724,2,0,L|248:54,1,30.0000011444092,8|8,3:2|0:0,0:0:0:0:
190,146,99912,6,0,P|245:166|303:152,1,120.000004577637,2|0,3:2|0:0,0:0:0:0:
412,268,100474,1,0,0:0:0:0:
363,337,100662,5,8,1:2:0:0:
402,350,100755,1,8,1:2:0:0:
443,346,100849,2,0,L|440:364,1,15.0000005722046,10|0,1:2|0:0,1:2:0:0:
476,320,100943,2,0,L|473:338,1,15.0000005722046,10|0,1:2|0:0,1:2:0:0:
494,282,101037,1,8,1:2:0:0:
489,240,101130,1,8,1:2:0:0:
464,205,101224,2,0,L|461:187,1,15.0000005722046,10|0,1:2|0:0,1:2:0:0:
425,188,101318,2,0,L|422:170,1,15.0000005722046,10|0,1:2|0:0,1:2:0:0:
382,193,101412,6,0,P|345:205|306:196,1,80,6|0,3:2|0:0,0:0:0:0:
94,98,101787,2,0,P|132:88|170:100,1,80,8|0,1:2|0:0,0:0:0:0:
203,283,102162,1,0,3:0:0:0:
170,100,102349,2,0,L|159:53,1,40
127,173,102537,1,8,1:2:0:0:
343,125,102724,1,0,0:0:0:0:
31,51,102912,6,0,P|16:87|21:126,1,80,2|0,3:2|0:0,0:0:0:0:
306,196,103287,2,0,L|226:199,1,80,8|0,1:2|0:0,0:0:0:0:
87,351,103662,5,8,3:2:0:0:
78,345,103755,2,0,P|62:308|67:269,1,80,8|0,0:0|0:0,0:0:0:0:
146,202,104037,2,0,L|226:199,1,80,8|8,1:2|0:0,0:0:0:0:
306,196,104318,1,8,0:0:0:0:
306,196,104412,5,2,3:2:0:0:
184,117,104599,1,0,0:0:0:0:
393,201,104787,5,8,1:2:0:0:
266,282,104974,1,0,0:0:0:0:
400,352,105162,1,0,3:0:0:0:
393,201,105349,6,0,L|389:161,1,40
256,352,105537,1,8,1:2:0:0:
324,120,105724,1,0,0:0:0:0:
431,266,105912,6,0,P|394:276|355:267,1,80,2|0,3:2|0:0,0:0:0:0:
389,161,106193,2,0,L|393:201,1,40,0|8,0:0|1:2,0:0:0:0:
256,352,106474,1,12,1:2:0:0:
123,161,106662,2,0,L|119:201,3,40,0|0|0|0,3:0|3:0|0:0|0:0,0:0:0:0:
81,266,107037,2,0,P|118:276|157:267,1,80,8|8,1:2|0:0,0:0:0:0:
256,192,107318,1,8,0:0:0:0:
256,192,107412,6,0,L|256:112,1,80,6|0,3:2|0:0,0:0:0:0:
38,30,107787,2,0,L|38:110,1,80,8|0,1:2|0:0,0:0:0:0:
256,272,108162,6,0,L|256:192,1,80,6|0,3:2|0:0,0:0:0:0:
474,30,108537,2,0,L|474:110,1,80,8|0,1:2|0:0,0:0:0:0:
256,352,108912,6,0,L|256:272,1,80,6|0,3:2|0:0,0:0:0:0:
112,62,109287,2,0,L|112:142,1,80,8|0,1:2|0:0,0:0:0:0:
210,207,109662,5,10,3:2:0:0:
218,201,109755,2,0,P|255:191|294:200,1,80,8|0,0:0|0:0,0:0:0:0:
400,222,110037,2,0,L|400:142,1,80,8|0,1:2|0:0,0:0:0:0:
171,277,110412,6,0,P|209:287|248:277,1,80,6|0,3:2|0:0,0:0:0:0:
400,142,110787,1,8,1:2:0:0:
197,83,110974,1,0,0:0:0:0:
197,83,111068,1,0,0:0:0:0:
197,83,111162,1,2,3:2:0:0:
86,233,111349,1,0,0:0:0:0:
25,168,111537,2,0,P|78:143|135:158,1,120,8|0,1:2|0:0,0:0:0:0:
164,180,111912,6,0,L|203:184,1,40,2|0,3:2|0:0,0:0:0:0:
421,317,112099,2,0,L|460:312,1,40,2|0,3:2|0:0,0:0:0:0:
276,195,112287,5,8,1:2:0:0:
367,375,112474,1,2,3:2:0:0:
435,123,112662,5,10,1:2:0:0:
344,303,112849,1,10,1:2:0:0:
300,68,113037,5,12,1:2:0:0:
391,248,113224,1,10,1:2:0:0:
454,184,113412,6,0,P|400:159|343:174,1,120,6|0,3:2|0:0,0:0:0:0:
317,205,113787,1,8,1:2:0:0:
209,134,113974,2,0,L|208:94,1,40
212,336,114162,1,0,3:0:0:0:
82,141,114349,1,0,0:0:0:0:
39,207,114537,2,0,P|76:220|114:213,1,80,8|0,1:2|0:0,0:0:0:0:
328,131,114912,6,0,L|208:133,1,120,2|0,3:2|0:0,0:0:0:0:
176,135,115287,2,0,L|181:174,1,40,8|0,1:2|0:0,0:0:0:0:
289,300,115474,2,0,L|283:339,1,40
224,254,115662,5,8,3:2:0:0:
230,243,115755,2,0,P|263:222|302:219,1,80,8|0,0:0|0:0,0:0:0:0:
403,93,116037,2,0,P|436:114|475:117,1,80,8|8,1:2|0:0,0:0:0:0:
462,39,116318,1,8,0:0:0:0:
462,39,116412,5,2,3:2:0:0:
351,155,116599,1,0,0:0:0:0:
438,235,116787,5,8,1:2:0:0:
277,238,116974,1,0,0:0:0:0:
288,354,117162,5,0,3:0:0:0:
172,242,117349,1,0,0:0:0:0:
58,334,117537,5,8,1:2:0:0:
55,172,117724,2,0,L|54:132,1,40
16,243,117912,6,0,P|54:253|93:246,1,80,2|0,3:2|0:0,0:0:0:0:
290,161,118287,1,8,1:2:0:0:
52,15,118474,2,0,L|53:55,1,40,6|0,1:2|0:0,0:0:0:0:
200,154,118662,5,10,3:2:0:0:
210,163,118755,2,0,L|290:161,1,80,8|0,0:0|0:0,0:0:0:0:
357,115,119037,2,0,P|371:151|365:190,1,80,8|8,1:2|0:0,0:0:0:0:
321,267,119318,1,8,0:0:0:0:
321,267,119412,6,0,L|400:264,1,80,6|0,3:2|0:0,0:0:0:0:
191,40,119787,2,0,L|270:37,1,80,8|0,1:2|0:0,0:0:0:0:
283,358,120162,6,0,L|362:355,1,80,6|0,3:2|0:0,0:0:0:0:
83,122,120537,2,0,L|162:119,1,80,8|0,1:2|0:0,0:0:0:0:
359,176,120912,6,0,L|438:173,1,80,6|0,3:2|0:0,0:0:0:0:
115,322,121287,2,0,L|194:319,1,80,8|0,1:2|0:0,0:0:0:0:
43,223,121662,5,10,3:2:0:0:
53,216,121755,2,0,P|60:161|51:138,1,80,8|0,0:0|0:0,0:0:0:0:
20,110,122037,2,0,L|59:117,1,40,8|0,1:2|0:0,0:0:0:0:
290,57,122224,2,0,L|250:64,1,40,10|0,3:2|0:0,0:0:0:0:
157,95,122412,5,14,1:2:0:0:
377,196,122599,1,0,3:2:0:0:
179,336,122787,1,0,3:2:0:0:
290,57,122974,5,12,1:2:0:0:
313,298,123161,1,0,3:2:0:0:
92,197,123349,1,0,3:2:0:0:
377,196,123537,5,12,1:2:0:0:
179,336,123725,1,0,3:2:0:0:
157,95,123912,1,2,1:2:0:0:
330,282,124099,5,8,3:2:0:0:
322,291,124193,1,8,3:2:0:0:
313,298,124287,2,0,L|273:295,1,40,2|0,1:2|0:0,0:0:0:0:
64,171,124474,5,8,3:2:0:0:
77,185,124568,1,8,3:2:0:0:
92,197,124662,2,0,L|131:193,1,40,2|0,1:2|0:0,0:0:0:0:
364,121,124849,5,8,3:2:0:0:
334,147,124942,1,8,3:2:0:0:
295,151,125036,1,10,1:2:0:0:
260,133,125130,1,8,3:2:0:0:
241,99,125224,1,8,3:2:0:0:
245,60,125317,1,8,3:2:0:0:
270,29,125412,6,0,L|350:25,1,80,2|0,0:0|0:0,0:0:0:0:
320,273,125974,2,0,L|400:269,1,80,2|0,0:0|0:0,0:0:0:0:
295,151,126537,2,0,L|375:147,1,80,2|0,0:0|0:0,0:0:0:0:
154,193,127099,5,0,0:0:0:0:
208,127,127287,2,0,P|154:106|99:127,1,120,0|0,0:3|0:0,0:0:0:0:
132,272,128037,2,0,P|151:276|171:274,1,40
384,192,128412,6,0,B|366:279|366:279|334:110|334:110|347:53,1,320,2|0,0:0|0:0,0:0:0:0:
456,305,130662,5,8,3:2:0:0:
435,339,130755,1,8,3:2:0:0:
403,361,130849,1,8,3:2:0:0:
364,369,130943,1,8,3:2:0:0:
325,360,131037,1,8,3:2:0:0:
294,335,131130,1,8,3:2:0:0:
275,300,131224,1,8,3:2:0:0:
273,261,131318,1,8,3:2:0:0:
287,223,131412,6,0,L|358:219,1,71.9999978027344,6|0,3:2|0:0,0:0:0:0:
188,76,131787,1,8,1:2:0:0:
151,160,131974,1,0,0:0:0:0:
188,76,132162,2,0,L|116:80,1,71.9999978027344,2|0,3:2|0:0,0:0:0:0:
351,117,132537,2,0,P|402:125|444:93,1,107.999996704102,8|0,1:2|0:0,0:0:0:0:
456,65,132912,6,0,L|452:137,1,71.9999978027344,2|0,3:2|0:0,0:0:0:0:
434,322,133287,1,8,1:2:0:0:
483,245,133474,1,0,0:0:0:0:
446,228,133568,1,0,0:0:0:0:
407,236,133662,1,2,3:2:0:0:
297,331,133849,2,0,L|225:335,1,71.9999978027344,0|8,0:0|1:2,0:0:0:0:
76,163,134224,1,0,0:0:0:0:
36,236,134412,6,0,L|107:240,1,71.9999978027344,2|0,3:2|0:0,0:0:0:0:
297,331,134787,1,8,1:2:0:0:
365,276,134974,1,0,0:0:0:0:
297,331,135162,2,0,P|280:299|279:263,1,71.9999978027344,2|0,3:2|0:0,0:0:0:0:
217,132,135537,2,0,P|233:100|234:64,1,71.9999978027344,8|8,1:2|0:0,0:0:0:0:
156,78,135818,1,8,0:0:0:0:
156,78,135912,5,2,3:2:0:0:
272,193,136099,1,0,0:0:0:0:
331,112,136287,5,8,1:2:0:0:
331,275,136474,1,8,2:0:0:0:
479,164,136662,5,10,3:2:0:0:
473,156,136755,2,0,P|439:144|404:151,1,71.9999978027344,8|0,0:0|0:0,0:0:0:0:
331,112,137037,2,0,P|297:123|262:116,1,71.9999978027344,8|8,1:2|0:0,0:0:0:0:
293,43,137318,1,8,0:0:0:0:
293,43,137412,5,6,1:2:0:0:
440,229,137599,1,0,3:2:0:0:
273,209,137787,5,0,3:2:0:0:
459,62,137974,1,12,1:2:0:0:
182,137,138162,5,2,3:2:0:0:
368,284,138349,1,0,3:2:0:0:
201,304,138537,5,12,1:2:0:0:
348,118,138724,1,0,3:2:0:0:
368,284,138912,5,2,3:2:0:0:
182,137,139099,2,0,L|110:132,1,71.9999978027344,12|0,1:2|3:0,0:0:0:0:
143,357,139474,5,0,3:0:0:0:
329,210,139661,2,0,L|400:205,1,71.9999978027344,10|0,1:2|3:0,0:0:0:0:
181,136,140037,2,0,P|167:104|169:68,1,71.9999978027344,12|0,1:2|0:0,0:0:0:0:
251,94,140318,1,0,3:0:0:0:
251,94,140412,5,6,3:2:0:0:
255,172,140599,1,0,0:0:0:0:
189,217,140787,1,2,3:2:0:0:
116,184,140974,1,0,0:0:0:0:
110,90,141162,5,10,3:2:0:0:
116,184,141349,1,8,0:0:0:0:
122,278,141537,1,10,3:2:0:0:
128,372,141725,1,8,0:0:0:0:
36,233,141912,6,0,L|40:268,1,35.9999989013672,10|0,0:0|0:0,0:0:0:0:
128,372,142099,1,0,3:0:0:0:
119,242,142287,1,10,3:2:0:0:
200,138,142474,2,0,L|195:173,1,35.9999989013672,10|0,0:0|0:0,0:0:0:0:
122,278,142662,6,0,L|119:242,1,35.9999989013672,10|0,3:2|0:0,0:0:0:0:
110,90,142849,2,0,L|107:54,1,35.9999989013672,10|0,3:2|0:0,0:0:0:0:
200,138,143037,5,8,0:0:0:0:
245,146,143130,1,8,0:0:0:0:
288,127,143224,1,8,0:0:0:0:
316,90,143318,1,8,0:0:0:0:
319,43,143412,5,6,3:2:0:0:
235,60,143787,1,0,3:2:0:0:
200,138,144162,1,2,3:2:0:0:
242,213,144537,1,0,3:2:0:0:
325,234,144912,5,2,3:2:0:0:
242,213,145287,1,0,3:2:0:0:
159,192,145662,2,0,L|100:180,1,60.0000022888184,2|0,3:2|0:0,0:0:0:0:
19,123,146037,2,0,L|48:119,1,30.0000011444092,0|0,3:0|0:0,0:0:0:0:
112,274,146224,2,0,L|141:270,1,30.0000011444092
242,213,146412,6,0,L|301:206,1,60.0000022888184,2|0,3:2|0:0,0:0:0:0:
208,55,146787,1,0,3:0:0:0:
149,62,146975,6,0,L|208:55,1,60.0000022888184,0|2,0:0|3:2,0:0:0:0:
99,198,147349,2,0,L|159:192,1,60.0000022888184,0|0,0:0|3:0,0:0:0:0:
242,213,147724,1,0,0:0:0:0:
373,173,147912,6,0,P|344:176|316:166,1,60.0000022888184,2|0,3:2|0:0,0:0:0:0:
265,48,148287,2,0,P|235:44|208:55,1,60.0000022888184,0|0,3:0|0:0,0:0:0:0:
198,77,148568,1,0,0:0:0:0:
198,77,148662,1,2,3:2:0:0:
116,96,148849,1,0,0:0:0:0:
45,50,149037,1,0,3:0:0:0:
121,178,149224,2,0,L|122:207,1,30.0000011444092,4|0,0:0|0:0,0:0:0:0:
116,96,149412,5,2,3:2:0:0:
88,277,149599,2,0,P|116:286|145:281,1,60.0000022888184,0|0,0:0|3:0,0:0:0:0:
242,213,149974,2,0,P|270:203|299:208,1,60.0000022888184,0|2,0:0|3:2,0:0:0:0:
463,166,150349,1,0,0:0:0:0:
484,242,150537,2,0,P|454:246|426:237,1,60.0000022888184,0|0,3:0|0:0,0:0:0:0:
286,120,150912,6,0,L|279:60,1,60.0000022888184,2|0,3:2|0:0,0:0:0:0:
121,178,151287,2,0,L|114:237,1,60.0000022888184,0|0,3:0|0:0,0:0:0:0:
61,118,151662,5,2,3:2:0:0:
97,97,151755,1,0,0:0:0:0:
139,97,151849,1,0,0:0:0:0:
176,116,151943,1,0,0:0:0:0:
198,151,152037,1,4,3:2:0:0:
114,237,152224,1,0,0:0:0:0:
189,321,152427,5,0,0:0:0:0:
218,317,152614,1,0,0:0:0:0:
298,366,152802,5,0,0:0:0:0:
322,331,152989,1,0,0:0:0:0:
416,305,153177,5,0,0:0:0:0:
404,246,153364,1,0,0:0:0:0:
466,169,153552,5,0,0:0:0:0:
395,123,153739,1,0,0:0:0:0:
326,172,153927,6,0,B|289:181|289:181|201:163|201:163|231:151,1,160
463,71,154864,2,0,P|478:107|474:147,1,80,4|0,3:2|0:0,0:0:0:0:
473,147,155414,6,0,L|413:144,1,60.0000022888184,6|0,3:2|0:0,0:0:0:0:
183,68,155789,1,8,1:2:0:0:
232,153,155976,1,0,0:0:0:0:
183,68,156164,2,0,L|243:65,1,60.0000022888184,0|0,3:0|0:0,0:0:0:0:
239,240,156539,2,0,P|209:239|182:226,1,60.0000022888184,8|0,1:2|0:0,0:0:0:0:
232,153,156914,6,0,L|321:148,1,90.0000034332277,0|0,3:0|0:0,0:0:0:0:
413,144,157289,2,0,L|406:203,1,60.0000022888184,8|0,1:2|0:0,0:0:0:0:
477,28,157664,2,0,P|436:9|392:12,1,90.0000034332277,0|0,3:0|0:0,0:0:0:0:
314,88,158039,2,0,L|321:148,1,60.0000022888184,8|0,1:2|0:0,0:0:0:0:
355,295,158414,5,2,3:2:0:0:
406,203,158601,2,0,L|402:232,1,30.0000011444092
462,280,158789,2,0,P|412:309|355:295,1,120.000004577637,8|0,1:2|3:0,0:0:0:0:
219,203,159351,1,0,0:0:0:0:
287,249,159539,1,8,1:2:0:0:
169,362,159726,2,0,L|123:354,1,30.0000011444092
29,298,159914,6,0,P|73:303|112:283,1,90.0000034332277,2|0,3:2|0:0,0:0:0:0:
151,157,160289,2,0,L|154:86,1,60.0000022888184,8|0,1:2|0:0,0:0:0:0:
20,10,160664,5,10,3:2:0:0:
12,19,160757,2,0,L|14:78,1,60.0000022888184,8|0,0:0|0:0,0:0:0:0:
151,157,161039,2,0,L|148:216,1,60.0000022888184,8|8,1:2|0:0,0:0:0:0:
97,90,161320,1,8,0:0:0:0:
97,89,161414,6,0,P|151:68|206:89,1,120.000004577637,2|8,3:2|1:2,0:0:0:0:
322,214,161976,1,0,0:0:0:0:
386,145,162164,2,0,L|415:141,2,30.0000011444092,0|8|0,3:0|0:0|0:0,0:0:0:0:
352,301,162539,1,8,1:2:0:0:
322,214,162726,1,0,0:0:0:0:
383,382,162914,6,0,L|293:378,1,90.0000034332277,2|0,3:2|0:0,0:0:0:0:
194,317,163289,2,0,L|257:312,1,60.0000022888184,8|0,1:2|0:0,0:0:0:0:
49,148,163664,2,0,L|112:143,1,60.0000022888184,0|0,3:0|0:0,0:0:0:0:
322,214,164039,2,0,L|259:219,1,60.0000022888184,8|8,1:2|0:0,0:0:0:0:
248,225,164320,1,8,0:0:0:0:
247,225,164414,6,0,P|207:242|164:233,1,90.0000034332277,2|0,3:2|0:0,0:0:0:0:
108,143,164789,2,0,L|103:80,1,60.0000022888184,8|0,1:2|0:0,0:0:0:0:
264,31,165164,1,0,3:0:0:0:
338,76,165351,1,0,0:0:0:0:
264,31,165539,2,0,L|259:90,1,60.0000022888184,8|0,1:2|0:0,0:0:0:0:
344,229,165914,6,0,P|387:238|428:222,1,90.0000034332277,2|0,3:2|0:0,0:0:0:0:
460,189,166289,2,0,L|459:218,1,30.0000011444092,8|0,1:2|0:0,0:0:0:0:
376,153,166476,1,0,0:0:0:0:
452,363,166664,5,8,3:2:0:0:
446,353,166757,2,0,P|418:341|388:343,1,60.0000022888184,8|0,0:0|0:0,0:0:0:0:
314,310,167039,2,0,P|286:321|256:319,1,60.0000022888184,8|8,1:2|0:0,0:0:0:0:
77,257,167320,1,8,0:0:0:0:
77,257,167414,6,0,L|82:329,1,60.0000022888184,6|0,3:2|0:0,0:0:0:0:
201,151,167789,1,8,1:2:0:0:
122,127,167976,2,0,L|127:199,1,60.0000022888184,0|0,0:0|3:0,0:0:0:0:
194,236,168351,1,0,0:0:0:0:
390,127,168539,1,8,1:2:0:0:
390,127,168726,2,0,L|391:97,1,30.0000011444092
453,43,168914,6,0,P|395:16|333:39,1,120.000004577637,2|8,3:2|1:2,0:0:0:0:
260,97,169476,2,0,P|202:124|140:101,1,120.000004577637,2|0,0:0|0:0,0:0:0:0:
51,44,170039,2,0,L|56:103,1,60.0000022888184,10|8,1:2|0:0,0:0:0:0:
107,186,170320,1,8,0:0:0:0:
107,186,170414,6,0,L|100:305,1,120.000004577637,2|8,3:2|1:2,0:0:0:0:
298,338,170976,1,0,0:0:0:0:
225,377,171164,2,0,L|221:317,1,60.0000022888184,0|0,3:0|0:0,0:0:0:0:
110,126,171539,2,0,L|106:185,1,60.0000022888184,8|8,1:2|0:0,0:0:0:0:
112,199,171820,1,8,0:0:0:0:
118,213,171914,5,2,3:0:0:0:
197,239,172101,1,0,3:0:0:0:
267,192,172289,1,2,3:0:0:0:
269,108,172476,5,8,3:2:0:0:
345,72,172664,1,8,3:2:0:0:
267,192,172851,1,8,3:2:0:0:
337,235,173039,2,0,P|379:218|422:225,1,90.0000034332277,12|0,1:2|0:0,0:0:0:0:
477,283,173414,6,0,L|467:163,1,120.000004577637,4|2,3:2|3:0,3:0:0:0:
269,108,173976,1,8,3:0:0:0:
345,72,174164,2,0,L|342:131,1,60.0000022888184,8|8,3:0|3:0,3:0:0:0:
337,235,174539,1,2,3:0:0:0:
264,274,174726,1,0,3:0:0:0:
187,237,174914,5,12,3:0:0:0:
264,274,175101,2,0,L|267:303,1,30.0000011444092,8|0,3:0|3:0,3:0:0:0:
256,191,175289,1,10,3:0:0:0:
186,321,175476,1,0,3:0:0:0:
85,151,175664,2,0,P|126:135|170:141,1,90.0000034332277,8|0,3:2|3:0,3:0:0:0:
256,191,176039,2,0,L|262:250,1,60.0000022888184,10|0,3:0|3:0,3:0:0:0:
404,145,176414,6,0,P|362:128|319:139,1,90.0000034332277,12|0,3:0|3:0,3:0:0:0:
262,250,176789,1,2,3:0:0:0:
345,289,176976,6,0,L|352:230,1,60.0000022888184,8|0,3:0|3:0,3:0:0:0:
178,238,177351,1,8,3:0:0:0:
262,250,177539,1,10,3:0:0:0:
126,304,177914,5,12,3:0:0:0:
178,238,178101,2,0,L|182:208,1,30.0000011444092,8|0,3:0|3:0,3:0:0:0:
201,118,178289,1,10,3:0:0:0:
209,315,178476,1,0,3:0:0:0:
433,260,178664,5,8,3:2:0:0:
345,289,178852,1,0,3:0:0:0:
262,250,179039,1,10,3:0:0:0:
126,304,179226,2,0,L|130:341,1,30.0000011444092,8|0,3:0|3:0,3:0:0:0:
61,254,179414,6,0,P|111:225|169:235,1,120.000004577637,4|10,3:2|3:0,3:0:0:0:
297,174,179976,1,8,3:0:0:0:
322,255,180164,2,0,L|262:250,1,60.0000022888184,8|8,3:0|3:0,0:0:0:0:
415,266,180539,1,10,3:0:0:0:
362,338,180914,5,12,3:0:0:0:
415,266,181101,2,0,L|475:261,1,60.0000022888184,8|2,3:0|3:0,3:0:0:0:
273,174,181476,1,8,3:0:0:0:
209,243,181664,2,0,P|263:266|322:255,1,120.000004577637,8|10,3:2|3:0,3:0:0:0:
273,174,182414,5,4,3:2:0:0:
132,335,182789,1,10,3:0:0:0:
206,383,182977,1,8,3:0:0:0:
132,335,183164,2,0,L|129:275,1,60.0000022888184,8|8,3:0|3:0,3:0:0:0:
122,66,183539,1,14,3:2:0:0:
207,41,183726,6,0,L|204:100,1,60.0000022888184,0|8,3:0|3:0,3:0:0:0:
126,181,184101,2,0,L|125:151,2,30.0000011444092,0|0|8,3:0|3:0|3:0,3:0:0:0:
122,66,184476,1,8,3:2:0:0:
49,232,184664,5,8,1:2:0:0:
129,275,184851,1,8,1:2:0:0:
207,231,185039,1,12,1:2:0:0:
216,141,185226,1,8,1:2:0:0:
408,188,185414,6,0,L|289:193,1,120.000004577637,6|0,3:2|1:0,0:0:0:0:
129,275,186164,2,0,L|9:270,1,120.000004577637,0|0,3:0|1:0,0:0:0:0:
207,231,186726,1,0,0:0:0:0:
199,339,186914,6,0,P|224:286|207:231,1,120.000004577637,2|0,3:2|1:0,0:0:0:0:
133,135,187476,2,0,P|107:82|125:26,1,120.000004577637
190,77,188039,1,0,1:0:0:0:
287,172,188226,2,0,P|284:186|276:199,1,30.0000011444092
214,157,188414,6,0,L|333:151,1,120.000004577637,2|0,3:2|1:0,0:0:0:0:
318,41,188976,1,0,0:0:0:0:
437,35,189164,2,0,L|318:41,1,120.000004577637,0|0,3:0|1:0,0:0:0:0:
318,41,189726,1,0,0:0:0:0:
453,123,189914,6,0,P|482:117|505:97,1,60.0000022888184,2|0,3:2|0:0,0:0:0:0:
396,213,190289,6,0,P|418:227|444:232,1,53.5999974645997,2|0,3:2|0:0,0:0:0:0:
291,230,190664,6,0,P|294:252|307:272,1,46.4000014160157,2|0,3:2|0:0,0:0:0:0:
211,172,191039,6,0,P|199:187|193:206,1,40,2|8,3:2|0:0,0:0:0:0:
207,351,191320,1,8,0:0:0:0:
207,351,191414,6,0,L|147:343,1,60.0000022888184,6|0,3:2|0:0,0:0:0:0:
333,306,191789,1,0,1:0:0:0:
309,150,191976,1,0,0:0:0:0:
291,230,192164,2,0,L|350:222,1,60.0000022888184,0|0,3:2|0:0,0:0:0:0:
186,249,192539,1,0,1:0:0:0:
333,306,192726,1,0,0:0:0:0:
186,249,192914,6,0,P|178:221|184:192,1,60.0000022888184,2|0,3:2|0:0,0:0:0:0:
258,80,193289,2,0,P|266:51|259:22,1,60.0000022888184,0|0,1:0|0:0,0:0:0:0:
291,230,193664,1,0,3:0:0:0:
187,50,193851,1,0,0:0:0:0:
255,331,194039,1,0,1:0:0:0:
186,249,194226,1,10,0:0:0:0:
146,227,194320,1,8,0:0:0:0:
102,239,194414,5,6,3:2:0:0:
137,334,194601,2,0,B|173:344|173:344|255:331,1,120.000004577637,8|0,3:2|3:0,0:0:0:0:
350,239,195164,1,8,3:2:0:0:
350,239,195351,2,0,B|291:230,1,60.0000022888184,0|0,3:0|0:0,0:0:0:0:
225,159,195726,2,0,L|220:129,1,30.0000011444092,8|0,0:0|0:0,0:0:0:0:
262,49,195914,6,0,B|189:30|146:35|148:129|86:108|60:63|84:22|137:63,1,240.000009155274,2|0,0:0|0:0,0:0:0:0:
220,129,196851,6,0,P|224:144|224:159,1,30.0000011444092,2|2,0:0|0:0,0:0:0:0:
166,225,197039,1,8,0:0:0:0:
206,244,197132,1,8,0:0:0:0:
251,242,197226,1,8,0:0:0:0:
289,219,197320,1,8,0:0:0:0:
309,183,197414,6,0,L|313:103,1,80,6|0,3:2|0:0,0:0:0:0:
167,272,197789,1,8,1:2:0:0:
224,158,197976,1,0,0:0:0:0:
123,54,198164,1,0,3:0:0:0:
224,158,198351,2,0,L|222:197,1,40
167,272,198539,2,0,P|202:290|241:288,1,80,8|0,1:2|0:0,0:0:0:0:
393,212,198914,5,2,3:2:0:0:
328,322,199101,1,0,0:0:0:0:
393,212,199289,2,0,L|389:132,1,80,8|0,1:2|0:0,0:0:0:0:
414,313,199664,5,8,3:2:0:0:
403,305,199757,2,0,P|364:303|329:322,1,80,8|0,0:0|0:0,0:0:0:0:
241,288,200039,2,0,P|202:290|167:272,1,80,8|8,1:2|0:0,0:0:0:0:
222,212,200320,1,8,0:0:0:0:
222,212,200414,5,2,3:2:0:0:
262,383,200601,1,0,0:0:0:0:
205,62,200789,5,8,1:2:0:0:
112,211,200976,1,0,0:0:0:0:
286,130,201164,5,0,3:0:0:0:
112,211,201351,2,0,L|72:212,1,40
286,130,201539,1,8,1:2:0:0:
205,62,201726,1,0,0:0:0:0:
286,130,201914,6,0,L|365:126,1,80,2|0,3:2|0:0,0:0:0:0:
409,124,202195,2,0,L|402:174,1,40,0|8,0:0|1:2,0:0:0:0:
191,153,202476,1,12,1:2:0:0:
311,284,202664,6,0,P|316:265|314:245,1,40,2|0,3:2|0:0,0:0:0:0:
118,183,202851,2,0,P|112:163|113:143,1,40,2|0,0:0|0:0,0:0:0:0:
205,62,203039,2,0,L|284:58,1,80,8|8,1:2|0:0,0:0:0:0:
409,124,203320,1,8,0:0:0:0:
409,124,203414,6,0,P|447:134|485:125,1,80,6|0,3:2|0:0,0:0:0:0:
205,62,203789,2,0,P|166:53|128:63,1,80,8|0,1:2|0:0,0:0:0:0:
172,141,204164,5,6,3:2:0:0:
447,47,204351,1,0,0:0:0:0:
66,21,204539,5,8,1:2:0:0:
326,148,204726,1,0,0:0:0:0:
447,47,204914,6,0,L|367:51,1,80,6|0,3:2|0:0,0:0:0:0:
207,223,205289,2,0,L|127:218,1,80,8|0,1:2|0:0,0:0:0:0:
81,42,205664,5,10,3:2:0:0:
89,34,205757,2,0,P|135:29|186:70,1,80,8|0,0:0|0:0,0:0:0:0:
237,115,206039,2,0,P|274:127|313:120,1,80,8|8,1:2|0:0,0:0:0:0:
405,79,206320,1,8,0:0:0:0:
405,79,206414,6,0,L|401:158,1,80,2|0,3:2|0:0,0:0:0:0:
170,167,206789,1,8,1:2:0:0:
275,42,206976,1,8,0:0:0:0:
275,42,207070,1,8,0:0:0:0:
275,42,207164,1,0,3:0:0:0:
228,272,207351,1,0,0:0:0:0:
125,92,207539,2,0,P|162:80|201:87,1,80,8|0,1:2|0:0,0:0:0:0:
254,160,207914,6,0,L|258:199,1,40,6|0,3:2|0:0,0:0:0:0:
358,32,208101,2,0,L|353:71,1,40,2|0,3:2|0:0,0:0:0:0:
272,348,208289,1,8,1:2:0:0:
174,171,208476,1,2,0:0:0:0:
174,171,208570,1,0,0:0:0:0:
174,170,208664,5,10,1:2:0:0:
336,295,208851,1,8,1:2:0:0:
202,70,209039,5,12,1:2:0:0:
228,272,209226,1,8,1:2:0:0:
202,70,209414,6,0,L|122:62,1,80,6|0,3:2|0:0,0:0:0:0:
400,242,209789,2,0,L|479:234,1,80,8|0,1:2|0:0,0:0:0:0:
336,295,210070,1,0,0:0:0:0:
335,295,210164,2,0,P|296:298|260:282,1,80,0|0,3:0|0:0,0:0:0:0:
432,162,210539,2,0,L|511:154,1,80,8|0,1:2|0:0,0:0:0:0:
202,70,210914,6,0,L|321:80,1,120,2|0,3:2|0:0,0:0:0:0:
369,90,211289,2,0,L|365:50,1,40,10|0,1:2|0:0,0:0:0:0:
215,156,211476,2,0,L|211:195,1,40,2|0,0:0|0:0,0:0:0:0:
130,34,211664,5,8,3:2:0:0:
122,25,211757,2,0,P|77:14|31:35,1,80,8|0,0:0|0:0,0:0:0:0:
0,99,212039,2,0,L|6:178,1,80,8|0,1:2|0:0,0:0:0:0:
14,281,212414,5,2,3:2:0:0:
247,330,212601,1,0,0:0:0:0:
167,375,212789,2,0,P|155:338|160:299,1,80,8|0,1:2|0:0,0:0:0:0:
336,171,213164,2,0,L|415:160,1,80,0|0,3:0|0:0,0:0:0:0:
219,230,213539,2,0,L|139:219,1,80,8|0,1:2|0:0,0:0:0:0:
486,112,213914,6,0,P|498:149|493:188,1,80,2|0,3:2|0:0,0:0:0:0:
319,244,214289,1,8,1:2:0:0:
138,218,214476,2,0,L|142:258,1,40,12|0,1:2|0:0,0:0:0:0:
180,150,214664,5,10,3:2:0:0:
187,143,214757,2,0,L|193:63,1,80,8|0,0:0|0:0,0:0:0:0:
60,16,215039,2,0,P|47:53|58:91,1,80,0|8,1:2|0:0,0:0:0:0:
81,131,215320,1,8,0:0:0:0:
81,131,215414,6,0,L|1:124,1,80,6|0,3:2|0:0,0:0:0:0:
247,358,215789,2,0,L|167:351,1,80,8|0,1:2|0:0,0:0:0:0:
482,69,216164,6,0,L|402:62,1,80,6|0,0:0|0:0,0:0:0:0:
170,242,216539,2,0,L|90:235,1,80,8|0,1:2|0:0,0:0:0:0:
427,377,216914,6,0,L|347:370,1,80,6|0,3:2|0:0,0:0:0:0:
272,77,217289,2,0,L|193:71,1,80,8|0,1:2|0:0,0:0:0:0:
416,253,217664,5,10,3:2:0:0:
411,262,217757,2,0,P|371:268|333:257,1,80,8|0,0:0|0:0,0:0:0:0:
281,195,218039,2,0,L|278:156,1,40,10|0,1:2|0:0,0:0:0:0:
133,306,218226,2,0,L|129:345,1,40,2|0,0:0|0:0,0:0:0:0:
198,156,218414,5,14,1:2:0:0:
48,268,218601,1,0,3:2:0:0:
219,342,218789,1,0,3:2:0:0:
378,173,218976,5,12,1:2:0:0:
207,247,219163,1,0,3:2:0:0:
228,61,219351,1,0,3:2:0:0:
378,173,219539,6,0,L|417:176,1,40,6|0,1:2|0:0,0:0:0:0:
207,247,219726,2,0,L|246:243,1,40,2|0,1:2|0:0,0:0:0:0:
430,327,219914,6,0,L|424:287,1,40,10|0,3:2|0:0,0:0:0:0:
416,92,220101,1,8,3:2:0:0:
368,84,220195,1,8,3:2:0:0:
321,97,220289,1,8,3:2:0:0:
294,136,220382,1,8,3:2:0:0:
290,184,220476,1,8,3:2:0:0:
308,228,220570,1,8,3:2:0:0:
347,256,220664,6,0,L|386:251,1,40,2|0,3:2|0:0,0:0:0:0:
254,131,220851,2,0,L|294:136,1,40,6|0,3:2|0:0,0:0:0:0:
205,340,221039,6,0,L|244:335,1,40,2|0,3:2|0:0,0:0:0:0:
115,83,221226,2,0,L|154:87,1,40,2|0,3:2|0:0,0:0:0:0:
378,173,221414,5,6,1:2:0:0:
248,7,221601,1,0,3:2:0:0:
254,131,221789,1,0,3:2:0:0:
90,293,221976,5,6,1:2:0:0:
115,83,222163,1,0,3:2:0:0:
32,175,222351,1,0,3:2:0:0:
167,251,222539,6,0,P|208:236|252:244,1,90.0000034332277,6|0,1:2|0:0,0:0:0:0:
292,271,222914,2,0,L|289:241,1,30.0000011444092,10|0,1:2|0:0,0:0:0:0:
398,25,223101,2,0,L|394:114,1,90.0000034332277,10|0,1:2|0:0,0:0:0:0:
373,144,223476,1,2,3:2:0:0:
286,168,223664,1,10,1:2:0:0:
221,104,223851,1,4,3:0:0:0:
243,15,224039,5,0,0:0:0:0:
286,168,224226,1,0,3:0:0:0:
131,128,224414,5,4,3:2:0:0:
195,190,225023,5,4,3:0:0:0:
109,214,225539,5,4,3:0:0:0:
231,341,225914,5,4,0:0:0:0:
372,260,226101,2,0,P|325:269|282:249,1,95.9999970703126,8|8,3:2|3:2,0:0:0:0:
282,249,226664,6,0,L|287:288,2,31.9999990234375,0|0|0,3:0|3:0|3:0,3:0:0:0:
231,137,227039,2,0,L|235:98,2,31.9999990234375,0|0|0,3:0|3:0|3:0,3:0:0:0:
109,214,227414,5,4,3:2:0:0:
109,214,239397,6,0,P|151:235|198:231,1,95.9999970703126,6|0,3:2|0:0,0:0:0:0:
198,231,239959,1,0,3:0:0:0:
307,193,240147,2,0,L|306:240,1,47.9999985351563,8|0,1:2|0:0,0:0:0:0:
244,329,240522,1,0,0:0:0:0:
170,145,240897,5,0,0:0:0:0:
236,70,241084,1,8,0:0:0:0:
170,145,241272,2,0,L|106:137,1,47.9999985351563,0|0,3:0|0:0,0:0:0:0:
47,129,241553,1,0,0:0:0:0:
47,129,241647,2,0,L|55:229,1,95.9999970703126,10|0,1:2|0:0,0:0:0:0:
54,224,242209,1,0,3:0:0:0:
31,326,242397,6,0,P|77:333|119:310,1,95.9999970703126,0|0,3:0|0:0,0:0:0:0:
119,310,242959,1,0,3:0:0:0:
203,199,243147,2,0,P|249:191|291:214,1,95.9999970703126,8|0,1:2|0:0,0:0:0:0:
410,359,243897,5,0,0:0:0:0:
463,282,244084,1,8,0:0:0:0:
410,359,244272,2,0,L|362:352,1,47.9999985351563,0|0,3:0|0:0,0:0:0:0:
326,348,244553,1,0,0:0:0:0:
326,348,244647,5,10,1:2:0:0:
257,296,244834,1,0,3:0:0:0:
171,310,245022,1,2,3:0:0:0:
112,373,245209,1,0,3:0:0:0:
14,155,245416,5,12,1:2:0:0:
171,310,245613,1,0,3:2:0:0:
227,97,245810,1,0,3:2:0:0:
47,277,245992,5,12,1:2:0:0:
260,219,246184,1,0,3:2:0:0:
103,64,246376,1,0,3:2:0:0:
171,310,246545,5,12,1:2:0:0:
227,97,246737,1,0,3:2:0:0:
14,155,246929,1,0,3:2:0:0:
260,219,247097,5,12,1:2:0:0:
103,64,247284,1,0,3:2:0:0:
47,277,247472,1,0,3:2:0:0:
227,97,247631,5,8,1:2:0:0:
14,155,247847,2,0,L|19:174,3,20.0000007629395,0|0|0|0,3:0|3:0|3:0|3:0,0:0:0:0:
171,310,248222,1,0,1:2:0:0:
497,168,248397,5,14,1:2:0:0:
260,219,248584,1,0,3:2:0:0:
481,317,248772,1,0,3:2:0:0:
359,107,248959,1,12,1:2:0:0:
336,351,249147,1,0,3:2:0:0:
156,140,249334,5,0,3:2:0:0:
179,384,249522,1,12,1:2:0:0:
379,243,249709,1,0,3:2:0:0:
156,140,249897,6,0,L|163:180,1,40,2|0,3:2|0:0,0:0:0:0:
242,70,250084,2,0,L|235:109,1,40,2|0,3:2|0:0,0:0:0:0:
97,268,250272,6,0,L|90:308,1,40,2|0,3:2|0:0,0:0:0:0:
11,197,250459,2,0,L|17:236,1,40,2|0,3:2|0:0,0:0:0:0:
319,371,250647,5,8,1:2:0:0:
97,268,250834,1,8,1:2:0:0:
297,126,251022,2,0,P|332:127|364:110,1,71.9999978027344,8|0,1:2|0:0,0:0:0:0:
208,53,251397,6,0,L|215:188,1,136.000002593994,4|8,3:2|1:2,0:0:0:0:
308,46,251959,1,2,0:0:0:0:
308,46,252147,1,2,3:2:0:0:
125,167,252334,1,0,3:0:0:0:
215,188,252522,2,0,L|211:120,1,68.0000012969971,8|2,1:2|0:0,0:0:0:0:
392,89,252897,5,2,3:2:0:0:
482,68,253084,1,0,3:0:0:0:
392,89,253272,2,0,L|396:21,1,68.0000012969971,8|2,1:2|3:2,0:0:0:0:
211,120,253647,5,2,0:0:0:0:
125,167,253834,1,0,3:0:0:0:
211,120,254022,2,0,L|215:188,1,68.0000012969971,8|2,1:2|0:0,0:0:0:0:
368,332,254397,5,2,3:2:0:0:
431,272,254584,1,0,0:0:0:0:
368,332,254772,2,0,P|334:336|303:323,1,68.0000012969971,8|2,1:2|0:0,0:0:0:0:
115,264,255147,5,2,3:2:0:0:
52,204,255334,1,0,3:0:0:0:
115,264,255522,2,0,P|148:267|179:254,1,68.0000012969971,8|2,1:2|0:0,0:0:0:0:
346,257,255897,5,2,3:2:0:0:
133,187,256084,1,0,3:0:0:0:
300,37,256272,2,0,L|296:104,1,68.0000012969971,8|2,1:2|3:2,0:0:0:0:
294,132,256553,1,0,0:0:0:0:
294,132,256647,1,2,0:0:0:0:
185,272,256834,1,0,3:0:0:0:
132,186,257022,2,0,P|180:170|229:181,1,102.000001945496,8|0,1:2|0:0,0:0:0:0:
298,263,257397,6,0,L|301:330,1,68.0000012969971,6|0,3:2|0:0,0:0:0:0:
132,186,257772,2,0,L|135:118,1,68.0000012969971,8|0,1:2|0:0,0:0:0:0:
185,272,258147,1,0,3:0:0:0:
35,165,258334,1,0,3:0:0:0:
202,88,258522,1,8,1:2:0:0:
48,14,258709,5,2,3:2:0:0:
185,272,259084,5,2,3:2:0:0:
202,88,259459,5,2,3:2:0:0:
116,366,259834,6,0,P|151:359|186:365,1,71.9999978027344,6|0,3:2|0:0,0:0:0:0:
323,283,260209,2,0,L|321:306,1,23.9999992675781,8|0,0:0|0:0,0:0:0:0:
367,362,260397,6,0,P|323:338|274:348,1,102.000001945496,6|0,3:2|0:0,0:0:0:0:
260,362,260772,1,8,1:2:0:0:
147,258,260959,2,0,P|114:266|81:259,1,68.0000012969971,2|0,0:0|3:0,0:0:0:0:
288,209,261334,1,2,3:2:0:0:
354,207,261522,2,0,P|321:200|289:209,1,68.0000012969971,8|0,1:2|3:0,0:0:0:0:
111,99,261897,6,0,L|116:166,1,68.0000012969971,10|0,1:2|3:0,0:0:0:0:
323,283,262272,2,0,L|317:350,1,68.0000012969971,8|2,1:2|3:2,0:0:0:0:
164,30,262647,1,8,1:2:0:0:
110,98,262834,2,0,P|157:116|206:105,1,102.000001945496,6|0,3:2|0:0,0:0:0:0:
226,89,263209,2,0,L|222:138,1,34.0000006484985,2|0,3:2|0:0,0:0:0:0:
207,271,263397,6,0,L|274:265,1,68.0000012969971,6|0,3:2|0:0,0:0:0:0:
385,182,263772,2,0,L|452:188,1,68.0000012969971,8|0,1:2|0:0,0:0:0:0:
290,84,264147,1,2,3:2:0:0:
385,182,264334,1,0,3:0:0:0:
290,84,264522,2,0,P|257:77|225:87,1,68.0000012969971,8|0,1:2|0:0,0:0:0:0:
61,173,264897,5,2,3:2:0:0:
39,87,265084,1,0,3:0:0:0:
83,259,265272,1,8,1:2:0:0:
61,173,265459,2,0,P|94:166|126:175,1,68.0000012969971,0|2,3:0|0:0,0:0:0:0:
286,254,265834,1,0,3:0:0:0:
204,290,266022,2,0,L|199:222,1,68.0000012969971,8|8,1:2|0:0,0:0:0:0:
199,122,266303,1,8,0:0:0:0:
199,122,266397,6,0,P|243:145|292:137,1,102.000001945496,2|0,3:2|0:0,0:0:0:0:
373,91,266772,2,0,P|404:81|438:84,1,68.0000012969971,8|0,1:2|0:0,0:0:0:0:
199,222,267147,1,2,3:2:0:0:
126,175,267334,1,0,3:0:0:0:
199,222,267522,2,0,P|230:232|264:229,1,68.0000012969971,8|0,1:2|3:0,0:0:0:0:
512,109,267897,5,6,1:2:0:0:
239,151,268084,1,0,3:2:0:0:
239,151,268272,1,0,3:2:0:0:
233,330,268459,5,6,1:2:0:0:
316,107,268646,1,0,3:2:0:0:
316,107,268834,1,0,3:2:0:0:
185,38,269022,5,14,1:2:0:0:
315,195,269209,1,0,3:2:0:0:
315,195,269410,5,4,3:0:0:0:
253,267,269785,1,0,3:0:0:0:
159,282,270160,1,0,3:0:0:0:
80,228,270535,1,0,3:0:0:0:
253,267,270910,5,0,3:0:0:0:
80,228,271285,1,0,3:0:0:0:
63,51,271660,1,0,3:0:0:0:
63,51,272022,6,0,L|65:84,1,34.0000006484985,0|0,3:0|3:0,0:0:0:0:
139,115,272209,2,0,L|136:148,1,34.0000006484985,0|0,3:0|3:0,3:0:0:0:
80,228,272397,6,0,L|113:225,3,34.0000006484985,4|0|0|0,3:0|3:0|3:0|3:0,0:0:0:0:
145,299,272772,2,0,L|174:282,3,34.0000006484985,4|0|0|0,3:0|3:0|3:0|3:0,0:0:0:0:
298,308,273147,6,0,L|304:274,3,34.0000006484985,4|0|0|0,3:0|3:0|3:0|3:0,0:0:0:0:
381,263,273522,2,0,L|372:230,3,34.0000006484985,4|0|0|0,3:0|3:0|3:0|3:0,0:0:0:0:
403,155,273897,6,0,P|388:150|371:149,1,34.0000006484985,4|0,3:0|3:0,0:0:0:0:
256,165,274084,5,8,3:0:0:0:
247,167,274178,1,8,3:0:0:0:
237,168,274272,2,0,P|232:152|232:136,1,34.0000006484985,4|0,3:0|3:0,0:0:0:0:
66,63,274459,5,8,3:0:0:0:
74,71,274553,1,8,3:0:0:0:
82,79,274647,2,0,P|87:62|87:46,1,34.0000006484985,4|0,3:0|3:0,0:0:0:0:
0,94,274834,5,8,3:2:0:0:
25,137,274928,1,8,3:2:0:0:
72,156,275022,1,14,3:2:0:0:
122,147,275115,1,8,3:2:0:0:
157,109,275209,1,8,3:2:0:0:
165,59,275303,1,8,3:2:0:0:
147,10,275397,5,2,0:0:0:0:
214,182,287425,6,0,P|258:197|303:182,1,95.9999970703126,2|0,0:0|0:0,0:0:0:0:
303,182,287987,1,0,0:0:0:0:
392,238,288175,2,0,L|389:285,1,47.9999985351563,0|0,1:0|0:0,0:0:0:0:
293,360,288550,1,0,0:0:0:0:
272,261,288737,2,0,L|270:284,1,23.9999992675781
293,360,288925,6,0,P|246:361|205:338,1,95.9999970703126,2|0,0:0|0:0,0:0:0:0:
254,167,289675,2,0,P|301:165|342:188,1,95.9999970703126,2|0,1:2|0:0,0:0:0:0:
272,261,290237,2,0,L|248:259,1,23.9999992675781
174,211,290425,6,0,B|137:207|137:207|100:214|100:214|79:211,1,95.9999970703126,2|0,0:0|0:0,0:0:0:0:
79,211,290987,1,0,0:0:0:0:
43,106,291175,2,0,P|77:98|112:105,1,71.9999978027344,0|0,1:0|0:0,0:0:0:0:
141,122,291550,2,0,L|136:74,1,47.9999985351563
265,39,291925,6,0,L|260:86,1,47.9999985351563,2|0,0:0|0:0,0:0:0:0:
283,213,292300,2,0,L|278:260,1,47.9999985351563
343,87,292675,2,0,L|338:134,1,47.9999985351563,2|0,1:2|0:0,0:0:0:0:
361,261,293050,2,0,L|356:308,1,47.9999985351563
409,183,293425,6,0,L|357:178,1,51.999997619629,2|0,0:0|0:0,0:0:0:0:
235,201,293800,1,0,0:0:0:0:
309,256,293987,1,0,0:0:0:0:
235,201,294175,2,0,L|183:196,1,51.999997619629,2|0,1:2|0:0,0:0:0:0:
361,261,294550,2,0,L|309:256,1,51.999997619629
187,279,294925,6,0,L|135:274,1,51.999997619629,2|0,0:0|0:0,0:0:0:0:
316,171,295300,2,0,L|367:166,1,51.999997619629
211,100,295675,2,0,P|201:76|204:50,1,51.999997619629,2|0,1:2|0:0,0:0:0:0:
446,150,296050,2,0,P|449:175|439:199,1,51.999997619629
250,272,296425,6,0,L|187:279,1,64,4|0,3:2|0:0,0:0:0:0:
72,175,296800,2,0,L|8:181,1,64,0|0,3:0|0:0,0:0:0:0:
49,375,297155,6,0,L|112:381,1,64,0|0,3:0|0:0,0:0:0:0:
250,272,297518,2,0,L|313:278,1,64,0|0,3:0|0:0,0:0:0:0:
467,108,297899,5,10,1:2:0:0:
398,356,298086,1,10,1:2:0:0:
291,19,298274,5,10,1:2:0:0:
313,278,298461,1,10,1:2:0:0:
93,32,298649,5,10,1:2:0:0:
210,328,298836,1,10,1:2:0:0:
195,78,299024,5,14,1:2:0:0:
110,380,299211,1,10,1:2:0:0:
210,328,300524,5,8,3:2:0:0:
85,102,300711,1,0,3:2:0:0:
210,328,300899,6,0,L|289:338,1,80,6|0,3:2|3:0,0:0:0:0:
85,102,301274,1,8,1:2:0:0:
32,181,301461,2,0,L|111:191,1,80,2|0,3:2|0:0,0:0:0:0:
268,257,301836,2,0,L|307:262,1,40,2|0,3:2|0:0,0:0:0:0:
210,328,302024,5,8,0:0:0:0:
179,277,302117,1,8,0:0:0:0:
187,217,302211,1,8,0:0:0:0:
229,174,302305,1,8,0:0:0:0:
288,166,302399,6,0,P|326:176|365:168,1,80,6|0,3:2|0:0,0:0:0:0:
85,102,302774,2,0,P|123:91|162:99,1,80,8|0,1:2|0:0,0:0:0:0:
268,257,303149,1,0,3:0:0:0:
365,168,303336,1,0,0:0:0:0:
268,257,303524,2,0,L|188:257,1,80,8|0,1:2|0:0,0:0:0:0:
445,168,303899,6,0,L|365:168,1,80,2|0,3:2|0:0,0:0:0:0:
334,95,304180,2,0,L|379:95,1,40,0|8,0:0|1:2,0:0:0:0:
431,252,304461,1,12,1:2:0:0:
269,147,304649,5,10,3:2:0:0:
259,155,304742,2,0,P|221:164|183:152,1,80,8|0,0:0|0:0,0:0:0:0:
113,208,305024,2,0,P|74:198|36:210,1,80,10|8,1:2|0:0,0:0:0:0:
88,361,305305,1,8,0:0:0:0:
88,361,305399,6,0,L|167:354,1,80,6|0,3:2|0:0,0:0:0:0:
269,147,305774,2,0,L|348:140,1,80,8|0,1:2|0:0,0:0:0:0:
0,288,306149,6,0,L|79:281,1,80,6|0,3:2|0:0,0:0:0:0:
178,20,306524,2,0,L|257:13,1,80,8|0,1:2|0:0,0:0:0:0:
0,123,306899,6,0,L|79:116,1,80,6|0,3:2|0:0,0:0:0:0:
310,257,307274,2,0,L|389:250,1,80,8|0,1:2|0:0,0:0:0:0:
463,79,307649,5,10,3:2:0:0:
455,67,307742,2,0,P|418:53|379:59,1,80,8|0,0:0|0:0,0:0:0:0:
295,32,308024,2,0,P|258:46|218:40,1,80,8|0,1:2|0:0,0:0:0:0:
0,122,308399,6,0,P|56:105|112:123,1,120,6|0,3:2|0:0,0:0:0:0:
134,141,308774,2,0,L|128:101,1,40,8|0,1:2|0:0,0:0:0:0:
155,323,308961,1,0,0:0:0:0:
105,226,309149,2,0,L|185:227,1,80,2|0,3:2|0:0,0:0:0:0:
225,229,309430,1,0,0:0:0:0:
225,229,309524,2,0,L|230:268,1,40,12|0,1:2|0:0,0:0:0:0:
286,163,309711,1,0,0:0:0:0:
256,384,309899,5,6,3:2:0:0:
286,163,310086,1,0,3:2:0:0:
317,283,310274,5,0,3:2:0:0:
287,62,310461,1,0,3:2:0:0:
134,141,310649,5,10,1:2:0:0:
380,214,310836,1,8,1:2:0:0:
165,226,311024,5,12,1:2:0:0:
421,132,311211,1,8,1:2:0:0:
165,226,311399,6,0,L|45:212,1,120.000004577637,6|0,3:2|0:0,0:0:0:0:
45,212,311961,1,0,3:0:0:0:
249,264,312149,2,0,L|245:204,1,60.0000022888184,8|0,1:2|0:0,0:0:0:0:
235,53,312524,1,0,0:0:0:0:
172,323,312899,5,0,3:0:0:0:
249,264,313086,2,0,L|308:260,1,60.0000022888184,8|0,0:0|0:0,0:0:0:0:
48,83,313461,5,0,3:0:0:0:
125,142,313648,2,0,P|154:145|183:135,1,60.0000022888184,8|0,1:2|0:0,0:0:0:0:
183,135,314024,5,0,0:0:0:0:
350,57,314211,2,0,L|353:87,1,30.0000011444092,0|0,3:0|0:0,0:0:0:0:
390,164,314399,6,0,P|332:169|285:134,1,120.000004577637,4|0,0:0|0:0,0:0:0:0:
285,134,314961,1,0,3:0:0:0:
165,34,315149,2,0,P|106:29|59:64,1,120.000004577637,8|0,1:2|3:0,0:0:0:0:
125,142,315711,2,0,L|127:112,1,30.0000011444092
23,239,315899,6,0,L|25:268,3,30.0000011444092,2|0|0|0,3:2|3:2|3:2|3:2,3:2:0:0:
102,262,316274,2,0,L|104:291,3,30.0000011444092,2|0|0|0,3:2|3:2|3:2|3:2,3:2:0:0:
179,227,316649,5,10,3:2:0:0:
207,218,316742,1,8,3:2:0:0:
236,220,316836,1,8,3:2:0:0:
263,234,316930,1,8,3:2:0:0:
282,256,317024,1,10,3:2:0:0:
291,285,317117,1,8,3:2:0:0:
289,314,317211,1,8,3:2:0:0:
275,341,317305,1,8,3:2:0:0:
251,359,317399,6,0,P|210:336|164:346,1,95.9999970703126,4|0,3:2|0:0,0:0:0:0:
164,346,317961,2,0,L|165:322,1,23.9999992675781,8|8,0:0|0:0,0:0:0:0:
20,267,318149,6,0,P|66:244|116:253,1,103.999995239258,4|0,3:2|0:0,0:0:0:0:
116,253,318711,2,0,L|113:227,1,25.9999988098145,8|8,0:0|0:0,0:0:0:0:
280,170,318899,6,0,P|232:143|178:153,1,111.999996582031,4|0,3:2|0:0,0:0:0:0:
178,153,319461,2,0,L|180:125,1,27.9999991455078,8|8,0:0|0:0,0:0:0:0:
5,54,319649,6,0,P|59:33|114:54,1,120.000004577637,4|0,3:2|0:0,0:0:0:0:
114,54,320211,2,0,L|111:24,1,30.0000011444092,8|8,3:2|0:0,0:0:0:0:
59,124,320399,5,14,0:0:0:0:
219,234,320586,1,0,3:0:0:0:
59,124,320774,1,0,3:0:0:0:
141,300,320961,5,12,0:0:0:0:
319,275,321148,1,0,3:0:0:0:
141,300,321336,1,0,3:0:0:0:
319,275,321524,6,0,P|362:293|409:286,1,96,12|0,0:0|0:0,0:0:0:0:
449,260,321899,6,0,L|445:323,1,64,2|0,3:2|0:0,0:0:0:0:
385,28,322274,2,0,L|381:91,1,64,2|0,3:2|3:0,0:0:0:0:
373,208,322649,1,10,3:2:0:0:
385,28,322836,1,8,1:2:0:0:
319,275,323024,1,8,1:2:0:0:
205,105,323211,2,0,L|209:136,1,32,0|0,3:0|0:0,0:0:0:0:
157,188,323399,6,0,P|212:166|268:183,1,120,6|0,3:2|0:0,0:0:0:0:
319,275,323774,2,0,L|321:314,1,40,8|0,1:2|0:0,0:0:0:0:
258,376,323961,1,2,0:0:0:0:
116,263,324149,2,0,P|153:274|192:266,1,80,0|2,3:0|0:0,0:0:0:0:
345,179,324524,1,8,1:2:0:0:
421,248,324711,1,0,0:0:0:0:
345,179,324899,6,0,P|307:190|268:182,1,80,2|0,3:2|0:0,0:0:0:0:
156,52,325274,1,8,1:2:0:0:
116,263,325461,1,2,0:0:0:0:
26,136,325649,5,8,3:2:0:0:
31,127,325742,2,0,P|68:113|107:121,1,80,8|0,0:0|0:0,0:0:0:0:
156,52,326024,2,0,P|193:65|232:57,1,80,8|0,1:2|0:0,0:0:0:0:
390,114,326399,5,2,3:2:0:0:
464,45,326586,1,0,0:0:0:0:
390,114,326774,2,0,L|310:107,1,80,8|2,1:2|0:0,0:0:0:0:
156,52,327149,1,0,3:0:0:0:
234,167,327336,2,0,L|230:123,1,40,2|0,0:0|0:0,0:0:0:0:
156,52,327524,2,0,P|117:43|79:56,1,80,8|0,1:2|0:0,0:0:0:0:
3,192,327899,6,0,L|8:271,1,80,2|0,3:2|0:0,0:0:0:0:
234,167,328274,1,8,1:2:0:0:
79,56,328461,2,0,L|81:95,1,40,14|0,1:2|0:0,0:0:0:0:
154,266,328649,5,8,3:2:0:0:
164,256,328742,2,0,P|201:245|239:256,1,80,8|0,0:0|0:0,0:0:0:0:
310,206,329024,2,0,P|347:217|385:206,1,80,8|0,1:2|0:0,0:0:0:0:
405,195,329423,6,0,L|401:246,1,51.999997619629,0|0,3:0|0:0,0:0:0:0:
341,327,329798,2,0,L|344:378,1,51.999997619629,0|0,3:0|0:0,0:0:0:0:
422,185,330173,6,0,L|418:236,1,51.999997619629,0|0,3:0|0:0,0:0:0:0:
326,320,330548,2,0,L|329:371,1,51.999997619629,0|0,3:0|0:0,0:0:0:0:
439,175,330923,6,0,L|435:226,1,51.999997619629,0|0,3:0|0:0,0:0:0:0:
311,313,331298,2,0,L|314:364,1,51.999997619629,0|0,3:0|0:0,0:0:0:0:
456,165,331673,6,0,L|452:216,1,51.999997619629,0|0,3:0|0:0,0:0:0:0:
296,306,332048,2,0,L|299:357,1,51.999997619629,0|0,3:0|0:0,0:0:0:0:
223,221,332329,1,8,0:0:0:0:
223,221,332423,5,6,3:2:0:0:
136,262,332798,1,0,3:0:0:0:
49,220,333173,1,0,3:0:0:0:
44,124,333548,1,0,3:0:0:0:
49,220,333923,6,0,L|52:279,1,60.0000022888184,2|0,3:2|0:0,0:0:0:0:
212,311,334298,2,0,L|215:370,1,60.0000022888184,0|0,3:0|0:0,0:0:0:0:
124,89,334673,2,0,L|127:148,1,60.0000022888184,0|0,3:0|0:0,0:0:0:0:
287,180,335048,2,0,L|290:239,1,60.0000022888184,0|0,3:0|0:0,0:0:0:0:
299,317,335329,1,0,0:0:0:0:
299,317,335399,6,0,L|327:308,3,30.0000011444092,10|10|10|10,3:2|0:0|0:0|0:0,0:0:0:0:
192,268,335774,2,0,L|163:259,3,30.0000011444092,10|10|10|10,3:2|0:0|0:0|0:0,0:0:0:0:
287,180,336149,2,0,L|315:171,3,30.0000011444092,10|10|10|10,3:2|0:0|0:0|0:0,0:0:0:0:
180,131,336524,2,0,L|151:122,3,30.0000011444092,10|10|10|10,3:2|0:0|0:0|0:0,0:0:0:0:
85,181,336899,5,10,3:2:0:0:
66,148,336992,1,8,3:2:0:0:
63,110,337086,1,8,3:2:0:0:
76,74,337180,1,8,3:2:0:0:
104,48,337274,1,10,3:2:0:0:
140,35,337367,1,8,3:2:0:0:
178,39,337461,1,8,3:2:0:0:
210,59,337555,1,8,3:2:0:0:
210,59,338439,6,0,L|289:54,1,80,6|0,3:2|0:0,0:0:0:0:
45,130,338814,1,8,1:2:0:0:
113,204,339001,1,0,0:0:0:0:
45,130,339189,2,0,L|164:123,1,120,2|0,3:2|0:0,0:0:0:0:
260,173,339564,2,0,P|270:210|260:249,1,80,8|0,1:2|0:0,0:0:0:0:
106,295,339939,5,2,3:2:0:0:
113,204,340126,1,0,0:0:0:0:
38,353,340314,2,0,P|88:384|146:374,1,120,8|0,1:2|0:0,0:0:0:0:
184,301,340689,2,0,L|185:261,1,40,2|0,3:2|0:0,0:0:0:0:
186,177,340876,1,0,0:0:0:0:
347,290,341064,2,0,P|308:300|271:288,1,80,8|0,1:2|0:0,0:0:0:0:
186,177,341439,6,0,L|188:97,1,80,2|0,3:2|0:0,0:0:0:0:
341,18,341814,1,8,1:2:0:0:
424,69,342001,1,0,0:0:0:0:
341,18,342189,2,0,L|338:97,1,80,2|0,3:2|0:0,0:0:0:0:
108,208,342564,2,0,L|110:128,1,80,8|8,1:2|0:0,0:0:0:0:
61,277,342845,1,8,0:0:0:0:
61,277,342939,6,0,P|97:292|136:286,1,80,2|0,3:2|0:0,0:0:0:0:
191,218,343220,2,0,L|191:178,1,40,0|8,0:0|1:2,0:0:0:0:
191,18,343501,1,12,1:2:0:0:
362,197,343689,5,10,3:2:0:0:
353,204,343782,2,0,P|313:209|277:194,1,80,8|0,0:0|0:0,0:0:0:0:
191,218,344064,2,0,P|151:212|115:227,1,80,8|8,1:2|0:0,0:0:0:0:
61,277,344345,1,8,0:0:0:0:
61,277,344439,5,14,1:2:0:0:
162,103,344626,1,0,3:2:0:0:
262,277,344814,1,0,3:2:0:0:
61,160,345001,5,12,1:2:0:0:
262,161,345188,1,2,3:2:0:0:
161,334,345376,1,0,3:2:0:0:
256,50,345564,5,12,1:2:0:0:
262,277,345752,1,0,3:2:0:0:
464,161,345939,5,2,3:2:0:0:
262,161,346126,1,12,1:2:0:0:
363,335,346314,1,0,3:2:0:0:
463,277,346501,5,0,3:2:0:0:
362,102,346688,1,14,1:2:0:0:
262,277,346876,1,0,3:2:0:0:
464,161,347064,6,0,P|420:165|382:141,1,90.0000034332277,12|0,0:0|3:0,0:0:0:0:
362,102,347439,5,2,3:2:0:0:
296,147,347626,1,0,3:2:0:0:
216,139,347814,1,8,1:2:0:0:
165,77,347970,1,0,3:2:0:0:
269,10,348157,1,10,1:2:0:0:
362,102,348345,6,0,L|359:131,1,30.0000011444092,0|0,3:0|3:0,0:0:0:0:
250,213,348532,1,0,3:0:0:0:
309,289,348720,1,0,3:0:0:0:
250,213,348907,6,0,L|190:208,1,60.0000022888184,10|0,1:2|3:0,0:0:0:0:
480,182,349282,1,0,3:0:0:0:
421,106,349469,2,0,L|361:101,1,60.0000022888184,8|0,1:2|3:0,0:0:0:0:
199,97,349844,1,0,3:0:0:0:
109,119,350032,6,0,P|152:129|192:110,1,90.0000034332277,8|0,1:2|3:0,0:0:0:0:
199,97,350407,1,0,3:0:0:0:
183,239,350594,2,0,L|177:298,1,60.0000022888184,0|0,3:0|0:0,0:0:0:0:
310,380,350997,5,0,3:0:0:0:
373,319,351194,2,0,L|400:317,1,27.9999991455078,10|0,1:2|0:0,0:0:0:0:
282,264,351391,2,0,P|228:271|183:239,1,111.999996582031,0|0,3:0|3:0,0:0:0:0:
66,300,351985,5,2,3:2:0:0:
48,219,352200,2,0,L|98:224,1,50.3999984619141,8|0,1:2|3:0,0:0:0:0:
250,195,352632,1,8,0:0:0:0:
82,90,352870,6,0,L|86:133,1,44.0000013427735,10|2,1:2|3:0,0:0:0:0:
233,319,353331,2,0,L|228:358,1,40,4|0,3:0|3:0,0:0:0:0:
250,195,354788,5,6,1:2:0:0:
256,192,354908,12,0,362468,0:0:0:0:
