osu file format v14

[General]
AudioFilename: audio.mp3
AudioLeadIn: 0
PreviewTime: 275428
Countdown: 0
SampleSet: Soft
StackLeniency: 0.6
Mode: 0
LetterboxInBreaks: 0
EpilepsyWarning: 1
WidescreenStoryboard: 1

[Editor]
DistanceSpacing: 1.4
BeatDivisor: 4
GridSize: 32
TimelineZoom: 1.9

[Metadata]
Title:Sayonara Memories
TitleUnicode:さよならメモリーズ
Artist:supercell
ArtistUnicode:supercell
Creator:Moecho
Version:Re: Mankai no Sakura
Source:
Tags:Today Is A Beautiful Day J-Pop Japanese Ryo Yanagi Nagi やなぎなぎ
BeatmapID:2069605
BeatmapSetID:989344

[Difficulty]
HPDrainRate:6
CircleSize:4.2
OverallDifficulty:8
ApproachRate:9
SliderMultiplier:1.6
SliderTickRate:1

[Events]
//Background and Video events
0,0,"background.jpg",0,0
//Break Periods
2,227710,238880
2,275680,286910
//Storyboard Layer 0 (Background)
//Storyboard Layer 1 (Fail)
//Storyboard Layer 2 (Pass)
//Storyboard Layer 3 (Foreground)
//Storyboard Layer 4 (Overlay)
//Storyboard Sound Samples

[TimingPoints]
690,747.663551401869,4,2,1,30,1,0
690,-133.333333333333,4,2,1,30,0,0
1063,-133.333333333333,4,2,1,15,0,0
1437,-133.333333333333,4,2,1,30,0,0
1811,-133.333333333333,4,2,1,15,0,0
2185,-133.333333333333,4,2,1,30,0,0
2559,-133.333333333333,4,2,1,15,0,0
2932,-133.333333333333,4,2,1,30,0,0
3306,-133.333333333333,4,2,1,15,0,0
3680,-133.333333333333,4,2,1,30,0,0
4054,-133.333333333333,4,2,1,15,0,0
4428,-133.333333333333,4,2,1,30,0,0
4802,-133.333333333333,4,2,1,15,0,0
4989,-133.333333333333,4,2,1,20,0,0
5175,-133.333333333333,4,2,1,30,0,0
5549,-133.333333333333,4,2,1,15,0,0
5923,-133.333333333333,4,2,1,30,0,0
6297,776.699029126214,4,2,1,15,1,0
6685,755.667506297229,4,2,1,30,1,0
6685,-133.333333333333,4,2,1,30,0,0
7440,789.473684210526,4,2,1,15,1,0
7834,-100,4,2,1,20,0,0
8229,800,4,2,1,30,1,0
8229,-133.333333333333,4,2,1,30,0,0
8629,769.230769230769,4,2,1,15,1,0
9013,826.446280991736,4,2,1,30,1,0
9426,-100,4,2,1,15,0,0
9839,845.070422535211,4,2,1,30,1,0
10684,902.255639097744,4,2,1,15,1,0
11135,1064.77373558119,4,2,1,30,1,0
11401,-100,4,2,1,15,0,0
11667,1325.96685082873,4,2,1,30,1,0
11998,-100,4,2,1,10,0,0
13655,1131.00848256362,4,2,1,5,1,0
14220,785.340314136126,4,2,1,20,1,0
15790,827.586206896552,4,2,1,25,1,0
17031,959.232613908873,4,2,1,5,1,0
17510,375,4,2,1,40,1,0
17510,-133.333333333333,4,2,1,40,0,0
17791,-133.333333333333,4,2,1,5,0,0
17885,-133.333333333333,4,2,2,40,0,0
18447,-133.333333333333,4,2,1,40,0,0
18541,-133.333333333333,4,2,1,5,0,0
18635,-133.333333333333,4,2,2,40,0,0
19197,-133.333333333333,4,2,1,40,0,0
19287,-133.333333333333,4,2,1,5,0,0
19385,-133.333333333333,4,2,2,40,0,0
19760,-133.333333333333,4,2,1,40,0,0
19857,-133.333333333333,4,2,1,5,0,0
19947,-133.333333333333,4,2,1,40,0,0
20041,-133.333333333333,4,2,1,5,0,0
20135,-133.333333333333,4,2,2,40,0,0
20322,-133.333333333333,4,2,1,40,0,0
20385,-133.333333333333,4,2,1,20,0,0
20510,-133.333333333333,4,2,1,45,0,0
20791,-133.333333333333,4,2,1,5,0,0
20885,-133.333333333333,4,2,2,45,0,0
21447,-133.333333333333,4,2,1,45,0,0
21541,-133.333333333333,4,2,1,5,0,0
21635,-133.333333333333,4,2,2,45,0,0
22197,-133.333333333333,4,2,1,45,0,0
22291,-133.333333333333,4,2,1,5,0,0
22385,-100,4,2,2,45,0,0
22760,342.857142857143,4,2,1,20,1,0
22931,348.837209302326,4,2,1,60,1,0
23105,405.405405405405,4,2,1,60,1,0
23307,398.671096345515,4,2,1,60,1,0
23506,375,4,2,1,60,1,1
23693,-200,4,2,1,50,0,0
23881,-200,4,2,2,50,0,0
24068,-200,4,2,1,50,0,0
24631,-200,4,2,2,50,0,0
24818,-200,4,2,1,50,0,0
25381,-200,4,2,2,50,0,0
25568,-200,4,2,1,50,0,0
26131,-200,4,2,2,50,0,0
26318,-200,4,2,1,50,0,0
26381,-200,4,2,1,25,0,0
26506,-200,4,2,1,50,0,0
26881,-200,4,2,2,50,0,0
27068,-200,4,2,1,50,0,0
27445,-100,4,2,1,50,0,0
27631,-100,4,2,2,50,0,0
27818,-100,4,2,1,50,0,0
28381,-100,4,2,2,50,0,0
28568,-100,4,2,1,50,0,0
29506,-133.333333333333,4,2,1,60,0,1
29693,-133.333333333333,4,2,2,60,0,0
29881,-133.333333333333,4,2,1,60,0,0
30068,-133.333333333333,4,2,2,60,0,0
30256,-133.333333333333,4,2,1,60,0,0
30443,-133.333333333333,4,2,2,60,0,0
30631,-133.333333333333,4,2,1,60,0,0
30818,-133.333333333333,4,2,2,60,0,0
31006,-133.333333333333,4,2,1,60,0,0
31193,-133.333333333333,4,2,2,60,0,0
31381,-133.333333333333,4,2,1,60,0,0
31568,-133.333333333333,4,2,2,60,0,0
31756,-133.333333333333,4,2,1,60,0,0
31943,375,4,2,2,60,1,0
32130,370.37037037037,4,2,1,60,1,0
32315,-133.333333333333,4,2,2,60,0,0
32376,-133.333333333333,4,2,2,30,0,0
32500,375,4,2,1,60,1,0
32500,-133.333333333333,4,2,1,65,0,0
32687,-133.333333333333,4,2,2,65,0,0
32875,-133.333333333333,4,2,1,65,0,0
33062,-133.333333333333,4,2,2,65,0,0
33250,-133.333333333333,4,2,1,65,0,0
33437,-133.333333333333,4,2,2,65,0,0
33625,-133.333333333333,4,2,1,65,0,0
33812,-133.333333333333,4,2,1,80,0,1
34000,-133.333333333333,4,2,1,80,0,0
34562,-133.333333333333,4,2,1,5,0,0
34750,-100,4,2,1,75,0,0
34937,369.230769230769,4,2,1,75,1,0
35490,385.852090032154,4,2,2,80,1,1
35875,375,4,2,2,80,1,1
37000,375,4,2,2,80,1,1
37562,-100,4,2,2,60,0,1
37750,-100,4,2,2,80,0,1
39812,-100,4,2,2,60,0,1
40000,-100,4,2,2,80,0,1
40468,-100,4,2,2,40,0,1
40562,-100,4,2,2,80,0,1
40656,-100,4,2,2,40,0,1
40750,-100,4,2,2,80,0,1
41034,-100,4,2,2,60,0,1
41125,360.902255639098,4,2,2,80,1,1
41305,-100,4,2,2,60,0,0
41485,375,4,2,2,80,1,1
41485,-100,4,2,2,80,0,1
41860,-100,4,2,2,80,0,0
42047,-100,4,2,2,80,0,1
42422,-100,4,2,2,80,0,0
42610,-100,4,2,2,80,0,1
42985,-100,4,2,2,80,0,0
43172,-100,4,2,2,80,0,1
43547,-100,4,2,2,80,0,0
44110,-100,4,2,2,80,0,1
44297,-100,4,2,2,80,0,0
44485,-133.333333333333,4,2,2,80,0,1
46735,368.098159509202,4,2,2,80,1,1
46735,-133.333333333333,4,2,2,80,0,1
46827,-133.333333333333,4,2,2,40,0,1
46919,-133.333333333333,4,2,2,80,0,1
47011,-133.333333333333,4,2,2,40,0,1
47103,397.350993377483,4,2,2,80,1,0
47500,375,4,2,2,50,1,1
47687,-100,4,2,2,50,0,0
53125,390.879478827362,4,2,2,50,1,0
53320,380.952380952381,4,2,2,5,1,0
53510,375,4,2,2,50,1,0
54072,387.096774193548,4,2,2,5,1,0
54265,373.831775700935,4,2,2,50,1,0
55386,359.281437125748,4,2,2,50,1,0
55745,375,4,2,2,50,1,0
56307,357.142857142857,4,2,2,5,1,0
56485,392.156862745098,4,2,2,55,1,0
56485,-200,4,2,2,55,0,0
56681,-200,4,2,2,27,0,0
56877,375,4,2,2,55,1,0
56877,-166.666666666667,4,2,2,55,0,0
57064,-166.666666666667,4,2,2,27,0,0
57252,-142.857142857143,4,2,2,55,0,0
57439,-142.857142857143,4,2,2,27,0,0
57627,-125,4,2,2,55,0,0
57814,382.165605095541,4,2,2,27,1,0
58005,375,4,2,2,55,1,0
58005,-400,4,2,2,55,0,0
58067,-400,4,2,2,35,0,0
58942,372.093023255814,4,2,1,60,1,0
58942,-200,4,2,1,60,0,0
59314,-200,4,2,1,30,0,0
59500,375,4,2,1,65,1,1
59500,-133.333333333333,4,2,1,65,0,1
59687,-133.333333333333,4,2,1,65,0,0
61281,-133.333333333333,4,2,1,32,0,0
61375,-133.333333333333,4,2,1,65,0,0
62031,-133.333333333333,4,2,1,32,0,0
62125,-133.333333333333,4,2,1,65,0,0
62500,368.098159509202,4,2,1,65,1,0
62500,-133.333333333333,4,2,1,65,0,0
62776,-133.333333333333,4,2,1,32,0,0
62868,389.61038961039,4,2,1,65,1,0
62868,-133.333333333333,4,2,1,65,0,0
63062,375,4,2,1,65,1,0
63062,-133.333333333333,4,2,1,65,0,0
63905,-133.333333333333,4,2,1,32,0,0
63999,-133.333333333333,4,2,1,65,0,0
64749,370.37037037037,4,2,1,65,1,0
64749,-133.333333333333,4,2,1,65,0,0
65304,393.44262295082,4,2,1,45,1,0
65500,375,4,2,1,65,1,0
65500,-133.333333333333,4,2,1,65,0,0
66156,-133.333333333333,4,2,1,45,0,0
66250,363.636363636364,4,2,1,65,1,0
66613,387.096774193548,4,2,1,65,1,0
66613,-133.333333333333,4,2,1,65,0,0
67000,375,4,2,1,65,1,0
67000,-133.333333333333,4,2,1,65,0,0
68312,-133.333333333333,4,2,1,45,0,0
68500,-133.333333333333,4,2,1,65,0,0
68781,-133.333333333333,4,2,1,32,0,0
68875,-133.333333333333,4,2,1,65,0,0
70281,-133.333333333333,4,2,1,32,0,0
70375,-133.333333333333,4,2,1,65,0,0
70468,-133.333333333333,4,2,1,32,0,0
70562,-133.333333333333,4,2,1,65,0,0
70750,298.507462686567,4,2,1,65,1,0
70750,-133.155792276964,4,2,1,65,0,0
70824,401.33779264214,4,2,1,65,1,0
70824,-135.135135135135,4,2,1,65,0,0
71125,375,4,2,1,65,1,0
71125,-133.333333333333,4,2,1,65,0,0
71312,-133.333333333333,4,2,1,45,0,0
71500,370.37037037037,4,2,1,70,1,1
71685,-100,4,2,1,70,0,0
71870,384.615384615385,4,2,1,70,1,0
71870,-133.333333333333,4,2,1,70,0,0
72254,363.636363636364,4,2,1,70,1,0
72254,-133.333333333333,4,2,1,70,0,0
72799,403.361344537815,4,2,1,70,1,0
72799,-133.333333333333,4,2,1,70,0,0
72899,-133.333333333333,4,2,1,50,0,0
73000,375,4,2,1,70,1,0
73000,-133.333333333333,4,2,1,70,0,0
74312,-133.333333333333,4,2,1,50,0,0
74500,-133.333333333333,4,2,1,70,0,0
75812,-133.333333333333,4,2,1,50,0,0
76000,382.165605095541,4,2,1,40,1,0
76382,359.281437125748,4,2,1,50,1,0
76741,-100,4,2,1,60,0,0
76920,387.096774193548,4,2,1,60,1,0
77113,367.534456355283,4,2,1,70,1,1
77113,-133.333333333333,4,2,1,70,0,1
77296,-133.333333333333,4,2,1,70,0,0
77387,-133.333333333333,4,2,1,5,0,0
77480,395.387149917628,4,2,1,60,1,1
77480,-133.333333333333,4,2,1,60,0,1
77677,-133.333333333333,4,2,1,60,0,0
77875,375,4,2,2,60,1,0
77875,-133.333333333333,4,2,2,60,0,0
78062,-133.333333333333,4,2,1,60,0,0
78437,-133.333333333333,4,2,1,30,0,0
78625,-133.333333333333,4,2,2,60,0,0
79000,-133.333333333333,4,2,1,60,0,0
79281,-133.333333333333,4,2,1,30,0,0
79375,-133.333333333333,4,2,2,60,0,0
79562,-133.333333333333,4,2,1,60,0,0
80031,-133.333333333333,4,2,1,30,0,0
80125,-133.333333333333,4,2,2,60,0,0
80312,-133.333333333333,4,2,1,60,0,0
80500,375,4,2,1,60,1,0
80500,-133.333333333333,4,2,1,60,0,0
80687,-133.333333333333,4,2,1,30,0,0
80875,-133.333333333333,4,2,2,60,0,0
81062,-133.333333333333,4,2,1,60,0,0
81250,-133.333333333333,4,2,1,30,0,0
81437,-133.333333333333,4,2,1,60,0,0
81625,-133.333333333333,4,2,2,60,0,0
82000,370.37037037037,4,2,1,60,1,0
82000,-133.333333333333,4,2,1,60,0,0
82277,-133.333333333333,4,2,1,30,0,0
82370,-133.333333333333,4,2,2,60,0,0
82555,-133.333333333333,4,2,1,60,0,0
82925,379.746835443038,4,2,1,60,1,0
83114,387.096774193548,4,2,2,60,1,0
83307,370.37037037037,4,2,1,60,1,0
83307,-133.333333333333,4,2,1,60,0,0
83399,-133.333333333333,4,2,1,40,0,0
83492,387.096774193548,4,2,1,60,1,1
83492,-133.333333333333,4,2,1,60,0,1
83685,-133.333333333333,4,2,1,60,0,0
83879,355.029585798817,4,2,2,60,1,0
84056,-133.333333333333,4,2,1,60,0,0
84234,384.615384615385,4,2,1,60,1,0
84234,-133.333333333333,4,2,1,60,0,0
84426,-133.333333333333,4,2,1,30,0,0
84618,375,4,2,2,60,1,0
84618,-133.333333333333,4,2,2,60,0,0
84805,-133.333333333333,4,2,1,30,0,0
84993,370.37037037037,4,2,1,60,1,0
84993,-133.333333333333,4,2,1,60,0,0
85363,-133.333333333333,4,2,2,60,0,0
85548,-133.333333333333,4,2,1,30,0,0
85733,397.350993377483,4,2,1,60,1,0
85733,-133.333333333333,4,2,1,60,0,0
86130,375,4,2,2,60,1,0
86130,-133.333333333333,4,2,2,60,0,0
86317,-133.333333333333,4,2,1,60,0,0
86505,370.37037037037,4,2,1,60,1,0
86875,355.029585798817,4,2,2,60,1,0
87052,375,4,2,1,60,1,0
87052,-133.333333333333,4,2,1,60,0,0
87427,-133.333333333333,4,2,1,30,0,0
87614,-133.333333333333,4,2,2,60,0,1
87802,-133.333333333333,4,2,1,60,0,0
87989,370.37037037037,4,2,1,30,1,0
87989,-133.333333333333,4,2,1,30,0,0
88174,-133.333333333333,4,2,1,60,0,0
88266,-133.333333333333,4,2,1,30,0,0
88359,-133.333333333333,4,2,2,60,0,0
88544,-133.333333333333,4,2,1,60,0,0
88729,-133.333333333333,4,2,1,40,0,0
88914,-133.333333333333,4,2,1,50,0,0
89100,384.615384615385,4,2,1,60,1,1
89292,-133.333333333333,4,2,1,60,0,0
89485,382.165605095541,4,2,1,60,1,1
89485,-133.333333333333,4,2,1,60,0,1
89676,-133.333333333333,4,2,1,60,0,0
89867,-133.333333333333,4,2,2,60,0,0
90249,-131.233595800525,4,2,1,60,0,0
90440,370.37037037037,4,2,1,5,1,0
90625,368.098159509202,4,2,1,30,1,0
90809,-100,4,2,1,60,0,0
90993,377.358490566038,4,2,1,60,1,0
90993,-133.333333333333,4,2,1,60,0,0
91370,372.670807453416,4,2,2,60,1,0
91556,-133.333333333333,4,2,1,60,0,0
91929,-133.333333333333,4,2,1,30,0,0
92115,380.952380952381,4,2,2,60,1,0
92305,-133.333333333333,4,2,1,60,0,0
92400,-133.333333333333,4,2,1,40,0,0
92495,375,4,2,1,60,1,0
92495,-133.333333333333,4,2,1,60,0,0
92870,-133.333333333333,4,2,2,60,0,0
93245,-133.333333333333,4,2,1,60,0,0
93620,-133.333333333333,4,2,2,60,0,0
93807,387.096774193548,4,2,1,60,1,0
94000,375,4,2,1,60,1,0
94000,-133.333333333333,4,2,1,60,0,0
94187,-133.333333333333,4,2,2,40,0,0
94375,-149.253731343284,4,2,1,60,0,0
94562,-149.253731343284,4,2,2,40,0,0
94750,-172.413793103448,4,2,1,60,0,0
94937,-172.413793103448,4,2,2,40,0,0
95125,-200,4,2,1,60,0,0
95312,-200,4,2,2,40,0,0
95406,337.078651685393,4,2,2,40,1,0
95490,376.175548589342,4,2,1,65,1,1
95490,-133.333333333333,4,2,1,65,0,1
95678,-133.333333333333,4,2,1,65,0,0
95865,-133.333333333333,4,2,2,65,0,0
96052,-133.333333333333,4,2,1,65,0,0
96615,-133.333333333333,4,2,2,65,0,0
96802,-133.333333333333,4,2,1,65,0,0
97370,-133.333333333333,4,2,2,65,0,0
97558,-133.333333333333,4,2,1,65,0,0
97747,368.098159509202,4,2,1,65,1,0
98115,419.58041958042,4,2,1,65,1,0
98115,-133.333333333333,4,2,2,65,0,0
98324,333.333333333333,4,2,1,45,1,0
98490,375,4,2,1,70,1,1
98490,-133.333333333333,4,2,1,70,0,1
98677,-133.333333333333,4,2,1,70,0,0
99615,-133.333333333333,4,2,2,70,0,0
99896,-133.333333333333,4,2,2,35,0,0
99990,-133.333333333333,4,2,1,70,0,0
100552,415.22491349481,4,2,1,35,1,0
100759,352.941176470588,4,2,1,75,1,0
101376,497.92531120332,4,2,1,75,1,0
101500,375,4,2,2,85,1,1
101500,-100,4,2,2,85,0,1
102062,-100,4,2,2,65,0,1
102250,-100,4,2,2,85,0,1
102531,-100,4,2,2,42,0,1
102625,-100,4,2,2,85,0,1
104031,-100,4,2,2,65,0,1
104125,-100,4,2,2,85,0,1
104312,-100,4,2,2,65,0,0
104500,-100,4,2,2,85,0,1
105531,-100,4,2,2,42,0,1
105625,-100,4,2,2,85,0,1
106375,-100,4,2,2,85,0,0
106468,-100,4,2,2,42,0,0
106562,-100,4,2,2,85,0,1
107031,-100,4,2,2,65,0,1
107125,-100,4,2,2,85,0,0
107312,-100,4,2,2,65,0,0
107500,-133.333333333333,4,2,2,85,0,1
107687,357.142857142857,4,2,2,85,1,1
107865,385.232744783307,4,2,2,85,1,0
107865,-133.333333333333,4,2,2,85,0,0
108250,375,4,2,2,90,1,1
108250,-80,4,2,2,90,0,1
108625,-80,4,2,2,90,0,0
109000,-57.1428571428571,4,2,2,95,0,1
109375,-57.1428571428571,4,2,2,95,0,0
109750,338.983050847458,4,2,2,85,1,1
109834,394.736842105263,4,2,2,85,1,1
109834,-133.333333333333,4,2,2,85,0,1
110031,-133.333333333333,4,2,2,65,0,1
110130,370.37037037037,4,2,2,85,1,0
110130,-133.333333333333,4,2,2,85,0,0
110500,370.37037037037,4,2,2,85,1,1
111055,384.615384615385,4,2,2,65,1,1
111247,-100,4,2,2,85,0,1
111439,348.837209302326,4,2,2,85,1,1
111613,389.61038961039,4,2,2,85,1,1
111906,-100,4,2,2,42,0,1
112002,361.44578313253,4,2,2,70,1,0
112092,-100,4,2,2,35,0,0
112182,-100,4,2,2,70,0,0
112273,-100,4,2,2,35,0,0
112363,375,4,2,2,60,1,0
112550,-100,4,2,2,62,0,0
112738,-100,4,2,2,65,0,0
112925,-100,4,2,2,70,0,0
113113,387.096774193548,4,2,2,75,1,1
113306,-100,4,2,2,80,0,0
113500,375,4,2,2,85,1,1
113500,-100,4,2,2,85,0,1
113781,-100,4,2,2,42,0,1
113875,-100,4,2,2,85,0,1
114156,-100,4,2,2,42,0,1
114250,-100,4,2,2,85,0,1
115281,-100,4,2,2,42,0,1
115375,379.746835443038,4,2,2,85,1,1
115375,-100,4,2,2,85,0,1
115468,-100,4,2,2,42,0,1
115562,-100,4,2,2,85,0,1
115656,-100,4,2,2,42,0,1
115750,-100,4,2,2,85,0,1
116031,-100,4,2,2,42,0,1
116134,357.142857142857,4,2,2,85,1,1
116312,-100,4,2,2,65,0,0
116506,363.636363636364,4,2,2,85,1,1
116506,-100,4,2,2,85,0,1
116687,375,4,2,2,85,1,1
117531,-100,4,2,2,42,0,1
117625,-100,4,2,2,85,0,1
118374,-100,4,2,2,85,0,0
118562,-100,4,2,2,85,0,1
118656,-100,4,2,2,42,0,1
118750,-100,4,2,2,85,0,1
119031,-100,4,2,2,42,0,1
119124,-100,4,2,2,85,0,0
119312,363.636363636364,4,2,2,65,1,0
119493,382.165605095541,4,2,2,85,1,1
119493,-133.333333333333,4,2,2,85,0,1
119875,-133.333333333333,4,2,2,85,0,0
120066,389.61038961039,4,2,2,85,1,0
120260,375,4,2,2,90,1,1
120260,-80,4,2,2,90,0,1
120635,-80,4,2,2,90,0,0
121010,355.029585798817,4,2,2,95,1,1
121010,-57.1428571428571,4,2,2,95,0,1
121365,379.746835443038,4,2,2,95,1,0
121365,-57.1428571428571,4,2,2,95,0,0
121744,-133.333333333333,4,2,2,85,0,1
121839,389.61038961039,4,2,2,85,1,1
121839,-133.333333333333,4,2,2,85,0,1
122033,-133.333333333333,4,2,2,42,0,1
122131,364.741641337386,4,2,2,85,1,0
122131,-133.333333333333,4,2,2,85,0,0
122313,370.37037037037,4,2,2,85,1,0
122498,377.358490566038,4,2,2,90,1,1
122875,365.853658536585,4,2,2,90,1,0
123057,368.098159509202,4,2,2,90,1,1
123425,-100,4,2,2,90,0,0
123609,376.175548589342,4,2,2,90,1,1
123985,384.615384615385,4,2,2,90,1,1
124465,-100,4,2,2,45,0,1
124561,359.281437125748,4,2,2,90,1,1
124740,368.098159509202,4,2,2,90,1,1
124832,-100,4,2,2,45,0,1
124924,392.156862745098,4,2,2,90,1,1
125120,380.952380952381,4,2,2,90,1,1
125500,375,4,2,1,65,1,0
125500,-200,4,2,1,65,0,0
125875,-200,4,2,2,32,0,0
126062,-250,4,2,1,65,0,0
126437,-250,4,2,1,32,0,0
126622,-333.333333333333,4,2,2,65,0,0
127000,-333.333333333333,4,2,2,32,0,0
127187,-200,4,2,1,65,0,0
127375,-200,4,2,2,65,0,0
127750,-200,4,2,1,32,0,0
127937,384.615384615385,4,2,1,65,1,0
128129,-133.333333333333,4,2,2,65,0,0
128321,398.671096345515,4,2,1,32,1,0
128520,375,4,2,1,50,1,0
128520,-200,4,2,1,50,0,0
128543,-200,4,2,1,25,0,0
130020,-200,4,2,1,5,0,0
130395,355.029585798817,4,2,1,5,1,0
130750,359.281437125748,4,2,1,75,1,0
131378,491.803278688525,4,2,1,75,1,0
131500,375,4,2,2,80,1,1
131500,-100,4,2,2,80,0,1
133562,-100,4,2,2,60,0,1
133750,-100,4,2,2,80,0,1
134312,-100,4,2,2,80,0,0
134406,-100,4,2,2,40,0,0
134500,-100,4,2,2,80,0,1
135812,-100,4,2,2,60,0,1
136000,-100,4,2,2,80,0,1
136187,-100,4,2,2,80,0,0
136375,387.096774193548,4,2,2,80,1,1
136471,-100,4,2,2,80,0,0
136568,-100,4,2,2,80,0,1
136762,359.281437125748,4,2,2,80,1,1
137031,-100,4,2,2,60,0,1
137121,379.746835443038,4,2,2,80,1,1
137310,-100,4,2,2,60,0,0
137500,375,4,2,2,80,1,1
137875,-100,4,2,2,80,0,0
138062,-100,4,2,2,80,0,1
138437,392.156862745098,4,2,2,80,1,0
138633,-100,4,2,2,80,0,1
138829,375,4,2,2,80,1,1
139016,-100,4,2,2,80,0,0
139204,-100,4,2,2,80,0,1
139766,363.636363636364,4,2,2,80,1,0
139947,-100,4,2,2,80,0,0
140129,-100,4,2,2,80,0,1
140311,-100,4,2,2,80,0,0
140493,375,4,2,2,80,1,1
140680,-100,4,2,2,80,0,1
141805,361.44578313253,4,2,2,80,1,1
141985,348.837209302326,4,2,2,80,1,1
141985,-133.333333333333,4,2,2,80,0,1
142072,-133.333333333333,4,2,2,40,0,1
142159,392.156862745098,4,2,2,80,1,1
142355,370.37037037037,4,2,2,80,1,1
142355,-133.333333333333,4,2,2,80,0,1
142540,396.039603960396,4,2,2,80,1,1
142540,-133.333333333333,4,2,2,80,0,1
142639,-133.333333333333,4,2,2,40,0,1
142738,375,4,2,1,80,1,0
142738,-133.333333333333,4,2,2,80,0,1
142831,-133.333333333333,4,2,2,40,0,1
142925,-133.333333333333,4,2,2,80,0,1
143019,-133.333333333333,4,2,2,40,0,1
143113,-133.333333333333,4,2,2,80,0,0
143394,425.531914893617,4,2,1,80,1,0
143500,375,4,2,1,60,1,1
143687,-100,4,2,2,60,0,0
144250,370.37037037037,4,2,1,60,1,0
144620,-100,4,2,2,60,0,0
144990,370.37037037037,4,2,1,60,1,0
145360,394.736842105263,4,2,2,60,1,0
145754,372.670807453416,4,2,1,60,1,0
146126,-133.333333333333,4,2,2,60,0,0
146219,-133.333333333333,4,2,2,40,0,0
146313,-133.333333333333,4,2,2,60,0,0
146406,416.666666666667,4,2,2,40,1,0
146510,375,4,2,1,60,1,0
146510,-133.333333333333,4,2,1,60,0,0
146885,-133.333333333333,4,2,2,60,0,0
147072,-133.333333333333,4,2,1,60,0,0
147635,-133.333333333333,4,2,2,60,0,0
147822,-133.333333333333,4,2,1,60,0,0
148385,-133.333333333333,4,2,2,60,0,0
148760,-133.333333333333,4,2,1,60,0,0
149135,-133.333333333333,4,2,2,60,0,0
149416,-133.333333333333,4,2,2,30,0,0
149510,-133.333333333333,4,2,1,60,0,0
149885,-133.333333333333,4,2,2,60,0,0
150072,-133.333333333333,4,2,1,60,0,0
150635,-133.333333333333,4,2,2,60,0,0
150822,-133.333333333333,4,2,1,60,0,0
151385,-133.333333333333,4,2,2,60,0,0
151572,-133.333333333333,4,2,1,60,0,0
151760,-200,4,2,2,60,0,0
152416,-200,4,2,1,5,0,0
152512,-133.333333333333,4,2,2,15,0,0
152697,-133.333333333333,4,2,2,20,0,0
152887,-133.333333333333,4,2,2,25,0,0
153072,-133.333333333333,4,2,2,30,0,0
153262,-133.333333333333,4,2,2,35,0,0
153447,-133.333333333333,4,2,2,40,0,0
153637,-133.333333333333,4,2,2,45,0,0
153822,-133.333333333333,4,2,2,50,0,0
154010,-200,4,2,1,30,0,0
154760,-200,4,2,2,30,0,0
154947,-200,4,2,1,60,0,1
155135,-200,4,2,1,60,0,0
155322,333.333333333333,4,2,2,30,1,0
155488,392.156862745098,4,2,1,65,1,1
155488,-133.333333333333,4,2,1,65,0,1
155684,-133.333333333333,4,2,1,65,0,0
155880,380.952380952381,4,2,1,65,1,0
156260,368.098159509202,4,2,1,65,1,0
156260,-133.333333333333,4,2,1,65,0,0
156812,397.350993377483,4,2,1,65,1,0
157010,360.36036036036,4,2,1,65,1,0
157010,-133.333333333333,4,2,1,65,0,0
157280,-133.333333333333,4,2,1,32,0,0
157370,390.879478827362,4,2,1,65,1,0
157370,-133.333333333333,4,2,1,65,0,0
157760,367.534456355283,4,2,1,65,1,0
157760,-133.333333333333,4,2,1,65,0,0
158035,-133.333333333333,4,2,1,32,0,0
158127,375,4,2,1,65,1,0
158127,-133.333333333333,4,2,1,65,0,0
158502,372.670807453416,4,2,1,65,1,0
158502,-133.333333333333,4,2,1,65,0,0
158781,-133.333333333333,4,2,1,32,0,0
158874,386.473429951691,4,2,1,65,1,0
158874,-133.333333333333,4,2,1,65,0,0
159260,363.636363636364,4,2,1,65,1,0
159623,387.096774193548,4,2,1,65,1,0
159623,-133.333333333333,4,2,1,65,0,0
159913,-133.333333333333,4,2,1,32,0,0
160010,355.029585798817,4,2,1,65,1,0
160010,-135.135135135135,4,2,1,65,0,0
160187,375,4,2,1,5,1,0
160280,-100,4,2,1,32,0,0
160374,371.517027863777,4,2,1,65,1,0
160374,-133.333333333333,4,2,1,65,0,0
160745,292.682926829268,4,2,1,65,1,0
160745,-166.666666666667,4,2,1,65,0,0
160818,402.684563758389,4,2,1,65,1,0
160818,-166.666666666667,4,2,1,65,0,0
161019,-166.666666666667,4,2,1,32,0,0
161120,380.348652931854,4,2,1,65,1,0
161120,-133.333333333333,4,2,1,65,0,0
161310,-133.333333333333,4,2,1,45,0,0
161500,375,4,2,1,65,1,0
161500,-133.333333333333,4,2,1,65,0,0
162343,-133.333333333333,4,2,1,45,0,0
162437,-133.333333333333,4,2,1,65,0,0
163281,-133.333333333333,4,2,1,32,0,0
163375,-133.333333333333,4,2,1,65,0,0
164312,-133.333333333333,4,2,1,45,0,0
164500,-133.333333333333,4,2,1,65,0,0
164781,-133.333333333333,4,2,1,32,0,0
164875,-133.333333333333,4,2,1,65,0,0
166000,365.853658536585,4,2,1,65,1,0
166000,-133.333333333333,4,2,1,65,0,0
166274,-133.333333333333,4,2,1,32,0,0
166365,384.615384615385,4,2,1,65,1,0
166365,-133.333333333333,4,2,1,65,0,0
166461,-133.333333333333,4,2,1,32,0,0
166557,-133.333333333333,4,2,1,65,0,0
166750,365.853658536585,4,2,1,65,1,0
166750,-133.333333333333,4,2,1,65,0,0
167024,-133.333333333333,4,2,1,32,0,0
167115,-133.333333333333,4,2,1,65,0,0
167298,-133.333333333333,4,2,1,45,0,0
167480,400,4,2,1,70,1,1
167480,-133.333333333333,4,2,1,70,0,1
167680,-133.333333333333,4,2,1,70,0,0
167880,372.670807453416,4,2,1,70,1,0
168066,-133.333333333333,4,2,1,70,0,0
168811,379.746835443038,4,2,1,70,1,0
168811,-133.333333333333,4,2,1,70,0,0
168906,-133.333333333333,4,2,1,50,0,0
169000,375,4,2,1,70,1,0
169000,-133.333333333333,4,2,1,70,0,0
169937,357.142857142857,4,2,1,70,1,0
170115,375,4,2,1,70,1,0
170115,-133.333333333333,4,2,1,70,0,0
170302,-133.333333333333,4,2,1,50,0,0
170490,375,4,2,1,70,1,0
170490,-133.333333333333,4,2,1,70,0,0
170865,377.358490566038,4,2,1,70,1,0
171242,365.853658536585,4,2,1,70,1,0
171242,-133.333333333333,4,2,1,70,0,0
171607,365.853658536585,4,2,1,70,1,0
171607,-133.333333333333,4,2,1,70,0,0
171789,402.010050251256,4,2,1,70,1,0
171990,375,4,2,1,50,1,0
172365,-100,4,2,1,50,0,0
172740,-100,4,2,1,60,0,0
173115,394.088669950739,4,2,1,70,1,1
173115,-135.593220338983,4,2,1,70,0,1
173312,317.460317460317,4,2,1,70,1,0
173391,-100,4,2,1,5,0,0
173470,394.736842105263,4,2,1,60,1,0
173470,-133.333333333333,4,2,1,60,0,1
173667,-133.333333333333,4,2,1,60,0,0
173864,342.857142857143,4,2,2,60,1,0
174035,377.358490566038,4,2,1,60,1,0
174035,-133.333333333333,4,2,1,60,0,0
174412,406.779661016949,4,2,1,30,1,0
174615,375,4,2,1,60,1,0
174615,-133.333333333333,4,2,2,60,0,0
174802,-133.333333333333,4,2,1,60,0,0
174990,375,4,2,1,60,1,0
175177,-133.333333333333,4,2,1,60,0,0
175271,-133.333333333333,4,2,1,30,0,0
175365,-133.333333333333,4,2,2,60,0,0
175552,-133.333333333333,4,2,1,60,0,0
176021,-133.333333333333,4,2,1,30,0,0
176115,-133.333333333333,4,2,2,60,0,0
176302,-133.333333333333,4,2,1,30,0,0
176490,-133.333333333333,4,2,1,60,0,0
176771,-133.333333333333,4,2,1,30,0,0
176865,-133.333333333333,4,2,2,60,0,0
177052,-133.333333333333,4,2,1,60,0,0
177240,-133.333333333333,4,2,1,30,0,0
177427,-133.333333333333,4,2,1,60,0,0
177615,-133.333333333333,4,2,2,60,0,0
177990,-133.333333333333,4,2,1,60,0,0
178271,-133.333333333333,4,2,1,30,0,0
178365,-133.333333333333,4,2,2,60,0,0
178552,-133.333333333333,4,2,1,60,0,0
179115,-133.333333333333,4,2,2,60,0,0
179302,-133.333333333333,4,2,1,60,0,0
179396,-133.333333333333,4,2,1,40,0,0
179490,-133.333333333333,4,2,1,60,0,1
179677,-133.333333333333,4,2,1,60,0,0
179865,-133.333333333333,4,2,2,60,0,0
180052,-133.333333333333,4,2,1,60,0,0
180427,-133.333333333333,4,2,1,30,0,0
180615,-133.333333333333,4,2,2,60,0,0
180990,-133.333333333333,4,2,1,60,0,0
181365,370.37037037037,4,2,1,30,1,0
181550,-100,4,2,1,60,0,0
181735,372.670807453416,4,2,1,60,1,0
181735,-133.333333333333,4,2,1,60,0,0
182107,368.098159509202,4,2,1,30,1,0
182291,-100,4,2,1,60,0,0
182475,387.096774193548,4,2,1,60,1,1
182668,-100,4,2,1,60,0,0
182862,377.358490566038,4,2,1,60,1,0
182862,-133.333333333333,4,2,2,60,0,0
183050,-133.333333333333,4,2,1,60,0,0
183428,-133.333333333333,4,2,1,30,0,0
183616,375,4,2,1,60,1,1
183803,-133.333333333333,4,2,1,60,0,0
183991,359.281437125748,4,2,1,60,1,0
184170,375,4,2,1,60,1,0
184170,-133.333333333333,4,2,1,60,0,0
184263,-133.333333333333,4,2,1,30,0,0
184357,-133.333333333333,4,2,2,60,0,0
184545,-133.333333333333,4,2,1,60,0,0
184732,-133.333333333333,4,2,1,40,0,0
184920,-133.333333333333,4,2,1,50,0,0
185107,382.165605095541,4,2,1,60,1,1
185298,-100,4,2,1,60,0,0
185490,385.852090032154,4,2,1,50,1,0
185490,-133.333333333333,4,2,1,60,0,1
185682,-133.333333333333,4,2,1,60,0,0
185875,372.670807453416,4,2,2,60,1,0
186247,-133.333333333333,4,2,1,60,0,0
186620,-133.333333333333,4,2,2,60,0,0
186806,-133.333333333333,4,2,1,60,0,0
186993,375,4,2,1,60,1,0
186993,-133.333333333333,4,2,1,60,0,0
187368,-133.333333333333,4,2,2,60,0,0
187555,-133.333333333333,4,2,1,60,0,0
187930,-133.333333333333,4,2,1,30,0,0
188118,-133.333333333333,4,2,2,60,0,0
188305,-133.333333333333,4,2,1,60,0,0
188399,-133.333333333333,4,2,1,40,0,0
188493,-133.333333333333,4,2,1,60,0,0
188868,-133.333333333333,4,2,2,60,0,0
189243,-133.333333333333,4,2,1,60,0,0
189618,-133.333333333333,4,2,2,60,0,0
189805,-133.333333333333,4,2,1,60,0,0
189993,-133.333333333333,4,2,1,60,0,0
190180,-133.333333333333,4,2,2,40,0,0
190368,-149.253731343284,4,2,1,60,0,0
190555,-149.253731343284,4,2,2,40,0,0
190743,-172.413793103448,4,2,1,60,0,0
190930,-172.413793103448,4,2,2,40,0,0
191118,-200,4,2,1,60,0,0
191305,-200,4,2,2,40,0,0
191493,-133.333333333333,4,2,1,65,0,1
191680,-133.333333333333,4,2,1,65,0,0
191868,-133.333333333333,4,2,2,65,0,0
192055,389.61038961039,4,2,1,65,1,0
192249,375,4,2,1,65,1,0
192249,-133.333333333333,4,2,1,65,0,0
192624,-133.333333333333,4,2,2,65,0,0
192811,-133.333333333333,4,2,1,65,0,0
193374,-133.333333333333,4,2,2,65,0,0
193561,-133.333333333333,4,2,1,65,0,0
194124,-133.333333333333,4,2,2,65,0,0
194311,365.853658536585,4,2,1,45,1,0
194493,375,4,2,1,70,1,1
194493,-133.333333333333,4,2,1,70,0,1
194680,-133.333333333333,4,2,1,70,0,0
195618,-133.333333333333,4,2,2,70,0,0
195899,-133.333333333333,4,2,2,35,0,0
195993,377.358490566038,4,2,1,70,1,0
195993,-133.333333333333,4,2,1,70,0,0
196747,415.22491349481,4,2,1,35,1,0
196954,368.098159509202,4,2,1,50,1,0
197414,307.692307692308,4,2,1,50,1,0
197490,369.230769230769,4,2,1,85,1,1
197859,391.517128874388,4,2,1,85,1,1
198054,-100,4,2,2,65,0,1
198250,375,4,2,1,85,1,1
198531,-100,4,2,2,42,0,1
198625,-100,4,2,2,85,0,1
200031,-100,4,2,2,65,0,1
200125,-99.009900990099,4,2,2,85,0,1
200309,400,4,2,1,65,1,0
200512,368.098159509202,4,2,1,85,1,1
200880,375,4,2,1,85,1,1
201536,-100,4,2,2,42,0,1
201630,-100,4,2,2,85,0,1
201817,382.165605095541,4,2,1,85,1,1
202008,367.534456355283,4,2,1,85,1,1
202375,375,4,2,2,85,1,0
202468,-100,4,2,2,42,0,0
202562,-100,4,2,2,85,0,1
203028,-100,4,2,2,65,0,1
203125,385.852090032154,4,2,2,85,1,0
203317,-100,4,2,2,65,0,0
203510,375,4,2,2,85,1,1
203510,-133.333333333333,4,2,2,85,0,1
203885,-133.333333333333,4,2,2,85,0,0
204260,361.44578313253,4,2,2,90,1,1
204260,-80,4,2,2,90,0,1
204621,389.61038961039,4,2,2,90,1,0
204621,-80,4,2,2,90,0,0
205010,365.853658536585,4,2,2,85,1,1
205010,-57.1428571428571,4,2,2,95,0,1
205375,375,4,2,2,85,1,1
205375,-57.1428571428571,4,2,2,95,0,0
205750,375,4,2,2,85,1,1
205750,-133.333333333333,4,2,2,85,0,1
206029,-133.333333333333,4,2,2,65,0,1
206125,380.348652931854,4,2,2,85,1,1
206125,-133.333333333333,4,2,2,85,0,0
206505,370.37037037037,4,2,2,85,1,1
206875,375,4,2,2,85,1,1
207062,-100,4,2,2,65,0,1
207250,-100,4,2,2,85,0,1
207812,-100,4,2,2,85,0,0
208000,-100,4,2,2,70,0,1
208093,-100,4,2,2,35,0,1
208187,-100,4,2,2,70,0,0
208281,-100,4,2,2,35,0,0
208375,-100,4,2,2,60,0,0
208562,-100,4,2,2,62,0,0
208750,-100,4,2,2,65,0,0
208937,-100,4,2,2,70,0,0
209125,385.852090032154,4,2,2,85,1,1
209317,-100,4,2,2,80,0,0
209510,375,4,2,2,85,1,1
209510,-100,4,2,2,85,0,1
210069,-100,4,2,2,65,0,1
210260,365.853658536585,4,2,2,85,1,1
210625,375,4,2,2,85,1,1
211000,377.358490566038,4,2,2,85,1,1
211283,-100,4,2,2,42,0,1
211377,382.165605095541,4,2,2,85,1,1
211472,-100,4,2,2,42,0,1
211568,-100,4,2,2,85,0,1
211663,-100,4,2,2,42,0,1
211760,370.37037037037,4,2,2,85,1,1
212037,-100,4,2,2,65,0,1
212130,380.348652931854,4,2,2,85,1,1
212320,-100,4,2,2,85,0,0
212510,375,4,2,2,85,1,1
214385,-100,4,2,2,85,0,0
214572,375,4,2,2,85,1,1
214665,-100,4,2,2,65,0,1
214759,285.714285714286,4,2,2,85,1,1
214830,390.879478827362,4,2,2,85,1,1
215025,-100,4,2,2,65,0,1
215123,377.358490566038,4,2,2,85,1,0
215311,-100,4,2,2,65,0,0
215500,370.37037037037,4,2,2,85,1,1
215500,-133.333333333333,4,2,2,85,0,1
215870,375,4,2,2,85,1,0
215870,-133.333333333333,4,2,2,85,0,0
216245,-80,4,2,2,90,0,1
216620,385.852090032154,4,2,2,90,1,0
216620,-80,4,2,2,90,0,0
217005,368.098159509202,4,2,2,95,1,1
217005,-57.1428571428571,4,2,2,95,0,1
217373,377.358490566038,4,2,2,95,1,1
217373,-57.1428571428571,4,2,2,95,0,0
217750,365.853658536585,4,2,2,85,1,1
217750,-133.333333333333,4,2,2,85,0,1
218024,-133.333333333333,4,2,2,65,0,1
218115,375,4,2,2,85,1,0
218115,-133.333333333333,4,2,2,85,0,0
218208,-133.333333333333,4,2,2,42,0,0
218302,-133.333333333333,4,2,2,85,0,0
218396,-133.333333333333,4,2,2,42,0,0
218490,375,4,2,2,90,1,1
218865,-100,4,2,2,90,0,0
219052,-100,4,2,2,90,0,1
219427,-100,4,2,2,90,0,0
219615,400,4,2,2,90,1,1
219715,-100,4,2,2,45,0,1
219815,370.37037037037,4,2,2,90,1,1
219907,-100,4,2,2,45,0,1
220000,370.37037037037,4,2,2,90,1,1
220092,-100,4,2,2,45,0,1
220185,-100,4,2,2,90,0,1
220370,398.671096345515,4,2,2,90,1,1
220569,362.537764350453,4,2,2,90,1,1
220750,352.941176470588,4,2,2,90,1,1
220838,-100,4,2,2,45,0,1
220926,375,4,2,2,90,1,1
221019,-100,4,2,2,45,0,1
221113,397.350993377483,4,2,2,90,1,1
221212,-100,4,2,2,45,0,1
221311,-100,4,2,2,90,0,0
221411,-100,4,2,2,45,0,0
221510,387.096774193548,4,2,2,80,1,1
221897,357.142857142857,4,2,2,80,1,0
222075,359.281437125748,4,2,2,80,1,1
222434,372.670807453416,4,2,2,80,1,0
222620,377.358490566038,4,2,2,70,1,1
222620,-133.333333333333,4,2,2,70,0,1
222808,-133.333333333333,4,2,2,70,0,0
222903,-133.333333333333,4,2,2,35,0,0
222997,-133.333333333333,4,2,2,70,0,0
223091,-133.333333333333,4,2,2,35,0,0
223186,-133.333333333333,4,2,2,70,0,0
223469,-133.333333333333,4,2,2,35,0,0
223563,-133.333333333333,4,2,2,70,0,0
223940,379.746835443038,4,2,2,70,1,0
224319,402.684563758389,4,2,2,70,1,0
224520,382.165605095541,4,2,2,65,1,1
224711,-100,4,2,2,65,0,0
225093,349.344978165939,4,2,2,65,1,0
225617,393.44262295082,4,2,2,65,1,0
226010,375,4,2,2,60,1,1
226010,-133.333333333333,4,2,2,60,0,1
226197,-133.333333333333,4,2,2,60,0,0
226572,-133.333333333333,4,2,2,40,0,0
226760,-133.333333333333,4,2,2,55,0,0
227135,-200,4,2,2,50,0,0
227385,-200,4,2,2,25,0,0
227510,374.531835205993,4,2,1,45,1,1
227697,-100,4,2,2,45,0,0
237996,382.165605095541,4,2,1,5,1,0
238760,360.36036036036,4,2,1,5,1,0
239480,384.615384615385,4,2,1,55,1,1
239480,-166.666666666667,4,2,1,55,0,1
239672,-166.666666666667,4,2,1,55,0,0
239865,375,4,2,2,55,1,0
239865,-166.666666666667,4,2,2,55,0,0
240052,-166.666666666667,4,2,1,55,0,0
240427,-166.666666666667,4,2,1,27,0,0
240615,-166.666666666667,4,2,2,55,0,0
240990,375,4,2,1,60,1,0
240990,-166.666666666667,4,2,1,60,0,0
241365,-166.666666666667,4,2,2,60,0,0
241458,-166.666666666667,4,2,1,30,0,0
241552,-166.666666666667,4,2,1,60,0,0
242115,-166.666666666667,4,2,2,60,0,0
242302,-166.666666666667,4,2,1,60,0,0
242490,-166.666666666667,4,2,1,65,0,0
242865,-166.666666666667,4,2,2,65,0,0
243052,-166.666666666667,4,2,1,65,0,0
243615,-166.666666666667,4,2,2,65,0,0
243990,-166.666666666667,4,2,1,70,0,0
244365,-166.666666666667,4,2,2,70,0,0
244552,-166.666666666667,4,2,1,50,0,0
244740,380.469245402663,4,2,1,60,1,0
244740,-166.666666666667,4,2,1,60,0,0
245500,375,4,2,1,80,1,1
245875,-100,4,2,1,80,0,0
246062,-100,4,2,1,80,0,1
246437,-100,4,2,1,80,0,0
246625,-100,4,2,1,80,0,1
247000,355.029585798817,4,2,1,80,1,0
247177,365.853658536585,4,2,1,80,1,1
247542,-100,4,2,1,80,0,0
247725,375,4,2,1,80,1,1
247912,414.507772020725,4,2,1,80,1,0
247912,-133.333333333333,4,2,1,80,0,0
247981,-133.333333333333,4,2,1,60,0,0
248119,381.558028616852,4,2,1,40,1,0
248309,372.670807453416,4,2,1,80,1,0
248495,375,4,2,1,82,1,1
248870,-100,4,2,1,82,0,0
249057,366.412213740458,4,2,1,82,1,1
249423,382.165605095541,4,2,1,82,1,0
249614,368.098159509202,4,2,1,82,1,1
249614,-200,4,2,1,82,0,1
249890,-200,4,2,1,41,0,1
249982,-100,4,2,1,85,0,1
250074,-100,4,2,1,42,0,1
250166,368.098159509202,4,2,1,85,1,1
250258,-100,4,2,1,42,0,1
250350,363.636363636364,4,2,1,87,1,1
250440,-100,4,2,1,43,0,1
250531,-100,4,2,1,87,0,0
250622,-100,4,2,1,43,0,0
250713,375,4,2,1,90,1,1
250806,-100,4,2,1,90,0,0
250900,410.958904109589,4,2,1,90,1,1
251002,-100,4,2,1,90,0,0
251105,375,4,2,1,90,1,1
251105,-200,4,2,1,90,0,1
251292,-200,4,2,1,90,0,0
251386,-200,4,2,1,45,0,0
251480,385.232744783307,4,2,2,80,1,1
251480,-100,4,2,2,80,0,1
251865,375,4,2,2,80,1,1
251865,-117.647058823529,4,2,2,80,0,1
252708,-117.647058823529,4,2,2,40,0,1
252802,-117.647058823529,4,2,2,80,0,1
253458,-117.647058823529,4,2,2,40,0,1
253552,-117.647058823529,4,2,2,80,0,1
254208,-117.647058823529,4,2,2,40,0,1
254302,-117.647058823529,4,2,2,80,0,1
254490,375,4,2,2,80,1,1
254490,-117.647058823529,4,2,2,80,0,1
254958,-117.647058823529,4,2,2,40,0,1
255052,-117.647058823529,4,2,2,80,0,1
255708,-117.647058823529,4,2,2,40,0,1
255802,-117.647058823529,4,2,2,80,0,1
256177,355.029585798817,4,2,2,80,1,1
256354,387.096774193548,4,2,2,80,1,1
256354,-117.647058823529,4,2,2,80,0,1
256450,-117.647058823529,4,2,2,40,0,1
256547,-117.647058823529,4,2,2,80,0,1
256740,-117.647058823529,4,2,2,80,0,1
256741,355.029585798817,4,2,2,80,1,1
256741,-117.647058823529,4,2,2,80,0,1
256918,375,4,2,2,80,1,1
257105,-117.647058823529,4,2,2,80,0,0
257386,-117.647058823529,4,2,2,40,0,0
257480,375,4,2,2,80,1,1
258605,-117.647058823529,4,2,2,80,0,0
258792,-200,4,2,2,80,0,1
258980,-200,4,2,2,80,0,0
259167,-200,4,2,2,80,0,1
259355,-200,4,2,2,80,0,0
259542,-200,4,2,2,80,0,1
259730,-200,4,2,2,80,0,0
259917,-166.666666666667,4,2,2,80,0,1
260198,-166.666666666667,4,2,2,40,0,1
260292,396.039603960396,4,2,2,80,1,0
260292,-166.666666666667,4,2,2,80,0,0
260391,-166.666666666667,4,2,2,40,0,0
260490,375,4,2,2,75,1,1
260490,-117.647058823529,4,2,2,75,0,1
260771,-117.647058823529,4,2,2,37,0,1
260865,-117.647058823529,4,2,2,75,0,1
261240,368.098159509202,4,2,2,75,1,1
261608,375,4,2,2,75,1,1
261983,-117.647058823529,4,2,2,75,0,1
262733,379.746835443038,4,2,2,75,1,1
262733,-100,4,2,2,75,0,0
262922,379.14691943128,4,2,2,75,1,1
262922,-117.647058823529,4,2,2,75,0,1
263111,-117.647058823529,4,2,2,75,0,1
263206,-117.647058823529,4,2,2,37,0,1
263301,-117.647058823529,4,2,2,75,0,0
263396,-117.647058823529,4,2,2,37,0,0
263490,368.098159509202,4,2,2,70,1,0
263490,-117.647058823529,4,2,2,75,0,1
264226,378.548895899054,4,2,2,75,1,1
264604,387.096774193548,4,2,2,75,1,1
264604,-117.647058823529,4,2,2,75,0,1
265184,342.857142857143,4,2,2,75,1,1
265355,375,4,2,2,75,1,1
265355,-117.647058823529,4,2,2,75,0,1
265917,382.165605095541,4,2,2,75,1,1
265917,-117.647058823529,4,2,2,75,0,1
266299,402.684563758389,4,2,2,55,1,0
266299,-117.647058823529,4,2,2,55,0,0
266500,375,4,2,2,75,1,1
266500,-117.647058823529,4,2,2,75,0,1
266781,-117.647058823529,4,2,2,37,0,1
266875,-117.647058823529,4,2,2,75,0,1
267437,363.636363636364,4,2,2,75,1,1
267437,-117.647058823529,4,2,2,75,0,1
267800,390.879478827362,4,2,2,75,1,0
267995,389.61038961039,4,2,2,80,1,1
268384,355.029585798817,4,2,2,80,1,0
268561,372.670807453416,4,2,2,80,1,1
268933,-100,4,2,2,80,0,0
269120,-100,4,2,2,80,0,1
269306,-100,4,2,2,80,0,0
269492,381.558028616852,4,2,2,50,1,1
269682,-100,4,2,2,50,0,0
269873,384.615384615385,4,2,2,50,1,0
270257,359.281437125748,4,2,2,50,1,0
270616,378.548895899054,4,2,2,50,1,0
271373,382.165605095541,4,2,2,50,1,0
271755,365.853658536585,4,2,2,50,1,0
272120,365.853658536585,4,2,2,50,1,0
272120,-117.647058823529,4,2,2,50,0,0
272211,-117.647058823529,4,2,2,30,0,0
272485,375,4,2,1,45,1,0
272485,-100,4,2,2,55,0,0
272578,-100,4,2,2,35,0,0
272860,-80,4,2,2,57,0,0
272953,-80,4,2,2,47,0,0
273235,-66.6666666666667,4,2,2,60,0,0
273328,-66.6666666666667,4,2,2,40,0,0
273610,-57.1428571428571,4,2,2,62,0,0
273703,-57.1428571428571,4,2,2,42,0,0
273982,-50,4,2,2,65,0,0
274078,-50,4,2,2,32,0,0
274172,-117.647058823529,4,2,2,67,0,0
274453,-117.647058823529,4,2,2,33,0,0
274547,357.142857142857,4,2,2,70,1,0
274725,375,4,2,2,70,1,0
274725,-117.647058823529,4,2,2,70,0,0
274818,-117.647058823529,4,2,2,35,0,0
274912,-117.647058823529,4,2,2,50,0,0
275006,-117.647058823529,4,2,2,55,0,0
275100,-117.647058823529,4,2,2,60,0,0
275193,-100,4,2,2,65,0,0
275287,-100,4,2,2,70,0,0
275381,-100,4,2,2,75,0,0
275480,375,4,2,2,50,1,1
275667,-100,4,2,2,50,0,0
281480,764.331210191083,4,2,1,5,1,0
283008,752.351097178683,4,2,1,5,1,0
286017,725.075528700906,4,2,1,5,1,0
287104,406.779661016949,4,2,1,5,1,0
287510,375,4,2,1,35,1,0
287510,-166.666666666667,4,2,1,35,0,0
288260,-166.666666666667,4,2,2,35,0,0
288447,-166.666666666667,4,2,1,35,0,0
288916,-166.666666666667,4,2,1,17,0,0
289010,-166.666666666667,4,2,1,35,0,0
289760,-166.666666666667,4,2,2,35,0,0
290135,-166.666666666667,4,2,1,35,0,0
290385,-166.666666666667,4,2,1,15,0,0
290510,-166.666666666667,4,2,1,35,0,0
291260,-166.666666666667,4,2,2,35,0,0
291541,-166.666666666667,4,2,1,17,0,0
291635,-166.666666666667,4,2,1,35,0,0
292010,-166.666666666667,4,2,1,40,0,0
292760,-166.666666666667,4,2,2,42,0,0
292947,-166.666666666667,4,2,1,42,0,0
293510,-142.857142857143,4,2,1,45,0,0
294260,-142.857142857143,4,2,2,50,0,0
294447,-142.857142857143,4,2,1,50,0,0
295010,-125,4,2,1,55,0,0
295760,-125,4,2,2,55,0,0
295947,-125,4,2,1,55,0,0
296322,357.142857142857,4,2,1,55,1,0
296500,375,4,2,1,70,1,1
296500,-111.111111111111,4,2,1,70,0,1
296593,-111.111111111111,4,2,1,5,0,1
296687,-111.111111111111,4,2,2,70,0,1
296875,361.44578313253,4,2,1,70,1,1
296875,-111.111111111111,4,2,1,70,0,1
296965,-111.111111111111,4,2,1,5,0,1
297055,-111.111111111111,4,2,2,70,0,1
297240,-111.111111111111,4,2,1,70,0,1
297326,-111.111111111111,4,2,1,5,0,1
297417,-111.111111111111,4,2,2,70,0,1
297597,375,4,2,1,50,1,0
297597,-111.111111111111,4,2,1,70,0,1
297690,-111.111111111111,4,2,1,5,0,1
297784,-111.111111111111,4,2,2,70,0,0
297972,375,4,2,1,60,1,1
297972,-100,4,2,1,62,0,1
298159,-100,4,2,1,65,0,1
298347,-100,4,2,1,67,0,1
298534,-100,4,2,1,70,0,1
298722,-100,4,2,1,72,0,1
298909,-100,4,2,1,75,0,1
299097,-100,4,2,1,72,0,0
299284,-200,4,2,1,80,0,1
299347,-200,4,2,1,60,0,1
299472,-100,4,2,1,40,0,0
300222,413.793103448276,4,2,1,5,1,0
300635,337.078651685393,4,2,2,80,1,1
300803,394.736842105263,4,2,2,80,1,0
301000,350.877192982456,4,2,2,80,1,1
301175,-100,4,2,2,80,0,0
301350,377.358490566038,4,2,2,80,1,0
301538,383.386581469649,4,2,2,80,1,1
301729,-100,4,2,2,80,0,0
301921,389.61038961039,4,2,2,80,1,1
302018,-100,4,2,2,40,0,1
302115,359.281437125748,4,2,2,75,1,0
302475,379.746835443038,4,2,2,85,1,1
302854,386.473429951691,4,2,2,85,1,1
303047,-100,4,2,2,65,0,1
303240,375,4,2,2,85,1,1
303427,387.096774193548,4,2,2,85,1,1
303620,361.44578313253,4,2,2,85,1,1
303800,380.952380952381,4,2,2,85,1,1
303990,375,4,2,2,85,1,1
304365,-100,4,2,2,85,0,0
304458,-100,4,2,2,42,0,0
304552,-100,4,2,2,85,0,1
305021,-100,4,2,2,65,0,1
305115,361.44578313253,4,2,2,85,1,0
305295,380.952380952381,4,2,2,65,1,0
305485,382.165605095541,4,2,2,85,1,1
305485,-133.333333333333,4,2,2,85,0,1
305867,-133.333333333333,4,2,2,85,0,0
306249,375,4,2,2,90,1,1
306249,-80,4,2,2,90,0,1
306624,-80,4,2,2,90,0,0
306999,368.098159509202,4,2,2,95,1,1
306999,-57.1428571428571,4,2,2,95,0,1
307367,387.096774193548,4,2,2,95,1,1
307367,-57.1428571428571,4,2,2,95,0,0
307754,363.636363636364,4,2,2,85,1,1
307754,-133.333333333333,4,2,2,85,0,1
308026,-133.333333333333,4,2,2,65,0,1
308117,-133.333333333333,4,2,2,85,0,0
308299,372.670807453416,4,2,2,85,1,0
308485,382.165605095541,4,2,2,85,1,1
308962,-100,4,2,2,42,0,1
309058,-100,4,2,2,85,0,0
309249,-100,4,2,2,85,0,1
309631,365.853658536585,4,2,2,85,1,1
309722,-100,4,2,2,42,0,1
309813,-100,4,2,2,85,0,0
309996,375,4,2,2,65,1,1
310371,-100,4,2,2,65,0,1
310746,368.098159509202,4,2,2,70,1,1
310930,-100,4,2,2,70,0,0
311114,381.558028616852,4,2,2,80,1,1
311209,-100,4,2,2,75,0,0
311304,-100,4,2,2,75,0,1
311400,-100,4,2,2,75,0,0
311495,375,4,2,2,80,1,1
311495,-133.333333333333,4,2,1,80,0,1
311682,-133.333333333333,4,2,1,80,0,0
311870,-133.333333333333,4,2,2,80,0,0
312057,-133.333333333333,4,2,1,80,0,0
312620,-133.333333333333,4,2,2,80,0,0
312995,-133.333333333333,4,2,1,80,0,0
313370,-133.333333333333,4,2,2,80,0,0
313557,-133.333333333333,4,2,1,80,0,0
314120,-133.333333333333,4,2,2,80,0,0
314307,-133.333333333333,4,2,1,80,0,0
314401,-133.333333333333,4,2,1,40,0,0
314495,-133.333333333333,4,2,1,80,0,1
314682,-133.333333333333,4,2,1,80,0,0
314870,-133.333333333333,4,2,2,80,0,0
315057,-133.333333333333,4,2,1,80,0,0
315245,387.096774193548,4,2,1,80,1,0
315245,-133.333333333333,4,2,1,80,0,0
315632,-133.333333333333,4,2,2,80,0,0
315825,361.990950226244,4,2,1,80,1,0
315825,-133.333333333333,4,2,1,80,0,0
316005,368.098159509202,4,2,1,80,1,0
316005,-133.333333333333,4,2,1,80,0,0
316097,-133.333333333333,4,2,1,40,0,0
316373,-133.333333333333,4,2,1,80,0,0
316465,-133.333333333333,4,2,1,40,0,0
316741,365.853658536585,4,2,1,60,1,0
316923,-100,4,2,1,65,0,0
317106,-100,4,2,1,70,0,0
317289,-100,4,2,1,75,0,0
317381,416.666666666667,4,2,1,75,1,0
317485,377.358490566038,4,2,1,85,1,1
317485,-133.333333333333,4,2,1,85,0,1
317862,-133.333333333333,4,2,2,85,0,1
318051,-200,4,2,1,85,0,0
318145,-200,4,2,1,42,0,0
318239,-100,4,2,1,85,0,1
318617,-100,4,2,2,85,0,1
318805,-200,4,2,1,85,0,0
318900,-200,4,2,1,42,0,0
318994,357.675111773472,4,2,1,80,1,0
318994,-80,4,2,1,85,0,1
319351,-80,4,2,2,85,0,1
319530,410.958904109589,4,2,1,85,1,0
319530,-200,4,2,1,85,0,0
319632,-200,4,2,1,42,0,0
319735,384.615384615385,4,2,1,85,1,1
319735,-66.6666666666667,4,2,1,85,0,1
320119,-66.6666666666667,4,2,2,85,0,1
320311,368.098159509202,4,2,1,80,1,0
320311,-200,4,2,1,85,0,0
320403,-200,4,2,1,42,0,0
320495,375,4,2,1,85,1,1
320495,-125,4,2,1,85,0,1
320870,-125,4,2,1,85,0,0
321057,-125,4,2,1,85,0,1
321245,350.877192982456,4,2,1,80,1,1
321420,-100,4,2,1,85,0,0
321595,385.852090032154,4,2,1,85,1,1
321595,-125,4,2,1,85,0,1
321884,-125,4,2,1,42,0,1
321980,-125,4,2,1,75,0,0
322173,-125,4,2,1,37,0,0
322366,372.670807453416,4,2,2,75,1,0
322366,-125,4,2,2,75,0,0
322552,-125,4,2,1,75,0,0
322645,-125,4,2,1,37,0,0
322738,-125,4,2,2,60,0,0
322925,-125,4,2,1,65,0,0
323111,-125,4,2,2,70,0,1
323297,-125,4,2,1,75,0,0
323484,375,4,2,2,85,1,1
323765,-100,4,2,2,42,0,1
323859,389.61038961039,4,2,2,85,1,1
323956,-100,4,2,2,42,0,1
324053,-100,4,2,2,85,0,1
324151,-100,4,2,2,42,0,1
324248,372.670807453416,4,2,2,85,1,1
324434,-100,4,2,2,65,0,1
324620,377.358490566038,4,2,2,85,1,1
324808,-100,4,2,2,85,0,0
324997,377.358490566038,4,2,2,85,1,1
325280,-100,4,2,2,42,0,1
325374,-100,4,2,2,85,0,1
325468,-100,4,2,2,42,0,1
325563,-100,4,2,2,85,0,1
325657,-100,4,2,2,42,0,1
325751,-100,4,2,2,85,0,1
326034,-100,4,2,2,65,0,1
326129,-100,4,2,2,85,0,1
326317,-100,4,2,2,85,0,0
326506,368.098159509202,4,2,2,85,1,1
326874,381.558028616852,4,2,2,85,1,1
327255,361.44578313253,4,2,2,85,1,1
327616,384.615384615385,4,2,2,85,1,1
327808,-100,4,2,2,85,0,0
328000,375,4,2,2,85,1,1
328375,-100,4,2,2,85,0,0
328562,-100,4,2,2,85,0,1
328656,-100,4,2,2,65,0,1
328750,-100,4,2,2,85,0,1
329031,-100,4,2,2,65,0,1
329125,380.348652931854,4,2,2,80,1,1
329505,390.879478827362,4,2,2,75,1,0
329505,-153.846153846154,4,2,2,75,0,0
329700,370.37037037037,4,2,2,75,1,0
329885,-153.846153846154,4,2,2,75,0,0
330440,372.670807453416,4,2,2,70,1,0
330626,375,4,2,2,70,1,0
330626,-153.846153846154,4,2,2,70,0,0
331001,375,4,2,2,65,1,0
331001,-153.846153846154,4,2,2,65,0,0
332126,431.654676258993,4,2,2,65,1,0
332126,-153.846153846154,4,2,2,65,0,0
332341,338.983050847458,4,2,2,45,1,0
332510,375,4,2,2,70,1,1
332697,-100,4,2,2,70,0,0
332885,375,4,2,2,70,1,0
333916,359.281437125748,4,2,2,5,1,0
334005,375,4,2,2,75,1,0
335411,379.746835443038,4,2,2,75,1,0
335505,365.853658536585,4,2,2,60,1,1
335505,-133.333333333333,4,2,2,60,0,1
335596,-133.333333333333,4,2,2,30,0,1
335687,-133.333333333333,4,2,2,60,0,1
335779,-133.333333333333,4,2,2,30,0,1
335870,-100,4,2,2,65,0,1
335962,-100,4,2,2,32,0,1
336053,-100,4,2,2,65,0,0
336145,-100,4,2,2,32,0,0
336236,-80,4,2,2,70,0,1
336328,-80,4,2,2,35,0,1
336419,-80,4,2,2,70,0,1
336511,-80,4,2,2,35,0,1
336602,-66.6666666666667,4,2,2,80,0,1
336694,-66.6666666666667,4,2,2,40,0,1
336785,-66.6666666666667,4,2,2,80,0,0
336879,382.165605095541,4,2,2,40,1,1
336879,-66.6666666666667,4,2,2,40,0,0
336974,370.37037037037,4,2,2,80,1,1
337344,-100,4,2,2,85,0,1
337621,459.770114942529,4,2,2,85,1,1
337735,379.746835443038,4,2,2,5,1,0
338494,379.746835443038,4,2,2,80,1,1
338494,-100,4,2,2,80,0,1
339253,370.37037037037,4,2,2,80,1,1
339623,387.096774193548,4,2,2,80,1,1
340010,370.37037037037,4,2,2,80,1,1
340380,375,4,2,2,80,1,1
340567,-100,4,2,2,60,0,1
340755,-100,4,2,2,80,0,1
341130,387.096774193548,4,2,2,80,1,1
341517,361.44578313253,4,2,2,80,1,1
341878,379.746835443038,4,2,2,80,1,1
342257,365.853658536585,4,2,2,80,1,1
342622,383.386581469649,4,2,2,80,1,1
342813,-100,4,2,2,60,0,1
342909,-100,4,2,2,60,0,1
343005,368.098159509202,4,2,2,80,1,1
343373,-100,4,2,2,80,0,0
343465,-100,4,2,2,40,0,0
343557,-100,4,2,2,80,0,1
343649,-100,4,2,2,40,0,1
343741,-100,4,2,2,80,0,1
344017,-100,4,2,2,60,0,1
344109,391.517128874388,4,2,2,80,1,1
344304,-100,4,2,2,60,0,0
344500,375,4,2,2,80,1,1
344875,-100,4,2,2,80,0,0
345062,-100,4,2,2,80,0,1
345437,-100,4,2,2,80,0,0
345625,-100,4,2,2,80,0,1
346000,-100,4,2,2,80,0,0
346187,-100,4,2,2,80,0,1
346375,370.37037037037,4,2,2,80,1,1
346745,357.142857142857,4,2,2,80,1,1
346923,416.666666666667,4,2,2,80,1,0
347130,355.029585798817,4,2,2,80,1,1
347307,-100,4,2,2,80,0,0
347485,372.670807453416,4,2,2,80,1,1
347671,-133.333333333333,4,2,2,75,0,0
348416,-133.333333333333,4,2,2,75,0,0
348975,-200,4,2,2,75,0,0
350093,397.350993377483,4,2,2,80,1,1
350093,-133.333333333333,4,2,2,75,0,1
350291,-133.333333333333,4,2,2,75,0,0
350391,-133.333333333333,4,2,2,37,0,0
350490,379.746835443038,4,2,1,70,1,0
350490,-133.333333333333,4,2,1,70,0,1
350679,-133.333333333333,4,2,1,70,0,0
351059,413.793103448276,4,2,1,70,1,0
351059,-142.857142857143,4,2,1,70,0,0
351265,394.736842105263,4,2,1,70,1,0
351265,-142.857142857143,4,2,1,70,0,0
351363,-142.857142857143,4,2,1,35,0,0
351462,-131.147540983607,4,2,1,70,0,0
351659,359.281437125748,4,2,1,70,1,0
351748,-100,4,2,1,35,0,0
351838,434.782608695652,4,2,1,70,1,0
352055,444.444444444444,4,2,1,70,1,0
352055,-158.730158730159,4,2,1,70,0,1
352277,422.535211267606,4,2,1,65,1,0
352277,-160,4,2,1,70,0,0
352699,474.308300395257,4,2,1,65,1,0
352936,451.127819548872,4,2,1,65,1,0
352936,-181.818181818182,4,2,1,70,0,0
353161,459.770114942529,4,2,1,65,1,0
353390,508.474576271186,4,2,1,65,1,0
353390,-200,4,2,1,70,0,0
353644,422.535211267606,4,2,1,65,1,0
353855,500,4,2,1,5,1,0
354855,476.190476190476,4,2,1,85,1,1
354855,-117.647058823529,4,2,1,85,0,1
354884,-117.647058823529,4,2,1,80,0,1
355093,-117.647058823529,4,2,1,80,0,0
355807,-117.647058823529,4,2,1,70,0,0
356759,-117.647058823529,4,2,1,60,0,0
357712,-117.647058823529,4,2,1,50,0,0
358664,-117.647058823529,4,2,1,40,0,0
359616,-117.647058823529,4,2,1,30,0,0
360569,-117.647058823529,4,2,1,20,0,0
361521,-117.647058823529,4,2,1,10,0,0
362474,-200,4,2,1,5,0,0

[Colours]
Combo1 : 192,192,192
Combo2 : 255,170,255
Combo3 : 255,205,138
Combo4 : 181,255,106
Combo5 : 117,210,255
Combo6 : 128,128,192
Combo7 : 0,128,192
Combo8 : 255,91,91

[HitObjects]
256,60,690,6,0,P|249:89|255:118,1,60.0000022888184,2|0,0:0|0:0,0:0:0:0:
381,151,1437,2,0,P|351:154|325:169,1,60.0000022888184,2|0,0:0|0:0,0:0:0:0:
333,298,2185,2,0,P|321:271|299:251,1,60.0000022888184,2|0,0:0|0:0,0:0:0:0:
178,298,2932,2,0,P|200:278|212:251,1,60.0000022888184,2|0,0:0|0:0,0:0:0:0:
130,151,3680,54,0,P|156:166|185:169,1,60.0000022888184,2|0,0:0|0:0,0:0:0:0:
354,103,4428,2,0,P|328:118|310:142,1,60.0000022888184,2|0,0:0|0:0,0:0:0:0:
283,321,4989,1,2,0:0:0:0:
283,321,5175,2,0,P|283:291|271:263,1,60.0000022888184,2|0,0:0|0:0,0:0:0:0:
186,169,5923,6,0,L|122:172,1,60.0000022888184,2|0,0:0|0:0,0:0:0:0:
265,384,6685,2,0,L|271:264,1,120.000004577637,2|0,0:0|0:0,0:0:0:0:
333,215,7834,1,2,0:0:0:0:
453,253,8229,86,0,P|425:264|395:263,1,60.0000022888184,2|0,0:0|0:0,0:0:0:0:
258,189,9013,2,0,P|221:178|182:187,1,80,2|0,0:0|0:0,0:0:0:0:
97,310,9839,6,0,L|107:151,1,160,2|0,0:0|0:0,0:0:0:0:
266,75,11135,2,0,L|263:116,1,40,2|0,0:0|0:0,0:0:0:0:
256,192,11667,1,2,0:0:0:0:
256,192,11998,12,0,13655,0:0:0:0:
256,192,14220,37,2,0:0:0:0:
256,192,15790,1,2,0:0:0:0:
256,192,17510,70,0,L|263:96,1,90.0000034332277,0|0,3:0|0:0,0:0:0:0:
263,102,17885,1,0,0:0:0:0:
383,93,18447,38,0,L|386:44,1,30.0000011444092,0|0,3:0|0:0,0:0:0:0:
385,63,18635,1,0,0:0:0:0:
176,199,19197,70,0,L|179:150,1,30.0000011444092,0|0,3:0|0:0,0:0:0:0:
178,169,19385,1,0,0:0:0:0:
382,351,19760,38,0,L|383:321,1,30.0000011444092,0|0,3:0|0:0,0:0:0:0:
461,342,19947,2,0,L|464:293,1,30.0000011444092,0|0,3:0|0:0,0:0:0:0:
463,312,20135,1,0,0:0:0:0:
315,274,20322,22,0,L|315:254,2,20.0000007629395,0|0|0,3:0|3:0|3:0,0:0:0:0:
314,285,20510,38,0,L|225:292,1,90.0000034332277,0|0,3:0|0:0,0:0:0:0:
224,292,20885,1,0,0:0:0:0:
415,68,21447,38,0,L|366:71,1,30.0000011444092,0|0,3:0|0:0,0:0:0:0:
385,70,21635,1,0,0:0:0:0:
169,231,22197,70,0,L|139:232,1,30.0000011444092,0|0,3:0|0:0,0:0:0:0:
139,232,22385,2,0,B|139:147|204:180|203:92,1,160,0|0,0:0|0:0,0:0:0:0:
142,31,22931,69,0,3:0:0:0:
249,212,23105,1,8,3:2:0:0:
142,31,23307,1,0,3:0:0:0:
249,212,23506,21,4,3:2:0:0:
314,172,23693,1,0,0:0:0:0:
389,179,23881,1,0,0:0:0:0:
441,234,24068,2,0,L|443:273,1,40,2|0,0:0|0:0,0:0:0:0:
339,381,24443,21,0,3:0:0:0:
283,329,24631,1,0,0:0:0:0:
208,344,24818,2,0,L|205:383,1,40,2|0,0:0|0:0,0:0:0:0:
156,218,25193,85,0,3:0:0:0:
100,270,25381,1,0,0:0:0:0:
25,255,25568,2,0,L|22:215,1,40,2|0,0:0|0:0,0:0:0:0:
145,3,25943,21,0,3:0:0:0:
197,59,26131,1,0,0:0:0:0:
182,134,26318,2,0,L|168:133,2,13.3333333333333,2|0|0,3:2|3:0|3:0,0:0:0:0:
207,137,26506,85,0,3:0:0:0:
272,177,26693,1,0,0:0:0:0:
347,170,26881,1,0,0:0:0:0:
399,115,27068,2,0,L|401:75,1,40,2|0,0:0|0:0,0:0:0:0:
317,242,27443,21,0,3:0:0:0:
363,307,27631,1,0,0:0:0:0:
477,228,27818,2,0,L|397:234,1,80,10|0,0:0|0:0,0:0:0:0:
199,217,28193,85,0,3:0:0:0:
134,171,28381,1,0,0:0:0:0:
213,57,28568,2,0,L|206:136,1,80,10|0,0:0|0:0,0:0:0:0:
192,298,28943,85,0,3:0:0:0:
112,304,29131,1,0,3:0:0:0:
32,310,29318,1,0,3:0:0:0:
267,351,29506,22,0,L|271:291,2,60.0000022888184,6|0|0,0:0|0:0|3:0,0:0:0:0:
395,227,30068,2,0,L|335:231,1,60.0000022888184,2|0,0:0|3:0,0:0:0:0:
475,221,30443,1,0,0:0:0:0:
465,358,30631,2,0,L|469:298,1,60.0000022888184,2|0,3:2|0:0,0:0:0:0:
469,298,30912,1,0,0:0:0:0:
469,298,31006,21,0,3:0:0:0:
400,167,31193,2,0,L|395:226,1,60.0000022888184,2|0,0:0|3:0,0:0:0:0:
267,351,31568,2,0,L|326:346,1,60.0000022888184,2|0,0:0|3:0,0:0:0:0:
188,358,31943,1,0,0:0:0:0:
95,220,32130,1,0,3:0:0:0:
95,220,32315,2,0,L|96:200,2,20.0000007629395,2|0|0,0:0|0:0|0:0,0:0:0:0:
94,239,32500,85,0,3:0:0:0:
223,285,32687,1,0,0:0:0:0:
159,141,32875,1,0,3:0:0:0:
17,181,33062,2,0,L|12:240,1,60.0000022888184,2|0,0:0|3:0,0:0:0:0:
140,298,33437,21,0,0:0:0:0:
76,120,33625,1,0,3:0:0:0:
231,2,33812,2,0,B|287:19|302:99|237:142|237:142|239:106|208:84,1,240.000009155274,6|0,3:2|0:0,0:0:0:0:
76,120,34750,5,10,3:2:0:0:
374,280,34937,1,10,3:2:0:0:
374,280,35490,22,0,L|383:200,1,80,6|0,3:2|0:0,0:0:0:0:
489,84,35875,1,8,3:2:0:0:
334,45,36062,1,0,0:0:0:0:
489,84,36250,2,0,L|410:92,1,80,2|0,3:2|3:0,0:0:0:0:
334,45,36531,1,0,3:0:0:0:
334,45,36625,2,0,L|327:124,1,80,8|0,3:2|0:0,0:0:0:0:
405,275,37000,5,2,3:2:0:0:
398,178,37187,1,0,0:0:0:0:
474,337,37375,2,0,P|443:361|404:365,1,80,8|8,3:2|0:0,0:0:0:0:
329,343,37656,1,8,0:0:0:0:
329,343,37750,2,0,P|298:319|259:315,1,80,2|0,3:2|0:0,0:0:0:0:
131,244,38125,101,8,3:2:0:0:
157,375,38312,1,0,0:0:0:0:
79,182,38500,2,0,P|114:164|153:167,1,80,2|0,3:2|0:0,0:0:0:0:
342,251,38875,5,8,3:2:0:0:
211,225,39062,1,0,0:0:0:0:
439,310,39250,2,0,P|457:275|454:236,1,80,2|0,3:2|0:0,0:0:0:0:
230,148,39625,2,0,L|223:68,1,80,8|8,3:2|0:0,0:0:0:0:
223,68,39906,1,8,0:0:0:0:
223,68,40000,101,2,3:2:0:0:
154,167,40187,1,0,0:0:0:0:
342,251,40375,2,0,L|338:211,1,40,8|0,3:2|0:0,0:0:0:0:
367,139,40562,2,0,L|327:135,1,40,8|0,0:0|0:0,0:0:0:0:
203,259,40750,5,2,3:2:0:0:
203,259,40843,2,0,P|232:284|271:290,1,80,8|0,0:0|3:0,0:0:0:0:
342,251,41125,2,0,P|371:226|410:220,1,80,8|8,3:2|3:2,0:0:0:0:
411,220,41395,1,8,3:2:0:0:
411,220,41485,69,14,3:2:0:0:
103,193,41672,1,0,3:0:0:0:
259,207,41860,1,0,3:0:0:0:
429,379,42047,53,12,3:2:0:0:
397,64,42234,1,2,3:2:0:0:
411,220,42422,1,0,3:0:0:0:
195,324,42610,53,12,3:2:0:0:
510,356,42797,1,0,3:0:0:0:
354,342,42985,1,2,3:2:0:0:
234,43,43172,53,12,3:2:0:0:
266,358,43359,1,0,3:0:0:0:
252,202,43547,1,0,3:0:0:0:
166,95,43735,85,10,3:2:0:0:
315,80,43922,1,0,3:0:0:0:
104,202,44110,5,12,3:2:0:0:
123,15,44297,1,0,3:0:0:0:
123,15,44391,1,0,3:0:0:0:
123,15,44485,53,6,3:2:0:0:
199,31,44672,1,0,3:0:0:0:
244,94,44860,1,0,3:0:0:0:
250,171,45047,1,0,3:0:0:0:
217,241,45235,85,10,3:2:0:0:
311,235,45422,1,8,3:2:0:0:
405,229,45610,1,8,3:2:0:0:
499,223,45798,1,8,3:2:0:0:
311,235,45985,69,10,3:2:0:0:
311,235,46172,2,0,L|306:294,1,60.0000022888184,0|0,3:0|0:0,0:0:0:0:
416,59,46547,5,10,3:2:0:0:
416,59,46735,2,0,L|412:88,1,30.0000011444092,0|0,3:0|0:0,0:0:0:0:
357,143,46919,2,0,L|353:172,1,30.0000011444092,0|0,3:0|0:0,0:0:0:0:
311,235,47103,21,8,3:2:0:0:
258,238,47202,1,8,3:2:0:0:
227,262,47301,1,8,3:2:0:0:
215,287,47401,1,8,3:2:0:0:
213,302,47500,53,4,3:2:0:0:
292,311,47875,1,0,0:0:0:0:
370,294,48250,1,0,3:0:0:0:
430,241,48625,1,0,0:0:0:0:
292,311,49000,21,0,3:0:0:0:
213,302,49375,1,0,0:0:0:0:
135,319,49750,1,0,3:0:0:0:
75,372,50125,1,0,0:0:0:0:
292,311,50500,85,0,3:0:0:0:
298,231,50875,1,0,0:0:0:0:
304,151,51250,1,0,3:0:0:0:
310,71,51625,1,0,0:0:0:0:
304,151,52000,21,0,3:0:0:0:
225,160,52375,1,0,0:0:0:0:
147,143,52750,1,0,3:0:0:0:
87,90,53125,1,0,0:0:0:0:
147,143,53510,85,0,3:0:0:0:
156,222,53885,1,0,0:0:0:0:
139,300,54265,1,0,3:0:0:0:
86,360,54638,1,0,0:0:0:0:
139,300,55012,21,0,3:0:0:0:
218,309,55386,1,0,0:0:0:0:
296,292,55745,1,0,3:0:0:0:
356,239,56120,1,0,0:0:0:0:
498,334,56485,86,0,L|458:338,1,40,0|0,3:0|0:0,0:0:0:0:
386,348,56877,2,0,L|338:352,1,47.9999985351563,0|0,3:0|0:0,0:0:0:0:
267,362,57252,2,0,L|211:367,1,55.9999982910157,0|0,3:0|0:0,0:0:0:0:
139,378,57627,2,0,L|75:384,1,64,0|0,3:0|0:0,0:0:0:0:
296,292,58005,22,0,L|296:284,1,6.66666666666667,8|10,3:2|0:0,0:0:0:0:
296,285,58942,69,8,3:2:0:0:
152,81,59128,2,0,L|155:120,1,40,8|0,3:2|0:0,0:0:0:0:
155,121,59500,54,0,L|95:115,1,60.0000022888184,6|0,3:2|0:0,0:0:0:0:
32,48,59875,1,8,0:0:0:0:
144,210,60062,1,0,0:0:0:0:
247,86,60250,2,0,P|276:79|305:82,1,60.0000022888184,0|0,3:0|0:0,0:0:0:0:
436,166,60625,2,0,P|465:173|494:170,1,60.0000022888184,8|0,0:0|0:0,0:0:0:0:
381,0,61000,102,0,L|390:90,1,90.0000034332277,0|0,3:0|0:0,0:0:0:0:
390,90,61375,1,8,0:0:0:0:
279,196,61562,1,0,0:0:0:0:
127,103,61750,2,0,P|168:87|211:95,1,90.0000034332277,0|0,3:0|0:0,0:0:0:0:
275,136,62125,2,0,L|279:195,1,60.0000022888184,8|0,0:0|0:0,0:0:0:0:
226,351,62500,6,0,L|315:359,1,90.0000034332277,2|0,3:2|0:0,0:0:0:0:
386,383,62868,2,0,P|390:354|382:325,1,60.0000022888184,8|0,0:0|0:0,0:0:0:0:
279,196,63249,1,0,3:0:0:0:
331,261,63436,1,0,0:0:0:0:
225,131,63624,2,0,L|135:123,1,90.0000034332277,8|0,0:0|0:0,0:0:0:0:
64,147,63999,102,0,P|59:117|67:88,1,60.0000022888184,2|0,3:2|0:0,0:0:0:0:
213,12,64374,2,0,P|240:22|261:43,1,60.0000022888184,8|0,0:0|0:0,0:0:0:0:
201,212,64749,5,2,3:2:0:0:
201,212,64841,2,0,L|141:206,1,60.0000022888184,8|0,0:0|3:0,0:0:0:0:
274,270,65119,2,0,P|303:272|331:260,1,60.0000022888184,8|8,0:0|0:0,0:0:0:0:
331,260,65402,1,8,0:0:0:0:
331,260,65500,102,0,L|326:324,1,60.0000022888184,2|0,3:2|0:0,0:0:0:0:
283,182,65875,1,8,0:0:0:0:
402,68,66062,2,0,L|445:65,2,30.0000011444092,0|8|0,0:0|0:0|3:0,0:0:0:0:
283,182,66431,1,0,0:0:0:0:
234,118,66613,2,0,P|204:111|175:117,1,60.0000022888184,8|0,0:0|0:0,0:0:0:0:
58,203,67000,5,2,3:2:0:0:
111,284,67187,1,0,0:0:0:0:
58,203,67375,2,0,L|117:207,1,60.0000022888184,8|0,0:0|0:0,0:0:0:0:
160,353,67750,2,0,L|219:357,1,60.0000022888184,0|0,3:0|0:0,0:0:0:0:
396,227,68125,2,0,L|336:223,1,60.0000022888184,8|8,0:0|0:0,0:0:0:0:
336,223,68406,1,8,0:0:0:0:
336,223,68500,102,0,P|292:232|253:212,1,90.0000034332277,2|0,3:2|0:0,0:0:0:0:
209,150,68875,2,0,L|213:90,1,60,8|0,0:0|0:0,0:0:0:0:
122,229,69250,1,0,3:0:0:0:
87,158,69437,1,0,0:0:0:0:
122,229,69625,2,0,L|47:234,1,60,8|0,0:0|0:0,0:0:0:0:
41,75,70000,6,0,P|83:62|127:74,1,90.0000034332277,2|0,3:2|0:0,0:0:0:0:
176,134,70375,2,0,L|173:163,1,30.0000011444092,8|2,0:0|0:0,0:0:0:0:
173,164,70562,1,0,3:0:0:0:
246,261,70750,101,0,3:0:0:0:
246,261,70824,2,0,P|249:231|242:203,1,59.2000014453125,8|0,0:0|3:0,0:0:0:0:
173,164,71125,2,0,L|113:168,1,60,8|10,0:0|0:0,0:0:0:0:
113,168,71406,1,8,0:0:0:0:
113,168,71500,21,6,3:2:0:0:
71,319,71685,1,0,0:0:0:0:
38,250,71870,2,0,P|66:241|96:245,1,60.0000022888184,8|0,0:0|0:0,0:0:0:0:
271,346,72254,2,0,P|299:355|329:351,1,60.0000022888184,0|0,3:0|0:0,0:0:0:0:
451,287,72617,1,8,0:0:0:0:
451,287,72799,2,0,L|446:249,1,30.0000011444092,0|8,0:0|0:0,0:0:0:0:
510,203,73000,86,0,P|459:176|401:189,1,120.000004577637,2|8,3:2|0:0,0:0:0:0:
303,264,73562,1,2,0:0:0:0:
303,264,73750,2,0,P|273:267|245:258,1,60.0000022888184,0|0,3:0|0:0,0:0:0:0:
91,269,74125,2,0,L|86:209,1,60.0000022888184,10|8,0:0|0:0,0:0:0:0:
86,209,74406,1,8,0:0:0:0:
86,209,74500,22,0,P|138:182|196:195,1,120.000004577637,2|8,3:2|0:0,0:0:0:0:
303,264,75062,1,0,0:0:0:0:
230,361,75250,2,0,L|234:301,1,60,0|0,3:0|0:0,0:0:0:0:
430,229,75625,2,0,L|370:226,1,60.0000022888184,8|8,0:0|0:0,0:0:0:0:
370,226,75906,1,8,0:0:0:0:
370,226,76000,53,2,3:2:0:0:
303,264,76191,1,0,3:0:0:0:
235,224,76382,1,0,3:0:0:0:
217,148,76561,1,8,3:2:0:0:
154,101,76741,1,8,3:2:0:0:
76,107,76920,1,8,3:2:0:0:
217,148,77113,22,0,P|235:107|224:62,1,90.0000034332277,12|0,3:2|0:0,0:0:0:0:
164,17,77480,38,0,L|44:27,1,120.000004577637,6|0,3:2|0:0,0:0:0:0:
0,127,78062,1,0,3:0:0:0:
70,167,78250,2,0,L|76:108,1,60.0000022888184,0|0,3:0|0:0,0:0:0:0:
0,127,78625,1,0,0:0:0:0:
235,293,79000,5,2,3:2:0:0:
244,215,79187,2,0,L|247:186,1,30.0000011444092,0|2,3:0|0:0,0:0:0:0:
247,185,79375,1,0,0:0:0:0:
235,293,79562,1,0,3:0:0:0:
381,356,79750,2,0,P|337:360|299:338,1,90.0000034332277,8|0,3:2|0:0,0:0:0:0:
235,293,80125,2,0,L|176:297,1,60.0000022888184,0|0,0:0|0:0,0:0:0:0:
9,369,80500,102,0,P|0:340|3:310,1,60.0000022888184,2|0,3:2|0:0,0:0:0:0:
136,236,80875,1,0,0:0:0:0:
66,196,81063,2,0,L|60:255,1,60.0000022888184,0|0,3:0|0:0,0:0:0:0:
136,236,81438,1,0,3:0:0:0:
4,311,81625,1,0,0:0:0:0:
250,136,82000,5,2,3:2:0:0:
244,215,82185,2,0,L|242:245,1,30.0000011444092,0|2,3:0|0:0,0:0:0:0:
242,245,82370,1,0,0:0:0:0:
250,136,82555,1,0,3:0:0:0:
322,374,82740,53,10,3:2:0:0:
262,325,82925,1,0,3:0:0:0:
187,334,83114,1,2,0:0:0:0:
66,198,83307,2,0,L|69:228,1,30.0000011444092,0|8,3:0|0:0,0:0:0:0:
20,292,83492,38,0,P|76:308|128:282,1,120.000004577637,6|0,3:2|0:0,0:0:0:0:
236,167,84056,1,0,3:0:0:0:
156,127,84234,2,0,P|147:155|151:185,1,60.0000022888184,0|0,3:0|0:0,0:0:0:0:
300,276,84618,2,0,L|306:217,1,60.0000022888184
319,61,84993,5,2,3:2:0:0:
425,155,85178,2,0,L|366:161,2,60.0000022888184,0|0|0,3:0|0:0|0:0,0:0:0:0:
487,20,85733,2,0,P|432:-2|376:14,1,120.000004577637,8|0,3:2|0:0,0:0:0:0:
376,14,86317,1,0,3:0:0:0:
502,147,86505,101,2,3:2:0:0:
300,276,86875,1,0,0:0:0:0:
230,236,87052,1,0,3:0:0:0:
300,276,87239,2,0,L|306:217,1,60.0000022888184,0|0,3:0|0:0,0:0:0:0:
144,29,87614,5,4,0:0:0:0:
125,105,87802,2,0,L|184:99,1,60.0000022888184,0|2,3:0|0:0,0:0:0:0:
378,10,88174,2,0,L|374:39,2,30.0000011444092,0|0|0,3:0|3:0|0:0,0:0:0:0:
364,113,88544,1,0,3:0:0:0:
438,85,88729,53,8,3:2:0:0:
303,62,88914,1,8,3:2:0:0:
399,316,89100,69,14,0:0:0:0:
364,113,89292,1,8,0:0:0:0:
456,368,89485,86,0,L|337:358,1,120.000004577637,4|0,3:2|0:0,0:0:0:0:
198,153,90249,2,0,L|78:142,1,120.000004577637,0|0,3:0|0:0,0:0:0:0:
30,80,90809,1,0,3:0:0:0:
45,255,90993,6,0,P|103:262|153:231,1,120.000004577637,0|0,3:0|0:0,0:0:0:0:
266,93,91556,2,0,P|325:86|375:117,1,120.000004577637,0|0,3:0|0:0,0:0:0:0:
424,177,92115,1,0,0:0:0:0:
427,299,92305,2,0,L|424:253,1,30.0000011444092,0|0,3:0|3:0,0:0:0:0:
485,229,92495,102,0,L|362:219,1,120.000004577637,0|0,3:0|0:0,0:0:0:0:
266,93,93245,2,0,L|142:83,1,120.000004577637,0|0,3:0|0:0,0:0:0:0:
93,26,93807,1,0,3:0:0:0:
54,118,94000,6,0,P|27:104|8:81,1,60.0000022888184,0|0,3:0|0:0,0:0:0:0:
93,212,94375,86,0,P|67:221|41:219,1,53.5999974645997,0|0,3:0|0:0,0:0:0:0:
193,242,94750,22,0,P|184:263|168:280,1,46.4000014160157,0|0,3:0|0:0,0:0:0:0:
284,199,95125,86,0,P|291:217|292:237,1,40,0|8,3:0|0:0,0:0:0:0:
236,365,95406,1,8,0:0:0:0:
236,365,95490,6,0,L|176:357,1,60.0000022888184,6|0,3:2|0:0,0:0:0:0:
292,237,95866,1,0,0:0:0:0:
447,301,96054,1,0,0:0:0:0:
314,374,96242,102,0,L|306:315,1,60.0000022888184,0|2,3:0|0:0,0:0:0:0:
177,357,96618,1,0,0:0:0:0:
292,237,96806,1,0,0:0:0:0:
176,61,96994,6,0,P|170:90|178:118,1,60.0000022888184,2|0,3:2|0:0,0:0:0:0:
377,214,97370,2,0,P|381:243|373:271,1,60.0000022888184
177,357,97747,101,0,3:0:0:0:
292,237,97931,1,2,0:0:0:0:
494,330,98115,2,0,P|464:336|436:327,1,60.0000022888184,0|8,0:0|0:0,0:0:0:0:
303,321,98407,1,8,0:0:0:0:
303,321,98490,85,6,3:2:0:0:
117,291,98677,2,0,P|172:270|228:286,1,120.000004577637,8|0,0:0|3:0,0:0:0:0:
497,53,99240,2,0,L|378:45,1,120.000004577637,10|0,0:0|0:0,0:0:0:0:
222,182,99802,2,0,L|224:211,1,30.0000011444092,8|8,0:0|0:0,0:0:0:0:
229,286,99990,86,0,B|230:174|305:234|310:137,1,180.000006866455,2|0,3:2|0:0,0:0:0:0:
509,305,100759,21,8,0:0:0:0:
486,266,100847,1,8,0:0:0:0:
444,247,100935,1,10,0:0:0:0:
399,252,101023,1,10,0:0:0:0:
366,283,101111,1,8,0:0:0:0:
340,319,101200,1,8,0:0:0:0:
296,329,101288,1,10,0:0:0:0:
253,313,101376,1,10,0:0:0:0:
229,287,101500,101,6,3:2:0:0:
15,377,101687,1,0,0:0:0:0:
34,149,101875,2,0,P|73:143|111:156,1,80,8|8,3:2|0:0,0:0:0:0:
111,156,102156,1,8,0:0:0:0:
111,156,102250,1,0,3:0:0:0:
4,302,102437,2,0,L|1:263,1,40,0|2,0:0|0:0,0:0:0:0:
1,262,102625,1,8,3:2:0:0:
192,128,102812,1,0,0:0:0:0:
12,0,103000,6,0,P|-3:36|2:75,1,80,2|0,3:2|0:0,0:0:0:0:
186,208,103375,2,0,L|266:202,1,80,8|0,3:2|0:0,0:0:0:0:
137,336,103750,5,0,3:0:0:0:
137,336,103843,2,0,P|121:299|126:260,1,80,8|0,0:0|3:0,0:0:0:0:
186,208,104125,2,0,L|192:128,1,80,8|8,3:2|0:0,0:0:0:0:
192,128,104406,1,8,0:0:0:0:
192,128,104500,5,6,3:2:0:0:
53,237,104687,1,0,0:0:0:0:
46,79,104875,69,8,3:2:0:0:
53,237,105062,1,0,0:0:0:0:
211,288,105250,1,0,3:0:0:0:
141,376,105437,6,0,L|137:336,1,40,0|2,0:0|0:0,0:0:0:0:
137,336,105625,1,8,3:2:0:0:
283,252,105812,1,0,0:0:0:0:
454,301,106000,6,0,P|416:311|378:301,1,80,2|0,3:2|3:0,0:0:0:0:
323,249,106281,1,0,3:0:0:0:
323,249,106375,2,0,L|261:253,1,40,8|0,3:2|0:0,0:0:0:0:
84,277,106562,1,4,0:0:0:0:
224,134,106750,5,0,3:0:0:0:
224,134,106843,2,0,L|218:214,1,80,8|0,0:0|3:0,0:0:0:0:
164,271,107125,2,0,L|84:277,1,80,8|8,3:2|0:0,0:0:0:0:
5,352,107406,1,8,0:0:0:0:
5,352,107500,70,0,L|9:292,1,60.0000022888184,6|0,3:2|0:0,0:0:0:0:
218,214,107865,2,0,L|222:154,1,60.0000022888184,8|0,3:2|0:0,0:0:0:0:
446,355,108250,6,0,L|452:255,1,100,6|0,3:2|0:0,0:0:0:0:
140,192,108625,2,0,L|146:92,1,100,8|0,3:2|0:0,0:0:0:0:
5,352,109000,6,0,L|14:212,1,140.000001335144,6|0,3:2|0:0,0:0:0:0:
389,154,109375,2,0,L|398:14,1,140.000001335144,8|0,3:2|0:0,0:0:0:0:
512,251,109750,5,6,3:2:0:0:
512,251,109834,2,0,L|452:255,1,60.0000022888184,8|0,0:0|3:0,0:0:0:0:
389,154,110130,2,0,L|329:157,1,60.0000022888184,8|0,3:2|0:0,0:0:0:0:
194,339,110500,70,0,P|168:311|160:272,1,80,6|0,3:2|0:0,0:0:0:0:
329,157,110870,2,0,L|333:77,1,80,8|8,3:2|0:0,0:0:0:0:
333,77,111151,1,8,0:0:0:0:
333,77,111247,1,2,3:2:0:0:
215,172,111439,1,0,0:0:0:0:
15,95,111613,2,0,P|73:87|123:118,1,120,8|0,3:2|0:0,0:0:0:0:
175,176,112002,6,0,L|214:172,1,40,2|0,3:2|0:0,0:0:0:0:
289,162,112182,2,0,L|328:157,1,40,0|0,3:0|0:0,0:0:0:0:
389,261,112363,5,8,3:2:0:0:
403,147,112550,1,8,3:2:0:0:
462,262,112738,5,10,3:2:0:0:
291,283,112925,1,8,3:2:0:0:
453,96,113113,37,12,3:2:0:0:
425,324,113306,1,8,3:2:0:0:
512,38,113500,22,0,P|458:13|402:30,1,120,6|0,3:2|0:0,0:0:0:0:
403,30,113875,1,8,3:2:0:0:
285,121,114062,2,0,L|246:125,1,40,0|2,0:0|0:0,0:0:0:0:
245,125,114250,1,0,3:0:0:0:
365,110,114437,1,0,0:0:0:0:
176,224,114625,2,0,P|163:187|170:149,1,80,8|0,3:2|0:0,0:0:0:0:
283,25,115000,6,0,L|402:30,1,120,2|0,3:2|0:0,0:0:0:0:
475,7,115375,2,0,L|479:46,1,40,8|0,3:2|0:0,0:0:0:0:
463,210,115564,2,0,L|424:204,1,40,8|0,0:0|0:0,0:0:0:0:
285,186,115754,5,0,3:0:0:0:
285,186,115849,2,0,P|318:165|357:162,1,80,8|0,0:0|3:0,0:0:0:0:
415,111,116134,2,0,P|448:132|487:135,1,80,8|8,3:2|0:0,0:0:0:0:
488,135,116401,1,8,0:0:0:0:
488,135,116506,5,6,3:2:0:0:
344,81,116687,1,0,0:0:0:0:
234,250,116875,69,8,3:2:0:0:
358,162,117062,1,0,0:0:0:0:
471,241,117250,1,0,3:0:0:0:
226,328,117437,6,0,L|222:368,1,40,0|2,0:0|0:0,0:0:0:0:
222,368,117625,1,8,3:2:0:0:
372,243,117812,1,0,0:0:0:0:
187,107,118000,5,2,3:2:0:0:
187,107,118187,2,0,L|180:186,1,80,0|8,0:0|3:2,0:0:0:0:
0,326,118562,2,0,L|39:329,1,40,4|2,0:0|0:0,0:0:0:0:
142,340,118750,5,2,3:2:0:0:
142,340,118843,2,0,L|135:261,1,80,8|0,0:0|3:0,0:0:0:0:
100,180,119125,2,0,L|179:187,1,80,8|8,3:2|0:0,0:0:0:0:
298,70,119402,1,8,0:0:0:0:
298,70,119493,70,0,L|238:64,1,60.0000022888184,6|0,3:2|0:0,0:0:0:0:
180,187,119875,2,0,L|120:181,1,60.0000022888184,8|0,3:2|0:0,0:0:0:0:
345,327,120260,6,0,L|245:317,1,100,6|0,3:2|0:0,0:0:0:0:
173,108,120635,2,0,L|73:98,1,100,8|0,3:2|0:0,0:0:0:0:
485,18,121010,6,0,L|345:4,1,140.000001335144,6|0,3:2|0:0,0:0:0:0:
162,264,121365,2,0,L|22:250,1,140.000001335144,8|0,3:2|0:0,0:0:0:0:
253,377,121744,5,6,3:2:0:0:
253,377,121839,2,0,L|246:317,1,60.0000022888184,8|0,0:0|3:0,0:0:0:0:
162,264,122131,2,0,L|155:190,1,60.0000022888184,8|0,3:2|0:0,0:0:0:0:
0,12,122498,37,14,3:2:0:0:
23,250,122686,1,0,3:0:0:0:
12,131,122875,1,0,3:0:0:0:
316,90,123057,53,12,3:2:0:0:
78,67,123241,1,0,3:0:0:0:
197,78,123425,1,0,3:0:0:0:
406,330,123609,53,12,3:2:0:0:
377,32,123797,1,0,3:0:0:0:
391,181,123985,1,2,3:2:0:0:
512,28,124177,5,0,3:0:0:0:
504,37,124273,1,0,3:0:0:0:
495,44,124369,2,0,L|455:41,1,40,0|0,3:0|3:0,0:0:0:0:
309,210,124561,21,0,3:0:0:0:
292,192,124650,1,0,3:0:0:0:
274,177,124740,2,0,L|225:182,1,40,2|0,3:2|3:0,0:0:0:0:
92,165,124924,5,8,3:2:0:0:
59,127,125022,1,8,3:2:0:0:
54,78,125120,1,8,3:2:0:0:
77,35,125215,1,8,3:2:0:0:
119,11,125310,1,8,3:2:0:0:
168,16,125405,1,8,3:2:0:0:
200,42,125500,38,0,L|190:124,1,80,2|0,0:0|0:0,0:0:0:0:
340,66,126062,86,0,L|332:129,1,64,2|0,0:0|3:0,0:0:0:0:
444,81,126625,54,0,L|437:135,1,47.9999985351563,2|0,0:0|0:0,0:0:0:0:
498,226,127187,69,0,3:0:0:0:
498,226,127375,2,0,P|464:207|425:210,1,80
320,329,127937,1,0,3:0:0:0:
320,329,128129,2,0,P|285:348|249:345,1,60.0000022888184
88,203,128520,102,0,B|71:130|71:130|186:123|228:228|198:294,1,320,2|0,3:2|0:0,0:0:0:0:
456,305,130750,85,10,0:0:0:0:
435,339,130839,1,8,0:0:0:0:
403,361,130929,1,8,0:0:0:0:
364,369,131019,1,8,0:0:0:0:
325,360,131109,1,8,0:0:0:0:
294,335,131199,1,8,0:0:0:0:
275,300,131288,1,8,0:0:0:0:
273,261,131378,1,8,0:0:0:0:
287,223,131500,102,0,L|369:233,1,80,4|0,3:2|0:0,0:0:0:0:
468,23,131875,1,8,3:2:0:0:
512,180,132062,1,0,0:0:0:0:
468,23,132250,2,0,L|478:105,1,80,0|0,3:0|3:0,0:0:0:0:
512,180,132531,1,0,3:0:0:0:
512,180,132625,2,0,L|430:170,1,80,8|0,3:2|0:0,0:0:0:0:
219,162,133000,5,0,3:0:0:0:
212,65,133187,1,0,0:0:0:0:
218,253,133375,2,0,P|257:249|287:223,1,80,8|8,3:2|0:0,0:0:0:0:
287,223,133656,1,8,0:0:0:0:
287,223,133750,1,0,3:0:0:0:
459,339,133937,2,0,L|469:257,1,80,0|8,0:0|3:2,0:0:0:0:
306,107,134312,2,0,L|301:146,1,40,0|2,3:0|0:0,0:0:0:0:
287,223,134500,102,0,L|369:213,1,80,4|0,3:2|0:0,0:0:0:0:
70,345,134875,1,8,3:2:0:0:
210,241,135062,1,0,0:0:0:0:
70,345,135250,2,0,P|51:311|54:271,1,80,0|0,3:0|0:0,0:0:0:0:
301,146,135625,2,0,P|320:111|317:72,1,80,8|8,3:2|0:0,0:0:0:0:
317,72,135906,1,8,0:0:0:0:
317,72,136000,5,0,3:0:0:0:
137,13,136187,1,0,3:0:0:0:
54,271,136375,69,12,3:2:0:0:
301,146,136568,1,12,3:2:0:0:
482,220,136762,21,0,3:0:0:0:
482,220,136851,2,0,L|472:302,1,80,8|0,0:0|3:0,0:0:0:0:
511,367,137121,2,0,L|429:377,1,80,8|8,3:2|3:2,0:0:0:0:
432,377,137405,1,8,3:2:0:0:
432,377,137500,85,14,3:2:0:0:
134,348,137687,1,0,3:0:0:0:
283,362,137875,1,0,3:0:0:0:
333,75,138062,53,12,3:2:0:0:
362,373,138250,1,2,3:2:0:0:
348,224,138437,1,0,3:0:0:0:
111,18,138633,53,12,3:2:0:0:
409,47,138829,1,0,3:0:0:0:
260,33,139016,1,2,3:2:0:0:
215,298,139204,53,12,3:2:0:0:
186,0,139391,1,0,3:0:0:0:
200,149,139579,1,0,3:0:0:0:
431,277,139766,85,10,3:2:0:0:
282,262,139947,1,0,3:0:0:0:
493,384,140129,5,12,3:2:0:0:
474,197,140311,1,0,3:0:0:0:
474,197,140402,1,0,3:0:0:0:
474,197,140493,53,6,3:2:0:0:
398,177,140679,1,0,3:0:0:0:
322,196,140867,1,0,3:0:0:0:
282,262,141054,1,0,3:0:0:0:
282,340,141242,85,10,3:2:0:0:
188,334,141429,1,8,3:2:0:0:
94,328,141617,1,8,3:2:0:0:
0,322,141805,1,8,3:2:0:0:
188,334,141985,70,0,L|184:304,1,30.0000011444092,8|2,3:2|0:0,0:0:0:0:
184,304,142159,1,0,3:0:0:0:
16,219,142355,1,0,3:0:0:0:
16,219,142540,2,0,L|19:248,1,30.0000011444092,8|2,3:2|0:0,0:0:0:0:
154,64,142738,6,0,L|157:93,1,30.0000011444092,0|0,3:0|0:0,0:0:0:0:
198,157,142925,2,0,L|201:186,1,30.0000011444092,0|0,3:0|0:0,0:0:0:0:
242,250,143113,21,8,3:2:0:0:
295,247,143207,1,8,3:2:0:0:
326,223,143300,1,8,3:2:0:0:
338,198,143394,1,8,3:2:0:0:
339,183,143500,53,4,3:2:0:0:
274,136,143875,1,0,0:0:0:0:
194,133,144250,1,0,3:0:0:0:
127,177,144620,1,0,0:0:0:0:
274,136,144990,21,0,3:0:0:0:
207,180,145360,1,0,0:0:0:0:
127,177,145754,1,0,3:0:0:0:
61,130,146126,2,0,L|64:101,1,30.0000011444092
74,29,146313,2,0,L|77:0,1,30.0000011444092,0|0,0:0|0:0,0:0:0:0:
127,177,146510,22,0,L|186:169,1,60.0000022888184,2|0,3:2|0:0,0:0:0:0:
244,118,146885,1,0,0:0:0:0:
177,33,147072,2,0,L|171:92,1,60.0000022888184,0|0,0:0|3:0,0:0:0:0:
260,195,147447,2,0,L|254:255,1,60.0000022888184
202,312,147822,1,0,0:0:0:0:
77,281,148010,86,0,P|104:270|134:273,1,60.0000022888184,2|0,3:2|0:0,0:0:0:0:
251,374,148385,2,0,P|281:378|308:367,1,60.0000022888184
308,367,148666,1,0,0:0:0:0:
308,367,148760,1,0,3:0:0:0:
353,303,148947,1,0,0:0:0:0:
424,271,149135,1,0,0:0:0:0:
501,271,149322,2,0,L|498:300,1,30.0000011444092
498,301,149510,21,2,3:2:0:0:
356,222,149697,2,0,L|296:229,1,60.0000022888184
452,72,150072,2,0,L|392:79,1,60.0000022888184,0|0,0:0|3:0,0:0:0:0:
233,109,150447,1,0,0:0:0:0:
306,148,150635,2,0,L|313:88,1,60.0000022888184
213,235,151010,86,0,L|154:243,1,60.0000022888184,2|0,3:2|0:0,0:0:0:0:
48,323,151385,2,0,L|56:264,1,60.0000022888184
6,169,151760,21,0,0:0:0:0:
21,164,151853,1,0,0:0:0:0:
36,165,151947,1,0,0:0:0:0:
51,169,152041,1,0,0:0:0:0:
63,179,152135,2,0,L|122:171,1,60.0000022888184,0|0,0:0|0:0,0:0:0:0:
197,165,152510,53,0,0:0:0:0:
195,182,152697,1,0,0:0:0:0:
282,184,152885,69,0,0:0:0:0:
272,207,153072,1,0,0:0:0:0:
362,216,153260,5,0,0:0:0:0:
331,257,153447,1,0,0:0:0:0:
466,292,153635,85,0,0:0:0:0:
405,339,153822,1,0,0:0:0:0:
262,369,154010,54,0,B|250:352|224:345|224:345|282:299|330:344,1,160
476,216,154947,22,0,P|481:255|466:292,1,80,6|0,3:2|0:0,0:0:0:0:
327,342,155488,6,0,L|268:334,1,60.0000022888184,6|0,3:2|0:0,0:0:0:0:
97,204,155880,1,8,0:0:0:0:
30,245,156070,1,0,0:0:0:0:
97,204,156260,2,0,L|105:263,1,60.0000022888184,0|0,3:0|0:0,0:0:0:0:
0,365,156628,2,0,P|26:377|56:378,1,60.0000022888184,8|0,0:0|0:0,0:0:0:0:
180,228,157010,102,0,L|269:239,1,90.0000034332277,0|0,3:0|0:0,0:0:0:0:
345,250,157370,2,0,L|338:191,1,60.0000022888184,8|0,0:0|0:0,0:0:0:0:
395,38,157760,2,0,P|354:19|310:22,1,90.0000034332277,0|0,3:0|0:0,0:0:0:0:
262,84,158127,2,0,L|269:144,1,60.0000022888184,8|0,0:0|0:0,0:0:0:0:
345,250,158502,5,2,3:2:0:0:
396,347,158688,2,0,L|392:318,1,30.0000011444092,0|2,0:0|0:0,0:0:0:0:
453,265,158874,2,0,P|403:236|346:250,1,120.000004577637,8|0,0:0|3:0,0:0:0:0:
202,284,159441,1,0,0:0:0:0:
280,298,159623,1,8,0:0:0:0:
202,284,159816,2,0,L|156:276,1,30.0000011444092,0|2,0:0|0:0,0:0:0:0:
89,294,160010,102,0,P|133:299|172:279,1,90.0000034332277,2|0,3:2|0:0,0:0:0:0:
206,207,160374,2,0,L|199:147,1,60.0000022888184,8|0,0:0|0:0,0:0:0:0:
57,18,160745,5,2,3:2:0:0:
57,18,160818,2,0,L|62:65,1,47.9999985351563,8|0,0:0|3:0,0:0:0:0:
30,140,161120,2,0,L|90:147,1,60.0000022888184,8|8,0:0|0:0,0:0:0:0:
90,147,161405,1,8,0:0:0:0:
90,147,161500,102,0,P|144:126|199:147,1,120.000004577637,2|8,3:2|0:0,0:0:0:0:
322,214,162062,1,0,0:0:0:0:
386,145,162250,2,0,L|415:141,2,30.0000011444092,0|8|0,3:0|0:0|0:0,0:0:0:0:
352,301,162625,1,8,0:0:0:0:
322,214,162812,1,0,0:0:0:0:
383,382,163000,6,0,L|291:372,1,90.0000034332277,2|0,3:2|0:0,0:0:0:0:
221,384,163375,2,0,L|214:324,1,60.0000022888184,8|0,0:0|0:0,0:0:0:0:
422,200,163750,2,0,L|415:135,1,60.0000022888184,0|0,3:0|0:0,0:0:0:0:
225,65,164125,2,0,L|232:125,1,60.0000022888184,8|8,0:0|0:0,0:0:0:0:
232,125,164406,1,8,0:0:0:0:
232,125,164500,102,0,P|188:130|149:108,1,90.0000034332277,2|0,3:2|0:0,0:0:0:0:
74,143,164875,2,0,L|69:80,1,60.0000022888184,8|0,0:0|0:0,0:0:0:0:
120,295,165250,1,0,3:0:0:0:
96,220,165437,1,0,0:0:0:0:
120,295,165625,2,0,L|61:290,1,60.0000022888184,8|0,0:0|0:0,0:0:0:0:
214,369,166000,6,0,P|257:378|298:362,1,90.0000034332277,2|0,3:2|0:0,0:0:0:0:
369,384,166365,2,0,L|372:352,1,30.0000011444092,8|2,0:0|0:0,0:0:0:0:
372,354,166557,1,0,3:0:0:0:
511,234,166750,101,0,3:0:0:0:
511,234,166841,2,0,P|483:222|453:224,1,60.0000022888184,8|0,0:0|3:0,0:0:0:0:
394,269,167115,2,0,P|366:281|336:279,1,60.0000022888184,8|10,0:0|0:0,0:0:0:0:
337,279,167390,1,8,0:0:0:0:
337,279,167480,22,0,L|344:219,1,60.0000022888184,6|0,3:2|0:0,0:0:0:0:
474,52,167880,1,8,0:0:0:0:
512,123,168066,2,0,L|453:129,1,60.0000022888184,0|0,0:0|3:0,0:0:0:0:
300,142,168439,1,0,0:0:0:0:
454,224,168625,1,8,0:0:0:0:
300,142,168811,2,0,L|304:112,1,30.0000011444092,0|8,0:0|0:0,0:0:0:0:
366,59,169000,86,0,P|308:32|246:55,1,120.000004577637,2|8,3:2|0:0,0:0:0:0:
167,178,169562,1,2,0:0:0:0:
167,178,169750,2,0,P|141:193|111:193,1,60.0000022888184,0|0,3:0|0:0,0:0:0:0:
0,167,170115,2,0,L|5:227,1,60.0000022888184,10|8,0:0|0:0,0:0:0:0:
5,227,170396,1,8,0:0:0:0:
5,227,170490,22,0,P|53:192|112:193,1,120.000004577637,2|8,3:2|0:0,0:0:0:0:
234,290,171053,1,0,0:0:0:0:
164,328,171242,2,0,L|160:268,1,60.0000022888184,0|0,3:0|0:0,0:0:0:0:
411,59,171607,2,0,L|352:55,1,60.0000022888184,8|8,0:0|0:0,0:0:0:0:
351,55,171889,1,8,0:0:0:0:
351,55,171990,53,2,3:2:0:0:
278,58,172177,1,0,3:0:0:0:
235,123,172365,1,0,3:0:0:0:
254,198,172552,1,8,3:2:0:0:
204,258,172740,1,8,3:2:0:0:
126,266,172927,1,8,3:2:0:0:
254,198,173115,22,0,P|279:231|282:271,1,82.5000031471254,12|0,3:2|0:0,0:0:0:0:
227,332,173470,38,0,L|107:342,1,120.000004577637,6|0,3:2|0:0,0:0:0:0:
56,225,174035,1,0,3:0:0:0:
132,206,174223,2,0,L|126:265,1,60.0000022888184,0|0,3:0|0:0,0:0:0:0:
56,225,174615,1,0,0:0:0:0:
190,147,174802,1,0,3:0:0:0:
68,80,174990,5,2,3:2:0:0:
141,72,175177,2,0,L|170:69,1,30.0000011444092,0|2,3:0|0:0,0:0:0:0:
171,69,175365,1,0,0:0:0:0:
68,80,175552,1,0,0:0:0:0:
238,8,175740,102,0,P|254:49|248:93,1,90.0000034332277,8|0,3:2|0:0,0:0:0:0:
190,147,176115,2,0,L|196:206,1,60.0000022888184
330,278,176490,6,0,P|286:288|245:271,1,90.0000034332277,2|0,3:2|0:0,0:0:0:0:
246,272,176865,1,0,0:0:0:0:
97,326,177052,2,0,L|91:267,1,60.0000022888184,0|0,3:0|0:0,0:0:0:0:
167,286,177427,1,0,3:0:0:0:
21,246,177615,1,0,0:0:0:0:
315,242,177990,101,2,3:2:0:0:
305,169,178177,2,0,L|302:140,1,30.0000011444092,0|2,3:0|0:0,0:0:0:0:
302,139,178364,1,0,0:0:0:0:
315,242,178551,1,0,3:0:0:0:
407,30,178739,5,10,3:2:0:0:
347,79,178926,1,0,3:0:0:0:
272,70,179114,1,2,0:0:0:0:
150,209,179302,2,0,L|153:180,1,30.0000011444092,0|8,3:0|0:0,0:0:0:0:
105,112,179490,102,0,P|161:96|213:122,1,120.000004577637,6|0,3:2|0:0,0:0:0:0:
315,242,180051,1,0,3:0:0:0:
239,261,180240,2,0,L|245:202,1,60.0000022888184,0|0,3:0|0:0,0:0:0:0:
315,242,180614,1,0,0:0:0:0:
407,30,180989,5,2,3:2:0:0:
447,100,181177,2,0,L|388:106,1,60.0000022888184,0|0,3:0|0:0,0:0:0:0:
407,30,181550,1,0,3:0:0:0:
219,101,181735,2,0,P|258:144|317:149,1,120.000004577637,8|0,3:2|0:0,0:0:0:0:
317,149,182291,1,0,3:0:0:0:
489,31,182475,101,6,3:2:0:0:
317,149,182862,1,0,0:0:0:0:
393,169,183050,1,0,3:0:0:0:
317,149,183239,2,0,L|323:208,1,60.0000022888184,0|0,3:0|0:0,0:0:0:0:
105,112,183616,5,4,0:0:0:0:
199,253,183803,2,0,L|258:258,1,60.0000022888184,0|2,3:0|0:0,0:0:0:0:
75,365,184170,2,0,L|72:335,2,30.0000011444092,0|0|0,3:0|3:0|0:0,0:0:0:0:
62,263,184545,1,0,3:0:0:0:
1,314,184733,53,8,3:2:0:0:
136,291,184920,1,8,3:2:0:0:
97,60,185107,69,14,0:0:0:0:
62,263,185298,1,8,0:0:0:0:
39,7,185490,86,0,L|160:19,1,120.000004577637,4|0,3:2|0:0,0:0:0:0:
199,253,186247,2,0,L|318:265,1,120.000004577637,0|0,3:0|0:0,0:0:0:0:
375,321,186806,1,0,3:0:0:0:
439,197,186993,6,0,P|386:172|331:189,1,120.000004577637,0|0,3:0|0:0,0:0:0:0:
199,253,187555,2,0,P|143:270|90:245,1,120.000004577637,0|0,3:0|0:0,0:0:0:0:
61,174,188118,1,0,0:0:0:0:
58,52,188305,2,0,L|61:98,1,30.0000011444092,0|0,3:0|3:0,0:0:0:0:
0,122,188493,102,0,L|123:132,1,120.000004577637,0|0,3:0|0:0,0:0:0:0:
220,332,189243,2,0,L|343:342,1,120.000004577637,0|0,3:0|0:0,0:0:0:0:
406,384,189805,1,0,3:0:0:0:
444,257,189993,6,0,P|473:263|496:283,1,60.0000022888184,0|0,3:0|0:0,0:0:0:0:
387,167,190368,86,0,P|409:153|435:148,1,53.5999974645997,0|0,3:0|0:0,0:0:0:0:
282,150,190743,22,0,P|285:128|298:108,1,46.4000014160157,0|0,3:0|0:0,0:0:0:0:
202,208,191118,86,0,P|190:193|184:174,1,40,0|8,3:0|0:0,0:0:0:0:
190,40,191399,1,8,0:0:0:0:
190,40,191493,6,0,L|249:45,1,60.0000022888184,6|0,3:2|0:0,0:0:0:0:
375,115,191868,1,0,0:0:0:0:
446,78,192055,1,0,0:0:0:0:
375,115,192249,2,0,L|369:55,1,60.0000022888184,0|2,3:0|0:0,0:0:0:0:
480,251,192624,101,0,0:0:0:0:
362,195,192811,1,0,0:0:0:0:
480,251,192999,2,0,P|452:259|423:253,1,60.0000022888184,2|0,3:2|0:0,0:0:0:0:
302,138,193374,2,0,P|273:130|244:137,1,60.0000022888184
20,213,193749,5,0,3:0:0:0:
183,182,193936,1,2,0:0:0:0:
224,14,194124,1,0,0:0:0:0:
104,202,194311,1,8,0:0:0:0:
104,202,194402,1,8,0:0:0:0:
104,202,194493,69,6,3:2:0:0:
165,371,194680,2,0,P|181:314|160:259,1,120.000004577637,8|0,0:0|3:0,0:0:0:0:
362,132,195243,1,8,0:0:0:0:
362,132,195430,2,0,B|302:138,1,60.0000022888184,0|0,3:0|0:0,0:0:0:0:
104,202,195805,2,0,B|106:172,1,30.0000011444092,8|0,0:0|0:0,0:0:0:0:
85,102,195993,86,0,B|43:106|33:140|33:140|40:173|111:203|101:155|152:153|183:182,1,240.000009155274,2|0,3:2|0:0,0:0:0:0:
255,303,196954,22,0,B|294:299,1,40,2|0,3:2|0:0,0:0:0:0:
360,335,197138,1,10,0:0:0:0:
370,296,197230,1,10,0:0:0:0:
397,262,197322,1,10,0:0:0:0:
450,241,197414,1,10,0:0:0:0:
496,244,197490,101,6,3:2:0:0:
305,149,197674,1,0,0:0:0:0:
429,0,197859,2,0,P|441:37|436:77,1,80,8|8,3:2|0:0,0:0:0:0:
436,77,198152,1,8,0:0:0:0:
436,77,198250,1,0,3:0:0:0:
228,142,198437,2,0,L|189:140,1,40,0|2,0:0|0:0,0:0:0:0:
188,140,198625,1,8,3:2:0:0:
336,240,198812,1,0,0:0:0:0:
362,47,199000,6,0,P|322:41|286:56,1,80,2|0,3:2|0:0,0:0:0:0:
110,109,199375,2,0,L|116:189,1,80,8|0,3:2|0:0,0:0:0:0:
0,326,199750,5,0,3:0:0:0:
0,326,199843,2,0,P|39:324|74:343,1,80,8|0,0:0|3:0,0:0:0:0:
143,375,200125,2,0,P|182:376|217:358,1,80,8|8,3:2|0:0,0:0:0:0:
218,357,200409,1,8,0:0:0:0:
218,357,200512,5,6,3:2:0:0:
189,140,200696,1,0,0:0:0:0:
347,133,200880,69,8,3:2:0:0:
189,140,201067,1,0,0:0:0:0:
138,298,201255,1,0,3:0:0:0:
331,274,201442,6,0,L|328:234,1,40,0|2,0:0|0:0,0:0:0:0:
328,234,201630,1,10,3:2:0:0:
189,140,201817,1,0,0:0:0:0:
18,189,202008,6,0,P|56:199|94:189,1,80,2|0,3:2|3:0,0:0:0:0:
149,137,202283,1,0,3:0:0:0:
149,137,202375,2,0,L|211:141,1,40,8|0,3:2|0:0,0:0:0:0:
392,161,202562,1,4,0:0:0:0:
251,276,202750,5,0,3:2:0:0:
251,276,202843,2,0,L|245:196,1,80,8|0,0:0|3:0,0:0:0:0:
312,155,203125,2,0,L|392:161,1,80,8|8,3:2|0:0,0:0:0:0:
466,103,203414,1,8,0:0:0:0:
466,103,203510,70,0,L|470:163,1,60.0000022888184,6|0,3:2|0:0,0:0:0:0:
245,196,203885,2,0,L|249:256,1,60.0000022888184,8|0,3:2|0:0,0:0:0:0:
110,69,204260,6,0,L|116:169,1,100,6|0,3:2|0:0,0:0:0:0:
328,239,204621,2,0,L|334:339,1,100,8|0,3:2|0:0,0:0:0:0:
461,23,205010,6,0,L|470:163,1,140.000001335144,6|0,3:2|0:0,0:0:0:0:
80,245,205375,2,0,L|89:385,1,140.000001335144,8|0,3:2|0:0,0:0:0:0:
56,165,205750,5,6,3:2:0:0:
56,165,205843,2,0,L|116:169,1,60.0000022888184,8|0,0:0|3:0,0:0:0:0:
160,274,206125,2,0,L|234:278,1,60.0000022888184,8|0,3:2|0:0,0:0:0:0:
310,66,206505,70,0,P|336:94|344:133,1,80,6|0,3:2|0:0,0:0:0:0:
220,277,206875,2,0,L|229:357,1,80,8|8,3:2|0:0,0:0:0:0:
229,357,207156,1,8,0:0:0:0:
229,357,207250,1,2,3:2:0:0:
302,200,207437,1,0,0:0:0:0:
191,59,207625,1,8,3:2:0:0:
380,204,207812,1,0,0:0:0:0:
269,360,208000,6,0,L|229:357,1,40,6|0,3:2|0:0,0:0:0:0:
151,353,208187,2,0,L|102:350,1,40,0|0,3:0|0:0,0:0:0:0:
17,205,208375,5,8,3:2:0:0:
34,347,208562,1,8,3:2:0:0:
219,151,208750,5,10,3:2:0:0:
6,126,208937,1,8,3:2:0:0:
282,58,209125,37,12,3:2:0:0:
310,286,209317,1,8,3:2:0:0:
441,77,209510,22,0,L|361:69,1,80,6|0,3:2|0:0,0:0:0:0:
111,2,209885,2,0,L|119:81,1,80,8|8,3:2|0:0,0:0:0:0:
119,82,210166,1,8,0:0:0:0:
119,82,210260,2,0,P|158:84|194:68,1,80,0|0,3:0|0:0,0:0:0:0:
382,231,210625,2,0,L|390:152,1,80,8|0,3:2|0:0,0:0:0:0:
484,40,211000,6,0,L|365:50,1,120,2|0,3:2|0:0,0:0:0:0:
294,23,211377,2,0,L|290:63,1,40,8|0,3:2|0:0,0:0:0:0:
183,158,211568,2,0,L|222:154,1,40,8|0,0:0|0:0,0:0:0:0:
333,253,211760,5,0,3:0:0:0:
333,253,211852,2,0,P|344:215|334:176,1,80,8|0,0:0|3:0,0:0:0:0:
263,150,212130,2,0,L|183:158,1,80,8|0,3:2|0:0,0:0:0:0:
6,126,212510,5,6,3:2:0:0:
191,239,212697,1,0,0:0:0:0:
147,381,212885,2,0,P|135:344|140:305,1,80,8|0,3:2|0:0,0:0:0:0:
293,257,213260,2,0,L|372:268,1,80,0|0,3:0|0:0,0:0:0:0:
466,94,213635,2,0,L|477:174,1,80,8|0,3:2|0:0,0:0:0:0:
379,345,214010,70,0,P|367:308|372:269,1,80,2|0,3:2|0:0,0:0:0:0:
477,173,214385,1,8,3:2:0:0:
299,49,214572,2,0,L|303:89,1,40,4|2,0:0|0:0,0:0:0:0:
392,170,214759,5,2,3:2:0:0:
392,170,214830,2,0,L|312:164,1,80,8|0,0:0|3:0,0:0:0:0:
226,73,215123,2,0,L|146:67,1,80,8|8,3:2|0:0,0:0:0:0:
50,22,215406,1,8,0:0:0:0:
50,22,215500,102,0,L|54:82,1,60.0000022888184,6|0,3:2|0:0,0:0:0:0:
235,160,215870,2,0,L|239:220,1,60.0000022888184,8|0,3:2|0:0,0:0:0:0:
386,70,216245,6,0,L|392:169,1,100,6|0,3:2|0:0,0:0:0:0:
155,196,216620,2,0,L|161:295,1,100,8|0,3:2|0:0,0:0:0:0:
50,22,217005,6,0,L|59:161,1,140.000001335144,6|0,3:2|0:0,0:0:0:0:
358,245,217373,2,0,L|367:384,1,140.000001335144,8|0,3:2|0:0,0:0:0:0:
392,169,217750,5,6,3:2:0:0:
392,169,217841,2,0,L|332:165,1,60.0000022888184,8|0,0:0|3:0,0:0:0:0:
277,249,218115,2,0,L|231:245,1,30.0000011444092,8|0,3:2|0:0,0:0:0:0:
185,198,218302,2,0,L|139:194,1,30.0000011444092,8|0,0:0|0:0,0:0:0:0:
103,55,218490,37,14,3:2:0:0:
341,32,218677,1,0,3:0:0:0:
222,43,218865,1,0,3:0:0:0:
12,248,219052,53,12,3:2:0:0:
35,10,219239,1,0,3:0:0:0:
24,129,219427,1,0,3:0:0:0:
205,340,219615,54,0,L|244:337,1,40,12|0,3:2|0:0,0:0:0:0:
320,331,219815,2,0,L|359:327,1,40,0|0,3:0|0:0,0:0:0:0:
124,355,220000,2,0,L|130:315,1,40,0|0,3:0|0:0,0:0:0:0:
93,215,220185,37,0,3:0:0:0:
121,242,220277,1,0,3:0:0:0:
161,250,220370,1,0,3:0:0:0:
207,237,220469,1,0,3:0:0:0:
254,206,220569,1,0,3:0:0:0:
309,208,220659,1,0,3:0:0:0:
347,256,220750,6,0,L|386:251,1,40,8|0,3:2|0:0,0:0:0:0:
254,131,220926,2,0,L|294:136,1,40,8|0,3:2|0:0,0:0:0:0:
205,340,221113,102,0,L|247:337,1,40,8|0,3:2|0:0,0:0:0:0:
115,83,221311,2,0,L|154:87,1,40,8|0,3:2|0:0,0:0:0:0:
378,173,221510,69,6,3:2:0:0:
248,7,221703,1,0,3:0:0:0:
254,131,221897,1,0,3:0:0:0:
90,293,222075,53,6,3:2:0:0:
115,83,222254,1,0,3:0:0:0:
32,175,222434,1,0,3:0:0:0:
167,251,222620,102,0,P|208:236|252:244,1,90.0000034332277,6|0,3:2|0:0,0:0:0:0:
323,276,222997,2,0,L|326:246,1,30.0000011444092,0|0,3:0|0:0,0:0:0:0:
473,59,223186,2,0,L|465:148,1,90.0000034332277,10|0,0:0|0:0,0:0:0:0:
465,149,223563,1,2,3:2:0:0:
378,173,223752,1,10,0:0:0:0:
313,109,223940,1,0,3:0:0:0:
335,20,224129,5,0,3:0:0:0:
378,173,224319,1,0,3:0:0:0:
223,133,224520,5,6,3:2:0:0:
287,195,225093,21,0,3:0:0:0:
201,219,225617,101,0,3:0:0:0:
239,363,226010,101,6,3:2:0:0:
382,288,226197,2,0,L|262:279,1,120.000004577637,8|8,0:0|0:0,0:0:0:0:
201,219,226760,21,0,3:0:0:0:
201,219,226885,2,0,L|161:222,1,40.000001525879,0|0,3:0|3:0,0:0:0:0:
99,268,227135,101,0,3:0:0:0:
99,268,227260,2,0,L|72:266,1,26.6666666666667,0|2,3:0|3:2,0:0:0:0:
0,258,227510,37,6,3:1:0:0:
0,258,239480,38,0,P|42:279|89:275,1,95.9999970703126,6|0,3:2|0:0,0:0:0:0:
90,275,240052,1,0,3:0:0:0:
186,358,240240,2,0,L|183:310,1,47.9999985351563,8|0,0:0|0:0,0:0:0:0:
183,310,240615,1,0,0:0:0:0:
143,143,240990,101,0,3:0:0:0:
209,68,241177,1,8,0:0:0:0:
143,143,241365,2,0,L|119:140,1,23.9999992675781,2|2,0:2|0:0,0:0:0:0:
47,129,241552,1,2,0:0:0:0:
47,129,241646,1,2,0:0:0:0:
47,129,241740,2,0,L|55:229,1,95.9999970703126,8|0,0:0|0:0,0:0:0:0:
55,225,242302,1,0,3:0:0:0:
31,326,242490,6,0,P|77:333|119:310,1,95.9999970703126,0|0,3:0|0:0,0:0:0:0:
119,310,243052,1,0,3:0:0:0:
203,199,243240,2,0,P|249:191|291:214,1,95.9999970703126,8|0,0:0|0:0,0:0:0:0:
400,380,243990,101,0,3:0:0:0:
453,303,244177,1,8,0:0:0:0:
400,380,244365,2,0,L|352:373,1,47.9999985351563,0|2,0:0|3:2,0:0:0:0:
352,373,244646,1,2,3:2:0:0:
352,373,244740,85,10,3:2:0:0:
293,335,244930,1,0,3:0:0:0:
219,335,245120,1,0,3:0:0:0:
160,373,245310,1,0,3:0:0:0:
31,142,245500,101,6,3:2:0:0:
160,373,245687,1,0,3:0:0:0:
31,142,245875,1,0,3:0:0:0:
219,335,246062,53,6,3:2:0:0:
165,49,246250,1,0,3:0:0:0:
219,335,246437,1,0,3:0:0:0:
347,49,246625,53,6,3:2:0:0:
293,335,246812,1,0,3:0:0:0:
347,49,247000,1,0,3:0:0:0:
352,373,247177,53,6,3:2:0:0:
481,142,247359,1,0,3:0:0:0:
352,373,247542,1,0,3:0:0:0:
256,96,247725,101,4,3:2:0:0:
355,275,247912,2,0,L|374:271,3,20.0000007629395,0|0|0|0,3:0|3:0|3:0|3:0,3:0:0:0:
449,260,248309,1,0,3:0:0:0:
138,279,248495,69,6,3:2:0:0:
424,333,248682,1,0,3:0:0:0:
138,279,248870,1,0,3:0:0:0:
165,49,249057,53,4,3:2:0:0:
219,335,249240,1,0,3:0:0:0:
165,49,249423,1,0,3:0:0:0:
465,7,249614,6,0,L|460:66,1,60,6|0,3:2|0:0,0:0:0:0:
481,142,249982,6,0,L|441:145,1,40,2|0,3:2|0:0,0:0:0:0:
245,38,250166,2,0,L|241:77,1,40,0|0,3:0|0:0,0:0:0:0:
368,122,250350,6,0,L|364:161,1,40,0|0,3:0|0:0,0:0:0:0:
219,335,250531,2,0,L|179:338,1,40,0|0,3:0|0:0,0:0:0:0:
21,49,250713,5,14,3:2:0:0:
355,236,250900,1,12,3:2:0:0:
0,360,251105,6,0,L|4:300,1,60,12|0,3:2|0:0,0:0:0:0:
74,381,251480,38,0,B|168:392|123:326|219:335,1,160,6|8,3:2|3:2,0:0:0:0:
318,221,252052,85,2,3:2:0:0:
457,328,252240,2,0,L|383:333,1,68.0000012969971,2|0,3:2|0:0,0:0:0:0:
205,232,252615,2,0,L|238:229,1,34.0000006484985,8|0,3:2|0:0,0:0:0:0:
318,221,252802,53,2,3:2:0:0:
457,328,252990,2,0,L|390:333,1,68.0000012969971,2|0,3:2|0:0,0:0:0:0:
205,232,253365,2,0,L|238:229,1,34.0000006484985,8|0,3:2|0:0,0:0:0:0:
318,221,253552,101,2,3:2:0:0:
74,381,253740,2,0,L|79:314,1,68.0000012969971,2|0,3:2|0:0,0:0:0:0:
330,110,254115,2,0,L|327:143,1,34.0000006484985,8|0,3:2|0:0,0:0:0:0:
318,221,254302,21,2,3:2:0:0:
74,381,254490,2,0,L|79:314,1,68.0000012969971,2|0,3:2|0:0,0:0:0:0:
430,208,254865,2,0,L|397:211,1,34.0000006484985,8|0,3:2|0:0,0:0:0:0:
318,221,255052,69,2,3:2:0:0:
225,69,255240,2,0,L|220:136,1,68.0000012969971,2|0,3:2|0:0,0:0:0:0:
306,335,255615,2,0,L|309:302,1,34.0000006484985,8|0,3:2|0:0,0:0:0:0:
318,221,255802,85,2,3:2:0:0:
457,328,255990,2,0,L|390:333,1,68.0000012969971,2|0,3:2|0:0,0:0:0:0:
205,232,256354,2,0,L|238:229,1,34.0000006484985,8|0,3:2|0:0,0:0:0:0:
318,221,256547,53,2,3:2:0:0:
457,328,256741,2,0,L|390:333,1,68.0000012969971,2|0,3:2|0:0,0:0:0:0:
148,384,257105,2,0,P|132:336|143:287,1,102.000001945496,8|0,3:2|0:0,0:0:0:0:
143,287,257480,69,6,3:2:0:0:
306,336,257667,1,2,0:0:0:0:
422,229,257855,21,10,3:2:0:0:
226,315,258042,1,2,0:0:0:0:
38,150,258230,85,0,3:0:0:0:
209,230,258417,1,0,3:0:0:0:
55,338,258605,1,8,3:2:0:0:
25,73,258792,101,6,3:2:0:0:
293,264,259167,53,6,3:2:0:0:
100,275,259542,37,6,3:2:0:0:
25,73,259917,6,0,P|58:61|93:68,1,71.9999978027344,6|0,3:2|0:0,0:0:0:0:
163,94,260292,2,0,L|161:117,1,23.9999992675781,8|0,0:0|0:0,0:0:0:0:
265,221,260490,6,0,P|227:254|177:257,1,102.000001945496,6|0,3:2|0:0,0:0:0:0:
177,257,260865,1,8,3:2:0:0:
17,317,261052,2,0,L|22:250,1,68.0000012969971,2|0,0:0|3:0,0:0:0:0:
67,159,261424,5,2,3:2:0:0:
265,221,261608,1,10,3:2:0:0:
112,361,261795,1,2,3:2:0:0:
265,221,261983,6,0,L|270:154,1,68.0000012969971,10|0,0:0|3:0,0:0:0:0:
112,361,262358,2,0,L|179:356,1,68.0000012969971,8|2,0:0|3:2,0:0:0:0:
354,268,262733,1,8,0:0:0:0:
277,57,262922,2,0,P|259:104|270:153,1,102.000001945496,6|0,3:2|0:0,0:0:0:0:
341,190,263301,2,0,L|374:193,1,34.0000006484985,0|0,3:0|0:0,0:0:0:0:
508,151,263490,70,0,L|513:219,1,68.0000012969971,6|0,3:2|0:0,0:0:0:0:
270,384,263858,2,0,L|265:317,1,68.0000012969971,8|0,3:2|0:0,0:0:0:0:
439,274,264226,5,2,3:2:0:0:
375,193,264415,1,0,3:0:0:0:
439,274,264604,2,0,P|406:281|374:271,1,68.0000012969971,8|0,3:2|0:0,0:0:0:0:
287,135,264991,5,2,3:2:0:0:
309,49,265184,1,0,3:0:0:0:
265,221,265355,1,8,3:2:0:0:
287,135,265542,2,0,P|254:130|223:142,1,68.0000012969971,0|2,3:0|0:0,0:0:0:0:
55,248,265917,5,0,3:0:0:0:
143,331,266108,2,0,L|149:264,1,68.0000012969971,8|8,3:2|0:0,0:0:0:0:
149,263,266399,1,8,0:0:0:0:
149,263,266500,70,0,P|105:240|56:248,1,102.000001945496,6|0,3:2|0:0,0:0:0:0:
0,198,266875,2,0,L|6:131,1,68.0000012969971,8|0,3:2|0:0,0:0:0:0:
182,0,267250,5,0,3:0:0:0:
103,57,267437,1,0,3:0:0:0:
182,0,267618,2,0,P|189:33|179:65,1,68.0000012969971,8|0,3:2|0:0,0:0:0:0:
0,198,267995,69,14,3:2:0:0:
323,298,268189,1,0,3:0:0:0:
323,298,268384,1,0,3:0:0:0:
179,65,268561,53,14,3:2:0:0:
235,312,268747,1,0,3:0:0:0:
235,312,268933,1,0,3:0:0:0:
512,248,269120,5,14,3:2:0:0:
372,376,269306,1,0,3:0:0:0:
512,248,269492,53,14,3:2:0:0:
469,182,269873,1,0,0:0:0:0:
391,166,270257,1,0,3:0:0:0:
323,200,270616,1,0,0:0:0:0:
293,274,270994,69,0,3:0:0:0:
215,291,271373,1,0,0:0:0:0:
144,256,271755,1,0,3:0:0:0:
122,180,272120,2,0,L|155:183,3,34.0000006484985,0|0|0|0,0:0|3:0|3:0|3:0,0:0:0:0:
40,171,272485,38,0,P|42:151|52:133,3,40,2|0|0|0,3:2|0:0|0:0|0:0,0:0:0:0:
95,29,272860,70,0,P|119:25|143:30,3,50,0|0|0|0,3:0|0:0|0:0|0:0,0:0:0:0:
286,4,273235,6,0,P|294:32|288:61,3,60.0000022888184,0|0|0|0,3:0|0:0|0:0|0:0,0:0:0:0:
395,178,273610,86,0,P|370:203|338:213,3,70.000000667572,0|0|0|0,3:0|0:0|0:0|0:0,0:0:0:0:
212,365,273985,86,0,P|175:349|155:316,1,80,2|0,3:2|0:0,0:0:0:0:
237,282,274172,53,0,3:0:0:0:
248,284,274266,1,0,3:0:0:0:
260,285,274360,2,0,P|266:265|266:245,1,34.0000006484985,0|0,3:0|0:0,0:0:0:0:
395,178,274547,85,0,3:0:0:0:
398,154,274636,1,0,3:0:0:0:
403,134,274725,2,0,P|369:141|343:156,1,34.0000006484985,0|0,3:0|0:0,0:0:0:0:
263,180,274912,85,8,3:2:0:0:
229,182,275006,1,8,3:2:0:0:
184,158,275100,1,8,3:2:0:0:
172,103,275193,1,8,3:2:0:0:
139,52,275287,1,8,3:2:0:0:
76,53,275381,1,8,3:2:0:0:
72,71,275480,85,6,3:1:0:0:
72,71,287510,70,0,P|116:86|161:71,1,95.9999970703126,2|0,0:0|0:0,0:0:0:0:
162,71,288072,1,0,0:0:0:0:
231,110,288260,2,0,L|227:157,1,47.9999985351563
227,158,288635,1,0,0:0:0:0:
313,268,288822,2,0,L|337:270,1,23.9999992675781
337,270,289010,6,0,P|338:223|307:187,1,95.9999970703126,2|0,0:0|0:0,0:0:0:0:
307,187,289572,1,0,0:0:0:0:
379,129,289760,2,0,P|338:104|292:112,1,95.9999970703126,2|0,0:0|0:0,0:0:0:0:
227,157,290322,2,0,L|226:172,2,15.9999995117188
220,144,290510,102,0,L|228:45,1,95.9999970703126,2|0,0:0|0:0,0:0:0:0:
228,48,291072,1,0,0:0:0:0:
83,169,291260,2,0,P|118:170|147:190,1,71.9999978027344
197,249,291635,2,0,L|244:245,1,47.9999985351563
353,355,292010,6,0,L|358:308,1,47.9999985351563,2|0,0:0|0:0,0:0:0:0:
250,197,292385,2,0,L|245:244,1,47.9999985351563,0|0,0:0|0:0,0:0:0:0:
365,91,292760,86,0,L|318:96,1,47.9999985351563,2|0,0:0|0:0,0:0:0:0:
245,245,293135,2,0,L|292:240,1,47.9999985351563
466,265,293510,6,0,P|445:246|417:242,1,55.9999982910157,2|0,0:0|0:0,0:0:0:0:
317,96,293885,1,0,0:0:0:0:
376,151,294072,1,0,0:0:0:0:
317,96,294260,2,0,P|298:116|294:144,1,55.9999982910157,2|0,0:0|0:0,0:0:0:0:
99,248,294635,2,0,L|104:303,1,55.9999982910157,0|0,0:0|0:0,0:0:0:0:
271,384,295010,6,0,P|295:363|329:360,1,64,2|0,0:0|0:0,0:0:0:0:
442,209,295385,1,0,0:0:0:0:
384,265,295572,1,0,0:0:0:0:
442,209,295760,2,0,P|462:233|465:264,1,64,2|0,0:0|0:0,0:0:0:0:
288,208,296135,2,0,L|294:144,1,64,0|0,0:0|0:0,0:0:0:0:
445,25,296500,38,0,L|409:28,1,35.9999989013672,4|0,3:2|0:0,0:0:0:0:
409,28,296687,1,0,0:0:0:0:
324,204,296875,22,0,L|288:207,1,35.9999989013672,0|0,3:0|0:0,0:0:0:0:
288,207,297055,1,0,0:0:0:0:
469,337,297236,86,0,L|433:340,1,35.9999989013672,0|0,3:0|0:0,0:0:0:0:
433,340,297417,1,0,0:0:0:0:
203,105,297597,22,0,L|167:108,1,35.9999989013672,0|0,3:0|0:0,0:0:0:0:
167,108,297784,1,0,0:0:0:0:
8,354,297972,53,14,0:0:0:0:
96,64,298159,1,10,0:0:0:0:
417,253,298347,37,10,0:0:0:0:
170,27,298534,1,10,0:0:0:0:
233,364,298722,69,10,0:0:0:0:
170,27,298909,1,10,0:0:0:0:
511,75,299097,37,10,0:0:0:0:
96,64,299284,2,0,L|97:77,3,13.3333333333333,14|0|0|0,0:0|0:0|0:0|0:0,0:0:0:0:
96,64,300635,69,12,3:2:0:0:
268,199,300803,1,0,3:2:0:0:
10,276,301000,22,0,L|0:197,1,80,4|0,3:2|0:0,0:0:0:0:
175,22,301350,1,8,3:2:0:0:
216,139,301538,54,0,L|137:129,1,80,4|0,3:2|0:0,0:0:0:0:
308,204,301921,54,0,L|269:199,1,40,4|0,3:2|0:0,0:0:0:0:
77,184,302115,5,10,3:2:0:0:
125,201,302204,1,10,3:2:0:0:
163,246,302294,1,10,3:2:0:0:
175,302,302384,1,10,3:2:0:0:
164,367,302475,102,0,L|243:357,1,80,6|0,3:2|0:0,0:0:0:0:
463,204,302854,2,0,L|453:283,1,80,8|8,3:2|0:0,0:0:0:0:
453,283,303143,1,8,0:0:0:0:
453,283,303240,1,0,3:0:0:0:
269,199,303427,5,0,0:0:0:0:
472,129,303620,1,8,3:2:0:0:
442,365,303800,1,0,0:0:0:0:
269,199,303990,6,0,L|348:189,1,80,2|0,3:2|3:0,0:0:0:0:
418,225,304271,1,0,3:0:0:0:
418,225,304365,2,0,L|423:185,1,40,8|2,3:2|0:0,0:0:0:0:
452,0,304552,1,4,0:0:0:0:
511,125,304740,5,2,3:2:0:0:
511,125,304833,2,0,P|471:126|436:107,1,80,8|0,0:0|3:0,0:0:0:0:
372,63,305115,2,0,P|332:61|297:80,1,80,8|8,3:2|0:0,0:0:0:0:
269,199,305390,1,8,0:0:0:0:
269,199,305485,70,0,L|209:206,1,60.0000022888184,6|0,3:2|0:0,0:0:0:0:
128,355,305867,2,0,L|68:362,1,60.0000022888184,8|0,3:2|0:0,0:0:0:0:
379,373,306249,6,0,L|279:384,1,100,6|0,3:2|0:0,0:0:0:0:
102,164,306624,2,0,L|2:175,1,100,8|0,3:2|0:0,0:0:0:0:
452,0,306999,6,0,L|312:16,1,140.000001335144,6|0,3:2|0:0,0:0:0:0:
208,346,307367,2,0,L|68:362,1,140.000001335144,8|0,3:2|0:0,0:0:0:0:
280,384,307754,5,6,3:2:0:0:
280,384,307844,2,0,L|288:314,1,60.0000022888184,8|0,0:0|3:0,0:0:0:0:
165,276,308117,2,0,L|173:206,1,60.0000022888184,8|0,3:2|0:0,0:0:0:0:
403,130,308485,70,0,P|375:104|336:96,1,80,6|0,3:2|0:0,0:0:0:0:
229,18,308867,2,0,L|189:24,1,40,8|2,3:2|0:0,0:0:0:0:
190,24,309058,1,0,3:2:0:0:
233,242,309249,6,0,P|205:268|166:276,1,80,6|0,3:2|0:0,0:0:0:0:
59,354,309631,2,0,L|19:348,1,40,8|2,3:2|0:0,0:0:0:0:
20,348,309813,1,0,3:2:0:0:
27,146,309996,53,14,3:2:0:0:
85,274,310183,1,8,3:2:0:0:
228,97,310371,85,8,3:2:0:0:
165,276,310558,1,8,3:2:0:0:
416,324,310746,85,10,3:2:0:0:
208,346,310930,1,8,3:2:0:0:
451,197,311114,69,12,3:2:0:0:
150,94,311304,1,12,3:2:0:0:
6,229,311495,22,0,L|19:348,1,120.000004577637,6|0,3:2|0:0,0:0:0:0:
19,348,312057,1,0,3:0:0:0:
149,245,312245,2,0,L|89:238,1,60.0000022888184,10|0,3:2|0:0,0:0:0:0:
89,238,312620,1,0,0:0:0:0:
48,83,312995,5,0,3:0:0:0:
149,245,313182,2,0,L|89:238,1,60.0000022888184,8|0,3:2|0:0,0:0:0:0:
48,83,313557,5,0,3:0:0:0:
249,10,313745,2,0,L|242:70,1,60.0000022888184,10|0,3:2|0:0,0:0:0:0:
179,146,314120,5,0,0:0:0:0:
179,146,314307,2,0,L|208:142,1,30.0000011444092,0|8,3:0|0:0,0:0:0:0:
390,164,314495,70,0,P|332:169|285:134,1,120.000004577637,6|0,3:2|0:0,0:0:0:0:
285,133,315057,1,0,3:0:0:0:
154,54,315245,2,0,P|95:49|48:84,1,120.000004577637,8|0,3:2|0:0,0:0:0:0:
12,216,315825,101,0,3:0:0:0:
12,216,315915,1,0,3:0:0:0:
12,216,316005,2,0,L|16:247,3,30.0000011444092,2|8|8|8,3:2|3:2|3:2|3:2,0:0:0:0:
91,239,316373,2,0,L|95:269,3,30.0000011444092,0|8|8|8,3:0|3:2|3:2|3:2,0:0:0:0:
170,262,316741,21,10,3:2:0:0:
203,282,316832,1,8,0:0:0:0:
246,286,316923,1,8,0:0:0:0:
291,271,317015,1,8,0:0:0:0:
331,239,317106,1,8,3:2:0:0:
387,239,317198,1,8,0:0:0:0:
435,274,317289,1,8,0:0:0:0:
446,329,317381,1,8,0:0:0:0:
406,377,317485,102,0,P|359:341|300:342,1,120.000004577637,6|0,3:2|0:0,0:0:0:0:
301,342,318051,2,0,L|303:361,1,20,8|0,0:2|3:0,0:0:0:0:
76,314,318239,6,0,P|136:263|213:268,1,160,6|0,3:2|0:0,0:0:0:0:
213,268,318805,2,0,L|215:287,1,20,8|8,3:2|0:0,0:0:0:0:
469,230,318994,6,0,P|398:163|300:164,1,200,6|0,3:2|0:0,0:0:0:0:
301,164,319530,2,0,L|303:183,1,20,8|8,3:2|0:0,0:0:0:0:
0,114,319735,6,0,P|80:29|196:34,1,240.000009155274,6|0,3:2|0:0,0:0:0:0:
196,34,320311,2,0,L|198:53,1,20,8|8,3:2|0:0,0:0:0:0:
213,268,320495,37,14,3:2:0:0:
482,327,320682,1,0,3:0:0:0:
213,268,320870,1,0,3:0:0:0:
365,115,321057,53,12,3:2:0:0:
424,384,321245,1,0,3:0:0:0:
365,115,321420,1,0,3:0:0:0:
424,384,321595,102,0,P|383:362|335:360,1,96,12|0,3:2|0:0,0:0:0:0:
253,342,321980,54,0,L|189:348,1,64,2|0,3:2|0:0,0:0:0:0:
111,384,322366,1,0,0:0:0:0:
111,384,322552,2,0,L|113:352,1,32,0|2,0:0|0:0,0:0:0:0:
125,160,322738,85,10,3:2:0:0:
211,265,322925,1,8,3:2:0:0:
32,363,323111,37,12,3:2:0:0:
241,149,323297,1,8,3:2:0:0:
31,5,323484,22,0,P|9:60|26:116,1,120,6|0,3:2|0:0,0:0:0:0:
85,164,323859,2,0,L|124:160,1,40,8|0,3:2|0:0,0:0:0:0:
201,153,324053,2,0,L|240:149,1,40,10|0,0:0|0:0,0:0:0:0:
313,219,324248,2,0,L|320:139,1,80,0|0,3:0|3:0,0:0:0:0:
320,139,324527,1,0,3:0:0:0:
320,139,324620,1,8,3:2:0:0:
304,299,324808,1,0,0:0:0:0:
483,366,324997,6,0,P|505:311|488:255,1,120,6|0,3:2|0:0,0:0:0:0:
429,208,325374,2,0,L|389:211,1,40,8|0,3:2|0:0,0:0:0:0:
313,219,325563,2,0,L|273:222,1,40,10|0,0:0|0:0,0:0:0:0:
198,97,325751,5,0,3:0:0:0:
198,97,325846,2,0,P|193:136|211:171,1,80,8|0,0:0|3:0,0:0:0:0:
273,222,326129,2,0,P|277:261|259:296,1,80,8|0,3:2|0:0,0:0:0:0:
42,330,326506,5,6,3:2:0:0:
98,384,326690,1,0,0:0:0:0:
42,330,326874,2,0,L|49:250,1,80,8|2,3:2|0:0,0:0:0:0:
211,171,327255,1,0,3:0:0:0:
97,182,327435,2,0,L|136:178,1,40,2|0,0:0|0:0,0:0:0:0:
211,171,327616,2,0,L|218:91,1,80,8|0,3:2|0:0,0:0:0:0:
483,366,328000,70,0,L|403:373,1,80,6|0,3:2|0:0,0:0:0:0:
180,243,328375,1,8,3:2:0:0:
390,106,328562,2,0,L|386:145,1,40,6|2,0:0|0:0,0:0:0:0:
512,221,328750,5,0,3:0:0:0:
512,221,328843,2,0,P|472:225|437:207,1,80,8|0,0:0|3:0,0:0:0:0:
386,146,329125,2,0,P|346:141|311:159,1,80,8|0,3:2|0:0,0:0:0:0:
312,158,329505,22,0,L|316:209,1,51.999997619629,0|0,3:0|0:0,0:0:0:0:
121,16,329885,2,0,L|172:19,1,51.999997619629,0|0,3:0|0:0,0:0:0:0:
295,149,330255,22,0,L|299:200,1,51.999997619629,0|0,3:0|0:0,0:0:0:0:
128,31,330626,2,0,L|179:34,1,51.999997619629,0|0,3:0|0:0,0:0:0:0:
278,139,331001,102,0,L|282:190,1,51.999997619629,0|0,3:0|0:0,0:0:0:0:
135,46,331376,2,0,L|186:49,1,51.999997619629,0|0,3:0|0:0,0:0:0:0:
261,129,331751,54,0,L|265:180,1,51.999997619629,0|0,3:0|0:0,0:0:0:0:
142,61,332126,2,0,L|193:64,1,51.999997619629,0|8,3:0|0:0,0:0:0:0:
194,64,332425,1,8,0:0:0:0:
194,64,332510,101,6,3:2:0:0:
270,43,332885,1,0,0:0:0:0:
346,65,333260,1,0,3:0:0:0:
385,134,333635,1,0,0:0:0:0:
463,153,334005,21,2,3:2:0:0:
385,134,334192,1,0,0:0:0:0:
315,170,334380,1,0,3:0:0:0:
292,244,334567,1,0,0:0:0:0:
236,298,334755,1,0,3:0:0:0:
158,309,334942,1,0,0:0:0:0:
81,293,335130,1,0,3:0:0:0:
19,244,335317,1,0,0:0:0:0:
19,244,335411,1,0,0:0:0:0:
19,244,335505,102,0,L|16:214,1,30.0000011444092,14|8,3:2|0:0,0:0:0:0:
9,143,335687,2,0,L|6:113,1,30.0000011444092,10|8,3:2|0:0,0:0:0:0:
29,46,335870,6,0,L|68:49,1,40,10|8,3:2|0:0,0:0:0:0:
139,58,336053,2,0,L|178:61,1,40,10|8,3:2|0:0,0:0:0:0:
219,154,336236,6,0,L|224:208,1,50,14|8,3:2|0:0,0:0:0:0:
230,275,336419,2,0,L|235:329,1,50,10|8,3:2|0:0,0:0:0:0:
301,364,336602,6,0,L|360:369,1,60.0000022888184,10|8,3:2|0:0,0:0:0:0:
431,378,336785,2,0,L|490:383,1,60.0000022888184,10|8,3:2|0:0,0:0:0:0:
512,192,336974,85,14,3:2:0:0:
490,225,337066,1,8,3:2:0:0:
451,246,337159,1,10,3:2:0:0:
404,255,337251,1,8,3:2:0:0:
353,241,337344,1,10,3:2:0:0:
319,196,337436,1,8,3:2:0:0:
272,158,337529,1,10,3:2:0:0:
219,154,337621,1,8,3:2:0:0:
138,104,338494,102,0,L|129:184,1,80,6|0,3:2|0:0,0:0:0:0:
23,300,338873,1,8,3:2:0:0:
178,339,339063,1,0,0:0:0:0:
23,300,339253,2,0,L|102:292,1,80,2|0,3:2|3:0,0:0:0:0:
178,339,339530,1,0,3:0:0:0:
178,339,339623,2,0,L|185:260,1,80,8|0,3:2|0:0,0:0:0:0:
107,109,340010,5,2,3:2:0:0:
114,206,340195,1,0,0:0:0:0:
38,32,340380,2,0,P|69:8|108:4,1,80,8|8,3:2|0:0,0:0:0:0:
174,44,340661,1,8,0:0:0:0:
174,44,340755,2,0,P|205:68|244:72,1,80,2|0,3:2|0:0,0:0:0:0:
381,140,341130,5,8,3:2:0:0:
355,9,341323,1,0,0:0:0:0:
433,202,341517,2,0,P|398:220|359:217,1,80,2|0,3:2|0:0,0:0:0:0:
170,133,341878,5,8,3:2:0:0:
301,159,342067,1,0,0:0:0:0:
73,74,342257,2,0,P|55:109|58:148,1,80,2|0,3:2|0:0,0:0:0:0:
282,236,342622,2,0,L|289:316,1,80,8|8,3:2|0:0,0:0:0:0:
289,316,342909,1,8,0:0:0:0:
289,316,343005,69,2,3:2:0:0:
358,217,343189,1,0,0:0:0:0:
166,93,343373,2,0,L|170:133,1,40,8|0,3:2|0:0,0:0:0:0:
132,266,343557,2,0,L|172:270,1,40,12|0,0:0|0:0,0:0:0:0:
309,124,343741,5,2,3:2:0:0:
309,124,343833,2,0,P|280:99|241:93,1,80,8|0,0:0|3:0,0:0:0:0:
170,133,344109,2,0,P|141:158|102:164,1,80,8|8,3:2|3:2,0:0:0:0:
101,164,344402,1,8,3:2:0:0:
101,164,344500,69,14,3:2:0:0:
409,191,344687,1,0,3:0:0:0:
253,177,344875,1,0,3:0:0:0:
83,5,345062,53,12,3:2:0:0:
115,320,345250,1,2,3:2:0:0:
101,164,345437,1,0,3:0:0:0:
317,60,345625,53,12,3:2:0:0:
2,28,345812,1,0,3:0:0:0:
158,42,346000,1,2,3:2:0:0:
278,341,346187,53,12,3:2:0:0:
246,26,346375,1,0,3:0:0:0:
260,182,346560,1,0,3:0:0:0:
346,289,346745,85,10,3:2:0:0:
197,304,346923,1,0,3:0:0:0:
408,182,347131,5,12,3:2:0:0:
389,369,347307,1,0,3:0:0:0:
389,369,347396,1,0,3:0:0:0:
389,369,347485,21,6,3:2:0:0:
296,379,347671,1,0,3:0:0:0:
197,304,347857,21,8,3:2:0:0:
57,319,348044,1,0,3:0:0:0:
260,182,348230,101,10,3:2:0:0:
338,185,348416,1,0,3:0:0:0:
389,152,348603,1,0,3:0:0:0:
412,109,348789,1,0,3:0:0:0:
413,79,348975,101,10,3:2:0:0:
413,79,349162,2,0,L|373:82,1,40,0|0,3:0|0:0,0:0:0:0:
260,182,349534,21,10,3:2:0:0:
260,182,349721,2,0,L|220:185,1,40,0|0,3:0|0:0,0:0:0:0:
70,18,350093,102,0,L|62:107,1,90.0000034332277,12|0,3:2|0:0,0:0:0:0:
62,108,350490,53,6,3:2:0:0:
136,210,350679,2,0,L|141:150,1,60.0000022888184,0|0,3:0|0:0,0:0:0:0:
62,108,351059,1,0,3:0:0:0:
232,259,351265,6,0,L|204:261,1,27.9999991455078,10|0,3:2|0:0,0:0:0:0:
121,377,351462,2,0,P|112:334|130:294,1,88.1999958952333,0|0,3:0|0:0,0:0:0:0:
130,295,351838,1,0,3:0:0:0:
258,176,352055,101,6,3:2:0:0:
62,108,352277,2,0,L|67:158,1,50.3999984619141,8|0,3:2|0:0,0:0:0:0:
258,176,352699,1,8,3:2:0:0:
58,330,352936,6,0,L|15:326,1,44.0000013427735,10|0,3:2|3:0,0:0:0:0:
258,176,353390,2,0,L|219:181,1,40,0|0,3:0|3:0,0:0:0:0:
142,127,354855,102,0,B|197:87|170:5|170:5|36:17|3:266|187:281|187:281|197:140|-14:104|-14:104|-42:322|144:374|231:355|231:355|365:313|329:392|442:367|442:367|440:235|550:324|522:137|522:137|399:121|385:211|385:211|335:156|269:174|269:174|258:258|346:274,1,2176.00004150391,6|0,3:2|0:0,0:0:0:0:
