osu file format v14

[General]
AudioFilename: audio.mp3
AudioLeadIn: 0
PreviewTime: 101352
Countdown: 0
SampleSet: Soft
StackLeniency: 0.4
Mode: 0
LetterboxInBreaks: 0
WidescreenStoryboard: 0

[Editor]
Bookmarks: 23360,35360,47352,77360,89360,95355,101352,125335,131352,143335,155360,171852,179352,185360,197352,221335,239360,244320,245360,251360,269360,272352,275352,287360,296360,311352,320360,329360,337320,338360,344360
DistanceSpacing: 1
BeatDivisor: 4
GridSize: 8
TimelineZoom: 2.1

[Metadata]
Title:Sayonara Memories
TitleUnicode:Sayonara Memories
Artist:supercell
ArtistUnicode:supercell
Creator:Domi200
Version:Sayonara
Source:Today Is a Beautiful Day
Tags:さよならメモリーズ Ryo Today Is A Beautiful Day Sony Music Records Celektus
BeatmapID:1083360
BeatmapSetID:509417

[Difficulty]
HPDrainRate:5
CircleSize:4
OverallDifficulty:8
ApproachRate:9
SliderMultiplier:1.6
SliderTickRate:1

[Events]
//Background and Video events
0,0,"bg.jpg",0,0
//Break Periods
//Storyboard Layer 0 (Background)
//Storyboard Layer 1 (Fail)
//Storyboard Layer 2 (Pass)
//Storyboard Layer 3 (Foreground)
//Storyboard Sound Samples

[TimingPoints]
23355,375,4,2,0,60,1,0
23355,-133.333333333333,4,2,0,60,0,0
29355,-117.647058823529,4,2,0,60,0,0
33667,-133.333333333333,4,2,0,60,0,0
34417,-117.647058823529,4,2,0,60,0,0
35355,-100,4,2,0,60,0,0
41335,375,4,2,0,60,1,0
47352,375,4,2,0,45,1,0
71352,-133.333333333333,4,2,0,60,0,0
72570,-133.333333333333,4,2,0,20,0,0
72852,-133.333333333333,4,2,0,60,0,0
73133,-133.333333333333,4,2,0,20,0,0
73227,-100,4,2,0,60,0,0
73414,-133.333333333333,4,2,0,60,0,0
73695,-133.333333333333,4,2,0,20,0,0
73977,-133.333333333333,4,2,0,60,0,0
74070,-133.333333333333,4,2,0,20,0,0
74352,-133.333333333333,4,2,0,60,0,0
75570,-133.333333333333,4,2,0,20,0,0
75852,-100,4,2,0,60,0,0
101352,-83.3333333333333,4,2,0,60,0,1
107352,-83.3333333333333,4,2,0,60,0,1
108102,-71.4285714285714,4,2,0,60,0,1
108852,-62.5,4,2,0,60,0,1
111102,-83.3333333333333,4,2,0,60,0,1
119352,-83.3333333333333,4,2,0,60,0,1
122352,-83.3333333333333,4,2,0,60,0,1
125352,-100,4,2,0,60,0,0
130602,-100,4,2,0,60,0,0
131352,-71.4285714285714,4,2,0,60,0,1
143352,-100,4,2,0,60,0,0
170352,-133.333333333333,4,2,0,60,0,0
171664,-100,4,2,0,60,0,0
173352,-133.333333333333,4,2,0,60,0,0
179352,-100,4,2,0,60,0,0
197352,-83.3333333333333,4,2,0,60,0,1
204102,-71.4285714285714,4,2,0,60,0,1
204852,-62.5,4,2,0,60,0,1
207102,-83.3333333333333,4,2,0,60,0,1
215352,-83.3333333333333,4,2,0,60,0,1
218352,-83.3333333333333,4,2,0,60,0,1
221352,-100,4,2,0,60,0,0
224352,-125,4,2,0,60,0,0
227352,-125,4,2,0,60,0,0
234195,-125,4,2,0,15,0,0
234477,-125,4,2,0,60,0,0
234570,-125,4,2,0,15,0,0
234852,-125,4,2,0,60,0,0
234945,-125,4,2,0,20,0,0
235227,-125,4,2,0,60,0,0
235320,-125,4,2,0,25,0,0
235602,-125,4,2,0,60,0,0
235695,-125,4,2,0,30,0,0
235977,-125,4,2,0,60,0,0
236070,-125,4,2,0,20,0,0
236352,-125,4,2,0,60,0,0
236445,-125,4,2,0,15,0,0
236727,-125,4,2,0,60,0,0
236820,-125,4,2,0,15,0,0
237102,-125,4,2,0,60,0,0
237195,-125,4,2,0,15,0,0
237477,-125,4,2,0,60,0,0
237570,-125,4,2,0,15,0,0
237852,-125,4,2,0,60,0,0
237945,-125,4,2,0,15,0,0
238227,-125,4,2,0,60,0,0
238320,-125,4,2,0,15,0,0
238602,-125,4,2,0,60,0,0
239352,-125,4,2,0,60,0,0
243102,-111.111111111111,4,2,0,60,0,0
245352,-100,4,2,0,60,0,0
265227,-90.9090909090909,4,2,0,60,0,0
265602,-100,4,2,0,60,0,0
265977,-100,4,2,0,60,0,0
266352,-76.9230769230769,4,2,0,60,0,0
266914,-100,4,2,0,60,0,0
269352,-100,4,2,0,20,0,0
269727,-100,4,2,0,25,0,0
270102,-100,4,2,0,27,0,0
270477,-100,4,2,0,30,0,0
270852,-100,4,2,0,32,0,0
271227,-100,4,2,0,35,0,0
271602,-100,4,2,0,37,0,0
271977,-100,4,2,0,40,0,0
272352,-100,4,2,0,42,0,0
272727,-100,4,2,0,45,0,0
273102,-100,4,2,0,47,0,0
273477,-100,4,2,0,50,0,0
273852,-100,4,2,0,52,0,0
274227,-100,4,2,0,55,0,0
274602,-100,4,2,0,57,0,0
274977,-100,4,2,0,60,0,0
275352,-100,4,2,0,30,0,0
275539,-100,4,2,0,30,0,0
281352,-125,4,2,0,30,0,0
281914,-125,4,2,0,5,0,0
282102,-125,4,2,0,30,0,0
282664,-125,4,2,0,5,0,0
282852,-125,4,2,0,30,0,0
283414,-125,4,2,0,5,0,0
283602,-125,4,2,0,30,0,0
284164,-125,4,2,0,5,0,0
284352,-125,4,2,0,30,0,0
285570,-125,4,2,0,5,0,0
285852,-125,4,2,0,30,0,0
287352,-100,4,2,0,40,0,0
296352,-100,4,2,0,50,0,0
302352,-83.3333333333333,4,2,0,60,0,1
305352,-83.3333333333333,4,2,0,40,0,1
306102,-71.4285714285714,4,2,0,40,0,1
306852,-62.5,4,2,0,40,0,1
308352,-71.4285714285714,4,2,0,40,0,1
309102,-83.3333333333333,4,2,0,60,0,1
311352,-125,4,2,0,40,0,0
312477,-100,4,2,0,40,0,0
314352,-142.857142857143,4,2,0,40,0,0
315852,-166.666666666667,4,2,0,40,0,0
316320,-166.666666666667,4,2,0,40,0,0
317352,-100,4,2,0,60,0,0
338352,-83.3333333333333,4,2,0,60,0,0
347342,375,4,2,0,60,1,0
350335,394.736842105263,4,2,0,50,1,0
351913,431.654676258993,4,2,0,40,1,0
352790,480,4,2,0,40,1,0
353510,-133.333333333333,4,2,0,40,0,0
354710,-133.333333333333,4,2,0,60,0,0
358070,-100,4,2,0,30,0,0
360470,-100,4,2,0,20,0,0
361430,-100,4,2,0,10,0,0
362150,-100,4,2,0,5,0,0

[Colours]
Combo1 : 255,87,45
Combo2 : 73,253,255
Combo3 : 126,1,57
Combo4 : 34,200,130

[HitObjects]
256,128,23354,5,6,3:2:0:0:
192,191,23541,1,0,0:0:0:0:
256,255,23729,1,0,1:0:0:0:
319,191,23916,1,0,0:0:0:0:
176,304,24291,1,0,3:0:0:0:
256,344,24479,1,0,1:0:0:0:
336,304,24666,1,0,0:0:0:0:
256,144,25041,5,0,3:0:0:0:
175,103,25229,1,0,1:0:0:0:
192,191,25416,1,0,0:0:0:0:
256,344,25791,1,0,3:0:0:0:
256,255,25979,1,0,1:0:0:0:
403,64,26354,5,2,3:3:0:0:
491,49,26541,1,0,0:0:0:0:
505,138,26729,1,0,1:0:0:0:
416,152,26916,1,0,0:0:0:0:
257,232,27292,1,0,3:0:0:0:
328,104,27667,5,8,0:1:0:0:
257,232,28041,1,0,3:0:0:0:
137,97,28416,1,8,0:1:0:0:
328,104,28791,1,8,0:3:0:0:
256,56,28979,1,4,0:3:0:0:
248,144,29166,1,4,0:3:0:0:
319,198,29355,6,0,P|359:224|384:231,1,68.0000012969971,6|0,3:2|0:0,0:0:0:0:
476,190,29729,2,0,P|436:164|411:157,1,68.0000012969971,0|0,3:2|0:0,0:0:0:0:
319,198,30104,1,0,3:2:0:0:
220,165,30291,1,0,0:0:0:0:
252,68,30479,1,0,3:2:0:0:
348,99,30666,1,0,0:0:0:0:
405,190,30854,6,0,L|405:270,1,68.0000012969971,2|0,3:2|0:0,0:0:0:0:
322,318,31229,2,0,L|322:238,1,68.0000012969971,0|0,3:2|0:0,0:0:0:0:
240,200,31604,2,0,L|240:268,1,68.0000012969971,2|0,3:2|0:0,0:0:0:0:
160,328,31979,2,0,L|160:260,1,68.0000012969971,0|2,3:2|0:3,0:0:0:0:
158,157,32354,5,2,3:3:0:0:
240,200,32541,1,0,0:0:0:0:
240,97,32729,2,0,P|256:57|288:33,1,68.0000012969971,0|0,3:2|0:0,0:0:0:0:
384,48,33104,2,0,P|368:88|336:112,1,68.0000012969971,0|0,3:2|0:0,0:0:0:0:
256,144,33479,1,0,3:2:0:0:
214,58,33667,6,0,P|160:160|240:240,1,240.000009155274,2|0,1:3|0:0,0:0:0:0:
464,192,34604,1,2,1:2:0:0:
256,144,34791,1,2,1:2:0:0:
176,304,35355,6,0,P|144:280|128:232,1,80,6|0,0:2|0:0,0:0:0:0:
140,84,35729,1,0,1:2:0:0:
236,210,35916,1,0,0:0:0:0:
332,84,36105,2,0,P|363:59|402:52,1,80,2|0,0:2|0:0,0:0:0:0:
306,178,36480,6,0,P|274:202|235:209,1,80,0|0,1:2|0:0,0:0:0:0:
332,84,36854,1,2,0:2:0:0:
232,208,37041,1,0,0:0:0:0:
140,84,37230,2,0,P|107:61|89:25,1,80,0|0,1:2|0:0,0:0:0:0:
72,224,37604,5,2,0:2:0:0:
232,208,37791,1,0,0:0:0:0:
104,304,37979,1,0,1:2:0:0:
169,158,38166,1,0,0:0:0:0:
204,314,38354,6,0,P|252:315|304:288,1,80,2|0,0:2|0:0,0:0:0:0:
403,201,38729,1,0,1:2:0:0:
281,303,38916,1,0,0:0:0:0:
403,201,39105,2,0,P|319:203|286:231,1,80,2|0,0:2|0:0,0:0:0:0:
380,288,39480,2,0,P|464:286|497:258,1,80,0|0,1:2|0:0,0:0:0:0:
418,70,39854,5,2,0:2:0:0:
259,47,40041,1,0,0:0:0:0:
403,201,40230,2,0,P|380:282|345:307,1,80,2|0,0:2|0:0,0:0:0:0:
72,319,40604,5,2,0:2:0:0:
67,159,40791,1,0,0:0:0:0:
196,253,40979,1,0,1:2:0:0:
408,184,41335,6,0,P|432:216|464:240,1,80,4|0,1:2|3:0,0:0:0:0:
376,104,41711,1,0,3:0:0:0:
216,96,41898,6,0,P|178:82|138:79,1,80,4|0,1:2|3:0,0:0:0:0:
286,145,42273,1,0,3:0:0:0:
160,248,42461,6,0,P|122:261|82:264,1,80,4|0,1:2|3:0,0:0:0:0:
230,199,42836,1,0,3:0:0:0:
352,304,43023,6,0,P|389:317|429:320,1,80,4|0,1:2|3:0,0:0:0:0:
282,255,43398,1,0,3:0:0:0:
128,200,43586,6,0,P|90:186|50:183,1,80,4|0,1:3|3:0,0:0:0:0:
198,249,43961,1,2,1:3:0:0:
235,135,44147,5,0,0:0:0:0:
251,105,44241,1,4,0:3:0:0:
272,80,44334,2,0,P|333:46|428:107,1,160,6|0,0:2|3:0,0:0:0:0:
493,241,44896,5,0,1:0:0:0:
341,128,45084,1,2,3:2:0:0:
390,307,45271,1,0,1:0:0:0:
469,136,45459,1,0,3:0:0:0:
311,230,45646,1,0,1:0:0:0:
427,63,45834,5,2,1:2:0:0:
273,163,46021,1,0,3:0:0:0:
493,241,46209,5,0,3:0:0:0:
360,123,46396,1,0,1:2:0:0:
242,275,46584,5,2,3:2:0:0:
213,302,46678,1,0,0:0:0:0:
175,313,46771,1,0,3:0:0:0:
136,305,46865,1,0,0:0:0:0:
100,286,46959,2,0,P|71:252|59:213,1,80,4|0,1:2|0:0,0:0:0:0:
168,206,47352,5,6,3:2:0:0:
160,150,47538,1,0,0:0:0:0:
119,111,47726,1,0,3:0:0:0:
64,97,47914,1,0,0:0:0:0:
92,49,48101,2,0,P|123:22|190:17,1,80,0|0,3:0|0:0,0:0:0:0:
322,81,48477,2,0,P|291:108|224:113,1,80,0|0,3:0|0:0,0:0:0:0:
92,49,48851,5,0,3:0:0:0:
183,198,49038,1,0,0:0:0:0:
35,167,49226,1,0,3:0:0:0:
182,106,49413,1,0,0:0:0:0:
98,243,49601,2,0,L|40:322,1,80,0|0,3:0|0:0,0:0:0:0:
209,286,49976,2,0,L|267:207,1,80,0|0,3:0|0:0,0:0:0:0:
353,93,50351,5,2,3:2:0:0:
256,221,50538,1,0,0:0:0:0:
415,203,50726,1,0,3:0:0:0:
322,334,50913,1,0,0:0:0:0:
470,273,51101,2,0,P|498:233|501:195,1,80,0|0,3:0|0:0,0:0:0:0:
401,68,51476,2,0,P|373:108|370:146,1,80,0|0,3:0|0:0,0:0:0:0:
384,288,51851,5,2,3:2:0:0:
278,344,52038,1,0,0:0:0:0:
215,241,52226,1,0,3:0:0:0:
320,184,52413,1,0,0:0:0:0:
384,288,52601,2,0,L|432:352,1,80,0|0,3:0|0:0,0:0:0:0:
440,192,52977,2,0,L|392:128,1,80,0|0,3:0|0:0,0:0:0:0:
269,26,53351,5,2,3:2:0:0:
304,200,53538,1,0,0:0:0:0:
189,87,53726,2,0,P|142:62|111:58,1,80,0|0,3:0|0:0,0:0:0:0:
32,160,54101,2,0,P|79:185|110:189,1,80,0|0,3:0|0:0,0:0:0:0:
187,276,54476,2,0,P|140:301|109:305,1,80,0|0,3:0|0:0,0:0:0:0:
104,188,54851,5,2,3:2:0:0:
187,276,55038,1,0,0:0:0:0:
247,153,55226,2,0,L|287:71,1,80,0|0,3:0|0:0,0:0:0:0:
399,151,55602,2,0,L|490:144,1,80,0|0,3:0|0:0,0:0:0:0:
463,280,55977,2,0,L|520:352,1,80,0|0,3:0|0:0,0:0:0:0:
392,312,56351,6,0,B|348:252|348:252|320:208|328:160,1,160,2|0,3:2|3:0,0:0:0:0:
327,11,56913,1,0,0:0:0:0:
245,148,57101,1,0,3:0:0:0:
404,148,57288,1,0,0:0:0:0:
298,268,57476,2,0,L|250:356,1,80,0|0,3:0|0:0,0:0:0:0:
368,192,57851,5,0,1:2:0:0:
315,41,58038,1,0,0:0:0:0:
231,177,58226,1,0,0:0:0:0:
131,51,58414,2,0,L|43:-5,1,80,0|0,0:0|0:0,0:0:0:0:
197,94,58788,5,0,1:2:0:0:
96,256,58976,1,0,1:2:0:0:
96,256,59351,6,0,L|8:296,1,80,6|0,3:2|0:0,0:0:0:0:
112,152,59726,2,0,L|200:112,1,80,0|0,1:2|0:0,0:0:0:0:
40,184,60101,1,0,3:0:0:0:
199,187,60288,1,0,0:0:0:0:
120,48,60476,1,0,1:2:0:0:
120,208,60663,1,0,0:0:0:0:
248,112,60851,6,0,L|320:64,1,80,0|0,3:2|0:0,0:0:0:0:
416,192,61226,2,0,L|472:256,1,80,0|0,1:2|0:0,0:0:0:0:
312,280,61601,2,0,L|240:328,1,80,0|0,3:0|0:0,0:0:0:0:
160,192,61977,2,0,L|104:128,1,80,0|0,1:2|0:0,0:0:0:0:
264,160,62351,5,2,3:2:0:0:
400,248,62538,1,0,0:0:0:0:
240,248,62726,1,0,1:2:0:0:
360,144,62913,1,0,0:0:0:0:
198,186,63101,1,0,3:0:0:0:
310,298,63288,1,0,0:0:0:0:
150,266,63476,1,0,1:2:0:0:
302,218,63663,1,0,0:0:0:0:
200,104,63851,6,0,P|159:49|156:9,1,80,2|0,3:2|0:0,0:0:0:0:
208,192,64226,2,0,P|140:181|110:155,1,80,0|0,1:2|0:0,0:0:0:0:
272,256,64601,2,0,P|217:296|177:299,1,80,0|0,3:0|0:0,0:0:0:0:
360,256,64976,2,0,P|349:323|323:353,1,80,0|2,1:2|0:3,0:0:0:0:
376,160,65351,5,2,3:2:0:0:
304,16,65538,1,0,0:0:0:0:
232,160,65726,2,0,P|224:200|240:248,1,80,0|0,1:2|0:0,0:0:0:0:
376,160,66101,2,0,L|448:104,1,80,0|0,3:0|0:0,0:0:0:0:
412,269,66476,2,0,L|479:319,1,80,0|0,1:2|0:0,0:0:0:0:
341,229,66851,5,2,3:2:0:0:
176,240,67039,1,0,0:0:0:0:
158,118,67227,2,0,L|151:38,1,80,0|0,1:2|0:0,0:0:0:0:
83,189,67602,2,0,L|3:195,1,80,0|0,3:0|0:0,0:0:0:0:
176,240,67977,2,0,L|255:233,1,80,0|0,1:2|0:0,0:0:0:0:
78,294,68351,5,2,3:2:0:0:
224,356,68538,1,0,0:0:0:0:
300,214,68726,1,0,1:2:0:0:
155,146,68913,1,0,0:0:0:0:
304,107,69101,2,0,L|392:99,1,80,0|0,3:0|0:0,0:0:0:0:
300,214,69477,2,0,L|212:221,1,80,0|0,1:2|0:0,0:0:0:0:
72,272,69851,5,2,3:2:0:0:
226,311,70038,1,0,0:0:0:0:
104,200,70226,1,0,1:2:0:0:
160,352,70413,1,0,0:0:0:0:
208,200,70601,1,0,3:0:0:0:
216,192,70695,1,0,1:2:0:0:
224,184,70789,1,0,0:0:0:0:
80,344,70976,1,0,1:2:0:0:
288,280,71163,1,0,1:2:0:0:
299,276,71257,1,0,1:2:0:0:
309,269,71352,6,0,B|361:223|385:161|385:161|325:214|239:201|183:100|246:27,1,420.000016021729,6|0,3:2|0:0,0:0:0:0:
319,92,72851,6,0,P|389:68|445:95,1,120.000004577637,2|0,3:2|1:2,0:0:0:0:
384,160,73414,2,0,P|351:226|293:247,1,120.000004577637
291,156,73977,2,0,P|259:174|240:208,1,60.0000022888184,0|0,1:2|0:0,0:0:0:0:
202,269,74351,6,0,B|135:210|165:124|211:87|270:67|307:76|307:76|245:64|208:32,1,390.00001487732,2|0,3:2|0:0,0:0:0:0:
294,202,75851,5,2,3:2:0:0:
457,315,76038,1,4,1:3:0:0:
256,304,76226,5,4,1:3:0:0:
396,162,76413,1,4,1:3:0:0:
356,358,76601,5,4,1:3:0:0:
294,202,76788,1,4,1:3:0:0:
457,315,76976,5,4,0:2:0:0:
256,304,77163,1,0,0:0:0:0:
428,212,77352,6,0,P|459:149|401:73,1,160,6|4,3:2|0:3,0:0:0:0:
257,47,77913,1,8,0:3:0:0:
294,202,78101,2,0,P|268:247|232:270,1,80,8|8,0:3|0:3,0:0:0:0:
86,270,78476,2,0,P|111:224|148:202,1,80,4|0,0:3|0:0,0:0:0:0:
294,202,78851,5,4,0:3:0:0:
132,208,79038,1,8,0:3:0:0:
242,91,79226,2,0,L|321:22,1,80,4|0,0:3|0:0,0:0:0:0:
178,140,79601,1,0,1:2:0:0:
337,138,79788,1,0,0:0:0:0:
221,249,79976,2,0,L|142:318,1,80,4|8,0:3|0:3,0:0:0:0:
321,291,80352,6,0,P|401:267|425:232,1,80,4|0,0:3|0:0,0:0:0:0:
489,141,80726,1,4,0:3:0:0:
334,182,80913,1,8,0:3:0:0:
424,49,81101,2,0,P|460:33|500:28,1,80,4|0,0:3|0:0,0:0:0:0:
415,164,81476,1,4,0:3:0:0:
325,32,81663,1,8,0:3:0:0:
240,168,81851,6,0,L|197:235,1,80,4|8,0:3|0:3,0:0:0:0:
204,75,82226,2,0,L|246:7,1,80,4|0,0:3|0:0,0:0:0:0:
108,89,82601,2,0,L|65:156,1,80,0|0,1:2|0:0,0:0:0:0:
204,75,82976,1,4,0:3:0:0:
134,218,83163,1,8,0:3:0:0:
283,160,83351,6,0,L|370:114,1,80,6|0,0:2|0:0,0:0:0:0:
196,156,83726,1,4,0:3:0:0:
344,205,83913,1,8,0:3:0:0:
185,229,84101,2,0,L|98:275,1,80,4|0,0:3|0:0,0:0:0:0:
273,248,84476,1,4,0:3:0:0:
128,152,84663,1,8,0:3:0:0:
296,160,84851,6,0,P|352:128|368:104,1,80,4|8,0:3|0:3,0:0:0:0:
273,248,85226,2,0,P|217:280|201:304,1,80,4|0,0:3|0:0,0:0:0:0:
128,152,85601,2,0,P|72:120|56:96,1,80,0|0,1:2|0:0,0:0:0:0:
224,104,85976,2,0,P|280:136|296:160,1,80,4|8,0:3|0:3,0:0:0:0:
148,63,86352,5,4,0:3:0:0:
368,304,86726,1,4,0:3:0:0:
239,209,86913,1,8,0:3:0:0:
303,355,87101,1,4,0:3:0:0:
342,199,87289,1,0,0:0:0:0:
220,302,87476,1,4,0:2:0:0:
296,80,87851,5,4,1:3:0:0:
160,192,88038,1,4,1:3:0:0:
336,184,88226,5,4,1:3:0:0:
184,80,88413,1,4,1:3:0:0:
256,248,88601,5,4,1:3:0:0:
367,102,88788,1,4,1:3:0:0:
184,160,88976,5,4,1:2:0:0:
345,262,89163,1,0,0:0:0:0:
146,259,89352,5,6,3:2:0:0:
286,107,89727,1,0,3:0:0:0:
260,313,90102,1,0,3:0:0:0:
136,114,90477,1,0,3:0:0:0:
348,218,90852,5,2,3:2:0:0:
136,114,91227,1,0,3:0:0:0:
260,313,91602,1,0,3:0:0:0:
294,85,91977,1,0,3:0:0:0:
118,275,92352,1,2,3:2:0:0:
392,229,92727,1,0,3:0:0:0:
115,101,93102,1,0,3:0:0:0:
263,369,93477,1,0,3:0:0:0:
300,67,93852,5,2,3:2:0:0:
94,289,94227,1,0,3:0:0:0:
392,229,94602,1,0,3:0:0:0:
94,289,94976,5,0,3:0:0:0:
312,200,95163,1,0,1:2:0:0:
340,179,95257,1,0,1:2:0:0:
360,160,95351,6,0,P|376:112|376:72,1,80,6|0,3:2|0:0,0:0:0:0:
224,80,95726,1,0,3:0:0:0:
360,160,95913,1,0,0:0:0:0:
200,192,96101,2,0,L|104:224,1,80,0|0,3:0|0:0,0:0:0:0:
224,80,96476,1,0,3:0:0:0:
248,248,96663,1,0,0:0:0:0:
128,136,96851,1,2,3:2:0:0:
288,144,97038,1,0,0:0:0:0:
144,224,97226,2,0,L|72:272,1,80,0|0,3:0|0:0,0:0:0:0:
232,320,97601,5,0,3:0:0:0:
368,232,97788,1,0,0:0:0:0:
216,176,97976,1,0,3:0:0:0:
328,320,98163,1,0,1:2:0:0:
360,336,98257,1,0,1:2:0:0:
400,336,98352,1,6,0:0:0:0:
488,200,98539,1,0,0:0:0:0:
188,157,98913,5,0,3:0:0:0:
374,223,99102,6,0,P|317:213|234:267,1,160,0|0,1:2|0:0,0:0:0:0:
188,157,99663,1,0,1:2:0:0:
95,223,99852,6,0,P|156:271|234:266,1,160,4|0,3:2|0:0,0:0:0:0:
354,307,100413,1,0,0:0:0:0:
225,211,100601,5,0,1:2:0:0:
194,186,100695,1,0,1:2:0:0:
176,150,100788,1,0,1:2:0:0:
174,111,100882,1,0,1:2:0:0:
189,74,100976,1,0,1:2:0:0:
218,47,101070,1,0,1:2:0:0:
255,34,101163,1,0,1:2:0:0:
295,38,101257,1,0,1:2:0:0:
329,57,101352,5,6,3:2:0:0:
447,206,101538,1,2,3:3:0:0:
267,135,101726,5,0,1:0:0:0:
451,81,101913,1,2,3:3:0:0:
332,234,102102,5,0,3:0:0:0:
148,180,102289,1,2,3:3:0:0:
324,154,102476,5,0,1:0:0:0:
196,297,102663,1,2,3:3:0:0:
82,141,102851,5,2,3:2:0:0:
103,98,102945,1,0,0:0:0:0:
138,65,103039,2,0,L|232:28,1,95.9999970703126,2|0,3:3|1:0,0:0:0:0:
198,220,103413,1,2,3:3:0:0:
363,318,103601,1,0,3:0:0:0:
409,330,103695,1,0,1:0:0:0:
455,319,103789,1,2,3:3:0:0:
200,329,103976,1,0,1:0:0:0:
246,143,104163,5,2,3:3:0:0:
409,244,104351,1,2,3:2:0:0:
177,183,104538,5,2,3:3:0:0:
376,112,104726,1,0,1:0:0:0:
258,296,104913,5,2,3:3:0:0:
208,88,105101,1,0,3:0:0:0:
92,272,105288,5,2,3:3:0:0:
322,244,105476,1,0,1:0:0:0:
109,97,105663,5,2,3:3:0:0:
176,296,105851,1,2,3:2:0:0:
321,128,106039,5,2,3:3:0:0:
120,192,106226,1,0,1:0:0:0:
322,244,106414,2,0,L|431:275,1,95.9999970703126,4|0,3:2|3:0,0:0:0:0:
238,106,106789,2,0,L|129:75,1,95.9999970703126,2|0,3:3|1:0,0:0:0:0:
304,170,107163,1,2,3:3:0:0:
253,232,107351,6,0,P|382:153|321:94,1,287.999991210938,2|2,3:2|3:3,0:0:0:0:
443,106,108102,6,0,P|382:305|259:316,1,335.999989746094,2|2,3:2|3:3,0:0:0:0:
374,146,108852,6,0,P|279:78|304:246,1,384,2|2,3:2|3:3,0:0:0:0:
239,315,109601,2,0,P|416:282|442:104,1,384,2|2,3:2|3:3,0:0:0:0:
299,85,110351,2,0,P|364:224|215:186,1,384,2|2,3:2|3:3,0:0:0:0:
304,355,111101,5,2,3:2:0:0:
299,163,111288,1,2,3:3:0:0:
153,289,111476,2,0,L|58:315,1,95.9999970703126,0|2,1:0|3:3,0:0:0:0:
121,131,111851,2,0,L|59:39,1,95.9999970703126,2|4,3:2|0:3,0:0:0:0:
188,201,112226,5,2,3:2:0:0:
300,45,112413,1,0,1:0:0:0:
306,237,112601,1,2,3:2:0:0:
198,78,112788,1,0,1:0:0:0:
384,120,112977,1,6,3:2:0:0:
336,136,113070,1,0,0:0:0:0:
288,152,113164,1,0,0:0:0:0:
240,168,113258,1,0,0:0:0:0:
192,184,113352,5,6,3:2:0:0:
352,288,113539,1,2,3:3:0:0:
228,70,113727,1,0,1:0:0:0:
102,193,113915,2,0,P|120:237|160:264,1,95.9999970703126,2|0,3:3|3:0,0:0:0:0:
392,152,114289,1,2,3:3:0:0:
192,184,114477,1,0,1:0:0:0:
352,64,114664,1,2,3:3:0:0:
302,269,114852,6,0,P|262:295|214:295,1,95.9999970703126,2|2,3:2|3:3,0:0:0:0:
400,275,115227,1,0,1:0:0:0:
240,216,115414,1,2,3:3:0:0:
376,352,115602,1,0,3:0:0:0:
424,352,115695,1,0,1:0:0:0:
464,328,115789,1,2,3:3:0:0:
408,144,115977,1,0,1:0:0:0:
280,288,116164,1,2,3:3:0:0:
239,315,116258,1,0,0:0:0:0:
191,320,116352,5,2,3:2:0:0:
56,176,116539,1,2,3:3:0:0:
248,136,116727,2,0,P|312:136|352:168,1,95.9999970703126,0|2,1:0|3:3,0:0:0:0:
448,304,117102,1,0,3:0:0:0:
280,216,117289,1,2,3:3:0:0:
472,200,117477,1,0,1:0:0:0:
320,312,117664,1,2,3:3:0:0:
368,128,117852,6,0,L|424:40,1,95.9999970703126,2|2,3:2|3:3,0:0:0:0:
247,133,118227,1,0,1:0:0:0:
320,312,118414,1,4,3:2:0:0:
297,354,118508,1,0,0:0:0:0:
250,367,118602,1,0,3:0:0:0:
203,358,118695,1,0,1:0:0:0:
169,323,118789,1,2,3:3:0:0:
240,144,118977,1,0,1:0:0:0:
169,323,119164,1,2,3:3:0:0:
240,144,119352,6,0,P|272:80|160:128,1,287.999991210938,2|2,3:2|3:3,0:0:0:0:
265,258,120102,2,0,P|376:144|368:24,1,287.999991210938,2|2,3:2|3:3,0:0:0:0:
248,168,120852,2,0,P|184:152|288:80,1,287.999991210938,2|2,3:2|3:3,0:0:0:0:
240,264,121602,2,0,P|120:216|88:56,1,287.999991210938,2|2,3:2|3:3,0:0:0:0:
38,259,122352,5,4,1:1:0:0:
190,144,122539,1,0,3:3:0:0:
184,336,122727,1,0,3:3:0:0:
190,144,122914,5,2,1:2:0:0:
296,288,123102,1,0,3:3:0:0:
312,96,123289,1,0,3:3:0:0:
192,248,123477,5,6,1:2:0:0:
376,208,123664,1,0,3:3:0:0:
208,112,123852,5,0,3:3:0:0:
372,311,124039,1,8,0:3:0:0:
299,61,124227,5,0,3:3:0:0:
135,260,124414,1,0,1:2:0:0:
371,152,124602,5,0,1:2:0:0:
85,120,124789,1,0,1:2:0:0:
328,296,124977,5,0,1:2:0:0:
487,57,125164,1,0,0:0:0:0:
280,184,125352,6,0,P|232:224|216:256,1,80,2|0,3:3|0:0,0:0:0:0:
208,280,125633,1,0,0:0:0:0:
208,320,125727,1,0,1:0:0:0:
368,296,125914,2,0,P|416:256|432:224,1,80,0|0,0:0|0:0,0:0:0:0:
440,80,126289,1,0,3:0:0:0:
328,192,126477,6,0,P|297:217|260:232,1,80,0|0,1:0|0:0,0:0:0:0:
224,232,126758,1,0,0:0:0:0:
184,224,126852,1,0,0:0:0:0:
224,72,127039,1,0,3:0:0:0:
112,184,127227,2,0,P|112:264|184:304,1,160,0|0,1:0|0:0,0:0:0:0:
328,200,127789,1,2,3:2:0:0:
208,200,127977,1,0,1:0:0:0:
264,96,128164,1,0,0:0:0:0:
264,240,128352,6,0,B|144:240|144:240|216:112,1,240,6|0,0:2|0:0,0:0:0:0:
325,135,129102,6,0,B|384:240|384:240|264:240,1,240,0|0,0:0|0:0,0:0:0:0:
202,135,129852,6,0,B|262:31|262:31|323:134,1,240,0|0,0:0|0:0,0:0:0:0:
376,240,130602,5,0,1:2:0:0:
398,273,130695,1,0,1:0:0:0:
420,306,130789,1,0,1:0:0:0:
393,326,130883,1,0,1:0:0:0:
354,335,130977,1,0,1:0:0:0:
315,330,131070,1,0,1:0:0:0:
280,310,131164,1,0,1:0:0:0:
252,282,131258,1,0,1:0:0:0:
232,240,131352,6,0,P|224:176|232:120,1,111.999996582031,6|0,0:2|0:0,0:0:0:0:
436,42,131727,2,0,P|444:106|436:162,1,111.999996582031,0|0,1:2|0:0,0:0:0:0:
260,290,132102,6,0,B|227:253|224:206|224:206|288:168|288:104|248:24|176:32,1,335.999989746094,2|0,0:2|1:2,0:0:0:0:
378,234,132852,1,2,0:2:0:0:
175,125,133039,1,0,0:0:0:0:
320,300,133227,2,0,P|378:324|456:292,1,111.999996582031,0|0,1:2|0:0,0:0:0:0:
255,167,133602,5,2,0:2:0:0:
441,291,133789,1,0,0:0:0:0:
218,257,133977,1,0,1:2:0:0:
434,202,134164,1,0,0:0:0:0:
252,334,134352,6,0,P|197:338|152:307,1,111.999996582031,2|0,0:2|0:0,0:0:0:0:
144,82,134727,1,0,1:2:0:0:
38,278,134914,1,0,0:0:0:0:
238,177,135102,2,0,L|341:106,1,111.999996582031,2|0,0:2|0:0,0:0:0:0:
185,284,135477,2,0,L|82:355,1,111.999996582031,0|0,1:2|0:0,0:0:0:0:
290,240,135852,5,2,0:2:0:0:
105,113,136039,1,0,0:0:0:0:
330,113,136227,2,0,P|408:86|445:40,1,111.999996582031,0|0,1:2|1:2,0:0:0:0:
290,240,136602,5,2,0:2:0:0:
105,113,136789,1,0,0:0:0:0:
202,315,136977,1,0,1:2:0:0:
252,97,137164,1,0,0:0:0:0:
105,245,137352,6,0,L|7:302,1,111.999996582031,4|0,1:2|3:0,0:0:0:0:
216,168,137727,1,0,3:0:0:0:
398,290,137914,6,0,L|496:347,1,111.999996582031,4|0,1:2|3:0,0:0:0:0:
302,231,138289,1,0,3:0:0:0:
115,105,138477,6,0,L|17:48,1,111.999996582031,4|0,1:2|3:0,0:0:0:0:
216,168,138852,1,0,3:0:0:0:
415,74,139039,6,0,L|513:17,1,111.999996582031,4|0,1:2|3:0,0:0:0:0:
319,133,139414,1,0,3:0:0:0:
157,289,139602,6,0,L|59:346,1,111.999996582031,4|0,1:3|3:0,0:0:0:0:
253,230,139977,1,2,1:3:0:0:
68,104,140164,5,0,0:0:0:0:
84,157,140258,1,4,0:3:0:0:
125,194,140352,2,0,P|172:216|242:204,1,111.999996582031,6|0,0:2|1:0,0:0:0:0:
430,108,140727,5,0,3:0:0:0:
209,216,140914,1,0,1:0:0:0:
423,231,141102,1,2,3:2:0:0:
217,93,141289,1,0,1:0:0:0:
311,286,141477,1,0,3:0:0:0:
329,38,141664,1,0,1:0:0:0:
196,219,141852,5,2,1:2:0:0:
428,139,142039,1,0,3:0:0:0:
186,86,142227,1,0,3:0:0:0:
370,248,142414,1,0,1:2:0:0:
131,313,142602,5,2,3:2:0:0:
100,303,142695,1,0,0:0:0:0:
75,284,142789,1,0,3:0:0:0:
57,257,142883,1,0,0:0:0:0:
50,226,142977,1,4,1:2:0:0:
53,195,143070,1,0,0:0:0:0:
67,166,143164,1,0,0:0:0:0:
89,144,143258,1,0,0:0:0:0:
111,133,143352,6,0,P|183:132|211:151,1,80,6|0,3:2|0:0,0:0:0:0:
302,246,143727,1,0,3:0:0:0:
251,94,143914,1,0,0:0:0:0:
149,223,144102,2,0,P|164:293|189:316,1,80,0|0,3:0|0:0,0:0:0:0:
321,320,144477,2,0,P|305:249|280:226,1,80,0|0,3:0|0:0,0:0:0:0:
149,223,144852,6,0,P|94:174|88:141,1,80,0|0,3:0|0:0,0:0:0:0:
251,94,145227,2,0,P|315:61|330:31,1,80,0|0,3:0|0:0,0:0:0:0:
391,199,145602,2,0,P|455:231|470:261,1,80,0|0,3:0|0:0,0:0:0:0:
304,289,145977,2,0,P|239:321|224:351,1,80,0|0,3:0|0:0,0:0:0:0:
358,221,146352,5,2,3:2:0:0:
308,372,146539,1,0,0:0:0:0:
428,266,146727,5,0,3:0:0:0:
271,235,146914,1,0,0:0:0:0:
420,175,147102,5,0,3:0:0:0:
385,330,147289,1,0,0:0:0:0:
332,178,147477,5,0,3:0:0:0:
481,233,147664,1,0,0:0:0:0:
376,111,147852,6,0,P|312:100|279:119,1,80,2|0,3:2|0:0,0:0:0:0:
195,225,148227,2,0,P|188:263|201:301,1,80,0|0,3:0|0:0,0:0:0:0:
108,170,148602,2,0,P|114:131|101:93,1,80,0|0,3:0|0:0,0:0:0:0:
57,248,148977,2,0,P|50:286|63:324,1,80,0|2,3:0|0:3,0:0:0:0:
195,225,149352,5,2,3:2:0:0:
90,101,149539,1,0,0:0:0:0:
250,96,149727,1,0,3:0:0:0:
114,180,149914,5,0,0:0:0:0:
172,40,150102,1,0,3:0:0:0:
254,176,150289,1,0,0:0:0:0:
116,258,150477,5,0,3:0:0:0:
197,120,150664,1,0,0:0:0:0:
238,275,150852,6,0,P|274:326|298:336,1,80,2|0,3:2|0:0,0:0:0:0:
219,187,151227,2,0,P|280:197|304:187,1,80,0|0,3:0|0:0,0:0:0:0:
143,141,151602,2,0,P|193:105|203:81,1,80,0|0,3:0|0:0,0:0:0:0:
58,164,151977,2,0,P|68:102|58:78,1,80,0|2,3:0|0:3,0:0:0:0:
92,245,152352,5,0,0:0:0:0:
125,210,152539,1,0,0:0:0:0:
157,176,152727,1,0,0:0:0:0:
192,144,152914,1,0,0:0:0:0:
224,109,153102,6,0,L|283:40,1,80,0|0,0:0|0:0,0:0:0:0:
337,100,153477,2,0,L|425:77,1,80,0|0,0:0|0:0,0:0:0:0:
471,235,153852,2,0,B|483:290|441:351|311:351|304:248|304:248|264:291,1,320,0|2,0:0|0:3,0:0:0:0:
472,136,154789,2,0,P|392:176|392:256,1,160,6|0,1:2|0:0,0:0:0:0:
376,80,155352,5,6,3:2:0:0:
312,224,155539,1,0,0:0:0:0:
180,76,155727,1,0,1:2:0:0:
104,264,155914,1,0,0:0:0:0:
312,224,156102,6,0,L|400:256,1,80,0|0,3:0|0:0,0:0:0:0:
256,104,156477,2,0,L|168:72,1,80,0|0,1:2|0:0,0:0:0:0:
104,264,156852,2,0,L|16:296,1,80,0|0,3:2|0:0,0:0:0:0:
232,288,157227,2,0,L|320:256,1,80,0|0,1:2|0:0,0:0:0:0:
176,112,157602,2,0,L|88:80,1,80,0|0,3:0|0:0,0:0:0:0:
304,72,157977,2,0,L|392:104,1,80,0|0,1:2|0:0,0:0:0:0:
184,144,158352,5,2,3:2:0:0:
320,224,158539,1,0,0:0:0:0:
160,240,158727,5,0,1:2:0:0:
270,136,158914,1,0,0:0:0:0:
240,288,159102,5,0,3:0:0:0:
368,192,159289,1,0,0:0:0:0:
216,200,159477,5,0,1:2:0:0:
344,296,159664,1,0,0:0:0:0:
270,136,159852,2,0,L|214:72,1,80,2|0,3:2|0:0,0:0:0:0:
336,208,160227,5,0,1:2:0:0:
218,76,160414,1,0,0:0:0:0:
413,112,160602,2,0,L|452:98,2,40,0|0|0,3:0|1:2|0:0,0:0:0:0:
288,40,160977,2,0,P|232:64|217:78,1,80,0|2,1:2|0:3,0:0:0:0:
160,224,161352,5,2,3:2:0:0:
304,152,161539,1,0,0:0:0:0:
144,136,161727,5,0,1:2:0:0:
264,240,161914,1,0,0:0:0:0:
216,88,162102,5,0,3:0:0:0:
152,232,162289,1,0,0:0:0:0:
296,168,162477,5,0,1:2:0:0:
144,136,162664,1,0,0:0:0:0:
264,248,162852,6,0,L|328:304,1,80,2|0,3:2|0:0,0:0:0:0:
416,168,163227,2,0,P|464:160|496:128,1,80,0|0,1:2|0:0,0:0:0:0:
336,104,163602,2,0,P|307:64|307:19,1,80,0|0,3:0|0:0,0:0:0:0:
280,192,163977,2,0,P|308:231|308:276,1,80,0|0,1:2|0:0,0:0:0:0:
216,128,164352,5,2,3:2:0:0:
64,184,164539,1,0,0:0:0:0:
208,256,164727,1,0,1:2:0:0:
128,120,164914,1,0,0:0:0:0:
108,279,165102,1,0,3:0:0:0:
210,156,165289,1,0,0:0:0:0:
108,279,165477,1,0,1:2:0:0:
252,347,165664,1,0,0:0:0:0:
272,184,165852,6,0,P|306:129|336:104,1,80,2|0,3:2|0:0,0:0:0:0:
456,32,166227,1,0,1:2:0:0:
400,184,166414,2,0,P|381:219|354:249,1,80,0|0,0:0|3:0,0:0:0:0:
328,272,166695,1,0,1:2:0:0:
288,288,166789,1,0,0:0:0:0:
128,270,166977,1,0,1:2:0:0:
107,92,167164,1,0,1:2:0:0:
79,115,167258,1,0,1:2:0:0:
58,143,167352,2,0,P|38:196|51:243,1,80,6|0,3:2|0:0,0:0:0:0:
122,350,167727,5,0,1:2:0:0:
63,295,167914,1,0,0:0:0:0:
42,219,168102,1,0,3:0:0:0:
52,139,168289,1,0,0:0:0:0:
87,66,168477,1,0,1:2:0:0:
151,18,168664,1,0,0:0:0:0:
170,95,168852,6,0,P|130:163|140:254,1,160,2|0,3:2|1:2,0:0:0:0:
187,350,169414,2,0,P|227:282|217:191,1,160,0|0,0:0|0:0,0:0:0:0:
116,262,169977,2,0,P|100:213|105:182,1,80,0|0,1:2|0:0,0:0:0:0:
172,80,170352,6,0,B|159:110|164:136|164:136|240:74|372:125|327:323|282:369,1,420.000016021729,2|0,3:2|0:0,0:0:0:0:
160,264,171852,5,2,3:2:0:0:
288,168,172039,1,4,1:3:0:0:
242,321,172227,5,4,1:3:0:0:
193,167,172414,1,4,1:3:0:0:
335,271,172602,5,4,1:3:0:0:
143,267,172789,1,4,1:3:0:0:
359,161,172977,6,0,P|391:120|403:66,1,80,4|0,0:2|0:0,0:0:0:0:
280,81,173352,6,0,P|248:122|241:204,1,120.000004577637,6|4,3:2|0:3,0:0:0:0:
288,320,173914,1,8,0:3:0:0:
408,240,174102,2,0,P|440:199|447:117,1,120.000004577637,8|4,0:3|0:3,0:0:0:0:
352,24,174664,1,0,0:0:0:0:
232,104,174852,6,0,P|192:120|160:120,1,60.0000022888184,4|8,0:3|0:3,0:0:0:0:
304,184,175227,2,0,P|344:200|376:200,1,60.0000022888184,4|0,0:3|0:0,0:0:0:0:
224,248,175602,2,0,P|184:264|152:264,1,60.0000022888184,0|0,1:2|0:0,0:0:0:0:
296,328,175977,2,0,P|336:344|368:344,1,60.0000022888184,4|8,0:3|0:3,0:0:0:0:
224,248,176352,2,0,P|152:208|104:208,1,120.000004577637,4|4,0:3|0:3,0:0:0:0:
112,328,176914,6,0,L|48:336,2,60.0000022888184,8|4|0,0:3|0:3|0:0,0:0:0:0:
248,280,177477,1,4,0:3:0:0:
136,192,177664,1,8,0:3:0:0:
272,152,177852,2,0,L|328:112,1,60.0000022888184,4|8,0:3|0:3,0:0:0:0:
464,120,178227,2,0,L|415:154,1,60.0000022888184,4|0,0:3|0:0,0:0:0:0:
400,296,178602,2,0,L|360:248,1,60.0000022888184,0|0,1:2|0:0,0:0:0:0:
264,144,178977,1,4,0:3:0:0:
264,288,179164,1,8,0:3:0:0:
176,160,179352,6,0,P|184:104|208:72,1,80,6|0,0:2|0:0,0:0:0:0:
160,240,179727,1,4,0:3:0:0:
296,152,179914,1,8,0:3:0:0:
240,304,180102,2,0,P|208:336|168:344,2,80,4|0|4,0:3|0:0|0:3,0:0:0:0:
248,144,180664,1,8,0:3:0:0:
360,256,180852,2,0,L|416:312,1,80,4|8,0:3|0:3,0:0:0:0:
376,160,181227,2,0,P|417:184|459:191,1,80,4|0,0:3|0:0,0:0:0:0:
288,160,181602,2,0,P|246:184|204:191,1,80,0|0,1:2|0:0,0:0:0:0:
328,80,181977,2,0,P|369:55|411:48,1,80,4|8,0:3|0:3,0:0:0:0:
240,80,182352,6,0,P|198:55|80:64,1,160,4|4,0:2|0:3,0:0:0:0:
163,200,182914,2,0,P|192:221|249:221,1,80,8|4,0:3|0:3,0:0:0:0:
456,240,183289,1,0,0:0:0:0:
303,290,183477,1,4,0:2:0:0:
264,128,183664,1,0,0:0:0:0:
112,200,183852,5,4,1:3:0:0:
264,128,184039,1,4,1:3:0:0:
176,280,184227,1,4,1:3:0:0:
152,104,184414,5,4,1:3:0:0:
288,216,184602,1,4,1:3:0:0:
112,200,184789,1,4,1:3:0:0:
264,128,184977,5,4,1:2:0:0:
264,304,185164,1,0,0:0:0:0:
352,133,185352,5,6,3:2:0:0:
40,328,185727,1,0,3:0:0:0:
352,231,186102,1,0,3:0:0:0:
118,142,186477,1,0,3:0:0:0:
286,301,186852,1,2,3:2:0:0:
184,72,187227,1,0,3:0:0:0:
190,304,187602,1,0,3:0:0:0:
280,69,187977,1,0,3:0:0:0:
387,245,188352,5,2,3:2:0:0:
82,128,188727,1,0,3:0:0:0:
301,336,189102,1,0,3:0:0:0:
168,37,189477,1,0,3:0:0:0:
176,339,189852,1,2,3:2:0:0:
293,34,190227,1,0,3:0:0:0:
86,253,190602,1,0,3:0:0:0:
384,120,190977,1,0,3:0:0:0:
200,192,191164,5,0,1:2:0:0:
240,208,191258,1,0,1:2:0:0:
280,216,191352,2,0,P|312:216|368:192,1,80,6|0,3:2|0:0,0:0:0:0:
384,120,191727,2,0,P|352:120|296:144,1,80,0|0,3:0|0:0,0:0:0:0:
184,240,192102,2,0,P|159:260|101:278,1,80,0|0,3:0|0:0,0:0:0:0:
80,120,192477,1,0,3:0:0:0:
200,224,192664,1,0,0:0:0:0:
256,72,192852,6,0,P|293:44|336:32,1,80,2|0,3:2|0:0,0:0:0:0:
408,168,193227,2,0,P|453:159|497:165,1,80,0|0,3:0|0:0,0:0:0:0:
376,280,193602,1,0,3:0:0:0:
368,120,193789,1,0,0:0:0:0:
248,224,193977,1,0,3:0:0:0:
179,79,194164,1,0,1:2:0:0:
144,58,194258,1,0,1:2:0:0:
103,59,194352,6,0,P|47:107|63:203,1,160,6|0,3:2|0:0,0:0:0:0:
128,328,194914,1,0,3:0:0:0:
208,192,195102,2,0,P|248:144|360:112,1,160,0|0,1:2|0:0,0:0:0:0:
336,272,195664,1,0,1:2:0:0:
424,136,195852,2,0,P|416:72|312:32,1,160,4|0,3:2|0:0,0:0:0:0:
184,72,196414,1,0,0:0:0:0:
336,112,196602,1,2,0:2:0:0:
208,208,196789,5,0,0:0:0:0:
178,249,196882,1,0,0:0:0:0:
179,300,196976,1,0,0:0:0:0:
211,340,197070,1,0,0:0:0:0:
260,353,197164,1,0,0:0:0:0:
307,334,197257,1,0,0:0:0:0:
344,288,197352,5,6,3:2:0:0:
216,120,197539,1,2,3:3:0:0:
424,136,197727,5,0,1:0:0:0:
259,268,197914,1,2,3:3:0:0:
336,64,198102,5,0,3:0:0:0:
344,272,198289,1,2,3:3:0:0:
216,120,198477,5,0,1:0:0:0:
423,85,198664,1,2,3:3:0:0:
432,296,198852,2,0,P|408:344|352:360,1,95.9999970703126,2|2,3:2|3:3,0:0:0:0:
176,352,199227,1,0,1:0:0:0:
344,272,199414,1,2,3:3:0:0:
168,184,199602,1,0,3:0:0:0:
128,160,199695,1,0,1:0:0:0:
112,112,199789,2,0,P|120:72|176:32,1,95.9999970703126,2|0,3:3|1:0,0:0:0:0:
56,200,200164,1,2,3:3:0:0:
197,112,200352,5,2,3:2:0:0:
216,320,200539,1,2,3:3:0:0:
352,144,200727,5,0,1:0:0:0:
128,144,200914,1,2,3:3:0:0:
304,280,201102,5,0,3:0:0:0:
304,56,201289,1,2,3:3:0:0:
192,248,201477,5,0,1:0:0:0:
400,176,201664,1,2,3:3:0:0:
184,152,201852,6,0,P|130:125|72:120,1,95.9999970703126,2|2,3:2|3:3,0:0:0:0:
272,256,202227,1,0,1:0:0:0:
264,64,202414,1,4,3:2:0:0:
176,232,202602,1,0,3:0:0:0:
168,280,202695,1,0,1:0:0:0:
192,320,202789,2,0,P|224:352|280:360,1,95.9999970703126,2|0,3:3|1:0,0:0:0:0:
448,280,203164,1,2,3:3:0:0:
438,87,203352,6,0,B|327:98|339:169|367:284|225:250,1,287.999991210938,2|2,3:2|3:3,0:0:0:0:
443,186,204102,6,0,P|366:319|188:334,1,335.999989746094,2|2,3:2|3:3,0:0:0:0:
376,152,204852,6,0,P|296:80|216:264,1,384,2|2,3:2|3:3,0:0:0:0:
449,357,205602,2,0,P|475:191|359:14,1,384,2|2,3:2|3:3,0:0:0:0:
111,69,206352,2,0,P|397:238|356:358,1,512,2|2,3:2|3:2,0:0:0:0:
173,354,207289,1,2,3:3:0:0:
319,228,207477,2,0,P|302:174|254:130,1,95.9999970703126,0|2,1:0|3:3,0:0:0:0:
90,84,207852,5,2,3:2:0:0:
224,219,208039,1,0,0:0:0:0:
38,167,208227,5,2,3:2:0:0:
204,70,208414,1,0,1:0:0:0:
101,232,208602,5,6,3:3:0:0:
42,49,208789,1,0,1:0:0:0:
190,171,208977,5,6,3:2:0:0:
4,217,209164,1,0,0:0:0:0:
136,356,209352,5,6,3:2:0:0:
167,163,209539,1,2,3:3:0:0:
348,226,209727,1,0,1:0:0:0:
167,163,209914,1,2,3:3:0:0:
344,89,210102,1,0,3:0:0:0:
261,261,210289,1,2,3:3:0:0:
230,75,210476,1,0,1:0:0:0:
348,226,210664,1,2,3:3:0:0:
167,163,210852,6,0,P|118:123|109:75,1,95.9999970703126,2|2,3:2|3:3,0:0:0:0:
309,124,211227,1,0,1:0:0:0:
270,314,211414,2,0,P|331:299|360:260,1,95.9999970703126,2|0,3:3|3:0,0:0:0:0:
392,88,211789,2,0,P|330:102|301:141,1,95.9999970703126,2|0,3:3|1:0,0:0:0:0:
270,314,212164,5,2,3:3:0:0:
108,164,212352,2,0,P|57:102|50:54,1,95.9999970703126,2|2,3:2|3:3,0:0:0:0:
192,247,212727,1,0,1:0:0:0:
192,56,212914,1,2,3:3:0:0:
304,216,213102,2,0,L|376:296,1,95.9999970703126,0|2,3:0|3:3,0:0:0:0:
296,112,213477,2,0,L|408:152,1,95.9999970703126,0|2,1:0|3:3,0:0:0:0:
200,176,213852,5,2,3:2:0:0:
392,152,214039,1,2,3:3:0:0:
224,56,214227,1,0,1:0:0:0:
248,248,214414,2,0,P|240:320|224:352,1,95.9999970703126,4|0,3:2|3:0,0:0:0:0:
304,168,214789,2,0,P|312:96|328:64,1,95.9999970703126,2|0,3:3|1:0,0:0:0:0:
48,328,215352,6,0,B|24:280|56:224|56:224|160:216|184:96,1,287.999991210938,2|2,3:2|3:3,0:0:0:0:
136,288,216102,2,0,P|208:232|256:48,1,287.999991210938,2|2,3:2|3:3,0:0:0:0:
128,192,216852,2,0,P|56:152|184:104,1,287.999991210938,2|2,3:2|3:3,0:0:0:0:
312,216,217602,2,0,P|430:201|357:107,1,287.999991210938,2|2,3:2|3:3,0:0:0:0:
176,168,218352,5,4,1:1:0:0:
358,335,218539,1,0,3:3:0:0:
122,284,218727,5,0,3:3:0:0:
335,183,218914,1,2,1:2:0:0:
96,152,219102,5,0,3:3:0:0:
227,351,219289,1,0,3:3:0:0:
288,72,219477,5,6,1:2:0:0:
46,238,219664,1,0,3:3:0:0:
360,288,219852,5,0,3:3:0:0:
71,162,220039,1,8,0:3:0:0:
408,168,220227,5,0,3:3:0:0:
96,304,220414,1,0,1:2:0:0:
288,72,220602,5,0,1:2:0:0:
184,352,220789,1,0,1:2:0:0:
472,272,220977,5,0,1:2:0:0:
176,88,221164,1,0,0:0:0:0:
96,232,221352,6,0,P|59:267|18:275,1,80,6|0,1:2|3:3,0:0:0:0:
147,162,221727,1,0,3:3:0:0:
254,280,221914,2,0,P|290:315|331:323,1,80,6|0,1:2|3:3,0:0:0:0:
201,212,222289,1,0,3:3:0:0:
361,202,222477,2,0,P|428:66|293:134,1,400,6|0,1:2|3:3,0:0:0:0:
299,294,223602,1,2,1:2:0:0:
208,162,223789,1,8,0:3:0:0:
361,202,223976,1,8,0:3:0:0:
209,253,224164,1,4,0:3:0:0:
301,121,224352,6,0,P|373:98|466:186,1,192,6|8,1:2|0:3,0:0:0:0:
368,192,225102,2,0,P|296:215|203:127,1,192,0|0,0:0|0:0,0:0:0:0:
301,121,225852,2,0,P|373:98|466:186,1,192,6|0,1:2|1:0,0:0:0:0:
456,256,226602,5,8,0:3:0:0:
429,289,226727,5,8,0:3:0:0:
392,310,226852,5,8,0:3:0:0:
351,317,226977,5,4,0:3:0:0:
309,308,227102,5,4,0:3:0:0:
273,285,227227,5,4,0:3:0:0:
253,247,227352,6,0,P|205:191|141:175,1,128,6|0,3:2|0:0,0:0:0:0:
352,192,228102,2,0,P|400:248|464:264,1,128,2|0,0:2|0:0,0:0:0:0:
237,120,228852,2,0,P|293:72|308:8,1,128,2|0,0:2|0:0,0:0:0:0:
145,219,229602,2,0,P|97:162|33:147,1,128,2|0,0:2|0:0,0:0:0:0:
134,355,230352,6,0,P|179:349|253:292,1,128,2|0,0:2|0:0,0:0:0:0:
383,91,231102,2,0,P|338:97|264:154,1,128,2|0,0:2|0:0,0:0:0:0:
216,264,231852,2,0,P|145:275|112:216,1,128,2|0,0:2|0:0,0:0:0:0:
232,144,232602,2,0,L|352:192,1,128,2|0,0:2|0:0,0:0:0:0:
424,320,233352,2,0,L|304:272,1,128,2|0,0:2|0:0,0:0:0:0:
144,192,234102,6,0,L|86:163,1,64,2|0,0:2|0:0,0:0:0:0:
344,192,234477,2,0,L|401:220,1,64,0|0,0:0|0:0,0:0:0:0:
168,120,234852,2,0,L|110:91,1,64,2|0,0:2|0:0,0:0:0:0:
304,264,235227,2,0,L|361:292,1,64,0|0,0:0|0:0,0:0:0:0:
112,248,235602,6,0,L|54:276,1,64,2|0,0:2|0:0,0:0:0:0:
264,120,235977,2,0,L|200:110,1,64,0|0,0:0|0:0,0:0:0:0:
448,168,236352,2,0,L|401:123,1,64,2|0,0:2|0:0,0:0:0:0:
184,256,236727,2,0,L|230:211,1,64,0|0,0:0|0:0,0:0:0:0:
464,320,237102,6,0,L|417:275,1,64,2|0,0:2|0:0,0:0:0:0:
192,152,237477,2,0,L|238:196,1,64,0|0,0:0|0:0,0:0:0:0:
496,192,237852,2,0,L|449:236,1,64,2|0,0:2|0:0,0:0:0:0:
208,312,238227,2,0,L|254:267,1,64,0|0,0:0|0:0,0:0:0:0:
384,144,238602,6,0,P|400:56|296:32,1,192,2|0,0:2|0:0,0:0:0:0:
168,88,239352,6,0,L|104:120,1,64,6|0,0:2|0:0,0:0:0:0:
240,144,239727,2,0,L|304:112,1,64,2|0,0:3|3:0,0:0:0:0:
179,176,240102,1,0,1:3:0:0:
424,272,240477,2,0,L|488:296,1,64,2|0,0:3|0:0,0:0:0:0:
352,304,240852,6,0,P|352:232|464:200,1,192,0|0,0:0|0:0,0:0:0:0:
504,80,241602,2,0,P|416:64|304:104,1,192,0|0,1:0|3:0,0:0:0:0:
216,168,242352,2,0,P|120:128|152:72,1,192,2|0,3:2|3:0,0:0:0:0:
32,160,243102,6,0,P|72:240|208:272,1,215.999993408203,0|0,1:0|0:0,0:0:0:0:
336,248,243852,2,0,B|400:240|432:160|392:104|392:104|440:88,1,215.999993408203,2|0,3:2|3:0,0:0:0:0:
272,152,244602,2,0,P|208:256|248:336,1,215.999993408203,0|0,1:0|0:0,0:0:0:0:
144,208,245352,5,6,1:2:0:0:
296,248,245539,1,0,3:3:0:0:
280,88,245727,1,0,3:3:0:0:
240,312,245914,5,6,1:2:0:0:
304,168,246102,1,0,3:3:0:0:
344,320,246289,1,0,3:3:0:0:
208,176,246477,5,6,1:2:0:0:
360,232,246664,1,0,3:3:0:0:
328,72,246852,1,0,3:3:0:0:
272,264,247039,5,6,1:2:0:0:
248,104,247227,1,0,3:3:0:0:
128,208,247414,1,0,3:3:0:0:
320,152,247602,5,0,1:0:0:0:
160,120,247789,1,4,0:3:0:0:
120,112,247883,1,0,0:0:0:0:
80,104,247977,1,0,3:0:0:0:
240,136,248164,1,0,3:0:0:0:
80,256,248352,5,6,1:2:0:0:
152,112,248539,1,0,3:3:0:0:
184,272,248727,1,0,3:3:0:0:
240,80,248914,5,6,1:2:0:0:
136,200,249102,1,0,3:3:0:0:
296,168,249289,1,0,3:3:0:0:
144,112,249477,1,2,1:2:0:0:
232,240,249664,1,0,0:0:0:0:
248,40,249852,5,2,3:2:0:0:
360,200,250039,1,4,1:3:0:0:
184,96,250227,5,4,1:3:0:0:
392,56,250414,1,4,1:3:0:0:
208,192,250602,5,4,1:3:0:0:
424,280,250789,1,4,1:3:0:0:
280,64,250977,1,2,1:3:0:0:
136,248,251352,6,0,P|192:288|280:248,1,160,6|0,3:2|1:0,0:0:0:0:
336,112,251914,1,2,0:2:0:0:
208,208,252102,1,2,3:2:0:0:
248,56,252289,1,0,3:0:0:0:
312,200,252477,2,0,L|352:280,1,80,0|2,1:0|0:2,0:0:0:0:
432,136,252852,5,2,3:2:0:0:
272,136,253039,1,0,3:0:0:0:
400,40,253227,1,0,1:0:0:0:
376,200,253414,2,0,P|360:240|328:272,1,80,2|2,3:2|0:2,0:0:0:0:
200,352,253789,1,0,3:0:0:0:
264,208,253977,6,0,L|304:128,1,80,0|2,1:0|0:2,0:0:0:0:
160,224,254352,2,0,L|120:304,1,80,2|0,3:2|0:0,0:0:0:0:
112,136,254727,2,0,L|48:80,1,80,0|2,1:0|0:2,0:0:0:0:
168,192,255102,1,2,3:2:0:0:
168,32,255289,1,0,3:0:0:0:
256,168,255477,2,0,P|256:224|224:264,1,80,0|2,1:0|0:2,0:0:0:0:
112,336,255852,5,2,3:2:0:0:
272,320,256039,1,0,3:0:0:0:
168,192,256227,1,0,1:0:0:0:
320,152,256414,2,0,L|416:120,1,80,2|2,3:2|0:2,0:0:0:0:
240,176,256789,1,0,3:0:0:0:
368,272,256977,2,0,L|448:328,1,80,0|0,1:0|0:0,0:0:0:0:
304,224,257352,5,6,3:2:0:0:
176,128,257539,1,0,0:0:0:0:
304,224,257727,1,2,1:2:0:0:
240,80,257914,2,0,P|168:48|96:120,1,160,2|0,0:2|3:0,0:0:0:0:
64,248,258477,1,0,1:0:0:0:
176,128,258664,5,2,3:3:0:0:
416,336,259039,1,2,3:3:0:0:
128,200,259414,1,2,3:3:0:0:
432,88,259789,1,6,3:2:0:0:
200,304,260164,5,0,1:0:0:0:
336,216,260352,2,0,P|392:200|432:200,2,80,6|0|0,3:2|0:0|1:0,0:0:0:0:
208,312,260914,1,2,0:2:0:0:
80,224,261102,2,0,P|24:208|-16:208,1,80,0|2,3:0|1:2,0:0:0:0:
144,136,261477,2,0,P|200:120|240:120,1,80,2|0,1:2|3:0,0:0:0:0:
64,160,261852,5,2,1:2:0:0:
200,240,262039,1,0,3:0:0:0:
40,264,262227,5,0,1:0:0:0:
144,136,262414,1,2,3:2:0:0:
128,304,262602,5,0,1:0:0:0:
56,160,262789,2,0,P|72:88|152:48,1,160,6|0,3:2|3:0,0:0:0:0:
448,272,263352,5,6,3:2:0:0:
328,168,263539,1,0,0:0:0:0:
192,248,263727,2,0,P|224:280|272:280,1,80,0|0,1:0|0:0,0:0:0:0:
400,208,264102,1,0,3:0:0:0:
272,112,264289,1,0,3:0:0:0:
192,248,264477,2,0,P|165:277|128:291,1,80,0|0,1:0|0:0,0:0:0:0:
272,232,264852,1,2,3:2:0:0:
120,200,265039,1,0,3:0:0:0:
264,104,265227,6,0,L|339:56,1,88.000002685547,0|0,1:2|3:0,0:0:0:0:
352,216,265602,1,2,3:2:0:0:
216,136,265789,1,0,3:0:0:0:
155,273,265977,6,0,P|200:243|249:246,1,80,0|0,1:0|0:0,0:0:0:0:
96,192,266352,6,0,P|64:264|232:336,1,311.999985717774,2|0,3:2|0:0,0:0:0:0:
416,136,267102,6,0,L|464:72,1,80,2|0,3:2|3:0,0:0:0:0:
400,264,267477,1,0,1:0:0:0:
112,80,267852,5,6,1:2:0:0:
272,200,268039,1,0,3:0:0:0:
72,176,268227,5,0,3:0:0:0:
224,48,268415,1,6,1:2:0:0:
176,240,268602,5,0,3:0:0:0:
48,88,268790,1,0,3:0:0:0:
232,240,268977,2,0,P|296:240|328:224,1,80,6|0,1:2|0:0,0:0:0:0:
384,88,269352,6,0,P|424:72|456:72,7,40,6|0|0|0|0|0|0|0,3:2|1:0|1:0|1:0|3:0|1:0|1:0|1:0,0:0:0:0:
296,168,270102,2,0,P|252:165|223:152,7,40,0|0|0|0|0|0|0|0,3:0|1:0|1:0|1:0|3:0|1:0|1:0|1:0,0:0:0:0:
408,216,270852,6,0,P|451:213|480:200,3,40,2|0|0|0,3:2|1:0|1:0|1:0,0:0:0:0:
312,296,271227,2,0,P|351:311|384:311,3,40,0|0|0|0,3:0|1:0|1:0|1:0,0:0:0:0:
192,288,271602,6,0,L|120:303,1,40,0|0,3:0|1:0,0:0:0:0:
264,176,271789,2,0,L|312:144,1,40,0|0,1:0|1:0,0:0:0:0:
136,136,271977,2,0,L|88:112,1,40,0|0,3:0|1:0,0:0:0:0:
248,48,272164,2,0,L|280:0,1,40,0|0,1:0|1:0,0:0:0:0:
184,152,272352,5,2,3:2:0:0:
172,190,272445,1,0,1:0:0:0:
171,230,272539,1,0,1:0:0:0:
182,268,272633,1,0,1:0:0:0:
203,302,272727,1,0,3:0:0:0:
232,329,272820,1,0,1:0:0:0:
268,347,272914,1,0,1:0:0:0:
307,354,273008,1,0,1:0:0:0:
346,351,273102,5,0,3:0:0:0:
384,336,273195,1,0,1:0:0:0:
415,312,273289,1,0,1:0:0:0:
439,280,273383,1,0,1:0:0:0:
453,242,273477,1,0,3:0:0:0:
456,203,273570,1,0,1:0:0:0:
448,164,273664,1,0,1:0:0:0:
429,128,273758,1,0,1:0:0:0:
400,104,273852,5,2,3:2:0:0:
350,88,273945,1,0,1:0:0:0:
297,88,274039,1,0,1:0:0:0:
259,124,274133,1,0,1:0:0:0:
238,171,274227,1,0,3:0:0:0:
246,221,274320,1,0,1:0:0:0:
291,246,274414,1,0,1:0:0:0:
340,228,274508,1,0,1:0:0:0:
337,175,274602,5,0,3:0:0:0:
293,146,274695,1,0,1:0:0:0:
245,167,274789,1,0,1:0:0:0:
227,216,274883,1,0,1:0:0:0:
181,241,274977,1,0,3:0:0:0:
131,227,275070,1,0,1:0:0:0:
101,184,275164,1,0,1:0:0:0:
110,132,275258,1,0,1:0:0:0:
149,97,275352,5,4,0:2:0:0:
29,106,275539,1,0,0:0:0:0:
112,21,275727,1,0,0:0:0:0:
110,132,275914,1,0,0:0:0:0:
112,21,276102,1,0,0:0:0:0:
29,106,276289,1,0,0:0:0:0:
181,94,276477,2,0,P|209:48|207:13,1,80,0|0,0:0|0:0,0:0:0:0:
248,160,276852,6,0,P|200:184|184:216,2,80,2|0|0,0:2|0:0|0:0,0:0:0:0:
368,160,277414,1,0,0:0:0:0:
128,160,277789,1,0,0:0:0:0:
336,280,278164,6,0,L|424:328,1,80,0|2,0:0|0:2,0:0:0:0:
296,264,278539,1,0,0:0:0:0:
384,184,278727,1,0,0:0:0:0:
264,192,278914,1,0,0:0:0:0:
368,256,279102,1,0,0:0:0:0:
320,144,279289,1,2,0:2:0:0:
296,264,279477,2,0,P|280:296|232:320,2,80,2|0|2,0:2|0:0|0:2,0:0:0:0:
320,144,280039,1,0,0:0:0:0:
216,232,280227,1,0,0:0:0:0:
152,104,280414,2,0,L|112:24,1,80,0|0,0:0|0:0,0:0:0:0:
248,88,280789,2,0,P|224:176|144:200,1,160,0|0,0:0|0:0,0:0:0:0:
152,104,281352,6,0,P|88:136|80:256,1,192,2|0,0:2|0:0,0:0:0:0:
160,200,282102,2,0,P|240:168|256:72,1,192,0|0,0:0|0:0,0:0:0:0:
344,120,282852,2,0,P|320:200|232:272,1,192,2|0,0:2|0:0,0:0:0:0:
167,196,283602,2,0,P|143:300|207:356,1,192,0|0,0:0|0:0,0:0:0:0:
239,268,284352,2,0,P|247:140|87:156,1,320,2|0,0:2|0:0,0:0:0:0:
166,59,285477,6,0,L|214:3,1,64,0|0,0:0|0:0,0:0:0:0:
254,99,285852,2,0,L|165:196,1,128,2|0,0:2|0:0,0:0:0:0:
54,296,286414,2,0,L|100:242,1,64,0|0,0:0|0:0,0:0:0:0:
239,268,286789,2,0,L|192:321,1,64,0|0,0:0|0:0,0:0:0:0:
456,240,287352,6,0,L|360:200,1,80,2|0,0:2|0:0,0:0:0:0:
224,208,287727,2,0,L|320:168,1,80,0|0,0:0|0:0,0:0:0:0:
392,304,288102,2,0,L|296:264,1,80,0|0,0:0|0:0,0:0:0:0:
160,312,288477,2,0,L|256:272,1,80,0|0,0:0|0:0,0:0:0:0:
384,224,288852,5,2,0:2:0:0:
232,176,289039,1,0,0:0:0:0:
384,136,289227,1,0,0:0:0:0:
280,256,289414,1,0,0:0:0:0:
296,96,289602,2,0,L|304:8,1,80,2|0,0:2|0:0,0:0:0:0:
232,176,289977,2,0,L|184:256,1,80,0|0,0:0|0:0,0:0:0:0:
356,212,290352,2,0,L|424:253,1,80,2|0,0:2|0:0,0:0:0:0:
432,88,290727,2,0,L|480:8,1,80,0|0,0:0|0:0,0:0:0:0:
400,152,291102,5,0,0:0:0:0:
328,288,291289,1,0,0:0:0:0:
400,152,291477,1,0,0:0:0:0:
328,288,291664,2,0,L|280:368,1,80,0|2,0:0|0:2,0:0:0:0:
356,212,292039,1,0,0:0:0:0:
232,120,292227,2,0,L|165:75,1,80
78,210,292602,2,0,L|14:298,1,80,2|0,0:2|0:0,0:0:0:0:
132,150,292977,1,0,0:0:0:0:
272,225,293164,1,0,0:0:0:0:
352,344,293352,6,0,P|432:328|488:184,1,240,2|0,0:2|0:0,0:0:0:0:
336,264,294102,2,0,P|384:264|320:176,1,240,2|0,0:2|0:0,0:0:0:0:
208,272,294852,2,0,P|160:272|224:184,1,240,2|0,0:2|0:0,0:0:0:0:
192,352,295602,2,0,P|112:336|56:192,1,240,2|0,0:2|0:0,0:0:0:0:
160,64,296352,5,4,3:2:0:0:
168,240,296539,1,4,1:3:0:0:
264,88,296727,1,4,3:3:0:0:
96,144,296914,1,4,1:3:0:0:
264,192,297102,1,4,3:3:0:0:
96,264,297289,1,4,1:3:0:0:
200,112,297477,1,4,3:3:0:0:
216,296,297664,1,4,1:3:0:0:
336,136,297852,5,4,3:3:0:0:
142,183,298039,1,4,1:3:0:0:
355,221,298227,5,4,3:3:0:0:
132,115,298414,1,4,1:3:0:0:
387,137,298602,5,4,3:3:0:0:
143,262,298789,1,4,1:3:0:0:
413,280,298977,5,4,3:3:0:0:
159,129,299164,1,2,1:3:0:0:
104,224,300477,5,4,1:3:0:0:
252,281,300664,1,0,3:0:0:0:
160,144,300852,2,0,P|112:128|64:136,1,80,6|0,3:2|3:0,0:0:0:0:
232,192,301227,1,0,1:0:0:0:
96,272,301414,1,0,3:0:0:0:
376,112,301789,1,6,3:2:0:0:
296,256,301977,5,0,1:0:0:0:
240,278,302070,1,0,1:0:0:0:
180,268,302164,1,0,1:0:0:0:
132,231,302258,1,0,1:0:0:0:
106,176,302352,6,0,P|111:128|146:77,1,95.9999970703126,2|2,3:2|3:3,0:0:0:0:
319,32,302727,2,0,P|314:80|279:131,1,95.9999970703126,0|2,1:0|3:3,0:0:0:0:
118,207,303102,1,0,3:0:0:0:
224,48,303289,1,2,3:3:0:0:
249,238,303477,1,0,1:0:0:0:
116,99,303664,1,2,3:3:0:0:
303,140,303852,6,0,P|339:167|359:219,1,95.9999970703126,2|2,3:2|3:3,0:0:0:0:
171,171,304227,2,0,P|135:144|115:92,1,95.9999970703126,0|4,1:0|3:2,0:0:0:0:
358,212,304602,1,0,3:0:0:0:
392,248,304695,1,0,1:0:0:0:
400,296,304789,1,2,3:3:0:0:
211,169,304977,1,0,1:0:0:0:
394,57,305164,1,2,3:3:0:0:
259,232,305352,6,0,P|130:153|191:94,1,287.999991210938,2|2,3:2|3:3,0:0:0:0:
69,106,306103,6,0,P|130:305|253:316,1,335.999989746094,2|2,3:2|3:3,0:0:0:0:
138,146,306853,6,0,P|233:78|208:246,1,384,2|2,3:2|3:3,0:0:0:0:
70,104,307602,6,0,P|77:258|305:296,1,384,2|2,3:2|3:3,0:0:0:0:
213,85,308352,6,0,P|148:224|272:110,1,448,6|2,3:2|3:2,0:0:0:0:
213,169,309477,5,0,1:0:0:0:
381,81,309664,1,2,3:3:0:0:
189,99,309852,5,2,3:2:0:0:
330,257,310039,1,4,0:3:0:0:
97,301,310227,5,2,3:2:0:0:
263,171,310414,1,0,1:0:0:0:
8,221,310602,5,2,3:2:0:0:
248,314,310789,1,0,1:0:0:0:
49,145,310977,5,6,3:2:0:0:
289,52,311164,1,0,0:0:0:0:
104,218,311352,6,0,P|77:262|217:251,1,320,6|0,3:2|0:0,0:0:0:0:
142,107,312477,2,0,L|75:34,1,80,2|0,0:3|0:0,0:0:0:0:
245,78,312852,2,0,L|312:151,1,80,2|0,3:3|1:0,0:0:0:0:
452,183,313227,2,0,L|385:256,1,80,2|0,0:3|3:0,0:0:0:0:
242,282,313602,2,0,L|309:209,1,80,6|0,1:2|0:0,0:0:0:0:
173,119,313977,2,0,L|240:192,1,80,2|0,0:3|3:0,0:0:0:0:
322,237,314352,6,0,B|336:184|336:184|258:91,1,167.999994873047,6|0,3:2|3:0,0:0:0:0:
160,56,315102,2,0,B|152:112|152:112|224:202,1,167.999994873047,0|0,1:0|0:0,0:0:0:0:
280,120,315852,6,0,P|306:134|328:160,1,47.9999985351563,2|0,3:2|1:0,0:0:0:0:
344,192,316133,1,0,1:0:0:0:
344,240,316227,1,0,3:0:0:0:
320,280,316320,1,0,1:0:0:0:
280,312,316414,1,0,1:0:0:0:
232,320,316508,1,0,1:0:0:0:
181,296,316602,5,2,3:2:0:0:
144,256,316695,1,0,1:0:0:0:
150,198,316789,1,0,1:0:0:0:
184,151,316883,1,0,1:0:0:0:
243,144,316977,1,0,3:0:0:0:
291,182,317070,1,0,1:0:0:0:
295,246,317164,5,0,1:0:0:0:
239,284,317258,1,0,1:0:0:0:
182,269,317352,2,0,B|138:240|149:184,1,80,6|0,3:2|0:0,0:0:0:0:
352,64,317914,5,0,1:0:0:0:
312,64,318008,1,0,1:0:0:0:
276,77,318102,2,0,B|233:105|242:143,1,80,6|0,3:2|0:0,0:0:0:0:
130,312,318664,5,0,1:0:0:0:
130,312,318758,1,0,1:0:0:0:
130,312,318852,2,0,P|190:291|219:202,1,160,6|0,3:2|0:0,0:0:0:0:
218,109,319414,1,0,1:0:0:0:
218,109,319508,1,0,1:0:0:0:
218,109,319602,2,0,P|158:130|129:219,1,160,6|0,3:2|0:0,0:0:0:0:
402,326,320352,5,4,1:1:0:0:
285,216,320539,1,0,3:3:0:0:
444,229,320727,1,0,3:3:0:0:
301,300,320914,1,2,1:2:0:0:
367,153,321102,1,0,3:3:0:0:
230,235,321289,1,0,3:3:0:0:
389,251,321477,1,6,1:2:0:0:
260,155,321664,1,0,0:0:0:0:
331,316,321852,5,2,3:2:0:0:
326,100,322039,1,0,1:3:0:0:
231,292,322227,5,0,3:0:0:0:
440,214,322414,1,0,1:3:0:0:
222,156,322602,5,2,3:2:0:0:
405,310,322789,1,0,1:3:0:0:
342,77,322977,5,0,3:0:0:0:
239,319,323164,1,0,1:3:0:0:
240,108,323352,5,6,3:2:0:0:
80,101,323539,1,2,3:3:0:0:
240,108,323727,1,0,1:0:0:0:
101,186,323914,1,2,3:3:0:0:
174,48,324102,1,0,3:0:0:0:
192,206,324289,1,2,3:3:0:0:
311,99,324477,6,0,P|346:78|404:79,1,80,0|2,1:0|3:3,0:0:0:0:
347,230,324852,2,0,P|382:251|374:179,1,160,2|0,3:2|1:0,0:0:0:0:
222,229,325414,1,2,3:3:0:0:
311,99,325602,1,0,3:0:0:0:
344,80,325695,1,0,1:0:0:0:
384,74,325789,1,2,3:3:0:0:
372,168,325977,5,0,1:0:0:0:
292,29,326164,1,2,3:3:0:0:
281,189,326352,2,0,P|314:241|447:117,1,320,2|0,3:2|3:0,0:0:0:0:
320,24,327289,5,2,3:3:0:0:
370,176,327477,1,0,1:0:0:0:
211,155,327664,1,2,3:3:0:0:
324,268,327852,2,0,P|368:274|463:209,1,160,2|0,3:2|1:0,0:0:0:0:
480,55,328414,1,4,3:2:0:0:
304,192,328602,1,0,3:0:0:0:
264,192,328695,1,0,1:0:0:0:
232,176,328789,1,2,3:3:0:0:
399,225,328977,1,0,1:0:0:0:
288,110,329164,1,2,3:3:0:0:
264,268,329352,5,0,3:0:0:0:
288,110,329539,1,0,0:0:0:0:
139,171,329727,1,0,3:0:0:0:
288,110,329914,1,0,0:0:0:0:
408,216,330102,1,0,3:0:0:0:
288,110,330289,1,0,0:0:0:0:
139,171,330477,1,0,3:0:0:0:
288,110,330664,1,0,0:0:0:0:
203,246,330852,6,0,P|160:268|107:260,1,80,0|0,3:0|0:0,0:0:0:0:
14,155,331227,2,0,P|57:133|110:141,1,80,0|0,3:0|0:0,0:0:0:0:
203,246,331602,2,0,P|188:200|145:168,1,80,0|0,3:0|0:0,0:0:0:0:
222,28,331977,2,0,P|236:73|279:105,1,80,0|0,3:0|1:0,0:0:0:0:
409,149,332352,5,6,3:2:0:0:
300,266,332539,1,0,1:0:0:0:
455,225,332727,1,0,3:0:0:0:
306,166,332914,1,0,1:0:0:0:
394,299,333102,1,0,3:0:0:0:
219,202,333289,1,0,1:0:0:0:
84,289,333477,1,0,3:0:0:0:
242,308,333664,1,0,1:0:0:0:
121,201,333852,6,0,L|83:161,5,40,2|0|0|0|0|0,3:2|1:0|1:0|1:0|3:0|1:0,0:0:0:0:
246,124,334414,2,0,L|284:84,5,40,0|0|0|0|0|0,1:0|1:0|3:0|1:0|1:0|1:0,0:0:0:0:
288,256,334977,2,0,L|247:299,1,40,0|0,3:0|1:0,0:0:0:0:
419,265,335164,2,0,L|460:222,1,40,0|0,1:0|1:0,0:0:0:0:
295,177,335352,5,6,3:2:0:0:
261,156,335445,1,0,1:0:0:0:
254,118,335539,1,0,1:0:0:0:
277,87,335633,1,0,1:0:0:0:
316,84,335727,1,0,3:0:0:0:
352,108,335820,1,0,1:0:0:0:
365,157,335914,1,0,1:0:0:0:
351,198,336007,1,0,1:0:0:0:
325,228,336101,5,0,3:0:0:0:
288,243,336195,1,0,1:0:0:0:
249,242,336289,1,0,1:0:0:0:
214,223,336382,1,0,1:0:0:0:
187,193,336477,1,0,3:0:0:0:
173,156,336571,1,0,1:0:0:0:
171,116,336665,1,0,1:0:0:0:
182,78,336759,1,0,1:0:0:0:
212,52,336852,6,0,L|246:30,1,40,6|0,3:2|1:0,0:0:0:0:
438,48,337040,2,0,L|477:37,1,40,0|0,1:0|1:0,0:0:0:0:
269,160,337227,2,0,L|214:190,1,40,0|0,3:0|1:0,0:0:0:0:
459,287,337414,2,0,L|500:325,1,40,0|0,1:0|1:0,0:0:0:0:
381,165,338352,6,0,P|411:200|418:251,1,95.9999970703126,6|0,0:2|0:0,0:0:0:0:
226,263,338727,1,0,1:2:0:0:
324,99,338914,1,0,0:0:0:0:
160,200,339102,2,0,P|138:276|207:354,1,191.999994140625,2|0,0:2|1:2,0:0:0:0:
462,67,339852,5,2,0:2:0:0:
406,250,340039,1,0,0:0:0:0:
287,98,340227,2,0,P|240:70|172:79,1,95.9999970703126,0|0,1:2|0:0,0:0:0:0:
23,146,340602,1,2,0:2:0:0:
213,165,340789,1,0,0:0:0:0:
61,46,340977,1,0,1:2:0:0:
56,237,341164,1,0,0:0:0:0:
184,93,341352,6,0,L|277:38,1,95.9999970703126,2|0,0:2|0:0,0:0:0:0:
224,231,341727,2,0,L|131:286,1,95.9999970703126,0|0,1:2|0:0,0:0:0:0:
247,119,342102,2,0,P|297:134|309:288,1,191.999994140625,2|0,0:2|1:2,0:0:0:0:
17,34,342852,1,2,0:2:0:0:
205,65,343039,1,0,0:0:0:0:
65,197,343227,2,0,P|49:257|147:337,1,191.999994140625,0|2,1:2|0:2,0:0:0:0:
219,164,343789,1,0,0:0:0:0:
396,239,343977,1,0,1:2:0:0:
209,282,344164,1,0,0:0:0:0:
407,139,344352,6,0,L|498:85,1,95.9999970703126,4|0,1:2|3:0,0:0:0:0:
311,198,344727,1,0,3:0:0:0:
114,94,344914,6,0,L|13:33,1,95.9999970703126,4|0,1:2|3:0,0:0:0:0:
210,153,345289,1,0,3:0:0:0:
407,257,345477,6,0,L|492:301,1,95.9999970703126,4|0,1:2|3:0,0:0:0:0:
311,198,345852,1,0,3:0:0:0:
97,310,346039,6,0,L|14:358,1,95.9999970703126,4|0,1:2|3:0,0:0:0:0:
193,251,346414,1,0,3:0:0:0:
355,95,346602,6,0,L|454:36,1,95.9999970703126,4|0,1:3|3:0,0:0:0:0:
259,154,346977,1,4,1:1:0:0:
156,289,347342,5,2,1:2:0:0:
117,101,347529,1,0,3:0:0:0:
271,215,347717,1,0,1:2:0:0:
79,201,347904,1,0,3:0:0:0:
240,95,348092,2,0,L|307:28,1,80,0|4,1:2|0:3,0:0:0:0:
172,163,348467,1,0,3:0:0:0:
359,123,348654,1,0,3:0:0:0:
273,241,348842,5,2,1:2:0:0:
247,83,349029,1,0,3:0:0:0:
353,202,349217,1,0,3:0:0:0:
196,168,349404,1,2,1:2:0:0:
345,109,349592,1,0,3:0:0:0:
256,242,349779,2,0,P|333:315|402:298,1,160,0|0,3:0|0:0,0:0:0:0:
503,231,350335,5,2,3:2:0:0:
410,100,350532,1,0,3:0:0:0:
165,306,350927,1,0,3:0:0:0:
52,192,351124,2,0,P|23:152|83:50,1,160,0|0,1:0|0:0,0:0:0:0:
218,26,351716,1,0,3:0:0:0:
113,128,351913,5,2,3:2:0:0:
232,233,352128,1,0,1:0:0:0:
348,123,352344,1,0,3:0:0:0:
227,17,352560,1,0,1:0:0:0:
235,160,352790,5,0,0:0:0:0:
344,43,353030,1,8,0:3:0:0:
373,200,353270,1,8,0:3:0:0:
217,236,353510,6,0,P|167:200|264:88,1,240.000009155274,4|0,0:3|0:0,0:0:0:0:
408,296,354710,1,4,3:1:0:0:
256,192,354830,12,0,362390,0:0:0:0:
