osu file format v14

[General]
AudioFilename: audio.mp3
AudioLeadIn: 0
PreviewTime: 228539
Countdown: 0
SampleSet: Soft
StackLeniency: 0.7
Mode: 0
LetterboxInBreaks: 0
WidescreenStoryboard: 0

[Editor]
DistanceSpacing: 1.9
BeatDivisor: 4
GridSize: 4
TimelineZoom: 1

[Metadata]
Title:Sayonara Memories
TitleUnicode:さよならメモリーズ
Artist:supercell
ArtistUnicode:supercell
Creator:Bigger
Version:i'll see you soon.
Source:
Tags:Today Is a Beautiful Day japanese jpop j-pop pop rock jrock j-rock yanaginagi nagi yanagi ryo やなぎなぎ god haachama red crewmate vaporfly big sis
BeatmapID:4112658
BeatmapSetID:1980597

[Difficulty]
HPDrainRate:4.7
CircleSize:4
OverallDifficulty:8.7
ApproachRate:9
SliderMultiplier:1.74
SliderTickRate:1

[Events]
//Background and Video events
0,0,"73718366_p0 (1).jpg",0,0
//Break Periods
2,229008,238880
2,275680,286910
//Storyboard Layer 0 (Background)
//Storyboard Layer 1 (Fail)
//Storyboard Layer 2 (Pass)
//Storyboard Layer 3 (Foreground)
//Storyboard Layer 4 (Overlay)
//Storyboard Sound Samples

[TimingPoints]
690,747.663551401869,4,2,1,60,1,0
690,-156.25,4,2,1,60,0,0
6297,776.699029126214,4,2,1,60,1,0
6685,755.667506297229,4,2,1,60,1,0
6685,-156.25,4,2,1,60,0,0
7440,789.473684210526,4,2,1,60,1,0
8229,800,4,2,1,60,1,0
8229,-156.25,4,2,1,60,0,0
8629,769.230769230769,4,2,1,60,1,0
9013,826.446280991736,4,2,1,60,1,0
9013,-156.25,4,2,1,60,0,0
9839,845.070422535211,4,2,1,60,1,0
9839,-156.25,4,2,1,60,0,0
10684,902.255639097744,4,2,1,60,1,0
11135,1064.77373558119,4,2,1,60,1,0
11667,1325.96685082873,4,2,1,60,1,0
11667,-156.25,4,2,1,60,0,0
13655,1131.00848256362,4,2,1,5,1,0
14220,785.340314136126,4,2,1,60,1,0
14220,-156.25,4,2,1,60,0,0
15790,827.586206896552,4,2,1,60,1,0
15790,-156.25,4,2,1,60,0,0
17031,959.232613908873,4,2,1,60,1,0
17510,375,4,2,1,60,1,0
17510,-156.25,4,2,1,70,0,0
22760,342.857142857143,4,2,1,70,1,0
22931,348.837209302326,4,2,1,70,1,0
23105,405.405405405405,4,2,1,70,1,0
23307,398.671096345515,4,2,1,70,1,0
23506,375,4,2,1,70,1,0
29506,-111.111111111111,4,2,1,75,0,0
31943,375,4,2,1,75,1,0
32130,370.37037037037,4,2,1,75,1,0
32130,-111.111111111111,4,2,1,75,0,0
32500,375,4,2,1,75,1,0
32500,-111.111111111111,4,2,1,75,0,0
33812,-200,4,2,1,80,0,0
34937,369.230769230769,4,2,1,80,1,0
35490,385.852090032154,4,2,1,80,1,0
35490,-90.9090909090909,4,2,1,80,0,0
35875,375,4,2,1,80,1,0
36250,-90.9090909090909,4,2,1,80,0,0
37000,375,4,2,1,80,1,0
37375,-90.9090909090909,4,2,1,80,0,0
41125,360.902255639098,4,2,1,80,1,0
41125,-90.9090909090909,4,2,1,80,0,0
41485,375,4,2,1,80,1,0
44485,-90.9090909090909,4,2,1,80,0,0
46735,368.098159509202,4,2,1,80,1,0
47103,397.350993377483,4,2,1,80,1,0
47500,375,4,2,1,80,1,0
47500,-142.857142857143,4,2,1,60,0,0
53125,390.879478827362,4,2,1,60,1,0
53125,-142.857142857143,4,2,1,60,0,0
53320,380.952380952381,4,2,1,60,1,0
53510,375,4,2,1,60,1,0
53510,-142.857142857143,4,2,1,60,0,0
54072,387.096774193548,4,2,1,60,1,0
54265,373.831775700935,4,2,1,60,1,0
54265,-142.857142857143,4,2,1,60,0,0
55012,373.831775700935,4,2,1,60,1,0
55012,-142.857142857143,4,2,1,60,0,0
55386,359.281437125748,4,2,1,60,1,0
55386,-142.857142857143,4,2,1,60,0,0
55745,375,4,2,1,60,1,0
55745,-142.857142857143,4,2,1,60,0,0
56307,357.142857142857,4,2,1,60,1,0
56485,392.156862745098,4,2,1,60,1,0
56485,-142.857142857143,4,2,1,60,0,0
56877,375,4,2,1,60,1,0
57252,-142.857142857143,4,2,1,60,0,0
57814,382.165605095541,4,2,1,60,1,0
58005,375,4,2,1,70,1,0
58942,372.093023255814,4,2,1,70,1,0
59128,-142.857142857143,4,2,1,70,0,0
59500,375,4,2,1,70,1,0
59500,-125,4,2,1,70,0,0
62500,368.098159509202,4,2,1,70,1,0
62500,-125,4,2,1,70,0,0
62868,389.61038961039,4,2,1,70,1,0
63062,375,4,2,1,70,1,0
63249,-125,4,2,1,70,0,0
63999,375,4,2,1,70,1,0
63999,-125,4,2,1,70,0,0
64749,370.37037037037,4,2,1,70,1,0
64841,-125,4,2,1,70,0,0
65304,393.44262295082,4,2,1,70,1,0
65500,375,4,2,1,70,1,0
65500,-125,4,2,1,70,0,0
66250,363.636363636364,4,2,1,70,1,0
66250,-125,4,2,1,70,0,0
66613,387.096774193548,4,2,1,70,1,0
66613,-125,4,2,1,70,0,0
67000,375,4,2,1,70,1,0
67000,-125,4,2,1,70,0,0
70750,298.507462686567,4,2,1,70,1,0
70824,401.33779264214,4,2,1,70,1,0
70824,-125,4,2,1,70,0,0
71125,375,4,2,1,70,1,0
71125,-125,4,2,1,70,0,0
71500,370.37037037037,4,2,1,70,1,0
71500,-111.111111111111,4,2,1,70,0,0
71870,384.615384615385,4,2,1,70,1,0
72254,363.636363636364,4,2,1,70,1,0
72254,-111.111111111111,4,2,1,70,0,0
72799,403.361344537815,4,2,1,70,1,0
73000,375,4,2,1,70,1,0
73000,-111.111111111111,4,2,1,70,0,0
76000,382.165605095541,4,2,1,50,1,0
76382,359.281437125748,4,2,1,60,1,0
76741,-100,4,2,1,70,0,0
76920,387.096774193548,4,2,1,70,1,0
77113,367.534456355283,4,2,1,80,1,0
77480,395.387149917628,4,2,1,65,1,0
77480,-125,4,2,1,65,0,0
77875,375,4,2,1,65,1,0
78250,-125,4,2,1,65,0,0
79000,375,4,2,1,65,1,0
79375,-125,4,2,1,65,0,0
82000,370.37037037037,4,2,1,65,1,0
82740,-125,4,2,1,65,0,0
82925,379.746835443038,4,2,1,65,1,0
83114,387.096774193548,4,2,1,65,1,0
83307,370.37037037037,4,2,1,65,1,0
83492,387.096774193548,4,2,1,65,1,0
83492,-125,4,2,1,65,0,0
83879,355.029585798817,4,2,1,65,1,0
84234,384.615384615385,4,2,1,65,1,0
84234,-125,4,2,1,65,0,0
84618,375,4,2,1,65,1,0
84618,-125,4,2,1,65,0,0
84993,370.37037037037,4,2,1,65,1,0
84993,-125,4,2,1,65,0,0
85733,397.350993377483,4,2,1,65,1,0
85733,-125,4,2,1,65,0,0
86130,375,4,2,1,65,1,0
86130,-125,4,2,1,65,0,0
86505,370.37037037037,4,2,1,65,1,0
86505,-125,4,2,1,65,0,0
86875,355.029585798817,4,2,1,65,1,0
87052,375,4,2,1,65,1,0
87614,-125,4,2,1,65,0,0
87989,370.37037037037,4,2,1,50,1,0
88359,-100,4,2,1,60,0,0
88729,-100,4,2,1,70,0,0
89100,384.615384615385,4,2,1,80,1,0
89485,382.165605095541,4,2,1,70,1,0
89485,-111.111111111111,4,2,1,70,0,0
90440,370.37037037037,4,2,1,70,1,0
90625,368.098159509202,4,2,1,70,1,0
90625,-111.111111111111,4,2,1,70,0,0
90993,377.358490566038,4,2,1,70,1,0
91181,-111.111111111111,4,2,1,70,0,0
91370,372.670807453416,4,2,1,70,1,0
91742,-111.111111111111,4,2,1,70,0,0
92115,380.952380952381,4,2,1,70,1,0
92115,-111.111111111111,4,2,1,70,0,0
92495,375,4,2,1,70,1,0
92495,-111.111111111111,4,2,1,70,0,0
93807,387.096774193548,4,2,1,70,1,0
94000,375,4,2,1,70,1,0
94000,-111.111111111111,4,2,1,70,0,0
95406,337.078651685393,4,2,1,70,1,0
95490,376.175548589342,4,2,1,75,1,0
97747,368.098159509202,4,2,1,75,1,0
98115,419.58041958042,4,2,1,75,1,0
98324,333.333333333333,4,2,1,75,1,0
98490,375,4,2,1,75,1,0
100552,415.22491349481,4,2,1,75,1,0
100759,352.941176470588,4,2,1,75,1,0
101376,497.92531120332,4,2,1,75,1,0
101500,375,4,2,1,75,1,0
101500,-90.9090909090909,4,2,1,80,0,0
107865,385.232744783307,4,2,1,80,1,0
107865,-90.9090909090909,4,2,1,80,0,0
108250,375,4,2,1,80,1,0
109000,-90.9090909090909,4,2,1,80,0,0
109750,338.983050847458,4,2,1,80,1,0
109834,394.736842105263,4,2,1,80,1,0
109834,-100,4,2,1,80,0,0
110130,370.37037037037,4,2,1,80,1,0
110130,-90.9090909090909,4,2,1,80,0,0
110500,370.37037037037,4,2,1,80,1,0
110500,-90.9090909090909,4,2,1,80,0,0
111613,389.61038961039,4,2,1,80,1,0
111613,-90.9090909090909,4,2,1,80,0,0
112002,361.44578313253,4,2,1,60,1,0
112363,375,4,2,1,70,1,0
112738,-100,4,2,1,80,0,0
113113,387.096774193548,4,2,1,80,1,0
113113,-90.9090909090909,4,2,1,80,0,0
113500,375,4,2,1,80,1,0
114062,-90.9090909090909,4,2,1,80,0,0
115375,379.746835443038,4,2,1,80,1,0
115564,-90.9090909090909,4,2,1,80,0,0
116134,357.142857142857,4,2,1,80,1,0
116312,-90.9090909090909,4,2,1,80,0,0
116506,363.636363636364,4,2,1,80,1,0
116687,375,4,2,1,80,1,0
116874,-90.9090909090909,4,2,1,80,0,0
117999,375,4,2,1,80,1,0
118186,-90.9090909090909,4,2,1,80,0,0
119312,363.636363636364,4,2,1,80,1,0
119493,382.165605095541,4,2,1,80,1,0
119493,-90.9090909090909,4,2,1,80,0,0
120066,389.61038961039,4,2,1,80,1,0
120260,375,4,2,1,80,1,0
120260,-90.9090909090909,4,2,1,80,0,0
121010,355.029585798817,4,2,1,80,1,0
121010,-90.9090909090909,4,2,1,80,0,0
121365,379.746835443038,4,2,1,80,1,0
121839,389.61038961039,4,2,1,80,1,0
121839,-90.9090909090909,4,2,1,80,0,0
122131,364.741641337386,4,2,1,80,1,0
122131,-90.9090909090909,4,2,1,80,0,0
122313,370.37037037037,4,2,1,80,1,0
122498,377.358490566038,4,2,1,80,1,0
122875,365.853658536585,4,2,1,80,1,0
123057,368.098159509202,4,2,1,80,1,0
123609,376.175548589342,4,2,1,80,1,0
123985,384.615384615385,4,2,1,80,1,0
123985,-90.9090909090909,4,2,1,80,0,0
124561,359.281437125748,4,2,1,80,1,0
124740,368.098159509202,4,2,1,80,1,0
124924,392.156862745098,4,2,1,80,1,0
125120,380.952380952381,4,2,1,80,1,0
125500,375,4,2,1,80,1,0
125500,-125,4,2,1,60,0,0
126625,-250,4,2,1,60,0,0
127375,-125,4,2,1,60,0,0
127937,384.615384615385,4,2,1,60,1,0
128129,-125,4,2,1,60,0,0
128321,398.671096345515,4,2,1,60,1,0
128520,375,4,2,1,60,1,0
128520,-166.666666666667,4,2,1,70,0,0
129176,-166.666666666667,4,2,1,5,0,0
129270,-166.666666666667,4,2,1,70,0,0
129926,-166.666666666667,4,2,1,5,0,0
130020,-250,4,2,1,70,0,0
130395,355.029585798817,4,2,1,70,1,0
130750,359.281437125748,4,2,1,75,1,0
131378,491.803278688525,4,2,1,75,1,0
131500,375,4,2,1,80,1,0
131500,-90.9090909090909,4,2,1,80,0,0
136375,387.096774193548,4,2,1,80,1,0
136762,359.281437125748,4,2,1,80,1,0
137121,379.746835443038,4,2,1,80,1,0
137121,-90.9090909090909,4,2,1,80,0,0
137500,375,4,2,1,80,1,0
138437,392.156862745098,4,2,1,80,1,0
138829,375,4,2,1,80,1,0
139016,375,4,2,1,80,1,0
139766,363.636363636364,4,2,1,80,1,0
140129,-90.9090909090909,4,2,1,80,0,0
140493,375,4,2,1,80,1,0
140493,-90.9090909090909,4,2,1,80,0,0
140868,-90.9090909090909,4,2,1,50,0,0
141243,-90.9090909090909,4,2,1,60,0,0
141618,-90.9090909090909,4,2,1,70,0,0
141805,361.44578313253,4,2,1,70,1,0
141985,348.837209302326,4,2,1,80,1,0
142159,392.156862745098,4,2,1,80,1,0
142355,370.37037037037,4,2,1,80,1,0
142540,396.039603960396,4,2,1,80,1,0
142738,375,4,2,1,80,1,0
142925,-90.9090909090909,4,2,1,80,0,0
143394,425.531914893617,4,2,1,80,1,0
143500,375,4,2,1,80,1,0
143500,-142.857142857143,4,2,1,60,0,0
144250,370.37037037037,4,2,1,60,1,0
144250,-142.857142857143,4,2,1,60,0,0
144990,370.37037037037,4,2,1,60,1,0
144990,-142.857142857143,4,2,1,60,0,0
145360,394.736842105263,4,2,1,60,1,0
145360,-142.857142857143,4,2,1,60,0,0
145754,372.670807453416,4,2,1,60,1,0
145754,-142.857142857143,4,2,1,60,0,0
146406,416.666666666667,4,2,1,60,1,0
146510,375,4,2,1,60,1,0
146510,-142.857142857143,4,2,1,60,0,0
152510,-142.857142857143,4,2,1,50,0,0
153260,-142.857142857143,4,2,1,60,0,0
154010,-200,4,2,1,60,0,0
154947,-111.111111111111,4,2,1,70,0,0
155416,298.507462686567,4,2,1,60,1,0
155416,-100,4,2,1,5,0,0
155488,392.156862745098,4,2,1,60,1,0
155488,-125,4,2,1,70,0,0
155880,380.952380952381,4,2,1,70,1,0
156260,368.098159509202,4,2,1,70,1,0
156260,-125,4,2,1,70,0,0
156812,397.350993377483,4,2,1,70,1,0
157010,360.36036036036,4,2,1,70,1,0
157010,-125,4,2,1,70,0,0
157370,390.879478827362,4,2,1,70,1,0
157370,-125,4,2,1,70,0,0
157760,367.534456355283,4,2,1,70,1,0
158127,375,4,2,1,70,1,0
158127,-125,4,2,1,70,0,0
158502,372.670807453416,4,2,1,70,1,0
158502,-125,4,2,1,70,0,0
158874,386.473429951691,4,2,1,70,1,0
158874,-125,4,2,1,70,0,0
159260,363.636363636364,4,2,1,70,1,0
159260,-125,4,2,1,70,0,0
159623,387.096774193548,4,2,1,70,1,0
159623,-125,4,2,1,70,0,0
160010,355.029585798817,4,2,1,70,1,0
160010,-125,4,2,1,70,0,0
160281,375,4,2,1,70,1,0
160374,371.517027863777,4,2,1,70,1,0
160374,-125,4,2,1,70,0,0
160745,292.682926829268,4,2,1,70,1,0
160818,402.684563758389,4,2,1,70,1,0
160818,-125,4,2,1,70,0,0
161120,380.348652931854,4,2,1,70,1,0
161500,375,4,2,1,70,1,0
161500,-125,4,2,1,70,0,0
166000,365.853658536585,4,2,1,70,1,0
166000,-125,4,2,1,70,0,0
166365,384.615384615385,4,2,1,70,1,0
166557,-125,4,2,1,70,0,0
166750,365.853658536585,4,2,1,70,1,0
166841,-125,4,2,1,70,0,0
167480,400,4,2,1,70,1,0
167480,-111.111111111111,4,2,1,70,0,0
167880,372.670807453416,4,2,1,70,1,0
167880,-111.111111111111,4,2,1,70,0,0
168811,379.746835443038,4,2,1,70,1,0
169000,375,4,2,1,70,1,0
169000,-111.111111111111,4,2,1,70,0,0
169937,357.142857142857,4,2,1,70,1,0
170115,375,4,2,1,70,1,0
170115,-111.111111111111,4,2,1,70,0,0
170490,375,4,2,1,70,1,0
170490,-111.111111111111,4,2,1,70,0,0
170865,377.358490566038,4,2,1,70,1,0
171242,365.853658536585,4,2,1,70,1,0
171242,-111.111111111111,4,2,1,70,0,0
171607,365.853658536585,4,2,1,70,1,0
171607,-111.111111111111,4,2,1,70,0,0
171789,402.010050251256,4,2,1,70,1,0
171990,375,4,2,1,50,1,0
172365,-100,4,2,1,60,0,0
172740,-100,4,2,1,70,0,0
173115,394.088669950739,4,2,1,80,1,0
173410,250,4,2,1,65,1,0
173470,394.736842105263,4,2,1,65,1,0
173470,-125,4,2,1,65,0,0
173864,342.857142857143,4,2,1,65,1,0
174035,377.358490566038,4,2,1,65,1,0
174035,-125,4,2,1,65,0,0
174412,406.779661016949,4,2,1,65,1,0
174615,375,4,2,1,65,1,0
174990,375,4,2,1,65,1,0
174990,-125,4,2,1,65,0,0
181365,370.37037037037,4,2,1,65,1,0
181365,-125,4,2,1,65,0,0
181735,372.670807453416,4,2,1,65,1,0
181735,-125,4,2,1,65,0,0
182107,368.098159509202,4,2,1,65,1,0
182107,-125,4,2,1,65,0,0
182475,387.096774193548,4,2,1,65,1,0
182475,-125,4,2,1,65,0,0
182862,377.358490566038,4,2,1,65,1,0
183616,375,4,2,1,65,1,0
183616,-111.111111111111,4,2,1,65,0,0
183991,359.281437125748,4,2,1,50,1,0
184170,375,4,2,1,50,1,0
184357,-100,4,2,1,60,0,0
184732,-100,4,2,1,70,0,0
185107,382.165605095541,4,2,1,80,1,0
185490,385.852090032154,4,2,1,70,1,0
185490,-111.111111111111,4,2,1,70,0,0
185875,372.670807453416,4,2,1,70,1,0
186247,-111.111111111111,4,2,1,70,0,0
186993,375,4,2,1,70,1,0
187180,-111.111111111111,4,2,1,70,0,0
191493,-111.111111111111,4,2,1,75,0,0
192055,389.61038961039,4,2,1,75,1,0
192249,375,4,2,1,75,1,0
192999,375,4,2,1,75,1,0
194311,365.853658536585,4,2,1,75,1,0
194493,375,4,2,1,75,1,0
195993,377.358490566038,4,2,1,75,1,0
196747,415.22491349481,4,2,1,70,1,0
196954,368.098159509202,4,2,1,70,1,0
197414,307.692307692308,4,2,1,70,1,0
197490,369.230769230769,4,2,1,80,1,0
197859,391.517128874388,4,2,1,80,1,0
198250,375,4,2,1,80,1,0
198250,-90.9090909090909,4,2,1,80,0,0
199000,375,4,2,1,80,1,0
199187,-90.9090909090909,4,2,1,80,0,0
200309,400,4,2,1,80,1,0
200512,368.098159509202,4,2,1,80,1,0
200696,-90.9090909090909,4,2,1,80,0,0
200880,375,4,2,1,80,1,0
200880,-90.9090909090909,4,2,1,80,0,0
201817,382.165605095541,4,2,1,80,1,0
202008,367.534456355283,4,2,1,80,1,0
202191,-90.9090909090909,4,2,1,80,0,0
202375,375,4,2,1,80,1,0
202562,-90.9090909090909,4,2,1,80,0,0
203125,385.852090032154,4,2,1,80,1,0
203125,-90.9090909090909,4,2,1,80,0,0
203510,375,4,2,1,80,1,0
203510,-90.9090909090909,4,2,1,80,0,0
204260,361.44578313253,4,2,1,80,1,0
204260,-90.9090909090909,4,2,1,80,0,0
204621,389.61038961039,4,2,1,80,1,0
204621,-90.9090909090909,4,2,1,80,0,0
205010,365.853658536585,4,2,1,80,1,0
205010,-90.9090909090909,4,2,1,80,0,0
205375,375,4,2,1,80,1,0
205375,-90.9090909090909,4,2,1,80,0,0
205750,375,4,2,1,80,1,0
205843,-90.9090909090909,4,2,1,80,0,0
206125,380.348652931854,4,2,1,80,1,0
206125,-90.9090909090909,4,2,1,80,0,0
206505,370.37037037037,4,2,1,80,1,0
206505,-90.9090909090909,4,2,1,80,0,0
206875,375,4,2,1,80,1,0
206875,-90.9090909090909,4,2,1,80,0,0
208000,375,4,2,1,60,1,0
208375,-100,4,2,1,70,0,0
208750,-100,4,2,1,80,0,0
209125,385.852090032154,4,2,1,80,1,0
209125,-90.9090909090909,4,2,1,80,0,0
209510,375,4,2,1,80,1,0
210260,365.853658536585,4,2,1,80,1,0
210442,-90.9090909090909,4,2,1,80,0,0
210625,375,4,2,1,80,1,0
211000,377.358490566038,4,2,1,80,1,0
211000,-90.9090909090909,4,2,1,80,0,0
211377,382.165605095541,4,2,1,80,1,0
211568,-90.9090909090909,4,2,1,80,0,0
211760,370.37037037037,4,2,1,80,1,0
212130,380.348652931854,4,2,1,80,1,0
212130,-90.9090909090909,4,2,1,80,0,0
212510,375,4,2,1,80,1,0
212697,-90.9090909090909,4,2,1,80,0,0
214572,375,4,2,1,80,1,0
214572,-90.9090909090909,4,2,1,80,0,0
214759,285.714285714286,4,2,1,80,1,0
214759,-90.9090909090909,4,2,1,80,0,0
214830,390.879478827362,4,2,1,80,1,0
214830,-90.9090909090909,4,2,1,80,0,0
215123,377.358490566038,4,2,1,80,1,0
215123,-90.9090909090909,4,2,1,80,0,0
215500,370.37037037037,4,2,1,80,1,0
215500,-90.9090909090909,4,2,1,80,0,0
215870,375,4,2,1,80,1,0
215870,-90.9090909090909,4,2,1,80,0,0
216620,385.852090032154,4,2,1,80,1,0
216620,-90.9090909090909,4,2,1,80,0,0
217005,368.098159509202,4,2,1,80,1,0
217005,-90.9090909090909,4,2,1,80,0,0
217373,377.358490566038,4,2,1,80,1,0
217373,-90.9090909090909,4,2,1,80,0,0
217750,365.853658536585,4,2,1,80,1,0
217841,-90.9090909090909,4,2,1,80,0,0
218115,375,4,2,1,80,1,0
218115,-90.9090909090909,4,2,1,80,0,0
218490,375,4,2,1,80,1,0
219615,400,4,2,1,80,1,0
219815,370.37037037037,4,2,1,80,1,0
220000,370.37037037037,4,2,1,80,1,0
220370,398.671096345515,4,2,1,80,1,0
220569,362.537764350453,4,2,1,80,1,0
220750,352.941176470588,4,2,1,80,1,0
220926,375,4,2,1,80,1,0
221113,397.350993377483,4,2,1,80,1,0
221113,-166.666666666667,4,2,1,80,0,0
221510,387.096774193548,4,2,1,80,1,0
221897,357.142857142857,4,2,1,80,1,0
222075,359.281437125748,4,2,1,80,1,0
222434,372.670807453416,4,2,1,80,1,0
222620,377.358490566038,4,2,1,80,1,0
222997,377.358490566038,4,2,1,80,1,0
223940,379.746835443038,4,2,1,80,1,0
224319,402.684563758389,4,2,1,80,1,0
224520,382.165605095541,4,2,1,80,1,0
224520,-125,4,2,1,70,0,0
225093,349.344978165939,4,2,1,70,1,0
225267,-142.857142857143,4,2,1,70,0,0
225617,393.44262295082,4,2,1,70,1,0
225617,-142.857142857143,4,2,1,70,0,0
226010,375,4,2,1,70,1,0
226197,-166.666666666667,4,2,1,70,0,0
227510,374.531835205993,4,2,1,70,1,0
237996,382.165605095541,4,2,1,70,1,0
238760,360.36036036036,4,2,1,70,1,0
239480,384.615384615385,4,2,1,70,1,0
239480,-142.857142857143,4,2,1,65,0,0
239865,375,4,2,1,65,1,0
240240,-142.857142857143,4,2,1,65,0,0
240990,375,4,2,1,65,1,0
241177,-142.857142857143,4,2,1,65,0,0
244740,380.469245402663,4,2,1,65,1,0
244740,-142.857142857143,4,2,1,65,0,0
245500,375,4,2,1,70,1,0
247000,355.029585798817,4,2,1,70,1,0
247177,365.853658536585,4,2,1,70,1,0
247725,375,4,2,1,70,1,0
247912,414.507772020725,4,2,1,70,1,0
248119,381.558028616852,4,2,1,70,1,0
248309,372.670807453416,4,2,1,70,1,0
248495,375,4,2,1,70,1,0
249057,366.412213740458,4,2,1,70,1,0
249423,382.165605095541,4,2,1,70,1,0
249614,368.098159509202,4,2,1,70,1,0
249982,368.098159509202,4,2,1,60,1,0
250350,363.636363636364,4,2,1,70,1,0
250531,-100,4,2,1,70,0,0
250713,389.61038961039,4,2,1,80,1,0
251105,375,4,2,1,90,1,0
251480,385.232744783307,4,2,1,70,1,0
251480,-90.9090909090909,4,2,1,80,0,0
251865,375,4,2,1,80,1,0
252240,-90.9090909090909,4,2,1,80,0,0
252990,375,4,2,1,80,1,0
252990,-90.9090909090909,4,2,1,80,0,0
256177,355.029585798817,4,2,1,80,1,0
256354,387.096774193548,4,2,1,80,1,0
256741,355.029585798817,4,2,1,80,1,0
256918,375,4,2,1,80,1,0
257105,-90.9090909090909,4,2,1,80,0,0
257480,375,4,2,1,80,1,0
257480,-90.9090909090909,4,2,1,80,0,0
258792,-87.6795162509448,4,2,1,80,0,0
259167,-90.9090909090909,4,2,1,80,0,0
259917,-166.666666666667,4,2,1,80,0,0
260292,396.039603960396,4,2,1,80,1,0
260490,375,4,2,1,80,1,0
260490,-90.9090909090909,4,2,1,80,0,0
261240,368.098159509202,4,2,1,80,1,0
261608,375,4,2,1,80,1,0
261608,-90.9090909090909,4,2,1,80,0,0
261983,375,4,2,1,80,1,0
262733,379.746835443038,4,2,1,80,1,0
262922,379.14691943128,4,2,1,80,1,0
262922,-125,4,2,1,80,0,0
263490,368.098159509202,4,2,1,80,1,0
263490,-90.9090909090909,4,2,1,80,0,0
264226,378.548895899054,4,2,1,80,1,0
264226,-90.9090909090909,4,2,1,80,0,0
264604,387.096774193548,4,2,1,80,1,0
264604,-90.9090909090909,4,2,1,80,0,0
264991,387.096774193548,4,2,1,80,1,0
265184,342.857142857143,4,2,1,80,1,0
265355,375,4,2,1,80,1,0
265917,382.165605095541,4,2,1,80,1,0
266108,-90.9090909090909,4,2,1,80,0,0
266299,402.684563758389,4,2,1,80,1,0
266500,375,4,2,1,80,1,0
266500,-90.9090909090909,4,2,1,80,0,0
267437,363.636363636364,4,2,1,80,1,0
267618,-90.9090909090909,4,2,1,80,0,0
267800,390.879478827362,4,2,1,80,1,0
267995,389.61038961039,4,2,1,80,1,0
268384,355.029585798817,4,2,1,80,1,0
268561,372.670807453416,4,2,1,80,1,0
269120,-90.9090909090909,4,2,1,80,0,0
269492,381.558028616852,4,2,1,50,1,0
269873,384.615384615385,4,2,1,50,1,0
270257,359.281437125748,4,2,1,60,1,0
270616,378.548895899054,4,2,1,60,1,0
270994,378.548895899054,4,2,1,60,1,0
271373,382.165605095541,4,2,1,60,1,0
271755,365.853658536585,4,2,1,70,1,0
272120,365.853658536585,4,2,1,70,1,0
272485,375,4,2,1,80,1,0
273985,-100,4,2,1,90,0,0
274547,357.142857142857,4,2,1,90,1,0
274725,375,4,2,1,90,1,0
275480,750,4,2,1,90,1,0
281480,764.331210191083,4,2,1,70,1,0
283008,752.351097178683,4,2,1,70,1,0
286017,725.075528700906,4,2,1,70,1,0
287104,813.559322033898,4,2,1,70,1,0
287510,375,4,2,1,70,1,0
287510,-142.857142857143,4,2,1,65,0,0
295010,-142.857142857143,4,2,1,45,0,0
295760,-142.857142857143,4,2,1,55,0,0
296322,357.142857142857,4,2,1,65,1,0
296500,375,4,2,1,70,1,0
296875,361.44578313253,4,2,1,50,1,0
297597,375,4,2,1,60,1,0
297972,375,4,2,1,70,1,0
298347,-100,4,2,1,80,0,0
298722,-100,4,2,1,90,0,0
300222,413.793103448276,4,2,1,70,1,0
300635,337.078651685393,4,2,1,70,1,0
300803,394.736842105263,4,2,1,70,1,0
301000,350.877192982456,4,2,1,75,1,0
301350,377.358490566038,4,2,1,75,1,0
301538,383.386581469649,4,2,1,75,1,0
301921,389.61038961039,4,2,1,75,1,0
302115,359.281437125748,4,2,1,75,1,0
302475,379.746835443038,4,2,1,80,1,0
302475,-90.9090909090909,4,2,1,80,0,0
302854,386.473429951691,4,2,1,80,1,0
303240,375,4,2,1,80,1,0
303240,-90.9090909090909,4,2,1,80,0,0
303427,387.096774193548,4,2,1,80,1,0
303620,361.44578313253,4,2,1,80,1,0
303620,-90.9090909090909,4,2,1,80,0,0
303800,380.952380952381,4,2,1,80,1,0
303990,375,4,2,1,80,1,0
303990,-90.9090909090909,4,2,1,80,0,0
305115,361.44578313253,4,2,1,80,1,0
305295,380.952380952381,4,2,1,80,1,0
305485,382.165605095541,4,2,1,80,1,0
305485,-90.9090909090909,4,2,1,80,0,0
306249,375,4,2,1,80,1,0
306999,368.098159509202,4,2,1,80,1,0
306999,-90.9090909090909,4,2,1,80,0,0
307367,387.096774193548,4,2,1,80,1,0
307367,-90.9090909090909,4,2,1,80,0,0
307754,363.636363636364,4,2,1,80,1,0
307844,-90.9090909090909,4,2,1,80,0,0
308299,372.670807453416,4,2,1,80,1,0
308485,382.165605095541,4,2,1,80,1,0
308485,-90.9090909090909,4,2,1,80,0,0
309631,365.853658536585,4,2,1,80,1,0
309631,-90.9090909090909,4,2,1,80,0,0
309996,375,4,2,1,60,1,0
310371,-100,4,2,1,70,0,0
310746,368.098159509202,4,2,1,80,1,0
311114,381.558028616852,4,2,1,80,1,0
311114,-90.9090909090909,4,2,1,80,0,0
311495,375,4,2,1,80,1,0
311495,-125,4,2,1,70,0,0
315245,387.096774193548,4,2,1,70,1,0
315245,-125,4,2,1,70,0,0
315825,361.990950226244,4,2,1,70,1,0
316005,368.098159509202,4,2,1,70,1,0
316005,-111.111111111111,4,2,1,70,0,0
316373,-100,4,2,1,75,0,0
316741,365.853658536585,4,2,1,80,1,0
317381,416.666666666667,4,2,1,80,1,0
317485,377.358490566038,4,2,1,70,1,0
317485,-100,4,2,1,60,0,0
317862,-100,4,2,1,5,0,0
318051,-125,4,2,1,65,0,0
318239,-90.9090909090908,4,2,1,65,0,0
318617,-90.9090909090908,4,2,1,5,0,0
318805,-111.111111111111,4,2,1,70,0,0
318994,357.675111773472,4,2,1,70,1,0
318994,-83.3333333333333,4,2,1,70,0,0
319351,-83.3333333333333,4,2,1,5,0,0
319530,410.958904109589,4,2,1,80,1,0
319530,-100,4,2,1,80,0,0
319735,384.615384615385,4,2,1,80,1,0
319735,-76.9230769230769,4,2,1,80,0,0
320311,368.098159509202,4,2,1,85,1,0
320495,375,4,2,1,85,1,0
321245,350.877192982456,4,2,1,85,1,0
321595,385.852090032154,4,2,1,85,1,0
321595,-90.9090909090909,4,2,1,85,0,0
321980,385.852090032154,4,2,1,85,1,0
321980,-90.9090909090909,4,2,1,85,0,0
322366,372.670807453416,4,2,1,85,1,0
322366,-90.9090909090909,4,2,1,85,0,0
323484,375,4,2,1,70,1,0
323859,389.61038961039,4,2,1,70,1,0
324248,372.670807453416,4,2,1,70,1,0
324620,377.358490566038,4,2,1,70,1,0
324997,377.358490566038,4,2,1,70,1,0
326506,368.098159509202,4,2,1,70,1,0
326874,381.558028616852,4,2,1,70,1,0
327255,361.44578313253,4,2,1,70,1,0
327616,384.615384615385,4,2,1,70,1,0
328000,375,4,2,1,70,1,0
329125,380.348652931854,4,2,1,70,1,0
329505,390.879478827362,4,2,1,70,1,0
329505,-125,4,2,1,60,0,0
329700,370.37037037037,4,2,1,60,1,0
329885,-125,4,2,1,60,0,0
330440,372.670807453416,4,2,1,60,1,0
330626,375,4,2,1,60,1,0
330626,-125,4,2,1,60,0,0
331001,375,4,2,1,60,1,0
331001,-125,4,2,1,60,0,0
332126,431.654676258993,4,2,1,60,1,0
332126,-125,4,2,1,60,0,0
332341,338.983050847458,4,2,1,70,1,0
332510,375,4,2,1,70,1,0
332885,375,4,2,1,70,1,0
333916,359.281437125748,4,2,1,70,1,0
334005,375,4,2,1,75,1,0
335411,379.746835443038,4,2,1,75,1,0
335505,365.853658536585,4,2,1,80,1,0
335505,-90.9090909090909,4,2,1,80,0,0
336879,382.165605095541,4,2,1,80,1,0
336974,370.37037037037,4,2,1,85,1,0
337621,459.770114942529,4,2,1,85,1,0
337735,379.746835443038,4,2,1,70,1,0
338494,379.746835443038,4,2,1,70,1,0
338494,-90.9090909090909,4,2,1,80,0,0
339253,370.37037037037,4,2,1,80,1,0
339253,-90.9090909090909,4,2,1,80,0,0
339623,387.096774193548,4,2,1,80,1,0
339623,-90.9090909090909,4,2,1,80,0,0
340010,370.37037037037,4,2,1,80,1,0
340010,-90.9090909090909,4,2,1,80,0,0
340380,375,4,2,1,80,1,0
340380,-90.9090909090909,4,2,1,80,0,0
341130,387.096774193548,4,2,1,80,1,0
341517,361.44578313253,4,2,1,80,1,0
341517,-90.9090909090909,4,2,1,80,0,0
341878,379.746835443038,4,2,1,80,1,0
341878,-90.9090909090909,4,2,1,80,0,0
342257,365.853658536585,4,2,1,80,1,0
342257,-90.9090909090909,4,2,1,80,0,0
342622,383.386581469649,4,2,1,80,1,0
342622,-90.9090909090909,4,2,1,80,0,0
343005,368.098159509202,4,2,1,80,1,0
343373,-90.9090909090909,4,2,1,80,0,0
344109,391.517128874388,4,2,1,80,1,0
344109,-142.857142857143,4,2,1,80,0,0
344500,375,4,2,1,80,1,0
346375,370.37037037037,4,2,1,80,1,0
346745,357.142857142857,4,2,1,80,1,0
346923,416.666666666667,4,2,1,80,1,0
347130,355.029585798817,4,2,1,80,1,0
347485,372.670807453416,4,2,1,80,1,0
347485,-90.9090909090909,4,2,1,80,0,0
348975,-90.9090909090909,4,2,1,60,0,0
349348,-90.9090909090909,4,2,1,70,0,0
349721,-90.9090909090909,4,2,1,80,0,0
350093,397.350993377483,4,2,1,80,1,0
350490,379.746835443038,4,2,1,70,1,0
350490,-111.111111111111,4,2,1,70,0,0
351059,413.793103448276,4,2,1,70,1,0
351265,394.736842105263,4,2,1,70,1,0
351265,-111.111111111111,4,2,1,70,0,0
351659,359.281437125748,4,2,1,70,1,0
351838,434.782608695652,4,2,1,70,1,0
352055,444.444444444444,4,2,1,70,1,0
352277,422.535211267606,4,2,1,70,1,0
352699,474.308300395257,4,2,1,70,1,0
352936,451.127819548872,4,2,1,70,1,0
353161,459.770114942529,4,2,1,70,1,0
353390,508.474576271186,4,2,1,70,1,0
353644,422.535211267606,4,2,1,70,1,0
353855,500,4,2,1,70,1,0
354855,476.190476190476,4,2,1,70,1,0
354855,-222.222222222222,4,2,1,80,0,0
358664,-222.222222222222,4,2,1,70,0,0
359616,-222.222222222222,4,2,1,60,0,0
360569,-222.222222222222,4,2,1,50,0,0
361521,-222.222222222222,4,2,1,40,0,0
361878,-222.222222222222,4,2,1,30,0,0
362235,-222.222222222222,4,2,1,20,0,0
362474,-222.222222222222,4,2,1,10,0,0
362712,-100,4,2,1,5,0,0

[Colours]
Combo1 : 224,201,219
Combo2 : 255,193,193
Combo3 : 218,165,165
Combo4 : 201,160,191

[HitObjects]
23,30,690,6,0,P|46:72|67:141,1,111.36,2|2,0:0|0:0,0:0:0:0:
43,207,1811,1,2,0:0:0:0:
213,304,2185,6,0,P|178:262|117:274,1,111.36,2|2,0:0|0:0,0:0:0:0:
79,327,3306,1,2,0:0:0:0:
275,217,3680,6,0,P|284:190|289:163,1,55.68,2|2,0:0|0:0,0:0:0:0:
289,163,4428,1,2,0:0:0:0:
242,106,4802,1,2,0:0:0:0:
304,46,5175,6,0,B|349:56|349:56|363:71|363:71|406:81,1,111.36,2|2,0:0|0:0,0:0:0:0:
406,2,6297,1,2,0:0:0:0:
238,104,6685,6,0,B|180:115|206:138|130:155,1,111.36,2|2,0:0|0:0,0:0:0:0:
92,211,7834,1,2,0:0:0:0:
10,111,8229,6,0,P|27:135|30:163,1,55.68,2|0,0:0|0:0,0:0:0:0:
165,240,9013,2,0,P|161:267|144:289,1,55.68,2|2,0:0|0:0,0:0:0:0:
224,373,9839,6,0,B|253:360|268:341|268:341|288:354|331:357,1,111.36,2|2,0:0|0:0,0:0:0:0:
321,356,11135,2,0,P|328:335|336:315,1,43.5,2|0,0:0|0:0,0:0:0:0:
258,257,11667,6,0,B|243:210|289:168|278:199|331:158|313:108,1,167.04,2|0,0:0|0:0,0:0:0:0:
250,46,14220,6,0,B|223:92|168:106|136:68|136:68|146:59|152:43,1,167.04,2|0,0:0|0:0,0:0:0:0:
314,111,15790,6,0,B|364:125|413:145|413:145|411:107|431:65,1,167.04,2|0,0:0|0:0,0:0:0:0:
102,228,17510,6,0,B|76:153|5:181|-32:214|-13:282|54:337|63:268|132:299|164:361|164:361|173:364|173:364|135:306|176:203|209:257|237:214|250:172|250:172|258:168|258:168|229:218|239:276|299:300|299:300|352:268|331:218,1,835.2,2|2,0:0|0:0,0:0:0:0:
332,234,20416,1,2,0:0:0:0:
326,230,20510,1,2,0:0:0:0:
256,192,20603,12,0,22760,0:0:0:0:
467,19,22931,5,0,1:2:0:0:
386,158,23105,1,8,0:0:0:0:
461,125,23307,1,0,1:2:0:0:
266,36,23506,5,2,1:2:0:0:
305,104,23693,1,2,0:0:0:0:
269,29,23881,1,2,0:0:0:0:
301,109,24068,1,2,0:0:0:0:
172,208,24443,5,2,0:0:0:0:
99,234,24631,1,2,0:0:0:0:
49,173,24818,1,2,0:0:0:0:
311,297,25193,5,2,0:0:0:0:
430,236,25381,1,2,0:0:0:0:
390,303,25568,1,2,0:0:0:0:
191,324,25943,5,2,0:0:0:0:
191,324,26131,1,2,0:0:0:0:
314,161,26506,5,2,0:0:0:0:
366,104,26693,1,2,0:0:0:0:
312,47,26881,1,2,0:0:0:0:
371,1,27068,1,2,0:0:0:0:
143,154,27443,5,2,0:0:0:0:
185,214,27631,1,2,0:0:0:0:
60,331,27818,1,10,0:0:0:0:
16,268,28193,5,2,1:2:0:0:
91,246,28381,1,2,0:0:0:0:
215,373,28568,1,10,0:0:0:0:
137,350,28943,5,6,0:3:0:0:
171,285,29131,1,10,0:3:0:0:
137,357,29318,1,12,0:3:0:0:
329,325,29506,6,0,P|287:312|244:293,2,78.2999976104737,2|2|2,1:2|0:0|1:2,0:0:0:0:
414,276,30068,2,0,B|406:231|444:197|453:227|490:183|474:131,1,156.599995220947,2|2,0:0|0:0,0:0:0:0:
401,77,30631,1,2,1:2:0:0:
444,7,30818,6,0,P|426:46|413:88,1,78.2999976104737,2|0,0:0|1:2,0:0:0:0:
254,50,31193,1,2,0:0:0:0:
337,19,31381,1,2,1:2:0:0:
376,158,31568,2,0,P|334:149|314:112,1,78.2999976104737,2|0,0:0|1:2,0:0:0:0:
415,79,31943,1,2,0:0:0:0:
275,205,32130,2,0,B|211:222|233:247|156:268,1,117.449996415711,2|0,1:2|0:0,0:0:0:0:
120,206,32500,6,0,P|88:233|88:275,2,78.2999976104737,2|2|2,1:2|0:0|1:2,0:0:0:0:
75,85,33062,2,0,P|101:141|212:138,1,156.599995220947,2|2,0:0|0:0,0:0:0:0:
275,205,33625,1,2,1:2:0:0:
305,74,33812,6,0,B|266:63|241:79|225:113|225:113|253:158|272:214,1,195.75,14|0,0:0|0:0,0:0:0:0:
275,205,34750,5,10,0:0:0:0:
133,24,34937,1,10,0:0:0:0:
492,283,35490,6,0,P|435:274|392:352,1,143.550004380798,6|0,1:2|0:0,0:0:0:0:
395,345,35875,1,10,0:0:0:0:
482,373,36062,1,2,0:0:0:0:
327,270,36250,2,0,P|291:319|303:358,1,95.7000029205323,2|0,1:2|0:0,0:0:0:0:
416,249,36625,2,0,P|391:193|351:184,1,95.7000029205323,10|0,0:0|0:0,0:0:0:0:
125,282,37000,5,2,1:2:0:0:
237,219,37187,1,2,0:0:0:0:
103,104,37375,2,0,P|121:144|141:209,1,95.7000029205323,10|0,0:0|0:0,0:0:0:0:
323,34,37750,5,2,1:2:0:0:
199,97,37937,1,2,0:0:0:0:
291,128,38125,1,10,0:0:0:0:
228,5,38312,1,2,0:0:0:0:
483,52,38500,6,0,P|439:71|394:87,1,95.7000029205323,2|0,1:2|0:0,0:0:0:0:
512,277,38875,1,10,0:0:0:0:
362,177,39062,1,2,0:0:0:0:
463,153,39250,2,0,P|443:196|427:241,1,95.7000029205323,2|0,1:2|0:0,0:0:0:0:
266,369,39625,2,0,P|319:361|343:271,1,143.550004380798,10|0,0:0|0:0,0:0:0:0:
338,280,40000,5,2,1:2:0:0:
431,361,40187,1,2,0:0:0:0:
246,278,40375,2,0,P|202:297|156:312,1,95.7000029205323,10|0,0:0|0:0,0:0:0:0:
71,370,40750,1,2,1:2:0:0:
67,376,40843,1,8,0:0:0:0:
31,165,41125,2,0,P|-7:207|24:288,1,143.550004380798,2|0,1:2|0:0,0:0:0:0:
14,293,41485,5,12,0:0:0:0:
189,180,41672,1,0,1:2:0:0:
98,96,41860,1,0,1:2:0:0:
85,229,42047,5,8,0:0:0:0:
221,72,42235,1,0,1:2:0:0:
91,236,42422,1,0,1:2:0:0:
332,299,42610,5,12,0:0:0:0:
189,180,42797,1,0,1:2:0:0:
297,372,42985,1,0,1:2:0:0:
446,203,43172,5,8,0:0:0:0:
224,292,43360,1,0,1:2:0:0:
454,210,43547,1,0,1:2:0:0:
221,72,43735,5,12,0:0:0:0:
356,216,43922,1,0,1:2:0:0:
469,18,44110,1,12,0:0:0:0:
322,112,44297,5,0,1:0:0:0:
316,118,44391,1,0,1:0:0:0:
310,125,44485,2,0,P|329:168|344:213,1,95.7000029205323,4|0,1:2|1:2,0:0:0:0:
512,137,44860,2,0,P|474:104|420:113,1,95.7000029205323,0|0,1:2|1:2,0:0:0:0:
255,243,45235,5,8,0:0:0:0:
344,299,45422,1,8,0:0:0:0:
118,346,45610,5,8,0:0:0:0:
248,242,45797,1,8,0:0:0:0:
72,127,45985,5,8,0:0:0:0:
120,202,46172,1,0,1:2:0:0:
203,167,46360,1,0,1:2:0:0:
65,120,46547,5,8,0:0:0:0:
248,242,46735,1,2,0:0:0:0:
278,255,46827,1,2,0:0:0:0:
311,239,46919,2,0,P|317:215|328:192,1,43.5,2|2,0:0|0:0,0:0:0:0:
495,89,47103,1,10,0:0:0:0:
464,79,47202,1,2,0:0:0:0:
433,87,47301,1,2,0:0:0:0:
410,111,47401,1,2,0:0:0:0:
404,142,47500,6,0,P|421:187|440:248,1,91.3499972122193,4|0,1:2|0:0,0:0:0:0:
446,235,47875,2,0,P|454:204|472:164,1,60.8999981414796,0|0,1:2|0:0,0:0:0:0:
376,280,48250,2,0,P|367:310|350:351,1,60.8999981414796,2|0,1:2|0:0,0:0:0:0:
427,366,48625,2,0,P|457:369|485:341,1,60.8999981414796,2|0,1:2|0:0,0:0:0:0:
305,242,49000,6,0,P|266:241|223:288,1,91.3499972122193,2|0,1:2|0:0,0:0:0:0:
226,286,49375,2,0,P|237:314|245:343,1,60.8999981414796,2|0,1:2|0:0,0:0:0:0:
34,272,49750,2,0,P|66:302|111:303,1,91.3499972122193,2|0,1:2|0:0,0:0:0:0:
122,298,50125,2,0,P|130:268|141:240,1,60.8999981414796,2|0,1:2|0:0,0:0:0:0:
197,97,50500,6,0,B|168:109|147:135|147:135|117:118|72:121,2,121.799996282959,2|0|0,1:2|1:2|1:2,0:0:0:0:
260,36,51437,1,0,0:0:0:0:
272,40,51625,2,0,P|291:70|286:105,1,60.8999981414796,0|0,1:2|0:0,0:0:0:0:
449,196,52000,6,0,P|427:166|362:173,1,91.3499972122193,0|0,1:2|0:0,0:0:0:0:
367,152,52375,2,0,P|367:121|385:97,1,60.8999981414796,2|0,1:2|0:0,0:0:0:0:
325,223,52750,2,0,P|299:207|286:179,1,60.8999981414796,2|0,1:2|0:0,0:0:0:0:
405,263,53125,2,0,P|419:289|416:319,1,60.8999981414796,2|0,1:2|0:0,0:0:0:0:
343,366,53510,6,0,P|300:350|217:330,1,121.799996282959,2|0,1:2|1:2,0:0:0:0:
226,331,54072,1,0,0:0:0:0:
150,382,54265,2,0,P|136:356|139:326,1,60.8999981414796,0|0,1:2|0:0,0:0:0:0:
65,287,54638,2,0,P|80:261|107:249,1,60.8999981414796,0|0,1:2|0:0,0:0:0:0:
281,179,55012,2,0,P|244:210|188:191,1,91.3499972122193,0|0,1:2|0:0,0:0:0:0:
191,196,55386,6,0,P|182:166|171:138,1,60.8999981414796,2|0,1:2|0:0,0:0:0:0:
237,93,55745,2,0,P|245:63|256:35,1,60.8999981414796,2|0,1:2|0:0,0:0:0:0:
162,136,56120,2,0,P|133:124|104:116,1,60.8999981414796,2|0,1:2|0:0,0:0:0:0:
287,184,56485,6,0,B|353:198|331:225|407:242,1,121.799996282959,2|0,1:2|1:2,0:0:0:0:
394,238,57064,1,0,0:0:0:0:
465,197,57252,2,0,P|481:222|481:252,1,60.8999981414796,0|0,1:2|0:0,0:0:0:0:
361,372,57627,2,0,P|344:346|344:316,1,60.8999981414796,2|0,1:2|0:0,0:0:0:0:
368,167,58005,5,10,0:0:0:0:
89,111,58942,5,10,0:0:0:0:
58,44,59128,2,0,P|69:72|77:101,1,60.8999981414796,8|2,0:0|0:0,0:0:0:0:
11,276,59500,6,0,P|42:216|121:203,1,139.2,6|8,1:2|0:0,0:0:0:0:
202,338,60062,1,0,0:0:0:0:
95,289,60250,2,0,P|131:274|169:264,1,69.6,2|0,1:2|0:0,0:0:0:0:
297,150,60625,2,0,P|333:164|371:174,1,69.6,8|0,0:0|0:0,0:0:0:0:
212,189,61000,6,0,P|187:149|215:73,1,104.4,2|0,1:2|0:0,0:0:0:0:
199,83,61375,2,0,P|232:73|264:60,1,69.6,10|0,0:0|0:0,0:0:0:0:
368,180,61750,6,0,P|348:228|329:291,1,104.4,2|0,1:2|0:0,0:0:0:0:
338,292,62125,2,0,P|361:315|406:314,1,69.6,10|0,0:0|0:0,0:0:0:0:
218,194,62500,6,0,B|200:163|152:171|152:171|135:205|90:210,1,139.2,2|8,1:2|0:0,0:0:0:0:
131,57,63062,1,0,0:0:0:0:
11,153,63249,2,0,P|43:140|76:130,1,69.6,0|0,1:2|0:0,0:0:0:0:
204,74,63624,2,0,P|170:64|138:51,1,69.6,8|0,0:0|0:0,0:0:0:0:
225,202,63999,6,0,P|284:210|312:181,1,104.4,0|0,1:2|0:0,0:0:0:0:
326,183,64374,2,0,P|312:150|303:117,1,69.6,10|0,0:0|0:0,0:0:0:0:
405,223,64749,1,2,1:2:0:0:
412,229,64841,2,0,P|445:238|477:251,1,69.6,8|0,0:0|0:0,0:0:0:0:
486,248,65119,2,0,P|511:223|506:179,1,69.6,2|0,1:2|0:0,0:0:0:0:
333,275,65500,6,0,P|304:316|328:372,1,104.4,2|0,1:2|0:0,0:0:0:0:
329,373,65875,2,0,P|361:359|394:350,1,69.6,8|0,0:0|0:0,0:0:0:0:
219,296,66250,2,0,P|186:309|153:318,1,69.6,0|0,1:2|0:0,0:0:0:0:
71,293,66613,2,0,P|46:316|45:350,1,69.6,8|0,0:0|0:0,0:0:0:0:
144,229,67000,6,0,B|154:178|175:195|188:136,1,104.4,0|0,1:2|0:0,0:0:0:0:
184,128,67375,2,0,P|150:118|118:105,1,69.6,10|0,0:0|0:0,0:0:0:0:
279,209,67750,2,0,P|327:189|390:170,1,104.4,2|0,1:2|0:0,0:0:0:0:
387,178,68125,2,0,P|412:216|405:255,1,69.6,10|0,0:0|0:0,0:0:0:0:
272,111,68500,6,0,P|305:68|394:76,2,139.2,2|8|0,1:2|0:0|1:2,0:0:0:0:
133,3,69437,1,0,0:0:0:0:
54,121,69625,2,0,P|86:107|119:98,1,69.6,10|0,0:0|0:0,0:0:0:0:
206,39,70000,6,0,P|172:29|140:16,1,69.6,2|0,1:2|0:0,0:0:0:0:
272,111,70375,1,10,0:0:0:0:
137,227,70562,1,2,0:0:0:0:
190,146,70750,1,0,1:2:0:0:
198,149,70824,2,0,P|207:182|220:214,1,69.6,10|0,0:0|0:0,0:0:0:0:
227,222,71125,1,0,1:2:0:0:
46,358,71312,5,6,0:3:0:0:
25,322,71406,1,8,0:3:0:0:
53,282,71500,2,0,P|101:302|164:321,1,117.449996415711,6|0,1:2|0:0,0:0:0:0:
169,328,71870,1,8,0:0:0:0:
326,256,72062,1,0,0:0:0:0:
283,384,72254,2,0,P|259:356|265:305,1,78.2999976104737,0|0,1:2|0:0,0:0:0:0:
424,252,72617,2,0,P|409:288|398:326,1,78.2999976104737,8|0,0:0|0:0,0:0:0:0:
227,222,73000,6,0,P|210:165|188:111,1,117.449996415711,2|0,1:2|0:0,0:0:0:0:
179,108,73375,1,8,0:0:0:0:
371,49,73562,1,2,0:0:0:0:
295,0,73750,2,0,P|284:37|269:74,1,78.2999976104737,0|0,1:2|0:0,0:0:0:0:
315,163,74125,2,0,P|347:182|385:176,1,78.2999976104737,10|0,0:0|0:0,0:0:0:0:
179,108,74500,6,0,B|98:125|125:158|31:179,1,156.599995220947,2|8,1:2|0:0,0:0:0:0:
40,176,75062,1,0,0:0:0:0:
176,272,75250,1,0,1:2:0:0:
19,382,75437,1,0,0:0:0:0:
76,261,75625,2,0,P|90:297|101:334,1,78.2999976104737,8|0,0:0|0:0,0:0:0:0:
101,335,76000,5,10,0:3:0:0:
188,375,76191,1,8,0:3:0:0:
390,289,76382,5,10,0:3:0:0:
259,229,76561,1,8,0:3:0:0:
176,272,76741,5,10,0:3:0:0:
391,159,76920,1,8,0:3:0:0:
241,27,77113,6,0,P|264:100|282:165,1,130.5,10|0,0:0|0:0,0:0:0:0:
259,229,77480,6,0,P|193:245|141:203,1,139.2,6|0,1:2|1:2,0:0:0:0:
146,55,78062,1,4,0:3:0:0:
161,80,78156,1,8,0:3:0:0:
156,104,78250,2,0,P|122:113|90:126,1,69.6,4|0,0:3|0:0,0:0:0:0:
19,75,78625,2,0,P|32:42|41:9,1,69.6,10|2,0:3|0:0,0:0:0:0:
141,203,79000,5,8,0:3:0:0:
0,310,79187,1,8,0:3:0:0:
45,196,79375,2,0,P|58:228|67:261,1,69.6,4|0,0:3|1:2,0:0:0:0:
231,345,79750,2,0,P|201:305|130:308,1,104.4,10|0,0:0|0:0,0:0:0:0:
143,304,80125,2,0,P|129:336|120:369,1,69.6,6|0,0:3|0:0,0:0:0:0:
302,255,80500,6,0,P|347:304|414:297,1,139.2,2|0,1:2|1:2,0:0:0:0:
386,158,81062,1,4,0:3:0:0:
371,183,81156,1,8,0:3:0:0:
385,208,81250,2,0,P|417:194|450:185,1,69.6,4|0,0:3|0:0,0:0:0:0:
267,103,81625,2,0,P|280:135|289:168,1,69.6,6|0,0:3|0:0,0:0:0:0:
205,8,82000,5,2,1:2:0:0:
355,76,82185,1,0,1:2:0:0:
196,192,82370,1,6,0:3:0:0:
152,131,82555,1,2,1:2:0:0:
285,32,82740,2,0,P|271:64|262:97,1,69.6,8|0,0:0|1:2,0:0:0:0:
385,208,83114,1,8,0:3:0:0:
462,58,83307,1,6,0:3:0:0:
278,174,83492,6,0,B|289:249|324:222|339:310,1,139.2,6|0,1:2|1:2,0:0:0:0:
487,370,84056,1,4,0:3:0:0:
492,343,84145,1,8,0:3:0:0:
472,319,84234,2,0,P|440:333|407:342,1,69.6,4|0,0:3|0:0,0:0:0:0:
302,384,84618,2,0,P|249:362|179:341,1,104.4,2|0,1:2|0:0,0:0:0:0:
195,341,84993,6,0,P|208:309|218:275,1,69.6,6|4,0:3|0:3,0:0:0:0:
76,212,85363,2,0,P|89:243|99:277,1,69.6,10|0,0:3|1:2,0:0:0:0:
35,362,85733,6,0,P|7:332|15:290,1,69.6,10|0,0:0|0:0,0:0:0:0:
152,131,86130,2,0,P|180:161|172:203,1,69.6,6|0,0:3|0:0,0:0:0:0:
19,101,86505,6,0,P|47:49|134:41,1,139.2,2|0,1:2|1:2,0:0:0:0:
268,149,87052,1,10,0:3:0:0:
363,8,87239,1,8,0:3:0:0:
243,49,87427,1,4,0:3:0:0:
375,164,87614,2,0,P|365:130|351:98,1,69.6,14|2,0:0|0:0,0:0:0:0:
473,203,87989,5,4,0:3:0:0:
468,213,88174,1,4,0:3:0:0:
364,246,88359,5,4,0:3:0:0:
443,333,88544,1,4,0:3:0:0:
267,234,88729,5,4,0:3:0:0:
458,107,88914,1,8,0:3:0:0:
250,321,89100,5,10,0:0:0:0:
256,328,89292,1,6,0:3:0:0:
120,122,89485,6,0,P|61:150|60:259,1,156.599995220947,6|0,1:2|1:2,0:0:0:0:
45,233,90058,1,2,0:0:0:0:
41,323,90249,2,0,P|80:326|108:301,1,78.2999976104737,0|0,1:2|0:0,0:0:0:0:
192,262,90625,2,0,P|175:227|139:215,1,78.2999976104737,2|0,1:2|0:0,0:0:0:0:
120,122,90993,5,2,1:2:0:0:
9,71,91181,2,0,P|25:109|36:149,1,78.2999976104737,2|0,0:0|1:2,0:0:0:0:
139,215,91556,1,2,0:0:0:0:
146,48,91742,2,0,P|134:85|119:121,1,78.2999976104737,0|0,1:2|0:0,0:0:0:0:
302,148,92115,2,0,P|290:85|214:73,1,117.449996415711,2|0,1:2|0:0,0:0:0:0:
216,134,92495,6,0,P|253:145|289:160,1,78.2999976104737,2|0,1:2|0:0,0:0:0:0:
402,105,92870,1,0,1:2:0:0:
365,27,93057,2,0,P|380:63|391:100,1,78.2999976104737,2|0,0:0|1:2,0:0:0:0:
502,145,93432,1,2,0:0:0:0:
427,189,93620,2,0,P|411:225|399:263,1,78.2999976104737,2|0,1:2|0:0,0:0:0:0:
265,363,94000,5,2,1:2:0:0:
309,242,94187,2,0,P|320:279|335:315,1,78.2999976104737,2|0,0:0|1:2,0:0:0:0:
169,234,94562,1,2,0:0:0:0:
236,179,94750,2,0,P|251:142|262:105,1,78.2999976104737,0|0,1:2|0:0,0:0:0:0:
93,257,95125,2,0,P|77:293|66:330,1,78.2999976104737,0|8,1:2|0:0,0:0:0:0:
69,338,95406,5,8,0:0:0:0:
74,344,95490,1,2,1:2:0:0:
169,234,95678,1,2,0:0:0:0:
19,188,95866,1,2,1:2:0:0:
159,63,96054,1,2,0:0:0:0:
39,19,96242,2,0,P|58:62|71:106,1,87,2|0,1:2|0:0,0:0:0:0:
169,234,96618,1,2,1:2:0:0:
322,78,96806,1,2,0:0:0:0:
143,148,96994,5,2,1:2:0:0:
350,258,97182,1,2,0:0:0:0:
273,11,97370,2,0,P|242:42|245:95,1,87,2|0,1:2|0:0,0:0:0:0:
432,215,97747,1,2,1:2:0:0:
223,323,97931,1,2,0:0:0:0:
298,189,98115,1,2,1:2:0:0:
458,333,98324,5,10,0:0:0:0:
430,368,98407,1,8,0:0:0:0:
385,358,98490,1,6,1:2:0:0:
292,192,98677,2,0,P|309:231|322:273,1,87,8|0,0:0|0:0,0:0:0:0:
389,134,99052,1,2,1:2:0:0:
195,225,99240,6,0,B|112:250|145:290|41:323,1,174,10|0,0:0|0:0,0:0:0:0:
0,243,99802,1,2,0:0:0:0:
223,323,99990,1,2,1:2:0:0:
34,57,100759,5,8,0:0:0:0:
8,88,100847,1,8,0:0:0:0:
21,124,100935,2,0,P|45:129|66:138,1,43.5,8|8,0:0|0:0,0:0:0:0:
266,82,101111,1,8,0:0:0:0:
254,51,101200,1,8,0:0:0:0:
229,30,101288,1,8,0:0:0:0:
198,23,101376,1,8,0:0:0:0:
166,30,101500,5,6,1:2:0:0:
261,172,101687,1,2,0:0:0:0:
140,114,101875,1,10,0:0:0:0:
326,9,102062,1,2,0:0:0:0:
331,15,102156,2,0,P|380:30|431:43,1,95.7000029205323,2|0,0:0|0:0,0:0:0:0:
428,49,102437,1,2,0:0:0:0:
488,211,102625,1,10,0:0:0:0:
372,136,102812,1,2,0:0:0:0:
512,82,103000,5,2,1:2:0:0:
384,234,103187,2,0,P|429:219|475:207,1,95.7000029205323,2|8,0:0|0:0,0:0:0:0:
256,171,103562,2,0,P|222:206|246:297,1,143.550004380798,2|8,0:0|0:0,0:0:0:0:
249,296,103937,1,2,0:0:0:0:
73,376,104125,2,0,P|87:330|99:284,1,95.7000029205323,0|2,1:2|0:0,0:0:0:0:
31,121,104500,5,2,1:2:0:0:
99,189,104687,1,2,0:0:0:0:
112,18,104875,1,10,0:0:0:0:
173,125,105062,1,2,0:0:0:0:
335,15,105250,1,2,1:2:0:0:
249,175,105437,1,2,0:0:0:0:
476,124,105625,1,10,0:0:0:0:
343,274,105812,1,2,0:0:0:0:
285,97,106000,5,2,1:2:0:0:
456,218,106187,1,2,0:0:0:0:
371,97,106375,1,10,0:0:0:0:
511,34,106562,1,14,0:0:0:0:
365,178,106750,1,0,1:2:0:0:
371,183,106843,2,0,P|356:228|344:274,1,95.7000029205323,8|0,0:0|0:0,0:0:0:0:
347,283,107125,1,0,1:2:0:0:
249,175,107312,1,0,0:0:0:0:
488,357,107500,6,0,B|462:318|418:322|418:322|405:354|374:363,1,143.550004380798,6|0,1:2|0:0,0:0:0:0:
300,346,107865,2,0,P|258:372|205:368,1,95.7000029205323,8|0,0:0|0:0,0:0:0:0:
50,190,108250,1,2,1:2:0:0:
196,275,108437,1,0,0:0:0:0:
41,365,108625,1,8,0:0:0:0:
157,191,108812,1,0,0:0:0:0:
12,269,109000,6,0,P|58:281|105:296,1,95.7000029205323,2|0,1:2|0:0,0:0:0:0:
244,158,109375,2,0,P|198:173|152:185,1,95.7000029205323,10|0,0:0|0:0,0:0:0:0:
50,18,109750,1,2,1:2:0:0:
46,22,109834,2,0,P|17:62|33:112,1,87,8|0,0:0|0:0,0:0:0:0:
94,126,110130,2,0,P|125:87|111:36,1,95.7000029205323,0|0,1:2|0:0,0:0:0:0:
386,140,110500,6,0,B|346:141|317:126|317:126|300:155|259:170,1,143.550004380798,2|0,1:2|0:0,0:0:0:0:
244,158,110870,2,0,P|215:118|233:62,1,95.7000029205323,8|0,0:0|0:0,0:0:0:0:
385,230,111240,2,0,B|371:276|353:309|353:309|374:325|399:353,1,143.550004380798,0|0,1:2|0:0,0:0:0:0:
456,296,111613,2,0,P|429:246|385:239,1,95.7000029205323,10|0,0:0|0:0,0:0:0:0:
184,309,112002,5,6,0:3:0:0:
267,272,112182,1,4,0:3:0:0:
113,258,112363,5,6,0:3:0:0:
325,340,112550,1,6,0:3:0:0:
73,376,112738,5,4,0:3:0:0:
385,230,112925,1,6,0:3:0:0:
85,128,113113,6,0,P|63:178|109:258,1,143.550004380798,8|0,0:0|0:0,0:0:0:0:
113,258,113500,6,0,P|150:223|195:229,1,87,6|0,1:2|0:0,0:0:0:0:
359,101,113875,1,10,0:0:0:0:
274,7,114062,2,0,P|262:48|243:102,1,95.7000029205323,2|0,0:0|1:2,0:0:0:0:
393,201,114437,1,2,0:0:0:0:
465,109,114625,1,10,0:0:0:0:
291,175,114812,1,2,0:0:0:0:
438,297,115000,5,2,1:2:0:0:
393,201,115187,1,2,0:0:0:0:
512,241,115375,1,10,0:0:0:0:
356,371,115564,2,0,P|297:331|227:340,1,143.550004380798,2|8,0:0|0:0,0:0:0:0:
229,349,115944,1,2,0:0:0:0:
55,192,116134,1,0,1:2:0:0:
123,281,116312,6,0,P|115:304|108:338,1,47.8500014602662,2|2,0:0|0:0,0:0:0:0:
106,333,116506,1,2,1:2:0:0:
239,244,116687,1,2,0:0:0:0:
114,50,116874,2,0,P|135:117|158:199,1,143.550004380798,10|0,0:0|0:0,0:0:0:0:
151,195,117249,1,2,1:2:0:0:
296,85,117437,1,2,0:0:0:0:
208,38,117624,1,10,0:0:0:0:
374,154,117812,1,2,0:0:0:0:
247,241,117999,5,2,1:2:0:0:
400,55,118186,2,0,P|384:100|370:146,1,95.7000029205323,2|8,0:0|0:0,0:0:0:0:
436,308,118561,1,14,0:0:0:0:
231,137,118749,1,0,1:2:0:0:
225,143,118842,2,0,P|240:188|254:234,1,95.7000029205323,8|0,1:2|0:0,0:0:0:0:
247,241,119124,2,0,P|306:249|338:223,1,95.7000029205323,0|0,1:2|0:0,0:0:0:0:
113,52,119493,6,0,B|78:65|45:85|45:85|8:70|15:15,1,143.550004380798,6|0,1:2|0:0,0:0:0:0:
121,60,119875,2,0,P|136:107|91:151,1,95.7000029205323,8|0,0:0|0:0,0:0:0:0:
42,348,120260,6,0,P|5:302|36:223,1,143.550004380798,2|0,1:2|0:0,0:0:0:0:
40,218,120635,2,0,P|85:233|131:247,1,95.7000029205323,8|0,0:0|0:0,0:0:0:0:
316,360,121010,6,0,B|352:305|408:306|408:306|441:346|490:354,1,191.400005841065,2|8,1:2|0:0,0:0:0:0:
343,271,121554,1,0,0:0:0:0:
480,129,121744,1,2,1:2:0:0:
487,134,121839,2,0,P|515:182|487:228,1,95.7000029205323,8|0,0:0|0:0,0:0:0:0:
493,223,122131,2,0,P|447:207|401:193,1,95.7000029205323,0|0,1:2|0:0,0:0:0:0:
227,56,122498,5,14,0:0:0:0:
317,116,122686,1,0,1:2:0:0:
185,203,122875,1,0,1:2:0:0:
328,20,123057,5,8,0:0:0:0:
107,129,123241,1,0,1:2:0:0:
343,271,123425,1,0,1:2:0:0:
113,362,123609,5,14,0:0:0:0:
268,180,123797,1,0,1:2:0:0:
85,275,123985,5,10,0:0:0:0:
286,368,124177,1,10,0:0:0:0:
186,122,124369,5,10,0:0:0:0:
20,372,124561,1,10,0:0:0:0:
343,271,124740,5,8,0:0:0:0:
33,174,124924,1,10,0:0:0:0:
401,44,125120,5,8,0:0:0:0:
401,44,125500,6,0,P|429:85|419:115,1,69.6,2|2,0:0|0:0,0:0:0:0:
426,101,125875,1,10,0:0:0:0:
299,151,126062,6,0,P|320:106|351:99,1,69.6,2|2,0:0|0:0,0:0:0:0:
335,99,126437,1,2,1:2:0:0:
442,185,126625,6,0,P|392:188|371:165,1,69.6,10|0,0:0|0:0,0:0:0:0:
378,177,127187,1,0,1:2:0:0:
454,368,127375,6,0,P|493:348|499:257,1,139.2,8|0,0:0|0:0,0:0:0:0:
345,322,127937,1,0,0:0:0:0:
416,293,128129,2,0,P|382:302|349:315,1,69.6,2|2,0:0|0:0,0:0:0:0:
203,360,128520,6,0,B|207:312|173:269|124:281|106:298|106:298|125:307|143:340,1,182.699994424439,2|0,0:0|0:0,0:0:0:0:
203,360,129270,6,0,B|184:312|231:277|237:282|241:290|292:253|276:206,1,182.699994424439,2|0,0:0|0:0,0:0:0:0:
174,187,130020,6,0,P|190:207|176:186,1,69.6,2|0,0:0|0:0,0:0:0:0:
18,44,130750,5,10,0:0:0:0:
56,19,130839,1,8,0:0:0:0:
95,32,130929,2,0,P|103:55|117:78,1,43.5,8|8,0:0|0:0,0:0:0:0:
65,226,131109,5,8,0:0:0:0:
24,205,131199,1,8,0:0:0:0:
16,165,131288,2,0,P|31:146|44:122,1,43.5,8|8,0:0|0:0,0:0:0:0:
204,35,131500,6,0,B|240:41|280:67|280:67|323:62|342:29,1,143.550004380798,6|0,1:2|0:0,0:0:0:0:
340,44,131875,2,0,P|379:83|376:122,1,95.7000029205323,10|2,0:0|0:0,0:0:0:0:
219,300,132250,2,0,P|167:256|186:171,1,143.550004380798,2|0,1:2|0:0,0:0:0:0:
181,189,132625,2,0,P|226:177|272:160,1,95.7000029205323,10|0,0:0|0:0,0:0:0:0:
475,311,133000,5,2,1:2:0:0:
330,231,133187,1,2,0:0:0:0:
484,315,133375,2,0,P|439:327|393:344,1,95.7000029205323,10|0,0:0|0:0,0:0:0:0:
219,300,133750,2,0,B|141:314|169:347|80:360,1,143.550004380798,2|0,1:2|0:0,0:0:0:0:
80,353,134125,1,10,0:0:0:0:
173,186,134312,1,2,0:0:0:0:
4,226,134500,6,0,P|49:238|95:255,1,95.7000029205323,2|0,1:2|0:0,0:0:0:0:
219,300,134875,1,10,0:0:0:0:
118,98,135062,1,2,0:0:0:0:
271,161,135250,2,0,P|226:173|180:190,1,95.7000029205323,2|0,1:2|0:0,0:0:0:0:
371,28,135625,2,0,P|414:51|431:139,1,143.550004380798,10|0,0:0|0:0,0:0:0:0:
424,142,136000,5,2,1:2:0:0:
302,249,136187,1,2,0:0:0:0:
491,347,136375,1,10,0:0:0:0:
420,239,136568,1,8,0:0:0:0:
285,373,136762,1,0,1:2:0:0:
289,381,136851,1,8,0:0:0:0:
144,163,137121,2,0,B|176:239|176:239|154:267|146:291,1,143.550004380798,2|0,1:2|0:0,0:0:0:0:
138,296,137500,5,12,0:0:0:0:
246,149,137687,1,0,1:2:0:0:
70,235,137875,1,0,1:2:0:0:
254,296,138062,5,8,0:0:0:0:
45,143,138250,1,0,1:2:0:0:
285,54,138437,1,0,1:2:0:0:
199,230,138633,5,12,0:0:0:0:
369,117,138829,1,0,1:2:0:0:
171,10,139016,1,0,1:2:0:0:
333,202,139203,5,8,0:0:0:0:
460,17,139391,1,0,1:2:0:0:
246,149,139578,1,0,1:2:0:0:
501,262,139766,5,12,0:0:0:0:
369,117,139947,1,0,1:2:0:0:
508,268,140129,2,0,P|491:312|478:359,1,95.7000029205323,12|0,0:0|0:0,0:0:0:0:
404,366,140402,5,2,3:0:0:0:
399,371,140493,2,0,P|329:372|287:318,1,143.550004380798,12|0,0:3|0:0,0:0:0:0:
294,311,140868,5,4,0:3:0:0:
206,361,141055,1,4,0:3:0:0:
147,228,141243,5,4,0:3:0:0:
300,316,141430,1,4,0:3:0:0:
332,128,141618,5,4,0:3:0:0:
143,234,141805,1,4,0:3:0:0:
107,60,141985,5,8,0:0:0:0:
254,208,142159,1,0,1:2:0:0:
133,320,142355,1,0,1:2:0:0:
235,98,142540,5,8,0:0:0:0:
449,206,142738,1,2,1:2:0:0:
439,220,142831,1,2,0:0:0:0:
420,225,142925,2,0,P|407:204|400:181,1,47.8500014602662,2|2,1:2|0:0,0:0:0:0:
335,247,143113,2,0,P|322:267|315:290,1,47.8500014602662,14|2,0:0|0:0,0:0:0:0:
377,345,143300,2,0,P|390:325|397:302,1,47.8500014602662,2|2,0:0|0:0,0:0:0:0:
254,208,143500,6,0,B|228:178|182:182|182:182|170:201|142:219,1,121.799996282959,4|0,1:2|1:2,0:0:0:0:
152,211,144062,1,0,0:0:0:0:
61,66,144250,2,0,P|40:88|36:118,1,60.8999981414796,2|0,1:2|0:0,0:0:0:0:
107,150,144620,2,0,P|127:128|131:98,1,60.8999981414796,2|0,1:2|0:0,0:0:0:0:
25,211,144990,6,0,P|39:255|54:312,1,91.3499972122193,2|0,1:2|0:0,0:0:0:0:
58,303,145360,2,0,P|86:291|115:283,1,60.8999981414796,2|0,1:2|0:0,0:0:0:0:
176,334,145754,2,0,P|205:342|233:353,1,60.8999981414796,2|0,1:2|0:0,0:0:0:0:
334,268,146126,2,0,P|327:283|320:306,3,30.4499990707398,2|0|0|0,1:2|3:0|3:0|3:0,0:0:0:0:
314,302,146510,6,0,P|276:254|304:189,1,121.799996282959,2|0,1:2|1:2,0:0:0:0:
291,200,147072,1,0,0:0:0:0:
397,104,147260,2,0,P|385:132|377:161,1,60.8999981414796,0|0,1:2|0:0,0:0:0:0:
454,44,147635,2,0,P|483:35|511:24,1,60.8999981414796,0|0,1:2|0:0,0:0:0:0:
301,112,148010,6,0,B|233:98|257:68|194:56,1,121.799996282959,0|2,1:2|1:2,0:0:0:0:
57,98,148572,2,0,P|51:83|45:69,1,30.4499990707398,0|0,0:0|3:0,0:0:0:0:
52,63,148760,2,0,P|80:74|109:82,1,60.8999981414796,2|0,1:2|0:0,0:0:0:0:
34,241,149135,2,0,P|10:210|15:176,1,60.8999981414796,2|0,1:2|0:0,0:0:0:0:
197,153,149510,6,0,P|166:187|83:173,2,121.799996282959,2|0|0,1:2|1:2|1:2,0:0:0:0:
307,58,150447,1,0,0:0:0:0:
207,12,150635,2,0,P|218:40|226:69,1,60.8999981414796,0|0,1:2|0:0,0:0:0:0:
337,153,151010,6,0,P|323:197|308:254,1,91.3499972122193,0|0,1:2|0:0,0:0:0:0:
317,249,151385,2,0,P|346:257|374:268,1,60.8999981414796,2|0,1:2|0:0,0:0:0:0:
253,323,151760,2,0,P|247:308|241:294,3,30.4499990707398,2|0|0|0,1:2|3:0|3:0|3:0,0:0:0:0:
234,290,152135,2,0,P|204:298|176:309,1,60.8999981414796,2|0,1:2|0:0,0:0:0:0:
50,200,152510,5,2,0:0:0:0:
121,227,152697,1,2,0:0:0:0:
148,155,152885,1,2,0:0:0:0:
77,128,153072,1,2,0:0:0:0:
1,140,153260,5,2,0:0:0:0:
62,275,153447,1,2,0:0:0:0:
196,214,153635,1,2,0:0:0:0:
135,79,153822,1,2,0:0:0:0:
97,177,154010,6,0,B|76:222|114:255|117:251|119:247|153:291|124:340,1,174,2|0,0:0|0:0,0:0:0:0:
278,266,154947,6,0,B|297:222|266:168|215:162|215:162|216:192|192:217,1,195.749994026184,6|0,1:2|0:0,0:0:0:0:
278,266,155488,6,0,B|354:260|341:309|416:299,1,139.2,4|8,1:2|0:0,0:0:0:0:
479,136,156070,1,0,0:0:0:0:
394,198,156260,2,0,P|427:207|459:219,1,69.6,2|0,1:2|0:0,0:0:0:0:
336,128,156628,2,0,P|326:94|314:62,1,69.6,10|0,0:0|0:0,0:0:0:0:
385,0,157010,6,0,P|415:35|404:71,1,69.6,2|0,1:2|0:0,0:0:0:0:
268,193,157370,2,0,P|238:158|249:122,1,69.6,10|0,0:0|0:0,0:0:0:0:
59,45,157760,1,0,1:2:0:0:
134,100,157943,1,0,0:0:0:0:
2,175,158127,2,0,P|34:162|67:153,1,69.6,10|0,0:0|0:0,0:0:0:0:
206,325,158502,6,0,B|186:303|153:293|153:293|136:312|113:319,1,104.4,2|0,1:2|0:0,0:0:0:0:
68,263,158874,2,0,P|45:287|46:328,1,69.6,10|0,0:0|0:0,0:0:0:0:
202,214,159260,2,0,P|235:204|267:192,1,69.6,0|0,1:2|0:0,0:0:0:0:
413,306,159623,2,0,P|379:315|347:327,1,69.6,8|2,0:0|0:0,0:0:0:0:
285,291,159913,5,2,0:0:0:0:
278,286,160010,2,0,P|256:239|299:180,1,104.4,2|0,1:2|0:0,0:0:0:0:
353,198,160374,2,0,P|377:169|374:132,1,69.6,10|0,0:0|0:0,0:0:0:0:
316,31,160745,1,2,1:2:0:0:
308,34,160818,2,0,P|298:67|286:99,1,69.6,8|0,0:0|0:0,0:0:0:0:
290,107,161120,1,0,1:2:0:0:
490,123,161310,5,0,3:0:0:0:
495,116,161405,1,0,3:0:0:0:
502,111,161500,2,0,P|473:61|385:55,2,139.2,2|8|0,1:2|0:0|1:2,0:0:0:0:
353,198,162437,1,0,0:0:0:0:
483,276,162625,2,0,P|470:243|461:210,1,69.6,8|0,0:0|0:0,0:0:0:0:
279,277,163000,6,0,B|206:301|237:333|150:359,1,139.2,0|10,1:2|0:0,0:0:0:0:
9,211,163562,1,0,0:0:0:0:
151,257,163750,1,2,1:2:0:0:
9,378,163937,1,0,0:0:0:0:
64,280,164125,2,0,P|76:312|85:345,1,69.6,10|0,0:0|0:0,0:0:0:0:
238,200,164500,6,0,P|215:119|184:40,2,139.2,2|8|0,1:2|0:0|1:2,0:0:0:0:
370,98,165437,1,0,0:0:0:0:
278,32,165625,1,10,0:0:0:0:
336,190,165812,1,2,0:0:0:0:
443,126,166000,6,0,P|420:102|377:104,1,69.6,2|0,1:2|0:0,0:0:0:0:
238,200,166365,1,10,0:0:0:0:
393,298,166557,1,2,0:0:0:0:
336,190,166749,5,0,1:2:0:0:
328,193,166841,2,0,P|318:226|306:258,1,69.6,8|0,0:0|0:0,0:0:0:0:
302,265,167115,1,2,1:2:0:0:
158,79,167298,5,10,0:0:0:0:
174,101,167390,1,8,0:0:0:0:
169,128,167481,2,0,P|106:148|38:176,1,117.449996415711,6|0,1:2|0:0,0:0:0:0:
55,175,167880,1,8,0:0:0:0:
0,100,168066,1,0,0:0:0:0:
140,225,168252,2,0,P|124:263|113:304,1,78.2999976104737,0|0,1:2|0:0,0:0:0:0:
36,368,168625,2,0,P|11:328|29:278,1,78.2999976104737,8|0,0:0|0:0,0:0:0:0:
222,279,169000,6,0,B|269:294|304:325|304:325|343:322|366:286,1,156.599995220947,2|8,1:2|0:0,0:0:0:0:
494,183,169562,2,0,B|454:196|437:231|437:231|405:203|352:202,1,156.599995220947,2|0,0:0|0:0,0:0:0:0:
219,95,170115,2,0,P|239:47|307:33,1,117.449996415711,10|0,0:0|0:0,0:0:0:0:
298,112,170490,6,0,B|254:91|222:128|226:131|230:133|188:166|141:137,1,156.599995220947,2|8,1:2|0:0,0:0:0:0:
3,70,171053,1,0,0:0:0:0:
112,21,171242,2,0,P|97:57|86:94,1,78.2999976104737,0|0,1:2|0:0,0:0:0:0:
132,223,171607,2,0,P|142:185|157:149,1,78.2999976104737,8|0,0:0|0:0,0:0:0:0:
300,290,171990,5,4,0:3:0:0:
218,265,172177,1,4,0:3:0:0:
371,244,172365,5,6,0:3:0:0:
156,326,172552,1,4,0:3:0:0:
400,343,172740,5,6,0:3:0:0:
132,223,172927,1,4,0:3:0:0:
404,41,173115,6,0,B|419:78|438:119|438:119|416:135|395:162,1,130.5,10|0,0:0|0:0,0:0:0:0:
397,157,173470,6,0,P|364:144|253:117,1,139.2,6|4,1:2|0:3,0:0:0:0:
155,14,174035,2,0,P|149:30|143:46,1,34.8,4|4,0:3|0:3,0:0:0:0:
147,55,174223,2,0,P|179:42|213:33,1,69.6,8|0,0:3|0:0,0:0:0:0:
75,124,174615,1,2,1:2:0:0:
22,34,174802,1,2,0:0:0:0:
161,150,174990,6,0,P|152:172|139:225,1,69.6,6|4,0:3|0:3,0:0:0:0:
36,295,175365,2,0,P|11:264|15:228,1,69.6,2|4,1:2|0:3,0:0:0:0:
201,324,175740,2,0,P|200:358|177:383,1,69.6,8|0,0:0|0:0,0:0:0:0:
108,334,176115,1,8,0:3:0:0:
256,223,176302,5,2,0:0:0:0:
260,230,176396,1,2,0:0:0:0:
264,237,176490,2,0,B|335:252|312:284|393:303,1,139.2,2|4,1:2|0:3,0:0:0:0:
472,247,177052,2,0,P|477:230|483:214,2,34.8,4|4|8,0:3|0:3|0:3,0:0:0:0:
373,167,177427,1,0,0:0:0:0:
415,100,177615,2,0,P|449:78|486:85,1,69.6,6|8,0:3|0:3,0:0:0:0:
364,165,177990,6,0,P|317:131|326:64,1,104.4,2|0,1:2|0:0,0:0:0:0:
317,84,178365,1,6,0:3:0:0:
415,100,178552,1,6,0:3:0:0:
269,213,178740,2,0,P|237:200|195:191,1,69.6,8|2,0:0|0:0,0:0:0:0:
115,228,179115,1,4,0:3:0:0:
218,108,179302,1,10,0:3:0:0:
85,16,179490,6,0,B|73:50|54:89|54:89|82:115|92:134,1,139.2,6|0,1:2|1:2,0:0:0:0:
59,309,180052,1,4,0:3:0:0:
35,284,180146,1,4,0:3:0:0:
48,248,180240,2,0,P|81:239|114:227,1,69.6,8|0,0:3|0:0,0:0:0:0:
276,341,180615,2,0,P|226:345|194:307,1,104.4,6|0,0:3|0:0,0:0:0:0:
186,298,180990,6,0,P|197:265|206:231,1,69.6,2|8,1:2|0:3,0:0:0:0:
334,155,181365,2,0,P|322:187|313:221,1,69.6,2|0,1:2|0:0,0:0:0:0:
218,81,181735,6,0,P|230:114|239:148,1,69.6,10|0,0:0|0:0,0:0:0:0:
408,207,182107,2,0,P|417:241|429:274,1,69.6,6|0,0:3|0:3,0:0:0:0:
277,340,182475,6,0,P|244:301|194:306,1,104.4,6|0,1:2|0:0,0:0:0:0:
186,298,182862,1,4,0:3:0:0:
112,216,183050,1,6,0:3:0:0:
13,352,183239,1,8,0:3:0:0:
103,302,183428,1,2,1:2:0:0:
0,176,183616,6,0,P|12:213|22:250,1,78.2999976104737,6|2,1:2|0:0,0:0:0:0:
178,59,183991,5,4,0:3:0:0:
92,101,184170,1,4,0:3:0:0:
250,130,184357,5,4,0:3:0:0:
178,59,184545,1,4,0:3:0:0:
112,217,184732,5,4,0:3:0:0:
306,63,184920,1,8,0:3:0:0:
54,2,185107,5,10,0:0:0:0:
54,2,185298,1,6,0:3:0:0:
204,214,185490,6,0,B|288:235|258:267|343:294,1,156.599995220947,6|0,1:2|1:2,0:0:0:0:
482,196,186061,1,2,0:0:0:0:
410,246,186247,2,0,P|422:283|433:321,1,78.2999976104737,0|0,1:2|0:0,0:0:0:0:
503,100,186620,2,0,P|451:91|409:146,1,117.449996415711,2|0,1:2|0:0,0:0:0:0:
414,142,186993,5,2,1:2:0:0:
336,108,187180,2,0,P|309:74|313:32,1,78.2999976104737,2|0,0:0|1:2,0:0:0:0:
395,25,187555,1,2,0:0:0:0:
347,189,187743,2,0,P|305:195|270:170,1,78.2999976104737,0|0,1:2|0:0,0:0:0:0:
153,75,188118,1,2,1:2:0:0:
222,35,188305,1,2,0:0:0:0:
156,180,188493,6,0,B|114:203|97:228|97:228|59:210|15:208,1,156.599995220947,2|0,1:2|1:2,0:0:0:0:
182,312,189055,2,0,P|207:283|208:245,1,78.2999976104737,2|0,0:0|1:2,0:0:0:0:
93,310,189430,1,2,0:0:0:0:
255,367,189618,2,0,P|316:349|381:337,1,117.449996415711,2|0,1:2|0:0,0:0:0:0:
378,344,189993,5,2,1:2:0:0:
499,218,190180,2,0,P|465:258|393:243,1,117.449996415711,2|0,0:0|0:0,0:0:0:0:
396,246,190555,1,2,0:0:0:0:
409,100,190743,2,0,P|436:141|427:177,1,78.2999976104737,0|0,1:2|0:0,0:0:0:0:
304,260,191118,2,0,P|277:219|286:183,1,78.2999976104737,0|8,1:2|0:0,0:0:0:0:
284,184,191399,5,8,0:0:0:0:
290,180,191493,1,2,1:2:0:0:
203,245,191680,1,2,0:0:0:0:
117,100,191868,1,2,1:2:0:0:
206,153,192055,1,2,0:0:0:0:
23,250,192249,6,0,P|49:204|127:196,1,130.5,2|0,1:2|0:0,0:0:0:0:
125,201,192624,1,2,1:2:0:0:
251,84,192811,1,2,0:0:0:0:
195,25,192999,6,0,P|153:15|111:0,1,87,2|0,1:2|0:0,0:0:0:0:
310,148,193374,2,0,P|354:153|393:122,1,87,2|0,1:2|0:0,0:0:0:0:
180,308,193749,1,2,1:2:0:0:
333,232,193936,1,2,0:0:0:0:
206,153,194124,1,2,1:2:0:0:
285,321,194311,5,10,0:0:0:0:
288,328,194402,1,8,0:0:0:0:
291,335,194493,1,6,1:2:0:0:
125,201,194680,1,8,0:0:0:0:
331,67,194868,1,4,0:3:0:0:
244,229,195055,1,2,1:2:0:0:
77,36,195243,5,10,0:0:0:0:
139,112,195430,2,0,P|125:153|113:204,1,87,0|4,1:2|0:3,0:0:0:0:
236,26,195805,5,6,0:3:0:0:
4,122,195993,1,10,0:3:0:0:
451,247,196747,5,2,0:0:0:0:
309,346,196954,1,2,0:0:0:0:
330,371,197046,1,2,0:0:0:0:
360,382,197138,1,2,0:0:0:0:
392,376,197230,1,2,0:0:0:0:
417,356,197322,2,0,P|405:335|397:308,1,43.5,2|2,0:0|0:0,0:0:0:0:
331,208,197490,5,6,1:2:0:0:
205,330,197674,1,2,0:0:0:0:
125,147,197859,1,10,0:0:0:0:
239,194,198054,1,2,0:0:0:0:
248,207,198152,1,0,3:0:0:0:
246,222,198250,2,0,P|195:237|153:253,1,95.7000029205323,0|2,1:2|0:0,0:0:0:0:
6,98,198625,1,10,0:0:0:0:
125,147,198812,1,2,0:0:0:0:
195,26,199000,5,2,1:2:0:0:
39,182,199187,2,0,P|25:227|8:272,1,95.7000029205323,2|8,0:0|0:0,0:0:0:0:
94,56,199562,2,0,P|111:101|125:147,1,95.7000029205323,2|2,0:0|1:2,0:0:0:0:
128,153,199843,1,8,0:0:0:0:
130,160,199937,1,2,0:0:0:0:
287,96,200125,1,0,1:2:0:0:
195,26,200309,1,2,0:0:0:0:
246,222,200509,5,2,1:2:0:0:
392,139,200696,1,2,0:0:0:0:
299,5,200880,2,0,P|273:43|284:88,1,95.7000029205323,10|0,0:0|0:0,0:0:0:0:
451,220,201255,1,2,1:2:0:0:
272,338,201442,1,2,0:0:0:0:
341,200,201630,1,10,0:0:0:0:
475,335,201817,1,2,0:0:0:0:
367,283,202008,5,2,1:2:0:0:
492,129,202191,2,0,P|475:173|461:219,1,95.7000029205323,2|8,0:0|0:0,0:0:0:0:
272,338,202562,2,0,B|194:315|229:284|124:256,1,143.550004380798,6|8,0:0|0:0,0:0:0:0:
144,270,202937,1,2,0:0:0:0:
58,361,203125,2,0,P|18:336|12:290,1,95.7000029205323,0|0,1:2|0:0,0:0:0:0:
204,123,203510,6,0,B|175:144|157:176|157:176|120:157|69:163,1,143.550004380798,6|0,1:2|0:0,0:0:0:0:
41,82,203885,2,0,P|83:118|71:172,1,95.7000029205323,8|0,0:0|0:0,0:0:0:0:
272,338,204260,6,0,B|258:296|242:266|242:266|253:236|274:224|305:230,1,143.550004380798,2|0,1:2|0:0,0:0:0:0:
355,300,204621,2,0,P|328:337|282:341,1,95.7000029205323,8|0,0:0|0:0,0:0:0:0:
427,36,205010,6,0,B|471:54|482:102|482:102|455:120|440:166,1,143.550004380798,2|0,1:2|0:0,0:0:0:0:
361,162,205375,2,0,P|396:132|442:141,1,95.7000029205323,8|0,0:0|0:0,0:0:0:0:
177,41,205750,5,2,1:2:0:0:
179,51,205843,2,0,P|214:80|260:71,1,95.7000029205323,8|0,0:0|0:0,0:0:0:0:
318,3,206125,2,0,P|274:18|258:61,1,95.7000029205323,0|0,1:2|0:0,0:0:0:0:
71,277,206505,6,0,P|139:274|172:214,1,143.550004380798,2|0,1:2|0:0,0:0:0:0:
167,206,206875,2,0,P|121:192|76:174,1,95.7000029205323,8|0,0:0|0:0,0:0:0:0:
241,364,207250,1,0,1:2:0:0:
389,188,207437,1,0,0:0:0:0:
256,275,207625,1,10,0:0:0:0:
435,369,207812,1,2,0:0:0:0:
279,160,208000,5,6,0:3:0:0:
367,291,208187,1,4,0:3:0:0:
273,153,208375,5,6,0:3:0:0:
241,364,208562,1,6,0:3:0:0:
275,145,208750,5,4,0:3:0:0:
71,277,208937,1,6,0:3:0:0:
100,33,209125,6,0,B|126:49|151:63|151:63|129:101|101:150,1,143.550004380798,8|0,0:0|0:0,0:0:0:0:
99,138,209510,5,6,1:2:0:0:
206,263,209697,1,2,0:0:0:0:
119,214,209885,1,8,0:0:0:0:
30,365,210072,1,2,0:0:0:0:
126,305,210260,1,2,1:2:0:0:
17,168,210442,2,0,P|0:210|21:251,1,95.7000029205323,2|10,0:0|0:0,0:0:0:0:
198,165,210812,1,2,0:0:0:0:
100,33,211000,6,0,P|54:19|9:1,1,95.7000029205323,2|0,1:2|0:0,0:0:0:0:
99,138,211377,1,10,0:0:0:0:
236,83,211568,2,0,P|288:97|309:145,1,95.7000029205323,2|0,0:0|1:2,0:0:0:0:
383,117,211852,1,8,0:0:0:0:
383,117,211945,2,0,B|419:90|419:90|406:26,1,87,2|0,0:0|1:2,0:0:0:0:
198,165,212320,1,2,0:0:0:0:
407,301,212510,5,2,1:2:0:0:
283,203,212697,2,0,P|300:247|314:293,1,95.7000029205323,2|8,0:0|0:0,0:0:0:0:
405,211,213072,1,2,0:0:0:0:
223,346,213260,2,0,P|181:316|129:325,1,95.7000029205323,2|2,1:2|0:0,0:0:0:0:
72,217,213635,2,0,P|25:238|6:287,1,95.7000029205323,10|2,0:0|0:0,0:0:0:0:
198,165,214010,5,2,1:2:0:0:
6,54,214197,1,2,0:0:0:0:
72,217,214385,1,10,0:0:0:0:
235,49,214572,1,6,0:0:0:0:
104,124,214759,1,0,1:2:0:0:
107,133,214830,2,0,P|152:146|197:164,1,95.7000029205323,8|0,0:0|0:0,0:0:0:0:
237,228,215123,2,0,P|276:187|263:139,1,95.7000029205323,0|0,1:2|0:0,0:0:0:0:
458,335,215500,6,0,P|429:283|347:298,1,143.550004380798,6|0,1:2|0:0,0:0:0:0:
377,376,215870,2,0,P|423:376|453:341,1,95.7000029205323,8|0,0:0|0:0,0:0:0:0:
294,49,216245,6,0,B|269:58|243:64|243:64|255:97|275:163,1,143.550004380798,2|0,1:2|0:0,0:0:0:0:
326,207,216620,2,0,B|360:170|360:170|348:126,1,95.7000029205323,8|0,0:0|0:0,0:0:0:0:
71,266,217005,6,0,B|49:314|66:345|102:361|102:361|105:343|122:322,1,143.550004380798,2|0,1:2|0:0,0:0:0:0:
76,262,217373,2,0,P|46:226|0:225,1,95.7000029205323,8|0,0:0|0:0,0:0:0:0:
164,27,217750,5,2,1:2:0:0:
165,35,217841,2,0,P|147:78|99:93,1,95.7000029205323,8|0,0:0|0:0,0:0:0:0:
46,144,218115,2,0,P|10:114|16:68,1,95.7000029205323,8|0,1:2|0:0,0:0:0:0:
238,280,218490,5,12,0:0:0:0:
134,175,218677,1,0,1:2:0:0:
76,262,218865,1,0,1:2:0:0:
326,22,219052,5,8,0:0:0:0:
226,195,219240,1,0,1:2:0:0:
103,93,219427,1,0,1:2:0:0:
371,252,219615,5,14,0:0:0:0:
247,70,219815,1,0,1:2:0:0:
374,260,220000,5,10,0:0:0:0:
465,139,220185,1,10,0:0:0:0:
469,321,220370,5,10,0:0:0:0:
374,78,220569,1,10,0:0:0:0:
343,356,220750,5,8,0:0:0:0:
490,38,220926,1,10,0:0:0:0:
217,201,221113,6,0,P|230:237|241:275,1,78.2999976104737,8|0,0:0|0:0,0:0:0:0:
241,284,221510,5,14,0:0:0:0:
121,172,221703,1,2,1:2:0:0:
8,332,221897,1,2,1:2:0:0:
217,201,222075,5,14,0:0:0:0:
23,103,222254,1,2,1:2:0:0:
119,290,222434,1,2,1:2:0:0:
299,73,222620,6,0,B|249:83|210:109|210:109|164:95|155:47,1,174,14|0,0:0|1:2,0:0:0:0:
375,141,223185,2,0,B|392:209|423:186|451:282,1,130.5,8|0,0:0|0:0,0:0:0:0:
438,257,223563,1,0,1:2:0:0:
302,195,223751,1,8,0:0:0:0:
454,91,223940,1,4,0:3:0:0:
350,302,224129,5,10,0:3:0:0:
350,302,224319,1,10,0:3:0:0:
120,198,224520,6,0,B|132:139|186:108|238:136|238:136|213:157|212:199,1,208.8,6|4,1:2|0:3,0:0:0:0:
53,135,225267,2,0,P|28:94|39:50,1,91.3499972122193,2|0,0:0|0:0,0:0:0:0:
42,42,225617,2,0,P|71:34|100:24,1,60.8999981414796,8|0,0:3|0:0,0:0:0:0:
214,180,226010,5,2,1:2:0:0:
278,119,226197,2,0,P|305:154|292:221,1,104.399996813965,8|8,0:0|0:0,0:0:0:0:
112,348,226760,5,4,0:3:0:0:
105,344,226885,2,0,P|98:327|91:312,1,34.7999989379883,8|8,0:3|0:3,0:0:0:0:
195,300,227135,5,8,0:3:0:0:
201,295,227260,2,0,P|207:278|215:263,1,34.7999989379883,8|4,0:3|0:3,0:0:0:0:
120,198,227510,5,4,1:2:0:0:
492,360,239480,6,0,P|466:317|387:320,1,121.799996282959,4|0,1:2|0:0,0:0:0:0:
399,311,240052,1,0,1:2:0:0:
285,214,240240,2,0,P|313:248|308:299,1,91.3499972122193,8|0,0:0|0:0,0:0:0:0:
304,293,240615,2,0,P|273:296|244:328,1,60.8999981414796,2|0,0:0|0:0,0:0:0:0:
99,195,240990,5,0,0:0:0:0:
94,200,241177,2,0,P|120:243|199:240,1,121.799996282959,8|0,0:0|0:0,0:0:0:0:
269,130,241740,2,0,P|238:133|209:165,1,60.8999981414796,10|0,0:0|0:0,0:0:0:0:
142,64,242115,2,0,P|129:92|142:133,1,60.8999981414796,0|4,0:0|0:3,0:0:0:0:
285,214,242490,6,0,P|346:195|419:180,1,121.799996282959,2|0,1:2|0:0,0:0:0:0:
402,182,243052,1,0,1:2:0:0:
487,46,243240,2,0,P|461:76|470:131,1,91.3499972122193,10|0,0:0|0:0,0:0:0:0:
474,130,243615,2,0,P|502:157|500:195,1,60.8999981414796
409,340,243990,5,2,0:0:0:0:
403,344,244177,2,0,P|362:319|356:249,1,121.799996282959,8|0,0:0|1:2,0:0:0:0:
491,250,244740,2,0,P|457:260|424:273,1,60.8999981414796,10|4,0:0|0:3,0:0:0:0:
291,348,245120,2,0,P|262:337|233:328,1,60.8999981414796,8|12,0:3|0:3,0:0:0:0:
113,359,245500,5,14,0:0:0:0:
12,227,245687,1,0,1:2:0:0:
111,365,245875,1,0,1:2:0:0:
194,120,246062,5,8,0:0:0:0:
91,273,246250,1,0,1:2:0:0:
261,182,246437,1,0,1:2:0:0:
36,50,246625,5,12,0:0:0:0:
162,201,246812,1,0,1:2:0:0:
18,136,247000,1,0,1:2:0:0:
283,21,247177,5,8,0:0:0:0:
116,109,247359,1,0,1:2:0:0:
289,25,247542,1,0,1:2:0:0:
122,16,247725,5,8,0:0:0:0:
261,182,247912,1,4,0:3:0:0:
261,182,248015,1,4,0:3:0:0:
261,182,248119,1,10,0:3:0:0:
350,91,248309,1,0,1:2:0:0:
162,201,248495,5,14,0:0:0:0:
361,274,248682,1,0,1:2:0:0:
269,97,248870,1,0,1:2:0:0:
187,329,249057,5,12,0:0:0:0:
381,180,249240,1,2,1:2:0:0:
116,109,249423,1,0,1:2:0:0:
306,345,249614,5,8,0:0:0:0:
269,97,249982,5,6,0:3:0:0:
375,6,250166,1,4,0:3:0:0:
381,180,250350,5,4,0:3:0:0:
269,97,250531,1,4,0:3:0:0:
457,65,250713,5,6,0:3:0:0:
262,266,250907,1,4,0:3:0:0:
122,16,251105,5,8,0:0:0:0:
122,16,251480,6,0,P|50:79|74:165,1,191.400005841065,6|8,1:2|0:0,0:0:0:0:
71,162,252052,1,2,0:0:0:0:
173,287,252240,2,0,B|141:248|108:250|108:250|84:283|39:288,1,143.550004380798,2|0,1:2|0:0,0:0:0:0:
50,293,252615,2,0,P|67:337|81:383,1,95.7000029205323,8|2,0:0|0:0,0:0:0:0:
283,196,252990,5,2,1:2:0:0:
194,139,253177,1,0,1:2:0:0:
337,267,253365,1,8,0:0:0:0:
248,324,253552,1,2,1:2:0:0:
367,184,253740,2,0,B|439:206|413:232|503:257,1,143.550004380798,2|0,0:0|0:0,0:0:0:0:
497,261,254115,2,0,P|479:305|465:351,1,95.7000029205323,8|2,0:0|0:0,0:0:0:0:
283,196,254490,6,0,P|255:127|293:61,1,143.550004380798,2|0,1:2|0:0,0:0:0:0:
289,76,254865,1,8,0:0:0:0:
162,166,255052,1,2,0:0:0:0:
107,10,255240,2,0,P|161:26|175:68,1,95.7000029205323,2|0,1:2|1:2,0:0:0:0:
67,187,255615,2,0,P|53:141|34:96,1,95.7000029205323,8|2,0:0|0:0,0:0:0:0:
40,90,255896,1,2,0:0:0:0:
45,83,255990,5,2,1:2:0:0:
257,167,256177,1,0,1:2:0:0:
83,341,256354,1,8,0:0:0:0:
162,166,256547,1,2,1:2:0:0:
318,345,256741,5,2,0:0:0:0:
207,281,256918,1,0,1:2:0:0:
393,154,257105,2,0,B|377:200|361:240|361:240|387:254|403:270,1,143.550004380798,8|0,0:0|0:0,0:0:0:0:
481,297,257480,6,0,P|450:261|403:265,1,95.7000029205323,6|2,1:2|1:2,0:0:0:0:
292,117,257855,1,10,0:0:0:0:
370,63,258042,2,0,P|324:71|303:114,1,95.7000029205323,2|0,0:0|1:2,0:0:0:0:
393,154,258417,1,2,1:2:0:0:
468,26,258605,1,8,0:0:0:0:
207,109,258792,6,1,B|110:126|88:131|138:158|59:183,1,148.837494224409,2|0,1:2|0:0,0:0:0:0:
31,238,259167,2,0,B|-5:205|-5:205|5:160,1,95.7000029205323,2|0,1:2|0:0,0:0:0:0:
316,223,259542,22,0,B|367:237|349:253|402:270,1,95.7000029205323,2|0,1:2|0:0,0:0:0:0:
240,181,259917,2,0,P|213:220|222:260,1,78.2999976104737,6|0,1:2|0:0,0:0:0:0:
222,255,260292,1,8,0:0:0:0:
293,362,260490,6,0,P|253:308|138:329,1,191.400005841065,6|8,1:2|0:0,0:0:0:0:
141,325,261052,1,2,0:0:0:0:
14,155,261240,1,0,1:2:0:0:
129,199,261424,1,2,1:2:0:0:
28,339,261608,2,0,P|-4:298|20:239,1,95.7000029205323,10|2,0:0|0:0,0:0:0:0:
190,125,261983,5,10,0:0:0:0:
129,199,262170,1,0,1:2:0:0:
217,230,262358,5,8,0:0:0:0:
127,64,262545,1,2,1:2:0:0:
82,277,262733,5,8,0:0:0:0:
312,0,262922,2,0,B|290:23|265:40|265:40|284:72|300:109,1,139.2,6|0,1:2|1:2,0:0:0:0:
425,235,263490,6,0,B|444:160|477:189|496:113,1,143.550004380798,6|0,1:2|0:0,0:0:0:0:
491,107,263858,2,0,P|445:93|400:74,1,95.7000029205323,8|0,0:0|0:0,0:0:0:0:
211,172,264226,2,0,P|256:185|301:204,1,95.7000029205323,2|0,1:2|1:2,0:0:0:0:
175,30,264604,2,0,P|135:81|41:64,1,143.550004380798,8|0,0:0|0:0,0:0:0:0:
56,71,264991,5,2,1:2:0:0:
211,172,265184,1,0,1:2:0:0:
45,272,265355,1,8,0:0:0:0:
101,177,265542,1,0,1:2:0:0:
239,349,265730,1,2,0:0:0:0:
239,349,265917,1,0,1:2:0:0:
135,293,266108,2,0,P|179:274|225:260,1,95.7000029205323,8|0,0:0|0:0,0:0:0:0:
491,314,266500,6,0,B|459:322|430:348|430:348|382:344|352:329|324:269,1,191.400005841065,2|8,1:2|0:0,0:0:0:0:
332,286,267062,1,0,0:0:0:0:
485,144,267250,2,0,P|466:188|452:234,1,95.7000029205323,2|0,1:2|1:2,0:0:0:0:
296,82,267618,2,0,P|314:126|328:172,1,95.7000029205323,8|0,0:0|1:2,0:0:0:0:
389,16,267995,5,14,0:0:0:0:
206,124,268189,1,0,1:2:0:0:
396,22,268384,1,0,1:2:0:0:
154,23,268561,5,10,0:0:0:0:
408,111,268747,1,0,1:2:0:0:
149,27,268933,1,0,1:2:0:0:
295,81,269120,6,0,P|314:126|328:172,1,95.7000029205323,12|0,0:0|0:0,0:0:0:0:
103,202,269492,6,0,P|114:225|125:257,3,43.5,8|0|0|0,1:2|1:2|1:2|1:2,0:0:0:0:
46,270,269873,1,8,1:2:0:0:
46,270,269969,1,0,1:2:0:0:
46,270,270065,2,0,P|38:249|28:230,1,43.5,0|0,1:2|1:2,0:0:0:0:
186,302,270257,6,0,P|174:325|164:357,3,43.5,8|0|0|0,1:2|1:2|1:2|1:2,0:0:0:0:
250,369,270616,1,8,1:2:0:0:
250,369,270710,1,0,1:2:0:0:
250,369,270805,2,0,P|257:348|267:329,1,43.5,0|0,1:2|1:2,0:0:0:0:
439,238,270994,5,8,1:2:0:0:
426,255,271088,1,0,1:2:0:0:
408,267,271183,1,0,1:2:0:0:
387,271,271277,1,0,1:2:0:0:
365,265,271373,2,0,P|345:254|325:248,3,43.5,8|0|0|0,1:2|1:2|1:2|1:2,0:0:0:0:
263,196,271755,6,0,P|257:175|247:156,3,43.5,8|0|0|0,1:2|1:2|1:2|1:2,0:0:0:0:
312,105,272120,2,0,P|318:84|328:65,3,43.5,8|0|0|0,1:2|1:2|1:2|1:2,0:0:0:0:
268,12,272485,5,8,1:2:0:0:
238,5,272578,1,0,1:2:0:0:
209,23,272672,1,0,1:2:0:0:
192,58,272766,1,0,1:2:0:0:
183,100,272860,1,8,1:2:0:0:
150,128,272953,1,0,1:2:0:0:
106,135,273047,1,0,1:2:0:0:
67,114,273141,1,0,1:2:0:0:
50,73,273235,6,0,P|44:52|33:32,3,43.5,8|0|0|0,1:2|1:2|1:2|1:2,0:0:0:0:
110,140,273610,2,0,P|99:158|93:179,3,43.5,8|0|0|0,1:2|1:2|1:2|1:2,0:0:0:0:
22,345,273985,5,8,1:2:0:0:
2,310,274078,1,0,1:2:0:0:
22,272,274172,2,0,P|42:266|61:254,1,43.5,0|0,1:2|1:2,0:0:0:0:
220,326,274360,5,8,1:2:0:0:
194,366,274453,1,0,1:2:0:0:
145,365,274547,2,0,P|125:345|103:333,1,43.5,0|0,1:2|1:2,0:0:0:0:
261,204,274725,5,8,1:2:0:0:
306,177,274818,1,0,1:2:0:0:
356,188,274912,1,0,1:2:0:0:
377,235,275006,1,0,1:2:0:0:
362,279,275100,1,8,1:3:0:0:
369,321,275193,1,8,1:3:0:0:
402,342,275287,1,4,1:3:0:0:
436,338,275381,1,12,1:3:0:0:
457,316,275480,5,2,0:0:0:0:
6,38,287510,6,0,P|31:42|62:67,1,60.8999981414796,2|0,0:0|0:0,0:0:0:0:
132,51,287885,2,0,P|141:79|136:109,1,60.8999981414796,2|0,0:0|0:0,0:0:0:0:
187,166,288260,2,0,P|167:188|138:199,1,60.8999981414796,2|0,0:0|0:0,0:0:0:0:
105,269,288635,2,0,P|75:263|51:244,1,60.8999981414796,2|0,0:0|0:0,0:0:0:0:
235,34,289010,6,0,P|222:61|223:91,1,60.8999981414796,2|0,0:0|0:0,0:0:0:0:
374,44,289385,2,0,P|356:19|329:5,1,60.8999981414796,2|0,0:0|0:0,0:0:0:0:
294,159,289760,2,0,P|324:156|349:139,1,60.8999981414796,2|0,0:0|0:0,0:0:0:0:
301,78,290135,1,2,0:0:0:0:
301,78,290322,1,2,0:0:0:0:
482,241,290510,6,0,L|375:210,1,91.3499972122193,2|0,0:0|0:0,0:0:0:0:
386,220,290885,2,0,L|444:238,1,60.8999981414796,2|0,0:0|0:0,0:0:0:0:
266,348,291260,2,0,L|353:322,1,91.3499972122193,2|0,0:0|0:0,0:0:0:0:
359,313,291635,2,0,L|300:331,1,60.8999981414796,2|0,0:0|0:0,0:0:0:0:
56,260,292010,6,0,P|104:235|152:257,1,91.3499972122193,2|0,0:0|0:0,0:0:0:0:
180,294,292385,2,0,P|146:272|143:234,1,60.8999981414796,2|0,0:0|0:0,0:0:0:0:
305,129,292760,2,0,P|302:183|258:213,1,91.3499972122193,2|0,0:0|0:0,0:0:0:0:
212,220,293135,2,0,P|247:201|282:218,1,60.8999981414796,2|0,0:0|0:0,0:0:0:0:
48,36,293510,6,0,P|62:64|72:103,1,60.8999981414796,2|0,0:0|0:0,0:0:0:0:
133,137,293885,1,2,0:0:0:0:
131,143,294072,1,2,0:0:0:0:
240,56,294260,2,0,P|222:82|193:110,1,60.8999981414796,2|0,0:0|0:0,0:0:0:0:
126,147,294635,1,2,0:0:0:0:
121,150,294822,1,2,0:0:0:0:
17,212,295010,5,2,0:0:0:0:
17,227,295197,1,2,0:0:0:0:
30,243,295385,1,2,0:0:0:0:
50,248,295572,1,2,0:0:0:0:
125,239,295760,5,2,0:0:0:0:
155,254,295947,1,2,0:0:0:0:
171,290,296135,1,2,0:0:0:0:
155,332,296322,1,2,0:0:0:0:
76,324,296500,5,6,1:2:0:0:
76,324,296875,5,4,0:3:0:0:
50,248,297055,1,4,0:3:0:0:
159,340,297236,5,4,0:3:0:0:
235,200,297417,1,4,0:3:0:0:
420,363,297597,5,4,0:3:0:0:
335,178,297784,1,4,0:3:0:0:
512,54,297972,5,4,0:3:0:0:
424,241,298159,1,8,0:3:0:0:
256,36,298347,5,8,0:0:0:0:
361,297,298534,1,8,0:0:0:0:
258,30,298722,5,8,0:0:0:0:
76,324,298909,1,8,0:0:0:0:
0,0,299097,5,8,0:0:0:0:
159,340,299284,1,8,0:0:0:0:
494,24,300635,5,10,0:3:0:0:
321,102,300803,1,6,0:3:0:0:
321,102,300901,1,2,0:3:0:0:
321,102,301000,5,6,1:2:0:0:
400,43,301175,1,2,1:2:0:0:
442,133,301350,1,10,0:0:0:0:
258,30,301538,6,0,B|218:44|189:59|189:59|156:38|156:2,1,130.5,2|0,1:2|0:0,0:0:0:0:
164,13,301921,1,2,1:2:0:0:
30,198,302115,1,8,0:0:0:0:
60,207,302204,1,8,0:0:0:0:
92,203,302294,1,10,0:0:0:0:
118,184,302384,1,8,0:0:0:0:
133,155,302474,5,6,1:2:0:0:
43,37,302664,2,0,B|10:71|10:71|27:120,1,95.7000029205323,2|8,0:0|0:0,0:0:0:0:
166,261,303047,1,2,0:0:0:0:
114,342,303240,2,0,P|68:355|23:373,1,95.7000029205323,2|2,1:2|0:0,0:0:0:0:
253,212,303620,1,10,0:0:0:0:
133,155,303800,1,2,0:0:0:0:
263,325,303990,6,0,P|321:348|391:293,1,143.550004380798,2|0,1:2|0:0,0:0:0:0:
461,299,304365,2,0,P|487:337|482:384,1,95.7000029205323,10|6,0:0|0:0,0:0:0:0:
354,155,304740,1,0,1:2:0:0:
347,158,304833,2,0,P|333:204|316:248,1,95.7000029205323,8|0,0:0|0:0,0:0:0:0:
319,258,305115,1,0,1:2:0:0:
512,97,305295,5,8,0:0:0:0:
481,131,305390,1,8,0:0:0:0:
439,123,305485,2,0,B|412:40|412:40|441:31|472:19,1,143.550004380798,6|0,1:2|0:0,0:0:0:0:
439,123,305867,2,0,P|399:155|347:146,1,95.7000029205323,8|0,0:0|0:0,0:0:0:0:
152,5,306249,5,2,1:2:0:0:
273,116,306436,1,0,0:0:0:0:
122,173,306624,1,8,0:0:0:0:
181,92,306811,1,0,0:0:0:0:
21,314,306999,6,0,B|-12:288|-4:253|15:224|15:224|33:239|70:246,1,143.550004380798,2|0,1:2|0:0,0:0:0:0:
112,303,307367,2,0,B|76:335|76:335|29:325,1,95.7000029205323,8|0,0:0|0:0,0:0:0:0:
314,250,307754,5,2,1:2:0:0:
319,258,307844,2,0,P|365:271|410:289,1,95.7000029205323,8|0,0:0|0:0,0:0:0:0:
417,295,308117,2,0,P|456:270|460:224,1,95.7000029205323,0|0,1:2|0:0,0:0:0:0:
205,207,308485,6,0,B|181:256|222:292|226:287|228:283|265:330|238:386,2,191.400005841065,6|8|0,1:2|0:0|1:2,0:0:0:0:
205,207,309440,1,0,0:0:0:0:
170,94,309631,2,0,P|131:119|127:165,1,95.7000029205323,10|2,0:0|0:0,0:0:0:0:
288,38,309996,5,6,0:3:0:0:
199,9,310183,1,6,0:3:0:0:
344,101,310371,5,6,0:3:0:0:
127,165,310558,1,6,0:3:0:0:
386,347,310746,5,4,0:3:0:0:
67,230,310930,1,6,0:3:0:0:
344,101,311114,6,0,B|328:146|313:185|313:185|343:199|379:228,1,143.550004380798,14|0,0:0|0:0,0:0:0:0:
473,192,311495,6,0,B|435:187|408:166|408:166|389:205|346:231,1,139.2,6|0,1:2|0:0,0:0:0:0:
220,278,312057,1,0,1:2:0:0:
155,236,312245,2,0,P|147:202|135:164,1,69.6,8|0,0:0|0:0,0:0:0:0:
299,274,312620,2,0,P|301:314|280:341,1,69.6,2|0,0:0|0:0,0:0:0:0:
112,328,312995,6,0,P|137:285|237:290,2,139.2,2|2|10,1:2|0:0|0:0,0:0:0:0:
264,124,314120,2,0,P|253:157|245:191,1,69.6,2|8,0:0|0:0,0:0:0:0:
460,109,314495,6,0,P|419:162|352:160,1,139.2,6|0,1:2|0:0,0:0:0:0:
352,160,315057,1,0,1:2:0:0:
241,27,315245,2,0,P|282:32|302:69,1,69.6,10|0,0:0|0:0,0:0:0:0:
369,11,315632,2,0,P|385:50|362:86,1,69.6,0|0,1:2|0:0,0:0:0:0:
264,124,316005,6,0,P|242:116|212:109,3,39.1499988052369,10|8|8|8,0:0|0:0|0:0|0:0,0:0:0:0:
166,61,316373,2,0,P|144:68|114:76,3,43.5,8|8|8|8,0:0|0:0|0:0|0:0,0:0:0:0:
113,73,316741,5,8,0:0:0:0:
65,80,316832,1,8,0:0:0:0:
46,123,316923,1,8,0:0:0:0:
70,164,317015,1,8,0:0:0:0:
117,169,317106,1,4,0:3:0:0:
159,190,317198,1,4,0:3:0:0:
160,237,317289,1,8,0:3:0:0:
130,267,317381,1,12,0:3:0:0:
78,257,317485,6,0,B|169:275|133:314|234:336,1,174,6|0,1:2|0:0,0:0:0:0:
453,192,318051,5,8,0:0:0:0:
465,206,318145,1,8,0:0:0:0:
465,224,318239,2,0,B|416:254|400:293|400:293|356:265|300:262,1,191.400005841065,6|0,1:2|0:0,0:0:0:0:
74,60,318805,5,8,0:0:0:0:
44,91,318900,1,8,0:0:0:0:
56,127,318994,2,0,B|124:144|174:168|174:168|230:141|208:79,1,208.79999362793,6|0,1:2|0:0,0:0:0:0:
432,0,319530,5,8,0:0:0:0:
467,36,319632,1,8,0:0:0:0:
454,82,319735,2,0,B|411:156|342:183|284:155|255:103|280:48|358:33|382:105,1,339.299984468079,6|0,1:2|1:2,0:0:0:0:
465,224,320495,5,14,0:0:0:0:
332,355,320682,1,0,1:2:0:0:
486,313,320870,1,0,1:2:0:0:
234,188,321057,5,8,0:0:0:0:
399,305,321245,1,0,1:2:0:0:
381,103,321420,1,0,1:2:0:0:
173,258,321595,2,0,P|219:270|263:287,1,95.7000029205323,10|2,0:0|0:0,0:0:0:0:
18,74,321980,6,0,P|45:117|144:109,1,143.550004380798,2|0,1:2|0:0,0:0:0:0:
137,126,322366,2,0,P|149:79|166:35,1,95.7000029205323,2|6,1:2|0:3,0:0:0:0:
14,201,322738,1,4,0:3:0:0:
174,257,322925,1,6,0:3:0:0:
69,377,323111,2,0,P|43:336|67:274,1,95.7000029205323,8|0,0:3|1:2,0:0:0:0:
234,188,323484,6,0,P|280:175|324:158,1,87,6|0,1:2|0:0,0:0:0:0:
482,259,323859,2,0,P|440:270|399:285,1,87,0|0,1:2|0:0,0:0:0:0:
292,337,324248,2,0,P|307:296|318:254,1,87,0|0,1:2|0:0,0:0:0:0:
415,114,324620,2,0,P|400:155|389:197,1,87,2|2,1:2|0:0,0:0:0:0:
24,100,324997,6,0,P|57:141|99:140,1,87,2|0,1:2|0:0,0:0:0:0:
198,34,325374,2,0,P|145:42|125:78,1,87,0|0,1:2|0:0,0:0:0:0:
161,215,325751,1,0,1:2:0:0:
168,217,325846,2,0,P|187:167|165:132,1,87,8|0,0:0|0:0,0:0:0:0:
167,142,326129,1,2,1:2:0:0:
31,287,326317,5,2,0:0:0:0:
37,280,326412,1,0,3:0:0:0:
45,279,326506,2,0,B|113:298|93:318|167:341,1,130.5,2|0,1:2|0:0,0:0:0:0:
234,297,326874,2,0,P|188:302|160:339,1,87,0|0,1:2|0:0,0:0:0:0:
350,306,327255,2,0,P|400:258|382:189,1,130.5,0|0,1:2|0:0,0:0:0:0:
384,204,327616,1,2,1:2:0:0:
266,111,327808,1,2,0:0:0:0:
376,36,328000,6,0,P|360:76|349:118,1,87,2|0,1:2|0:0,0:0:0:0:
280,6,328375,1,10,0:0:0:0:
445,107,328562,1,4,0:0:0:0:
269,205,328750,1,0,1:2:0:0:
263,199,328843,1,8,0:0:0:0:
255,195,328937,2,0,P|213:206|172:221,1,87,2|0,0:0|1:2,0:0:0:0:
21,121,329315,1,2,0:0:0:0:
82,182,329505,6,0,P|70:214|61:248,1,69.6,2|0,1:2|0:0,0:0:0:0:
98,320,329885,2,0,P|125:340|159:340,1,69.6,0|0,1:2|0:0,0:0:0:0:
324,261,330255,6,0,P|357:269|390:281,1,69.6,0|2,1:2|0:0,0:0:0:0:
255,195,330626,2,0,P|246:161|234:128,1,69.6,2|2,1:2|0:0,0:0:0:0:
415,24,331001,6,0,B|398:98|368:74|353:146,1,139.2,2|2,1:2|1:2,0:0:0:0:
352,146,331563,1,0,0:0:0:0:
426,205,331751,2,0,P|452:172|448:130,1,69.6,0|0,1:2|0:0,0:0:0:0:
453,145,332126,1,2,1:2:0:0:
225,0,332341,2,0,P|233:19|240:40,1,43.5,8|8,0:0|0:0,0:0:0:0:
312,88,332510,5,6,1:3:0:0:
415,24,332697,1,4,0:3:0:0:
274,162,332885,5,4,0:3:0:0:
154,41,333072,1,4,0:3:0:0:
324,221,333260,5,4,0:3:0:0:
71,254,333447,1,4,0:3:0:0:
361,152,333635,5,4,0:3:0:0:
202,384,333822,1,4,0:3:0:0:
241,41,334005,6,0,P|234:20|226:1,3,43.5,8|0|0|0,1:2|1:2|1:2|1:2,0:0:0:0:
287,130,334380,2,0,P|294:109|302:89,3,43.5,8|0|0|0,1:2|1:2|1:2|1:2,0:0:0:0:
221,194,334755,2,0,P|213:173|205:153,3,43.5,8|0|0|0,1:2|1:2|1:2|1:2,0:0:0:0:
282,249,335130,1,8,1:2:0:0:
290,254,335223,1,0,1:2:0:0:
295,261,335317,2,0,P|286:280|279:301,1,43.5,0|0,1:2|1:2,0:0:0:0:
337,362,335505,5,8,1:2:0:0:
373,374,335596,1,0,1:2:0:0:
412,355,335687,1,0,1:2:0:0:
431,311,335779,1,0,1:2:0:0:
412,262,335870,1,8,1:2:0:0:
370,229,335962,1,0,1:2:0:0:
338,187,336053,1,0,1:2:0:0:
350,136,336145,1,0,1:2:0:0:
397,114,336236,6,0,P|419:121|441:131,1,47.8500014602662,8|0,1:2|1:2,0:0:0:0:
387,20,336419,2,0,P|364:28|343:39,1,47.8500014602662,0|0,1:2|1:2,0:0:0:0:
221,194,336602,5,8,1:2:0:0:
188,229,336694,1,0,1:2:0:0:
135,232,336785,1,0,1:2:0:0:
94,199,336876,1,0,1:2:0:0:
85,141,336974,5,8,1:2:0:0:
131,170,337066,1,0,1:2:0:0:
124,222,337159,1,0,1:2:0:0:
78,245,337251,1,0,1:2:0:0:
50,292,337344,1,8,1:2:0:0:
61,351,337436,1,0,1:2:0:0:
117,377,337529,1,0,1:2:0:0:
174,349,337621,1,0,1:2:0:0:
496,31,338494,6,0,B|422:53|449:77|370:102,1,143.550004380798,6|0,1:2|0:0,0:0:0:0:
366,107,338873,2,0,B|328:73|328:73|340:24,1,95.7000029205323,10|2,0:0|0:0,0:0:0:0:
69,93,339253,2,0,P|133:84|185:148,1,143.550004380798,2|0,1:2|0:0,0:0:0:0:
191,144,339623,2,0,P|238:120|236:64,1,95.7000029205323,10|0,0:0|0:0,0:0:0:0:
377,331,340010,5,2,1:2:0:0:
313,186,340195,1,2,0:0:0:0:
476,207,340380,2,0,P|430:223|387:242,1,95.7000029205323,10|0,0:0|0:0,0:0:0:0:
132,212,340755,5,2,1:2:0:0:
295,318,340942,1,2,0:0:0:0:
176,278,341130,1,10,0:0:0:0:
254,249,341323,1,2,0:0:0:0:
38,366,341517,6,0,B|21:317|6:283|6:283|25:251|61:249,1,143.550004380798,2|0,1:2|0:0,0:0:0:0:
120,337,341878,2,0,P|92:373|46:372,1,95.7000029205323,10|2,0:0|0:0,0:0:0:0:
216,168,342257,2,0,B|257:129|293:144|293:144|304:183|346:199,1,143.550004380798,2|0,1:2|0:0,0:0:0:0:
368,250,342622,2,0,P|404:222|402:176,1,95.7000029205323,10|0,0:0|0:0,0:0:0:0:
146,16,343005,5,2,1:2:0:0:
276,92,343189,1,2,0:0:0:0:
125,205,343373,2,0,P|91:173|97:127,1,95.7000029205323,10|2,0:0|1:2,0:0:0:0:
250,6,343741,1,2,1:2:0:0:
257,6,343833,2,0,P|290:37|284:83,1,95.7000029205323,8|0,0:0|0:0,0:0:0:0:
276,92,344109,2,0,P|232:107|191:125,1,91.3499972122193,2|0,1:2|0:0,0:0:0:0:
183,123,344500,5,12,0:0:0:0:
304,330,344687,1,0,1:2:0:0:
125,205,344875,1,0,1:2:0:0:
330,178,345062,5,8,0:0:0:0:
212,365,345250,1,0,1:2:0:0:
391,253,345437,1,0,1:2:0:0:
125,205,345625,5,12,0:0:0:0:
304,330,345812,1,0,1:2:0:0:
356,73,346000,1,0,1:2:0:0:
212,275,346187,5,8,0:0:0:0:
31,97,346375,1,0,1:2:0:0:
249,192,346560,1,0,1:2:0:0:
0,291,346745,5,12,0:0:0:0:
183,123,346923,1,0,1:2:0:0:
212,365,347130,1,4,1:2:0:0:
31,97,347396,5,0,1:2:0:0:
25,101,347485,2,0,P|6:153|28:191,1,95.7000029205323,14|0,0:0|0:0,0:0:0:0:
212,275,347857,1,8,0:0:0:0:
25,383,348044,1,0,1:2:0:0:
125,205,348230,1,8,0:0:0:0:
132,214,348323,2,0,P|112:257|97:302,1,95.7000029205323,0|0,1:2|0:0,0:0:0:0:
102,310,348603,1,8,0:0:0:0:
249,192,348789,1,0,1:2:0:0:
186,129,348975,5,4,0:3:0:0:
311,254,349162,1,4,0:3:0:0:
223,51,349348,5,4,0:3:0:0:
274,332,349534,1,4,0:3:0:0:
307,39,349721,5,4,0:3:0:0:
190,344,349907,1,6,0:3:0:0:
477,157,350093,6,0,B|440:164|405:184|405:184|369:172|354:133,1,130.5,12|0,0:0|0:0,0:0:0:0:
361,143,350490,5,2,1:2:0:0:
447,7,350679,2,0,P|432:44|421:83,1,78.2999976104737,0|0,1:2|0:0,0:0:0:0:
421,80,351059,1,0,1:2:0:0:
285,189,351265,2,0,B|309:272|336:241|364:330,1,156.599995220947,8|0,0:0|0:0,0:0:0:0:
361,323,351838,1,2,1:2:0:0:
127,243,352055,5,0,1:2:0:0:
212,273,352277,1,8,0:0:0:0:
72,315,352488,1,0,1:2:0:0:
102,162,352699,1,8,0:0:0:0:
156,340,352936,5,8,0:0:0:0:
20,221,353161,1,6,0:3:0:0:
199,164,353390,1,10,0:3:0:0:
127,243,353644,1,14,0:3:0:0:
369,201,354855,6,0,B|336:164|322:119|346:63|424:68|440:115|440:115|525:97|564:184|514:245|412:271|432:188|322:228|286:316|286:316|282:310|282:310|276:235|185:167|219:222|122:210|50:79|104:-7|204:-19|234:38|234:38|282:-15|361:36|348:110|271:137,1,1291.94996057282,6|0,1:2|0:0,0:0:0:0:
