osu file format v14

[General]
AudioFilename: audio.mp3
AudioLeadIn: 0
PreviewTime: 84648
Countdown: 0
SampleSet: Soft
StackLeniency: 0.4
Mode: 0
LetterboxInBreaks: 0
WidescreenStoryboard: 0

[Editor]
Bookmarks: 17598,27046,36648,46398,55848,65448,70248,74673,75123,79998,84798,94398,103773,123048,125298,132723,142248,147048,151923,156798,160398,161598,171198,180798,190398,197598,202398,203373,203673,203898,204148,204448,204648,204798,204948,205098,205248,205348,205398,205548,205773,205960,206298,206560,206898,208398
DistanceSpacing: 1.2
BeatDivisor: 8
GridSize: 32
TimelineZoom: 2.040003

[Metadata]
Title:Rock 'n' Roll Nandesu no
TitleUnicode:ロックンロールなんですの
Artist:supercell
ArtistUnicode:supercell
Creator:Milan-
Version:pkhg's Insane
Source:
Tags:appleeaterx pkhg today is a beautiful day ryo nagi yanaginagi やなぎなぎ
BeatmapID:1351370
BeatmapSetID:623518

[Difficulty]
HPDrainRate:6
CircleSize:4
OverallDifficulty:8
ApproachRate:9
SliderMultiplier:1.6
SliderTickRate:1

[Events]
//Background and Video events
0,0,"backgrounda.jpg",0,0
//Break Periods
2,125497,132048
//Storyboard Layer 0 (Background)
//Storyboard Layer 1 (Fail)
//Storyboard Layer 2 (Pass)
//Storyboard Layer 3 (Foreground)
//Storyboard Sound Samples

[TimingPoints]
17598,300,4,2,1,60,1,0
17598,-111.111111111111,4,2,1,60,0,0
27048,-111.111111111111,4,2,1,65,0,0
36648,-100,4,2,1,70,0,0
43848,-100,4,2,1,72,0,0
44448,-100,4,2,1,74,0,0
45048,-100,4,2,1,76,0,0
45648,-100,4,2,1,78,0,0
46398,-111.111111111111,4,2,1,60,0,0
55848,-100,4,2,1,65,0,0
65448,-100,4,2,1,70,0,0
65898,-111.111111111111,4,2,1,60,0,0
67848,-100,4,2,1,70,0,0
68223,-111.111111111111,4,2,1,70,0,0
68298,-111.111111111111,4,2,1,60,0,0
70248,-100,4,2,1,65,0,0
75048,-100,4,2,1,70,0,0
84798,-100,4,2,1,75,0,1
93198,-100,4,2,2,75,0,1
94323,-100,4,2,2,75,0,0
94398,-100,4,2,1,75,0,1
103848,-100,4,2,1,70,0,0
104298,-100,4,2,2,70,0,0
104598,-100,4,2,1,70,0,0
105198,-100,4,2,2,70,0,0
105948,-100,4,2,1,70,0,0
106098,-100,4,2,2,70,0,0
106998,-100,4,2,1,70,0,0
107148,-100,4,2,2,70,0,0
108648,-100,4,2,1,70,0,0
109098,-100,4,2,2,70,0,0
109398,-100,4,2,1,70,0,0
109998,-100,4,2,2,70,0,0
110598,-100,4,2,1,70,0,0
110748,-100,4,2,2,70,0,0
113448,-100,4,2,2,70,0,0
116523,-100,4,2,1,70,0,0
116598,-100,4,2,2,100,0,0
117798,-100,4,2,1,100,0,0
118248,-100,4,2,2,100,0,0
118998,-100,4,2,1,100,0,0
119598,-100,4,2,2,100,0,0
121398,-95.2380952380952,4,2,2,70,0,0
121698,-90.9090909090909,4,2,2,70,0,0
121998,-86.9565217391304,4,2,2,70,0,0
122298,-83.3333333333333,4,2,2,70,0,0
122598,-80,4,2,2,70,0,0
122898,-76.9230769230769,4,2,2,70,0,0
123048,-350,4,2,2,80,0,0
132648,-111.111111111111,4,2,1,65,0,0
142248,-100,4,2,1,70,0,0
142698,-111.111111111111,4,2,1,60,0,0
144648,-100,4,2,1,70,0,0
145098,-111.111111111111,4,2,1,60,0,0
147048,-100,4,2,1,65,0,0
151848,-100,4,2,1,70,0,0
156798,-111.111111111111,4,2,1,70,0,0
158448,-111.111111111111,4,2,1,60,0,0
160398,-100,4,2,1,60,0,0
161598,-100,4,2,1,75,0,1
169998,-100,4,2,2,75,0,1
171123,-100,4,2,2,75,0,0
171198,-100,4,2,1,75,0,1
180723,-100,4,2,1,75,0,0
180798,-100,4,2,1,75,0,1
189198,-100,4,2,2,75,0,1
190323,-100,4,2,2,75,0,0
190398,-100,4,2,1,75,0,1
202323,-100,4,2,1,75,0,0
202398,-100,4,2,1,75,0,1
202473,-100,4,2,1,5,0,0
208398,-100,4,2,1,45,0,0
208473,-100,4,2,1,5,0,0
212598,-100,4,2,1,35,0,0

[Colours]
Combo1 : 255,128,255
Combo2 : 255,128,128
Combo3 : 128,255,128
Combo4 : 128,255,255

[HitObjects]
177,6,17598,6,0,P|182:41|188:77,1,71.9999978027344,4|0,0:0|0:0,0:0:0:0:
117,177,17898,2,0,P|172:164|239:159,1,107.999996704102,8|8,0:0|0:3,0:0:0:0:
250,171,18198,2,0,P|289:178|329:183,1,71.9999978027344,4|0,0:3|0:0,0:0:0:0:
439,148,18498,1,8,0:0:0:0:
439,148,18798,6,0,P|399:152|359:160,1,71.9999978027344,0|0,0:0|0:0,0:0:0:0:
238,124,19098,2,0,P|297:128|356:142,1,107.999996704102,8|8,0:0|0:3,0:0:0:0:
367,157,19398,2,0,P|374:196|379:236,1,71.9999978027344,4|0,0:3|0:0,0:0:0:0:
329,341,19698,1,8,0:0:0:0:
329,341,19998,6,0,P|333:305|340:269,1,71.9999978027344,0|0,0:0|0:0,0:0:0:0:
408,168,20298,2,0,P|404:114|393:61,1,107.999996704102,8|8,0:0|0:3,0:0:0:0:
379,43,20598,1,4,0:3:0:0:
475,81,20748,1,0,0:0:0:0:
326,119,20898,1,8,0:0:0:0:
326,119,21198,6,0,P|290:112|254:108,1,71.9999978027344,0|0,0:0|0:0,0:0:0:0:
134,193,21498,2,0,P|169:186|205:182,1,71.9999978027344,8|0,0:0|0:0,0:0:0:0:
227,190,21723,1,8,0:3:0:0:
245,205,21798,2,0,P|251:240|255:276,1,71.9999978027344,4|0,0:3|0:0,0:0:0:0:
186,377,22098,1,8,0:0:0:0:
186,377,22398,5,4,0:0:0:0:
104,331,22548,1,0,0:0:0:0:
235,296,22699,2,0,P|288:299|341:310,1,107.999996704102,8|8,0:0|0:3,0:0:0:0:
360,322,22998,2,0,P|354:287|350:251,1,71.9999978027344,4|0,0:3|0:0,0:0:0:0:
390,121,23298,1,8,0:0:0:0:
390,121,23598,5,0,0:0:0:0:
439,208,23748,1,0,0:0:0:0:
300,165,23898,2,0,P|247:168|194:179,1,107.999996704102,8|8,0:0|0:3,0:0:0:0:
179,196,24198,2,0,P|143:192|107:185,1,71.9999978027344,4|0,0:3|0:0,0:0:0:0:
26,78,24498,1,8,0:0:0:0:
26,78,24798,5,0,0:0:0:0:
112,26,24948,1,0,0:0:0:0:
191,138,25098,2,0,P|243:126|297:123,1,107.999996704102,8|8,0:0|0:3,0:0:0:0:
318,132,25398,1,4,0:3:0:0:
257,50,25548,1,0,0:0:0:0:
244,203,25698,1,8,0:0:0:0:
244,203,25998,5,0,0:0:0:0:
340,232,26148,1,0,0:0:0:0:
200,295,26298,1,8,0:0:0:0:
340,231,26448,2,0,P|357:227|375:225,1,35.9999989013672,8|8,0:0|0:0,0:0:0:0:
439,274,26598,1,8,0:0:0:0:
453,241,26673,1,8,0:0:0:0:
452,205,26748,1,8,0:0:0:0:
435,173,26823,1,8,0:0:0:0:
407,151,26898,1,8,0:0:0:0:
308,258,27048,6,0,P|237:244|165:240,1,143.999995605469,4|0,0:0|0:0,0:0:0:0:
38,323,27498,2,0,P|73:316|109:312,1,71.9999978027344,8|0,0:0|0:0,0:0:0:0:
213,380,27798,1,2,0:0:0:0:
213,380,27948,1,0,0:0:0:0:
273,257,28098,2,0,P|269:221|262:185,1,71.9999978027344,8|0,0:0|0:0,0:0:0:0:
175,106,28398,5,2,0:0:0:0:
175,106,28548,1,0,0:0:0:0:
290,32,28698,2,0,P|325:35|361:43,1,71.9999978027344,10|0,0:0|0:0,0:0:0:0:
454,106,28998,1,2,0:0:0:0:
351,149,29148,1,0,0:0:0:0:
489,201,29298,1,10,0:0:0:0:
335,261,29448,6,0,P|264:247|192:242,1,143.999995605469,2|0,0:0|0:0,0:0:0:0:
51,193,29898,2,0,P|86:186|122:182,1,71.9999978027344,8|0,0:0|0:0,0:0:0:0:
217,115,30198,1,2,0:0:0:0:
217,115,30348,1,0,0:0:0:0:
263,253,30498,2,0,P|227:245|192:242,1,71.9999978027344,8|0,0:0|0:0,0:0:0:0:
84,294,30798,5,2,0:0:0:0:
84,294,30948,1,0,0:0:0:0:
199,354,31098,1,8,0:0:0:0:
111,208,31248,2,0,P|104:172|100:136,1,71.9999978027344,2|0,0:0|0:0,0:0:0:0:
226,284,31548,2,0,P|232:248|236:212,1,71.9999978027344,2|8,0:0|0:0,0:0:0:0:
112,365,31848,6,0,P|99:294|91:222,1,143.999995605469,4|0,0:0|0:0,0:0:0:0:
174,79,32298,2,0,P|169:114|164:150,1,71.9999978027344,8|0,0:0|0:0,0:0:0:0:
95,227,32598,1,0,0:0:0:0:
95,227,32748,1,0,0:0:0:0:
225,284,32898,2,0,P|261:278|297:273,1,71.9999978027344,8|0,0:0|0:0,0:0:0:0:
432,207,33198,5,2,0:0:0:0:
432,207,33348,1,0,0:0:0:0:
287,167,33498,2,0,P|251:170|215:178,1,71.9999978027344,8|0,0:0|0:0,0:0:0:0:
411,108,33798,1,2,0:0:0:0:
315,73,33948,1,0,0:0:0:0:
455,16,34098,1,10,0:0:0:0:
301,76,34248,6,0,P|229:70|158:57,1,143.999995605469,2|0,0:0|0:0,0:0:0:0:
27,132,34698,2,0,P|62:126|98:122,1,71.9999978027344,8|0,0:0|0:0,0:0:0:0:
215,162,34998,1,2,0:0:0:0:
215,162,35148,1,0,0:0:0:0:
86,226,35298,1,8,0:0:0:0:
238,271,35448,5,2,0:0:0:0:
238,271,35748,1,2,0:0:0:0:
331,298,35898,1,0,0:0:0:0:
409,240,36048,1,0,0:0:0:0:
334,314,36198,1,2,0:0:0:0:
238,271,36348,1,2,0:0:0:0:
238,271,36648,6,0,P|245:191|259:112,1,160,4|0,0:0|0:0,0:0:0:0:
157,0,37098,2,0,P|163:39|168:79,1,80,8|0,0:0|0:0,0:0:0:0:
109,199,37398,1,2,0:0:0:0:
109,199,37548,1,0,0:0:0:0:
238,271,37698,2,0,P|277:263|317:258,1,80,8|0,0:0|0:0,0:0:0:0:
442,313,37998,5,2,0:0:0:0:
442,313,38148,1,0,0:0:0:0:
512,183,38298,2,0,P|473:191|433:196,1,80,10|0,0:0|0:0,0:0:0:0:
321,127,38598,1,2,0:0:0:0:
407,108,38748,1,0,0:0:0:0:
275,51,38898,1,10,0:0:0:0:
274,215,39048,6,0,P|353:201|433:195,1,160,2|0,0:0|0:0,0:0:0:0:
510,302,39498,2,0,P|471:294|431:290,1,80,8|0,0:0|0:0,0:0:0:0:
314,350,39798,1,2,0:0:0:0:
314,350,39948,1,0,0:0:0:0:
265,210,40098,2,0,P|268:170|276:131,1,80,8|0,0:0|0:0,0:0:0:0:
370,26,40398,5,2,0:0:0:0:
370,26,40548,1,0,0:0:0:0:
437,162,40698,1,8,0:0:0:0:
276,131,40848,2,0,P|236:134|197:142,1,80,10|0,0:0|0:0,0:0:0:0:
387,240,41148,2,0,P|347:236|308:228,1,80,10|0,0:0|0:0,0:0:0:0:
512,108,41448,6,0,P|432:114|353:127,1,160,6|0,0:0|0:0,0:0:0:0:
204,184,41898,2,0,P|243:186|283:195,1,80,8|0,0:0|0:0,0:0:0:0:
374,295,42198,1,0,0:0:0:0:
283,283,42348,1,0,0:0:0:0:
181,383,42498,2,0,P|141:380|101:371,1,80,8|0,0:0|0:0,0:0:0:0:
21,229,42798,5,2,0:0:0:0:
21,229,42948,1,0,0:0:0:0:
167,164,43098,2,0,P|175:203|178:242,1,80,8|0,0:0|0:0,0:0:0:0:
48,116,43398,1,2,0:0:0:0:
148,65,43548,1,0,0:0:0:0:
98,217,43698,1,10,0:0:0:0:
244,109,43848,6,0,P|323:114|402:128,1,160,6|0,0:0|0:0,0:0:0:0:
488,200,44298,1,8,0:0:0:0:
382,286,44448,2,0,P|387:206|401:127,1,160,6|0,0:0|0:0,0:0:0:0:
470,38,44898,1,8,0:0:0:0:
331,77,45048,6,0,P|251:71|172:57,1,160,6|0,0:0|0:0,0:0:0:0:
76,0,45498,1,8,0:0:0:0:
51,158,45648,2,0,P|129:144|209:138,1,160,6|0,0:0|0:0,0:0:0:0:
367,200,46098,1,8,0:0:0:0:
280,258,46248,1,0,0:0:0:0:
308,117,46398,6,0,P|343:110|379:106,1,71.9999978027344,4|0,0:0|0:0,0:0:0:0:
473,217,46698,2,0,P|418:204|351:199,1,107.999996704102,8|8,0:0|0:3,0:0:0:0:
340,211,46998,2,0,P|301:218|261:223,1,71.9999978027344,4|0,0:3|0:0,0:0:0:0:
165,151,47298,2,0,P|129:144|93:139,1,71.9999978027344,8|0,0:0|0:0,0:0:0:0:
29,268,47598,6,0,P|79:220|146:236,1,143.999995605469,0|8,0:0|0:0,0:0:0:0:
217,321,48048,1,0,0:0:0:0:
217,321,48123,1,8,0:3:0:0:
217,321,48198,1,4,0:3:0:0:
304,270,48348,1,0,0:0:0:0:
393,359,48498,1,8,0:0:0:0:
294,254,48648,6,0,P|280:183|276:111,1,143.999995605469,0|0,0:0|0:0,0:0:0:0:
205,0,49098,2,0,P|200:35|193:70,1,71.9999978027344,8|0,0:0|0:0,0:0:0:0:
189,81,49323,1,8,0:3:0:0:
183,90,49398,1,4,0:3:0:0:
107,24,49548,1,0,0:0:0:0:
118,163,49698,1,8,0:0:0:0:
40,99,49848,1,0,0:0:0:0:
35,236,49998,6,0,P|106:222|178:218,1,143.999995605469,0|8,0:0|0:0,0:0:0:0:
261,322,50448,1,0,0:0:0:0:
252,316,50523,1,8,0:3:0:0:
242,311,50598,2,0,P|206:303|171:298,1,71.9999978027344,4|0,0:3|0:0,0:0:0:0:
39,337,50898,1,8,0:0:0:0:
102,200,51048,6,0,P|173:186|245:182,1,143.999995605469,4|0,0:0|0:0,0:0:0:0:
355,265,51498,2,0,P|360:211|372:158,1,107.999996704102,8|8,0:0|0:3,0:0:0:0:
384,132,51798,2,0,P|379:97|372:62,1,71.9999978027344,4|0,0:3|0:0,0:0:0:0:
224,94,52098,2,0,P|259:99|294:106,1,71.9999978027344,8|0,0:0|0:0,0:0:0:0:
462,173,52398,6,0,P|390:177|319:191,1,143.999995605469,0|8,0:0|0:0,0:0:0:0:
248,263,52848,1,0,0:0:0:0:
248,263,52923,1,8,0:3:0:0:
248,263,52998,1,4,0:3:0:0:
166,204,53148,1,0,0:0:0:0:
110,329,53298,1,8,0:0:0:0:
5,215,53448,6,0,P|75:201|147:196,1,143.999995605469,0|0,0:0|0:0,0:0:0:0:
277,261,53898,1,8,0:0:0:0:
244,166,54048,1,0,0:0:0:0:
241,155,54123,1,8,0:3:0:0:
240,144,54198,2,0,P|245:107|253:73,1,71.9999978027344,4|0,0:3|0:0,0:0:0:0:
360,0,54498,1,8,0:0:0:0:
474,105,54648,6,0,P|402:109|331:124,1,143.999995605469,0|0,0:0|0:0,0:0:0:0:
226,199,55098,2,0,P|261:204|296:211,1,71.9999978027344,8|0,0:0|0:0,0:0:0:0:
307,215,55323,1,8,0:3:0:0:
316,221,55398,1,4,0:3:0:0:
260,305,55548,1,0,0:0:0:0:
399,283,55698,1,8,0:0:0:0:
243,320,55848,6,0,P|165:306|85:300,1,160,4|0,0:0|0:0,0:0:0:0:
0,188,56298,2,0,P|39:183|78:175,1,80,8|0,0:0|0:0,0:0:0:0:
142,131,56523,1,8,0:3:0:0:
157,126,56598,2,0,P|196:131|235:139,1,80,4|0,0:3|0:0,0:0:0:0:
378,177,56898,2,0,P|338:185|299:190,1,80,8|0,0:0|0:0,0:0:0:0:
144,312,57198,6,0,P|199:258|273:276,1,160,0|8,0:0|0:0,0:0:0:0:
353,370,57648,1,0,0:0:0:0:
353,370,57723,1,8,0:3:0:0:
353,370,57798,1,4,0:3:0:0:
443,304,57948,1,0,0:0:0:0:
324,216,58098,1,8,0:0:0:0:
456,112,58248,6,0,P|376:105|297:91,1,160,0|0,0:0|0:0,0:0:0:0:
141,42,58698,2,0,P|179:33|219:26,1,80,8|0,0:0|0:0,0:0:0:0:
232,27,58923,1,8,0:3:0:0:
245,28,58998,1,4,0:3:0:0:
204,132,59148,1,0,0:0:0:0:
337,197,59298,1,8,0:0:0:0:
296,301,59448,1,0,0:0:0:0:
414,170,59598,6,0,P|334:177|255:191,1,160,0|8,0:0|0:0,0:0:0:0:
185,280,60048,1,0,0:0:0:0:
185,280,60123,1,8,0:3:0:0:
185,280,60198,1,4,0:3:0:0:
296,301,60348,1,0,0:0:0:0:
168,375,60498,1,8,0:0:0:0:
316,280,60648,6,0,P|329:201|336:121,1,160,4|0,0:0|0:0,0:0:0:0:
235,14,61098,2,0,P|244:52|251:92,1,80,8|0,0:0|0:0,0:0:0:0:
250,105,61323,1,8,0:3:0:0:
249,118,61398,1,4,0:3:0:0:
145,76,61548,1,0,0:0:0:0:
194,216,61698,1,8,0:0:0:0:
90,174,61848,1,0,0:0:0:0:
27,338,61998,6,0,P|105:324|185:317,1,160,0|8,0:0|0:0,0:0:0:0:
294,372,62448,1,0,0:0:0:0:
294,372,62523,1,8,0:3:0:0:
294,372,62598,1,4,0:3:0:0:
321,259,62748,1,0,0:0:0:0:
185,316,62898,1,8,0:0:0:0:
338,238,63048,6,0,B|362:206|346:150|330:174|314:118|338:86,1,160,0|0,0:0|0:0,0:0:0:0:
472,23,63498,1,8,0:0:0:0:
438,134,63648,1,0,0:0:0:0:
438,134,63723,1,8,0:3:0:0:
438,134,63798,1,4,0:3:0:0:
337,86,63948,1,0,0:0:0:0:
404,218,64098,1,8,0:0:0:0:
308,70,64248,6,0,P|229:55|149:48,1,160,0|0,0:0|0:0,0:0:0:0:
12,121,64698,1,8,0:0:0:0:
141,168,64848,1,8,0:0:0:0:
141,168,64923,1,8,0:0:0:0:
141,168,64998,1,8,0:0:0:0:
65,46,65148,1,8,0:0:0:0:
22,213,65298,1,8,0:0:0:0:
149,69,65448,6,0,P|227:54|307:47,1,160,4|0,0:0|0:0,0:0:0:0:
422,128,65898,2,0,P|386:124|350:116,1,71.9999978027344,10|0,0:0|0:0,0:0:0:0:
244,149,66198,2,0,P|279:145|315:137,1,71.9999978027344,2|0,0:0|0:0,0:0:0:0:
440,214,66498,2,0,P|404:210|368:202,1,71.9999978027344,10|0,0:0|0:0,0:0:0:0:
262,235,66798,2,0,P|297:231|333:223,1,71.9999978027344,2|0,0:0|0:0,0:0:0:0:
457,300,67098,2,0,P|421:296|385:288,1,71.9999978027344,10|0,0:0|0:0,0:0:0:0:
279,321,67398,2,0,P|314:317|350:309,1,71.9999978027344,2|0,0:0|0:0,0:0:0:0:
440,214,67698,1,10,0:0:0:0:
317,314,67848,6,0,P|238:299|158:292,1,160,4|0,0:0|0:0,0:0:0:0:
72,182,68298,2,0,P|64:217|60:253,1,71.9999978027344,10|0,0:0|0:0,0:0:0:0:
91,341,68598,2,0,P|83:305|79:269,1,71.9999978027344,2|0,0:0|0:0,0:0:0:0:
159,165,68898,2,0,P|151:200|147:236,1,71.9999978027344,10|0,0:0|0:0,0:0:0:0:
178,324,69198,2,0,P|170:288|166:252,1,71.9999978027344,2|0,0:0|0:0,0:0:0:0:
246,148,69498,2,0,P|238:183|234:219,1,71.9999978027344,10|0,0:0|0:0,0:0:0:0:
265,307,69798,2,0,P|257:271|253:235,1,71.9999978027344,2|0,0:0|0:0,0:0:0:0:
324,118,70098,1,10,0:0:0:0:
411,258,70248,6,0,P|332:242|253:236,1,160,4|0,0:0|0:0,0:0:0:0:
124,317,70698,2,0,P|163:308|202:304,1,80,8|0,0:0|0:0,0:0:0:0:
327,354,70998,1,2,0:0:0:0:
327,354,71148,1,0,0:0:0:0:
436,247,71298,2,0,P|396:243|357:235,1,80,8|0,0:0|0:0,0:0:0:0:
265,146,71598,5,2,0:0:0:0:
265,146,71748,1,0,0:0:0:0:
383,50,71898,2,0,P|391:89|395:128,1,80,10|0,0:0|0:0,0:0:0:0:
361,239,72198,1,2,0:0:0:0:
361,239,72348,1,0,0:0:0:0:
499,176,72498,1,10,0:0:0:0:
412,329,72648,6,0,P|333:313|253:306,1,160,2|0,0:0|0:0,0:0:0:0:
109,256,73098,2,0,P|148:251|187:242,1,80,8|0,0:0|0:0,0:0:0:0:
273,143,73398,1,2,0:0:0:0:
273,143,73548,1,0,0:0:0:0:
205,7,73698,2,0,P|196:45|191:85,1,80,8|0,0:0|0:0,0:0:0:0:
269,226,73998,5,2,0:0:0:0:
373,126,74148,2,0,P|411:117|451:112,1,80,0|8,0:0|0:0,0:0:0:0:
269,226,74448,2,0,P|264:186|255:147,1,80,2|0,0:0|0:0,0:0:0:0:
361,295,74748,2,0,P|365:255|374:216,1,80,2|8,0:0|0:0,0:0:0:0:
262,384,75048,6,0,P|248:305|225:228,1,160,6|0,0:0|0:0,0:0:0:0:
161,79,75498,2,0,P|156:118|146:157,1,80,8|0,0:0|0:0,0:0:0:0:
78,302,75798,2,0,P|68:263|63:223,1,80,8|0,0:0|0:0,0:0:0:0:
225,228,76098,2,0,P|185:232|146:242,1,80,8|0,0:0|0:0,0:0:0:0:
4,169,76398,6,0,P|42:178|82:183,1,80,8|0,0:0|0:0,0:0:0:0:
173,51,76698,2,0,P|163:89|158:129,1,80,8|0,0:0|0:0,0:0:0:0:
264,6,76998,2,0,P|273:44|278:84,1,80,8|0,0:0|0:0,0:0:0:0:
225,228,77298,1,8,0:0:0:0:
375,152,77448,6,0,P|296:136|216:129,1,160,4|0,0:0|0:0,0:0:0:0:
69,192,77898,2,0,P|107:182|147:177,1,80,8|0,0:0|0:0,0:0:0:0:
303,213,78198,2,0,P|263:218|225:228,1,80,8|0,0:0|0:0,0:0:0:0:
99,326,78498,2,0,P|137:316|177:311,1,80,8|0,0:0|0:0,0:0:0:0:
340,266,78798,6,0,P|301:256|261:251,1,80,8|0,0:0|0:0,0:0:0:0:
434,197,79098,2,0,P|472:187|512:182,1,80,8|0,0:0|0:0,0:0:0:0:
353,120,79398,1,8,0:0:0:0:
425,216,79548,1,0,0:0:0:0:
302,291,79698,1,8,0:0:0:0:
418,237,79848,1,0,0:0:0:0:
257,188,79998,1,12,0:0:0:0:
257,188,80298,5,2,0:0:0:0:
334,163,80598,1,0,0:0:0:0:
381,228,80898,1,0,0:0:0:0:
334,293,81198,1,2,0:0:0:0:
257,268,81498,1,2,0:0:0:0:
257,268,82098,5,0,0:0:0:0:
334,163,82398,1,2,0:0:0:0:
381,228,82698,1,0,0:0:0:0:
257,188,82998,1,2,0:0:0:0:
257,268,83298,1,0,0:0:0:0:
381,228,83598,5,2,0:0:0:0:
257,268,83898,1,2,0:0:0:0:
381,228,84198,1,8,0:0:0:0:
346,208,84273,1,8,0:0:0:0:
306,210,84348,1,8,0:0:0:0:
273,232,84423,1,8,0:0:0:0:
257,268,84498,1,8,0:0:0:0:
257,268,84798,6,0,P|179:254|99:248,1,160,4|8,0:0|0:0,0:0:0:0:
0,143,85248,2,0,P|79:137|158:122,1,160,2|2,0:0|0:0,0:0:0:0:
272,21,85698,1,8,0:0:0:0:
329,122,85848,6,0,P|289:113|250:108,1,80,2|0,0:0|0:0,0:0:0:0:
387,192,86148,1,0,0:0:0:0:
245,150,86298,2,0,P|284:141|323:136,1,80,8|0,0:0|0:0,0:0:0:0:
469,163,86598,1,2,0:0:0:0:
469,163,86748,1,0,0:0:0:0:
364,273,86898,1,10,0:0:0:0:
475,307,87048,1,0,0:0:0:0:
314,356,87198,6,0,P|235:341|155:335,1,160,2|8,0:0|0:0,0:0:0:0:
20,283,87648,2,0,P|59:277|98:268,1,80,2|0,0:0|0:0,0:0:0:0:
213,193,87948,2,0,P|252:198|291:207,1,80,2|8,0:0|0:0,0:0:0:0:
390,314,88248,6,0,P|396:234|410:155,1,160,2|0,0:0|0:0,0:0:0:0:
484,22,88698,1,8,0:0:0:0:
387,78,88848,1,0,0:0:0:0:
492,176,88998,2,0,P|497:136|506:97,1,80,2|0,0:0|0:0,0:0:0:0:
404,236,89298,2,0,P|398:196|389:157,1,80,10|0,0:0|0:0,0:0:0:0:
353,323,89598,6,0,P|314:313|274:308,1,80,2|0,0:0|0:0,0:0:0:0:
116,278,89898,2,0,P|155:272|194:263,1,80,8|0,0:0|0:0,0:0:0:0:
260,134,90198,2,0,P|268:172|274:212,1,80,2|0,0:0|0:0,0:0:0:0:
179,340,90498,2,0,P|185:300|194:262,1,80,8|0,0:0|0:0,0:0:0:0:
352,197,90798,6,0,P|313:206|274:212,1,80,2|0,0:0|0:0,0:0:0:0:
142,120,91098,2,0,P|103:110|63:105,1,80,8|0,0:0|0:0,0:0:0:0:
0,234,91398,2,0,P|38:224|78:219,1,80,2|0,0:0|0:0,0:0:0:0:
211,310,91698,2,0,P|172:300|132:295,1,80,8|0,0:0|0:0,0:0:0:0:
319,253,91998,6,0,P|357:243|397:238,1,80,2|0,0:0|0:0,0:0:0:0:
512,125,92298,2,0,P|472:119|433:110,1,80,10|0,0:0|0:0,0:0:0:0:
298,58,92598,2,0,P|258:63|219:72,1,80,2|0,0:0|0:0,0:0:0:0:
111,192,92898,2,0,P|150:197|189:206,1,80,10|0,0:0|0:0,0:0:0:0:
335,309,93198,5,14,0:0:0:0:
176,74,93498,1,14,0:0:0:0:
138,271,93798,1,14,0:0:0:0:
373,112,94098,1,14,0:0:0:0:
113,194,94398,6,0,P|59:249|77:323,1,160,4|8,0:0|0:0,0:0:0:0:
217,254,94848,2,0,P|210:174|196:95,1,160,2|2,0:0|0:0,0:0:0:0:
77,0,95298,1,8,0:0:0:0:
0,140,95448,6,0,P|39:144|78:153,1,80,2|0,0:0|0:0,0:0:0:0:
223,203,95748,2,0,P|184:207|145:216,1,80,0|8,0:0|0:0,0:0:0:0:
69,305,96048,1,0,0:0:0:0:
34,178,96198,1,2,0:0:0:0:
34,178,96348,1,0,0:0:0:0:
75,324,96498,1,10,0:0:0:0:
148,234,96648,1,0,0:0:0:0:
249,358,96798,6,0,P|327:344|407:338,1,160,2|8,0:0|0:0,0:0:0:0:
512,237,97248,2,0,P|432:231|353:216,1,160,2|2,0:0|0:0,0:0:0:0:
234,121,97698,1,8,0:0:0:0:
180,224,97848,6,0,P|218:214|258:210,1,80,2|0,0:0|0:0,0:0:0:0:
372,235,98148,1,0,0:0:0:0:
238,304,98298,1,8,0:0:0:0:
238,304,98448,1,0,0:0:0:0:
352,343,98598,1,2,0:0:0:0:
352,343,98748,1,0,0:0:0:0:
263,221,98898,2,0,P|224:211|184:207,1,80,10|0,0:0|0:0,0:0:0:0:
26,149,99198,6,0,P|65:139|105:135,1,80,2|0,0:0|0:0,0:0:0:0:
254,80,99498,2,0,P|215:70|175:66,1,80,8|0,0:0|0:0,0:0:0:0:
74,191,99798,2,0,P|78:230|87:269,1,80,2|0,0:0|0:0,0:0:0:0:
194,114,100098,2,0,P|189:153|180:192,1,80,8|0,0:0|0:0,0:0:0:0:
44,300,100398,6,0,P|82:290|122:286,1,80,2|0,0:0|0:0,0:0:0:0:
263,228,100698,2,0,P|223:223|184:214,1,80,8|0,0:0|0:0,0:0:0:0:
350,154,100998,2,0,P|366:190|377:228,1,80,2|0,0:0|0:0,0:0:0:0:
478,74,101298,2,0,P|461:110|450:148,1,80,8|0,0:0|0:0,0:0:0:0:
492,321,101598,5,4,0:0:0:0:
381,233,101748,1,2,0:0:0:0:
381,233,101898,1,0,0:0:0:0:
308,384,102048,5,8,0:0:0:0:
177,330,102198,1,2,0:0:0:0:
177,330,102348,1,0,0:0:0:0:
327,275,102498,1,8,0:0:0:0:
219,215,102648,5,10,0:0:0:0:
219,215,102723,1,8,0:0:0:0:
219,215,102798,1,8,0:3:0:0:
378,162,102948,1,4,0:3:0:0:
327,275,103098,1,8,0:3:0:0:
278,111,103248,5,8,0:0:0:0:
278,111,103323,1,8,0:0:0:0:
278,111,103398,1,8,0:0:0:0:
416,48,103548,1,8,0:0:0:0:
479,186,103698,1,8,0:0:0:0:
327,275,103848,6,0,P|249:261|169:255,1,160,4|0,0:0|0:0,0:0:0:0:
47,176,104298,2,2,P|126:170|205:155,1,160,10|2,0:0|0:1,0:0:0:0:
290,64,104748,1,0,0:0:0:0:
381,176,104898,2,0,P|343:166|303:162,1,80,10|2,0:0|0:0,0:0:0:0:
213,247,105198,5,2,0:0:0:0:
213,247,105348,1,0,0:0:0:0:
321,340,105498,2,0,P|317:300|306:261,1,80,10|0,0:0|0:0,0:0:0:0:
223,165,105798,1,2,0:0:0:0:
128,232,105948,1,2,0:0:0:0:
39,119,106098,1,10,0:0:0:0:
54,290,106248,6,2,P|132:276|212:270,1,160,6|0,0:0|0:0,0:0:0:0:
360,229,106698,2,0,P|321:218|281:214,1,80,8|2,0:0|0:0,0:0:0:0:
431,302,106998,1,2,0:0:0:0:
431,302,107148,1,2,0:0:0:0:
491,171,107298,2,0,P|487:131|476:92,1,80,8|2,0:0|0:0,0:0:0:0:
370,21,107598,5,2,0:0:0:0:
370,21,107748,1,0,0:0:0:0:
249,113,107898,2,0,P|209:108|170:98,1,80,10|0,0:0|0:0,0:0:0:0:
161,91,108123,1,0,0:0:0:0:
152,83,108198,1,0,0:0:0:0:
191,201,108348,1,2,0:0:0:0:
71,122,108498,1,8,0:0:0:0:
135,269,108648,6,0,P|213:255|293:249,1,160,6|0,0:0|0:0,0:0:0:0:
441,289,109098,2,2,P|361:283|282:268,1,160,10|2,0:0|0:1,0:0:0:0:
201,181,109548,1,0,0:0:0:0:
144,313,109698,1,8,0:0:0:0:
253,262,109848,1,0,0:0:0:0:
130,229,109998,5,2,0:0:0:0:
130,229,110148,1,0,0:0:0:0:
197,93,110298,2,0,P|236:82|276:78,1,80,8|0,0:0|0:0,0:0:0:0:
384,128,110598,1,2,0:0:0:0:
294,201,110748,1,2,0:0:0:0:
435,232,110898,1,8,0:0:0:0:
289,323,111048,6,0,P|211:309|131:303,1,160,6|2,0:0|0:0,0:0:0:0:
0,225,111498,2,0,P|39:220|78:210,1,80,8|2,0:0|0:0,0:0:0:0:
147,113,111798,1,0,0:0:0:0:
147,113,111948,1,2,0:0:0:0:
223,245,112098,2,0,P|218:284|208:323,1,80,8|2,0:0|0:0,0:0:0:0:
53,274,112398,6,0,P|91:263|131:259,1,80,2|0,0:0|0:0,0:0:0:0:
292,333,112698,1,10,0:0:0:0:
292,333,112848,1,0,0:0:0:0:
240,209,112998,1,2,0:0:0:0:
186,377,113148,1,10,0:0:0:0:
186,377,113223,1,8,0:0:0:0:
186,377,113298,1,10,0:0:0:0:
312,248,113448,6,2,P|351:250|390:260,1,80,6|0,0:0|0:0,0:0:0:0:
200,204,113748,2,2,P|160:206|121:216,1,80,2|8,0:0|0:0,0:0:0:0:
317,253,114048,6,2,P|355:242|395:238,1,80,2|0,0:0|0:0,0:0:0:0:
195,209,114348,2,2,P|156:198|116:194,1,80,2|8,0:0|0:0,0:0:0:0:
322,258,114648,6,2,P|354:234|390:217,1,80,2|0,0:0|0:0,0:0:0:0:
190,214,114948,2,2,P|157:190|121:173,1,80,2|8,0:0|0:0,0:0:0:0:
327,263,115248,6,2,P|349:229|377:201,1,80,2|0,0:0|0:0,0:0:0:0:
185,219,115548,2,2,P|162:185|134:157,1,80,2|8,0:0|0:0,0:0:0:0:
332,268,115848,6,2,P|341:229|358:192,1,80,6|0,0:0|0:0,0:0:0:0:
180,224,116148,2,2,P|170:185|153:148,1,80,2|8,0:0|0:0,0:0:0:0:
337,273,116448,6,2,B|360:244|359:209|359:209|384:190|477:264|442:380|306:412|262:324|259:295,1,400,2|0,0:0|0:0,0:0:0:0:
243,177,117348,1,0,0:0:0:0:
138,287,117498,1,8,0:0:0:0:
64,193,117648,2,2,P|103:188|142:178,1,80,0|2,0:0|0:0,0:0:0:0:
223,84,117948,1,0,0:0:0:0:
338,183,118098,1,8,0:0:0:0:
298,16,118248,6,2,P|219:30|139:36,1,160,6|0,0:0|0:0,0:0:0:0:
0,105,118698,2,2,P|39:109|78:119,1,80,10|0,0:0|0:0,0:0:0:0:
162,219,118998,1,2,0:0:0:0:
162,219,119148,1,0,0:0:0:0:
15,258,119298,1,8,0:0:0:0:
109,326,119448,1,0,0:0:0:0:
75,158,119598,5,2,0:0:0:0:
75,158,119673,1,0,0:0:0:0:
75,158,119748,1,0,0:0:0:0:
196,250,119898,1,10,0:0:0:0:
259,148,120048,2,2,P|297:137|337:133,1,80,2|0,0:0|0:0,0:0:0:0:
456,150,120348,1,0,0:0:0:0:
349,42,120498,1,8,0:0:0:0:
383,215,120648,6,0,P|378:254|368:293,1,80,6|0,0:0|0:0,0:0:0:0:
229,347,120948,1,0,0:0:0:0:
215,345,121023,1,0,0:0:0:0:
200,343,121098,2,0,P|181:343|161:345,3,40,10|0|2|0,0:0|0:0|0:0|0:0,0:0:0:0:
85,301,121398,2,0,P|64:298|43:299,3,41.9999987182618,2|0|2|0,0:0|0:0|0:0|0:0,0:0:0:0:
165,265,121698,2,0,P|187:262|209:262,3,44.0000013427735,10|0|6|0,0:0|0:0|0:0|0:0,0:0:0:0:
89,216,121998,6,0,P|66:213|43:213,3,46.0000008773804,2|0|2|0,0:0|0:0|0:0|0:0,0:0:0:0:
172,178,122298,2,0,P|195:176|219:176,3,47.9999985351563,10|0|2|0,0:0|0:0|0:0|0:0,0:0:0:0:
90,130,122598,2,0,P|65:127|40:127,3,50,2|0|2|0,0:0|0:0|0:0|0:0,0:0:0:0:
173,93,122898,2,0,P|199:90|225:90,1,51.999997619629,8|0,0:0|0:0,0:0:0:0:
314,115,123048,6,2,B|284:164|223:145|190:98|218:36|270:21|320:64|320:64|362:90|405:70,1,342.857142857143,4|10,0:0|0:0,0:0:0:0:
405,69,132648,6,0,P|334:55|262:51,1,143.999995605469,4|0,0:0|0:0,0:0:0:0:
183,154,133098,2,0,P|235:142|289:137,1,107.999996704102,8|8,0:0|0:3,0:0:0:0:
313,156,133398,2,0,P|348:161|383:168,1,71.9999978027344,4|0,0:3|0:0,0:0:0:0:
512,236,133698,2,0,P|476:241|441:248,1,71.9999978027344,8|0,0:0|0:0,0:0:0:0:
305,356,133998,6,0,P|234:342|162:338,1,143.999995605469,0|8,0:0|0:0,0:0:0:0:
66,377,134448,1,0,0:0:0:0:
66,377,134523,1,8,0:3:0:0:
66,377,134598,1,4,0:3:0:0:
104,276,134748,1,0,0:0:0:0:
0,187,134898,1,8,0:0:0:0:
41,336,135048,6,0,P|112:322|184:318,1,143.999995605469,0|0,0:0|0:0,0:0:0:0:
313,383,135498,1,8,0:0:0:0:
280,288,135648,1,0,0:0:0:0:
277,277,135723,1,8,0:3:0:0:
276,266,135798,2,0,P|281:229|289:195,1,71.9999978027344,4|0,0:3|0:0,0:0:0:0:
404,134,136098,1,8,0:0:0:0:
347,51,136248,1,0,0:0:0:0:
288,195,136398,6,0,P|217:181|145:177,1,143.999995605469,0|8,0:0|0:0,0:0:0:0:
57,234,136848,1,0,0:0:0:0:
57,234,136923,1,8,0:3:0:0:
57,234,136998,1,4,0:3:0:0:
159,270,137148,1,0,0:0:0:0:
38,334,137298,1,8,0:0:0:0:
191,356,137448,6,0,P|195:284|209:213,1,143.999995605469,4|0,0:0|0:0,0:0:0:0:
268,90,137898,2,0,P|273:125|280:160,1,71.9999978027344,8|0,0:0|0:0,0:0:0:0:
292,175,138123,1,8,0:3:0:0:
309,181,138198,2,0,P|344:176|379:169,1,71.9999978027344,4|0,0:3|0:0,0:0:0:0:
505,113,138498,2,0,P|469:105|434:100,1,71.9999978027344,8|0,0:0|0:0,0:0:0:0:
293,12,138798,6,0,P|313:80|326:151,1,143.999995605469,0|8,0:0|0:0,0:0:0:0:
382,277,139248,1,0,0:0:0:0:
388,267,139323,1,8,0:3:0:0:
393,257,139398,2,0,P|401:220|406:186,1,71.9999978027344,4|0,0:3|0:0,0:0:0:0:
308,307,139698,1,8,0:0:0:0:
238,169,139848,6,0,P|167:155|95:151,1,143.999995605469,0|0,0:0|0:0,0:0:0:0:
0,250,140298,2,0,P|34:242|69:236,1,71.9999978027344,8|0,0:0|0:0,0:0:0:0:
81,235,140523,1,8,0:3:0:0:
91,238,140598,1,4,0:3:0:0:
176,291,140748,1,0,0:0:0:0:
238,169,140898,1,8,0:0:0:0:
277,330,141048,6,0,P|348:316|420:312,1,143.999995605469,4|0,0:0|0:0,0:0:0:0:
507,243,141498,1,8,0:0:0:0:
421,196,141648,1,8,0:0:0:0:
421,196,141723,1,8,0:0:0:0:
421,196,141798,1,8,0:0:0:0:
419,311,141948,1,8,0:0:0:0:
305,223,142098,1,8,0:0:0:0:
215,365,142248,6,0,P|137:350|57:343,1,160,4|0,0:0|0:0,0:0:0:0:
1,214,142698,1,10,0:0:0:0:
77,255,142998,1,2,0:0:0:0:
118,180,143298,1,10,0:0:0:0:
194,221,143598,1,2,0:0:0:0:
235,146,143898,1,10,0:0:0:0:
311,187,144198,1,2,0:0:0:0:
352,112,144498,1,10,0:0:0:0:
374,258,144648,6,0,P|296:243|216:236,1,160,4|0,0:0|0:0,0:0:0:0:
89,296,145098,1,10,0:0:0:0:
173,309,145398,1,2,0:0:0:0:
215,235,145698,1,10,0:0:0:0:
177,159,145998,1,2,0:0:0:0:
93,146,146298,1,10,0:0:0:0:
51,220,146598,1,2,0:0:0:0:
135,233,146898,1,10,0:0:0:0:
37,364,147048,6,0,P|115:349|195:342,1,160,4|0,0:0|0:0,0:0:0:0:
340,295,147498,2,0,P|300:290|261:282,1,80,8|0,0:0|0:0,0:0:0:0:
161,204,147798,1,2,0:0:0:0:
161,204,147948,1,0,0:0:0:0:
253,83,148098,2,0,P|261:122|265:161,1,80,8|0,0:0|0:0,0:0:0:0:
230,293,148398,5,2,0:0:0:0:
230,293,148548,1,0,0:0:0:0:
366,360,148698,2,0,P|405:355|444:347,1,80,10|0,0:0|0:0,0:0:0:0:
503,254,148998,1,2,0:0:0:0:
503,254,149148,1,0,0:0:0:0:
366,189,149298,1,10,0:0:0:0:
444,347,149448,6,0,P|366:332|286:325,1,160,2|0,0:0|0:0,0:0:0:0:
143,272,149898,2,0,P|182:263|221:259,1,80,8|0,0:0|0:0,0:0:0:0:
358,275,150198,1,2,0:0:0:0:
358,275,150348,1,0,0:0:0:0:
451,155,150498,2,0,P|411:163|372:167,1,80,8|0,0:0|0:0,0:0:0:0:
237,80,150798,5,2,0:0:0:0:
137,184,150948,2,0,P|128:222|123:262,1,80,0|8,0:0|0:0,0:0:0:0:
237,80,151248,2,0,P|197:75|158:66,1,80,2|0,0:0|0:0,0:0:0:0:
306,172,151548,2,0,P|266:176|227:185,1,80,2|8,0:0|0:0,0:0:0:0:
395,73,151848,6,0,P|316:59|239:36,1,160,6|0,0:0|0:0,0:0:0:0:
97,111,152298,2,0,P|135:102|175:97,1,80,8|0,0:0|0:0,0:0:0:0:
310,184,152598,2,0,P|271:175|231:170,1,80,8|0,0:0|0:0,0:0:0:0:
242,331,152898,2,0,P|251:292|255:252,1,80,8|0,0:0|0:0,0:0:0:0:
138,144,153198,6,0,P|141:183|151:222,1,80,8|0,0:0|0:0,0:0:0:0:
23,319,153498,2,0,P|61:310|101:305,1,80,8|0,0:0|0:0,0:0:0:0:
247,375,153798,2,0,P|207:370|168:361,1,80,8|0,0:0|0:0,0:0:0:0:
107,222,154098,1,8,0:0:0:0:
13,361,154248,6,0,P|91:345|171:338,1,160,4|0,0:0|0:0,0:0:0:0:
324,290,154698,2,0,P|285:281|245:276,1,80,8|0,0:0|0:0,0:0:0:0:
87,244,154998,2,0,P|126:235|166:230,1,80,8|0,0:0|0:0,0:0:0:0:
318,181,155298,2,0,P|279:172|239:167,1,80,8|0,0:0|0:0,0:0:0:0:
144,29,155598,6,0,P|148:68|157:107,1,80,8|0,0:0|0:0,0:0:0:0:
210,260,155898,2,0,P|214:220|223:181,1,80,8|0,0:0|0:0,0:0:0:0:
317,71,156198,1,8,0:0:0:0:
239,167,156348,1,0,0:0:0:0:
383,167,156498,1,8,0:0:0:0:
256,153,156648,1,0,0:0:0:0:
407,80,156798,1,12,0:0:0:0:
414,87,158448,5,8,0:3:0:0:
414,87,158523,1,0,0:0:0:0:
414,87,158598,1,8,0:0:0:0:
293,158,158748,1,0,0:0:0:0:
293,158,159048,2,0,P|222:144|150:140,1,143.999995605469,4|4,0:3|0:3,0:0:0:0:
134,148,159423,1,8,0:0:0:0:
118,157,159498,5,8,0:0:0:0:
200,257,159648,1,4,0:3:0:0:
200,257,159948,1,8,0:0:0:0:
293,158,160098,2,0,P|328:149|363:143,1,71.9999978027344,4|0,0:3|0:0,0:0:0:0:
509,195,160398,5,8,0:0:0:0:
453,283,160548,1,8,0:0:0:0:
349,300,160698,1,8,0:0:0:0:
263,244,160848,1,8,0:0:0:0:
249,139,160998,1,8,0:0:0:0:
163,84,161148,1,8,0:0:0:0:
59,101,161298,1,8,0:0:0:0:
3,189,161448,1,8,0:0:0:0:
115,337,161598,6,0,P|193:323|273:317,1,160,4|8,0:0|0:0,0:0:0:0:
422,280,162048,2,0,P|382:273|343:264,1,80,2|0,0:0|0:0,0:0:0:0:
226,196,162348,2,0,P|186:202|147:211,1,80,2|8,0:0|0:0,0:0:0:0:
78,338,162648,6,0,P|72:258|58:179,1,160,2|0,0:0|0:0,0:0:0:0:
131,45,163098,2,0,P|122:83|117:123,1,80,8|0,0:0|0:0,0:0:0:0:
194,246,163398,1,2,0:0:0:0:
194,246,163548,1,0,0:0:0:0:
58,179,163698,1,10,0:0:0:0:
163,121,163848,1,0,0:0:0:0:
118,283,163998,6,0,P|196:269|276:263,1,160,2|8,0:0|0:0,0:0:0:0:
385,350,164448,2,0,P|331:295|349:220,1,160,2|2,0:0|0:0,0:0:0:0:
497,181,164898,1,8,0:0:0:0:
403,107,165048,6,0,P|364:98|324:92,1,80,2|0,0:0|0:0,0:0:0:0:
213,138,165348,1,0,0:0:0:0:
343,210,165498,1,8,0:0:0:0:
343,210,165648,1,0,0:0:0:0:
264,300,165798,2,0,P|255:261|249:221,1,80,2|0,0:0|0:0,0:0:0:0:
151,366,166098,2,0,P|159:327|165:287,1,80,10|0,0:0|0:0,0:0:0:0:
11,230,166398,6,0,P|50:224|89:215,1,80,2|0,0:0|0:0,0:0:0:0:
225,114,166698,2,0,P|264:119|303:128,1,80,8|0,0:0|0:0,0:0:0:0:
430,200,166998,2,0,P|390:205|351:214,1,80,2|0,0:0|0:0,0:0:0:0:
209,306,167298,2,0,P|169:300|130:291,1,80,8|0,0:0|0:0,0:0:0:0:
172,135,167598,6,0,P|180:174|185:213,1,80,2|0,0:0|0:0,0:0:0:0:
116,369,167898,2,0,P|121:330|130:291,1,80,8|0,0:0|0:0,0:0:0:0:
263,227,168198,2,0,P|224:218|185:213,1,80,2|0,0:0|0:0,0:0:0:0:
18,186,168498,2,0,P|57:180|96:171,1,80,8|0,0:0|0:0,0:0:0:0:
238,81,168798,6,0,P|277:86|316:95,1,80,2|0,0:0|0:0,0:0:0:0:
178,187,169098,2,0,P|216:178|256:172,1,80,10|0,0:0|0:0,0:0:0:0:
449,287,169398,2,0,P|443:326|434:365,1,80,2|0,0:0|0:0,0:0:0:0:
343,228,169697,2,0,P|351:266|357:306,1,80,10|0,0:0|0:0,0:0:0:0:
193,133,169998,6,0,P|154:124|114:118,1,80,14|0,0:0|0:0,0:0:0:0:
318,95,170298,2,0,P|356:86|396:80,1,80,14|0,0:0|0:0,0:0:0:0:
158,226,170598,2,0,P|119:217|79:211,1,80,14|0,0:0|0:0,0:0:0:0:
353,188,170898,2,0,P|391:179|431:173,1,80,14|0,0:0|0:0,0:0:0:0:
176,320,171198,6,0,P|98:301|19:291,1,160,4|8,0:0|0:0,0:0:0:0:
70,143,171648,2,0,P|79:181|85:221,1,80,2|0,0:0|0:0,0:0:0:0:
170,354,171948,2,0,P|176:314|185:275,1,80,2|8,0:0|0:0,0:0:0:0:
358,316,172248,6,0,P|319:325|279:331,1,80,2|0,0:0|0:0,0:0:0:0:
153,240,172548,2,0,P|192:246|231:255,1,80,0|8,0:0|0:0,0:0:0:0:
358,316,172848,1,0,0:0:0:0:
315,179,172998,1,2,0:0:0:0:
315,179,173148,1,0,0:0:0:0:
366,331,173298,1,10,0:0:0:0:
446,231,173448,1,0,0:0:0:0:
259,281,173598,6,0,P|181:262|102:252,1,160,2|8,0:0|0:0,0:0:0:0:
211,364,174048,2,0,P|288:345|368:335,1,160,2|2,0:0|0:0,0:0:0:0:
486,225,174498,1,8,0:0:0:0:
464,363,174648,6,0,P|425:353|385:347,1,80,2|0,0:0|0:0,0:0:0:0:
245,355,174948,1,0,0:0:0:0:
369,253,175098,1,8,0:0:0:0:
369,253,175248,1,0,0:0:0:0:
285,141,175398,1,2,0:0:0:0:
184,238,175548,1,0,0:0:0:0:
322,319,175698,2,0,P|360:310|400:304,1,80,10|0,0:0|0:0,0:0:0:0:
512,182,175998,6,0,P|472:176|433:166,1,80,2|0,0:0|0:0,0:0:0:0:
282,240,176298,2,0,P|320:230|360:224,1,80,8|0,0:0|0:0,0:0:0:0:
420,85,176598,2,0,P|429:123|435:163,1,80,2|0,0:0|0:0,0:0:0:0:
344,306,176898,2,0,P|349:266|359:227,1,80,8|0,0:0|0:0,0:0:0:0:
232,377,177198,6,0,P|222:338|216:298,1,80,2|0,0:0|0:0,0:0:0:0:
52,262,177498,2,0,P|91:256|130:246,1,80,8|0,0:0|0:0,0:0:0:0:
190,107,177798,2,0,P|199:145|205:185,1,80,2|0,0:0|0:0,0:0:0:0:
370,222,178098,2,0,P|330:227|291:237,1,80,8|0,0:0|0:0,0:0:0:0:
421,368,178398,6,0,P|343:348|264:339,1,160,4|8,0:0|0:0,0:0:0:0:
446,288,178848,1,8,0:0:0:0:
446,288,178923,1,8,0:0:0:0:
446,288,178998,1,8,0:3:0:0:
291,237,179148,2,0,P|330:227|370:222,1,80,8|4,0:3|0:3,0:0:0:0:
224,324,179448,5,8,0:0:0:0:
224,324,179523,1,8,0:0:0:0:
224,324,179598,1,8,0:3:0:0:
130,246,179748,1,8,0:3:0:0:
176,133,179898,1,4,0:3:0:0:
38,148,180048,5,8,0:0:0:0:
38,148,180123,1,8,0:0:0:0:
38,148,180198,1,8,0:0:0:0:
111,50,180348,1,8,0:0:0:0:
130,246,180498,1,8,0:0:0:0:
176,133,180648,1,8,0:0:0:0:
248,310,180798,6,0,P|325:290|404:281,1,160,4|8,0:0|0:0,0:0:0:0:
256,322,181248,2,0,P|179:302|100:293,1,160,2|2,0:0|0:0,0:0:0:0:
261,329,181698,1,8,0:0:0:0:
202,202,181848,6,0,P|191:240|185:280,1,80,2|0,0:0|0:0,0:0:0:0:
288,171,182148,1,0,0:0:0:0:
141,132,182298,2,0,P|101:137|62:148,1,80,8|0,0:0|0:0,0:0:0:0:
231,105,182598,1,2,0:0:0:0:
231,105,182748,1,0,0:0:0:0:
84,65,182898,1,10,0:0:0:0:
210,4,183048,1,0,0:0:0:0:
297,161,183198,6,0,P|220:140|141:132,1,160,2|8,0:0|0:0,0:0:0:0:
41,230,183648,2,0,P|79:220|119:215,1,80,2|0,0:0|0:0,0:0:0:0:
222,312,183948,2,0,P|183:302|143:297,1,80,2|8,0:0|0:0,0:0:0:0:
321,384,184248,6,0,P|307:305|301:225,1,160,2|0,0:0|0:0,0:0:0:0:
357,84,184698,1,8,0:0:0:0:
477,156,184848,1,0,0:0:0:0:
379,239,184998,2,0,P|340:230|301:225,1,80,2|0,0:0|0:0,0:0:0:0:
262,69,185298,2,0,P|256:108|247:147,1,80,10|0,0:0|0:0,0:0:0:0:
80,107,185598,6,0,P|118:97|158:92,1,80,2|0,0:0|0:0,0:0:0:0:
153,256,185898,2,0,P|143:217|138:177,1,80,8|0,0:0|0:0,0:0:0:0:
303,180,186198,2,0,P|264:189|224:194,1,80,2|0,0:0|0:0,0:0:0:0:
230,31,186498,2,0,P|239:69|244:109,1,80,8|0,0:0|0:0,0:0:0:0:
153,256,186798,6,0,P|143:294|138:334,1,80,2|0,0:0|0:0,0:0:0:0:
303,326,187098,2,0,P|264:316|224:311,1,80,8|0,0:0|0:0,0:0:0:0:
66,268,187398,2,0,P|105:262|144:253,1,80,2|0,0:0|0:0,0:0:0:0:
263,137,187698,2,0,P|302:141|341:151,1,80,8|0,0:0|0:0,0:0:0:0:
210,291,187998,6,0,P|200:252|195:212,1,80,2|0,0:0|0:0,0:0:0:0:
154,54,188298,2,0,P|149:93|139:132,1,80,10|0,0:0|0:0,0:0:0:0:
0,219,188598,2,0,P|39:212|78:203,1,80,2|0,0:0|0:0,0:0:0:0:
178,329,188898,2,0,P|139:319|99:313,1,80,10|0,0:0|0:0,0:0:0:0:
334,273,189198,6,0,P|339:233|348:194,1,80,14|0,0:0|0:0,0:0:0:0:
178,329,189498,2,0,P|172:289|163:250,1,80,14|0,0:0|0:0,0:0:0:0:
348,283,189798,2,0,P|384:267|423:256,1,80,14|0,0:0|0:0,0:0:0:0:
164,339,190098,2,0,P|127:323|88:312,1,80,14|0,0:0|0:0,0:0:0:0:
362,293,190398,6,0,P|382:216|390:137,1,160,4|8,0:0|0:0,0:0:0:0:
266,37,190848,2,0,P|286:114|295:193,1,160,2|2,0:0|0:0,0:0:0:0:
243,345,191298,1,8,0:0:0:0:
127,267,191448,6,0,P|166:262|205:251,1,80,2|0,0:0|0:0,0:0:0:0:
248,119,191748,1,0,0:0:0:0:
370,222,191898,2,0,P|331:211|291:206,1,80,8|0,0:0|0:0,0:0:0:0:
446,166,192198,1,2,0:0:0:0:
446,166,192348,1,0,0:0:0:0:
291,206,192498,1,10,0:0:0:0:
377,316,192648,1,0,0:0:0:0:
205,251,192798,6,0,P|125:262|48:284,1,160,2|8,0:0|0:0,0:0:0:0:
0,123,193248,2,0,P|76:144|156:156,1,160,2|2,0:0|0:0,0:0:0:0:
310,108,193698,1,8,0:0:0:0:
343,244,193848,6,0,P|303:249|264:259,1,80,2|0,0:0|0:0,0:0:0:0:
433,284,194148,1,0,0:0:0:0:
498,140,194298,1,8,0:0:0:0:
498,140,194448,1,0,0:0:0:0:
385,58,194598,1,2,0:0:0:0:
412,195,194748,1,0,0:0:0:0:
257,156,194898,2,0,P|295:145|335:140,1,80,10|0,0:0|0:0,0:0:0:0:
490,210,195198,6,0,P|451:200|412:195,1,80,2|0,0:0|0:0,0:0:0:0:
364,346,195498,2,0,P|350:309|342:270,1,80,8|0,0:0|0:0,0:0:0:0:
282,122,195798,2,0,P|271:160|266:200,1,80,2|0,0:0|0:0,0:0:0:0:
418,247,196098,2,0,P|380:261|341:269,1,80,8|0,0:0|0:0,0:0:0:0:
164,276,196398,6,0,P|203:284|240:298,1,80,2|0,0:0|0:0,0:0:0:0:
90,196,196698,2,0,P|127:181|166:173,1,80,8|0,0:0|0:0,0:0:0:0:
330,231,196998,2,0,P|290:222|253:208,1,80,2|0,0:0|0:0,0:0:0:0:
404,311,197298,2,0,P|366:325|327:333,1,80,8|0,0:0|0:0,0:0:0:0:
165,217,197598,6,0,P|154:178|149:138,1,80,12|0,0:0|0:0,0:0:0:0:
324,258,197898,2,0,P|334:219|339:179,1,80,8|0,0:0|0:0,0:0:0:0:
157,224,198198,2,0,P|146:185|141:145,1,80,8|0,0:0|0:0,0:0:0:0:
332,265,198498,2,0,P|342:226|347:186,1,80,8|0,0:0|0:0,0:0:0:0:
256,51,198798,5,4,0:3:0:0:
244,217,198948,1,8,0:0:0:0:
244,217,199023,1,8,0:0:0:0:
244,217,199098,1,8,0:0:0:0:
345,88,199248,2,0,P|382:73|421:65,1,80,8|0,0:0|0:0,0:0:0:0:
190,124,199547,2,0,P|152:109|113:101,1,80,8|0,0:0|0:0,0:0:0:0:
347,186,199848,1,4,0:0:0:0:
347,186,200298,6,0,P|352:146|362:107,1,80,8|0,0:0|0:0,0:0:0:0:
264,282,200598,2,0,P|258:242|248:203,1,80,8|0,0:0|0:0,0:0:0:0:
361,369,200898,2,0,P|366:329|376:290,1,80,8|0,0:0|0:0,0:0:0:0:
464,137,201198,6,0,P|424:141|385:151,1,80,4|8,0:3|0:0,0:0:0:0:
376,162,201423,1,8,0:0:0:0:
366,172,201498,1,8,0:0:0:0:
375,290,201648,1,8,0:0:0:0:
219,255,201798,5,8,0:0:0:0:
245,85,201948,1,8,0:0:0:0:
166,159,202098,1,4,0:3:0:0:
301,180,202248,1,4,0:3:0:0:
202,361,202398,1,4,0:0:0:0:
256,192,202473,12,6,208398,0:0:0:0:
256,192,208473,12,2,212598,3:2:0:0:
