osu file format v14

[General]
AudioFilename: audio.mp3
AudioLeadIn: 0
PreviewTime: 84648
Countdown: 0
SampleSet: Soft
StackLeniency: 0.7
Mode: 0
LetterboxInBreaks: 0
WidescreenStoryboard: 0

[Editor]
Bookmarks: 27046,125298
DistanceSpacing: 1.2
BeatDivisor: 4
GridSize: 8
TimelineZoom: 2.040002

[Metadata]
Title:Rock 'n' Roll Nandesu no
TitleUnicode:ロックンロールなんですの
Artist:supercell
ArtistUnicode:supercell
Creator:Milan-
Version:apple's Expert
Source:
Tags:appleeaterx pkhg today is a beautiful day ryo nagi yanaginagi やなぎなぎ
BeatmapID:1314212
BeatmapSetID:623518

[Difficulty]
HPDrainRate:7
CircleSize:4.2
OverallDifficulty:8.6
ApproachRate:9.3
SliderMultiplier:1.7
SliderTickRate:1

[Events]
//Background and Video events
0,0,"backgrounda.jpg",0,0
//Break Periods
2,80198,83148
2,125498,130998
//Storyboard Layer 0 (Background)
//Storyboard Layer 1 (Fail)
//Storyboard Layer 2 (Pass)
//Storyboard Layer 3 (Foreground)
//Storyboard Sound Samples

[TimingPoints]
17598,300,4,2,1,60,1,0
17598,-111.111111111111,4,2,1,60,0,0
27048,-111.111111111111,4,2,1,65,0,0
36648,-100,4,2,1,70,0,0
43848,-100,4,2,1,72,0,0
44448,-100,4,2,1,74,0,0
45048,-100,4,2,1,76,0,0
45648,-100,4,2,1,78,0,0
46398,-111.111111111111,4,2,1,60,0,0
55848,-111.111111111111,4,2,1,65,0,0
65448,-111.111111111111,4,2,1,70,0,0
65898,-111.111111111111,4,2,1,60,0,0
67848,-111.111111111111,4,2,1,70,0,0
68298,-111.111111111111,4,2,1,60,0,0
70248,-100,4,2,1,65,0,0
75048,-100,4,2,1,70,0,0
84798,-90.9090909090909,4,2,1,75,0,1
94248,-90.9090909090909,4,2,1,75,0,0
94398,-90.9090909090909,4,2,1,75,0,1
103848,-100,4,2,1,70,0,0
123048,-100,4,2,1,60,0,0
132048,-111.111111111111,4,2,1,60,0,0
132648,-111.111111111111,4,2,1,65,0,0
142248,-111.111111111111,4,2,1,70,0,0
142698,-111.111111111111,4,2,1,60,0,0
144648,-111.111111111111,4,2,1,70,0,0
145098,-111.111111111111,4,2,1,60,0,0
147048,-100,4,2,1,65,0,0
151848,-100,4,2,1,70,0,0
156798,-111.111111111111,4,2,1,70,0,0
158448,-111.111111111111,4,2,1,60,0,0
161598,-90.9090909090909,4,2,1,75,0,1
171048,-90.9090909090909,4,2,1,75,0,0
171198,-90.9090909090909,4,2,1,75,0,1
180648,-90.9090909090909,4,2,1,75,0,0
180798,-90.9090909090909,4,2,1,75,0,1
190248,-90.9090909090909,4,2,1,75,0,0
190398,-90.9090909090909,4,2,1,75,0,1
202398,-90.9090909090909,4,2,1,75,0,0
202473,-90.9090909090909,4,2,1,40,0,0
206898,-90.9090909090909,4,2,1,60,0,0
208398,-90.9090909090909,4,2,1,45,0,0

[Colours]
Combo1 : 85,170,255
Combo2 : 255,128,128
Combo3 : 128,255,128
Combo4 : 128,255,255
Combo5 : 255,128,255
Combo6 : 255,255,128

[HitObjects]
112,243,17598,6,0,P|95:287|99:327,1,76.4999976654053,4|0,0:0|0:0,0:0:0:0:
244,207,17898,1,8,0:0:0:0:
164,111,18048,1,0,0:0:0:0:
161,129,18123,1,8,0:3:0:0:
159,148,18198,1,4,0:3:0:0:
268,111,18348,1,0,0:0:0:0:
271,305,18498,2,0,L|183:289,1,76.4999976654054,8|0,0:0|0:0,0:0:0:0:
353,247,18798,5,0,0:0:0:0:
408,328,18948,1,0,0:0:0:0:
464,152,19098,1,8,0:0:0:0:
494,277,19248,1,0,0:0:0:0:
491,258,19323,1,8,0:3:0:0:
488,240,19398,1,4,0:3:0:0:
368,160,19548,1,0,0:0:0:0:
512,72,19698,2,0,P|480:56|432:64,1,76.4999976654054,8|0,0:0|0:0,0:0:0:0:
264,152,19998,6,0,L|280:0,1,152.999995330811,0|8,0:0|0:0,0:0:0:0:
144,104,20448,1,0,0:0:0:0:
144,104,20523,1,8,0:3:0:0:
144,104,20598,2,0,L|160:256,1,152.999995330811,4|8,0:3|0:0,0:0:0:0:
256,248,21048,1,0,0:0:0:0:
166,347,21198,6,0,L|86:339,1,76.4999976654054
256,248,21498,2,0,L|332:240,1,76.4999976654054,8|0,0:0|0:0,0:0:0:0:
344,224,21723,1,8,0:3:0:0:
360,208,21798,1,4,0:3:0:0:
280,144,21948,1,0,0:0:0:0:
392,320,22098,2,0,L|472:312,1,76.4999976654054,8|0,0:0|0:0,0:0:0:0:
409,112,22398,6,0,P|337:96|273:168,1,152.999995330811,4|8,0:0|0:0,0:0:0:0:
320,248,22848,1,0,0:0:0:0:
300,245,22923,1,8,0:3:0:0:
281,243,22998,1,4,0:3:0:0:
301,340,23148,1,0,0:0:0:0:
183,267,23298,2,0,L|191:355,1,76.4999976654054,8|0,0:0|0:0,0:0:0:0:
110,197,23598,5,0,0:0:0:0:
212,174,23748,1,0,0:0:0:0:
45,105,23898,1,8,0:0:0:0:
153,70,24048,1,0,0:0:0:0:
148,88,24123,1,8,0:3:0:0:
143,107,24198,1,4,0:3:0:0:
73,14,24348,1,0,0:0:0:0:
238,89,24498,2,0,P|286:89|334:65,1,76.4999976654054,8|0,0:0|0:0,0:0:0:0:
472,16,24798,6,0,P|424:72|456:168,1,152.999995330811,0|8,0:0|0:0,0:0:0:0:
456,248,25248,1,0,0:0:0:0:
456,248,25323,1,8,0:3:0:0:
456,248,25398,2,0,P|408:248|376:232,1,76.4999976654054,4|0,0:3|0:0,0:0:0:0:
315,96,25698,2,0,L|289:185,1,76.4999976654053,8|0,0:0|0:0,0:0:0:0:
72,264,25998,5,0,0:0:0:0:
184,176,26148,1,0,0:0:0:0:
104,192,26298,1,8,0:0:0:0:
244,232,26448,1,8,0:0:0:0:
241,251,26523,1,8,0:0:0:0:
238,272,26598,6,0,L|294:264,1,38.2499988327027,8|8,0:0|0:0,0:0:0:0:
401,211,26748,2,0,L|349:200,1,38.2499988327027,8|8,0:0|0:0,0:0:0:0:
270,156,26898,1,8,0:0:0:0:
432,296,27048,6,0,L|448:128,1,152.999995330811,4|0,0:0|0:0,0:0:0:0:
464,0,27498,1,8,0:0:0:0:
400,64,27648,1,0,0:0:0:0:
240,32,27798,2,0,L|328:24,1,76.4999976654053,2|0,0:0|0:0,0:0:0:0:
168,88,28098,1,8,0:0:0:0:
88,48,28248,1,0,0:0:0:0:
104,160,28398,6,0,P|112:208|120:240,1,76.4999976654053,2|0,0:0|0:0,0:0:0:0:
256,368,28698,2,0,P|264:330|270:292,1,76.4999976654053,10|0,0:0|0:0,0:0:0:0:
200,192,28998,1,2,0:0:0:0:
264,112,29148,1,0,0:0:0:0:
104,160,29298,1,10,0:0:0:0:
296,208,29448,6,0,P|344:224|440:144,1,152.999995330811,2|0,0:0|0:0,0:0:0:0:
384,32,29898,1,8,0:0:0:0:
352,136,30048,1,0,0:0:0:0:
384,32,30198,2,0,P|424:16|472:32,1,76.4999976654053,2|0,0:0|0:0,0:0:0:0:
264,112,30498,2,0,P|226:117|192:101,1,76.4999976654053,8|0,0:0|0:0,0:0:0:0:
428,177,30798,6,0,L|436:273,1,76.4999976654053,2|0,0:0|0:0,0:0:0:0:
408,336,31098,1,8,0:0:0:0:
248,304,31248,2,0,L|326:291,1,76.4999976654053,2|0,0:0|0:0,0:0:0:0:
152,272,31548,1,2,0:0:0:0:
168,368,31698,1,8,0:0:0:0:
72,216,31848,6,0,P|128:232|216:184,1,152.999995330811,4|0,0:0|0:0,0:0:0:0:
130,16,32298,1,8,0:0:0:0:
212,70,32448,1,0,0:0:0:0:
128,125,32598,2,0,L|35:113,1,76.4999976654053,2|0,0:0|0:0,0:0:0:0:
209,192,32898,2,0,L|302:181,1,76.4999976654053,8|0,0:0|0:0,0:0:0:0:
465,145,33198,5,2,0:0:0:0:
386,207,33348,1,0,0:0:0:0:
486,241,33498,2,0,P|500:286|501:325,1,76.4999976654053,10|0,0:0|0:0,0:0:0:0:
370,116,33798,2,0,P|378:60|394:28,1,76.4999976654053,2|0,0:0|0:0,0:0:0:0:
465,145,34098,1,10,0:0:0:0:
400,296,34248,6,0,P|344:280|224:264,1,152.999995330811,2|0,0:0|0:0,0:0:0:0:
104,288,34698,1,8,0:0:0:0:
185,332,34848,1,0,0:0:0:0:
192,176,34998,2,0,P|200:144|192:80,1,76.4999976654053,2|0,0:0|0:0,0:0:0:0:
112,128,35298,1,8,0:0:0:0:
288,168,35448,6,0,P|336:176|416:80,1,152.999995330811,6|0,0:0|0:0,0:0:0:0:
229,55,35898,1,0,0:0:0:0:
196,123,36048,1,0,0:0:0:0:
195,199,36198,1,0,0:0:0:0:
226,268,36348,1,0,0:0:0:0:
288,168,36498,1,0,0:0:0:0:
163,326,36648,6,0,P|233:355|312:276,1,170,4|0,0:0|0:0,0:0:0:0:
484,234,37098,2,0,L|383:228,1,85,8|0,0:0|0:0,0:0:0:0:
288,168,37398,1,2,0:0:0:0:
380,119,37548,1,0,0:0:0:0:
314,263,37698,2,0,L|213:257,1,85,8|0,0:0|0:0,0:0:0:0:
48,284,37998,5,2,0:0:0:0:
124,226,38148,1,0,0:0:0:0:
19,111,38298,1,10,0:0:0:0:
40,197,38448,1,0,0:0:0:0:
187,154,38598,2,0,P|148:133|83:141,1,85,2|0,0:0|0:0,0:0:0:0:
210,265,38898,1,10,0:0:0:0:
278,201,39048,6,0,B|309:111|247:125|277:36,1,170,2|0,0:0|0:0,0:0:0:0:
442,20,39498,1,8,0:0:0:0:
368,74,39648,1,0,0:0:0:0:
488,125,39798,2,0,P|505:179|501:223,1,85,2|0,0:0|0:0,0:0:0:0:
369,264,40098,1,8,0:0:0:0:
464,308,40248,1,0,0:0:0:0:
326,350,40398,6,0,P|271:340|232:339,2,85,2|0|8,0:0|0:0|0:0,0:0:0:0:
139,359,40848,2,0,P|168:314|167:190,1,170,10|10,0:0|0:0,0:0:0:0:
94,261,41298,1,0,0:0:0:0:
260,156,41448,6,0,P|199:169|113:105,1,170,6|0,0:0|0:0,0:0:0:0:
340,96,41898,2,0,P|359:161|353:195,1,85,8|0,0:0|0:0,0:0:0:0:
238,60,42198,1,2,0:0:0:0:
319,4,42348,1,0,0:0:0:0:
260,156,42498,2,0,L|253:254,1,85,8|0,0:0|0:0,0:0:0:0:
279,364,42798,5,2,0:0:0:0:
206,313,42948,1,0,0:0:0:0:
328,262,43098,1,10,0:0:0:0:
165,213,43248,1,0,0:0:0:0:
260,156,43398,6,0,P|313:151|360:141,1,85,2|0,0:0|0:0,0:0:0:0:
172,103,43698,1,10,0:0:0:0:
380,37,43848,6,0,P|389:87|393:222,1,170,6|0,0:0|0:0,0:0:0:0:
287,105,44298,1,8,0:0:0:0:
343,280,44448,6,0,P|404:296|486:207,1,170,6|0,0:0|0:0,0:0:0:0:
349,182,44898,1,8,0:0:0:0:
237,294,45048,6,0,B|153:270|153:334|72:298,1,170,6|0,0:0|0:0,0:0:0:0:
197,377,45498,1,8,0:0:0:0:
111,221,45648,6,0,P|98:172|101:121,1,85,6|0,0:0|0:0,0:0:0:0:
194,166,45948,1,0,0:0:0:0:
3,128,46098,2,0,P|20:80|52:40,1,85,8|0,0:0|0:0,0:0:0:0:
194,166,46398,6,0,P|272:179|348:122,1,152.999995330811,4|8,0:0|0:0,0:0:0:0:
290,21,46848,1,0,0:0:0:0:
287,40,46923,1,8,0:3:0:0:
285,59,46998,1,4,0:3:0:0:
192,25,47148,1,0,0:0:0:0:
382,67,47298,2,0,L|469:53,1,76.4999976654053,8|0,0:0|0:0,0:0:0:0:
370,211,47598,6,0,L|202:189,1,152.999995330811,0|8,0:0|0:0,0:0:0:0:
132,291,48048,1,0,0:0:0:0:
150,288,48123,1,8,0:3:0:0:
169,285,48198,1,4,0:3:0:0:
67,232,48348,1,0,0:0:0:0:
157,373,48498,1,8,0:0:0:0:
132,169,48648,6,0,P|57:189|-12:122,1,152.999995330811
200,104,49098,1,8,0:0:0:0:
130,49,49248,1,0,0:0:0:0:
131,29,49323,1,8,0:3:0:0:
138,9,49398,1,4,0:3:0:0:
240,24,49548,1,0,0:0:0:0:
132,169,49698,2,0,P|132:225|148:265,1,76.4999976654053,8|0,0:0|0:0,0:0:0:0:
336,240,49998,6,0,P|298:194|192:215,1,152.999995330811,0|8,0:0|0:0,0:0:0:0:
233,353,50448,1,0,0:0:0:0:
233,353,50523,1,8,0:3:0:0:
233,353,50598,2,0,L|251:268,1,76.4999976654053,4|0,0:3|0:0,0:0:0:0:
155,290,50898,1,8,0:0:0:0:
341,340,51048,6,0,L|329:158,1,152.999995330811,4|0,0:0|0:0,0:0:0:0:
391,1,51498,2,0,P|402:52|388:90,1,76.4999976654053,8|0,0:0|0:0,0:0:0:0:
318,107,51723,1,8,0:3:0:0:
318,107,51798,2,0,L|238:98,1,76.4999976654053,4|0,0:3|0:0,0:0:0:0:
121,196,52098,2,0,L|201:187,1,76.4999976654053,8|0,0:0|0:0,0:0:0:0:
57,277,52398,6,0,P|24:232|54:124,1,152.999995330811,0|8,0:0|0:0,0:0:0:0:
144,60,52848,1,0,0:0:0:0:
139,78,52923,1,8,0:3:0:0:
135,97,52998,1,4,0:3:0:0:
52,55,53148,1,0,0:0:0:0:
213,2,53298,1,8,0:0:0:0:
187,168,53448,6,0,P|198:236|205:334,1,152.999995330811,0|0,0:0|0:0,0:0:0:0:
296,200,53898,2,0,P|345:183|382:176,1,76.4999976654053,8|0,0:0|0:0,0:0:0:0:
388,187,54123,1,8,0:3:0:0:
403,198,54198,1,4,0:3:0:0:
350,274,54348,1,0,0:0:0:0:
312,101,54498,1,8,0:0:0:0:
294,339,54648,6,0,P|350:358|434:285,1,152.999995330811,0|0,0:0|0:0,0:0:0:0:
258,260,55098,2,0,P|212:250|171:263,1,76.4999976654053,8|0,0:0|0:0,0:0:0:0:
108,287,55323,1,8,0:3:0:0:
108,287,55398,2,0,L|101:181,1,76.4999976654053,4|0,0:3|0:0,0:0:0:0:
114,368,55698,1,8,0:0:0:0:
30,172,55848,6,0,P|77:130|177:172,1,152.999995330811,4|0,0:0|0:0,0:0:0:0:
263,170,56298,2,0,L|271:86,1,76.4999976654053,8|0,0:0|0:0,0:0:0:0:
262,77,56523,1,8,0:3:0:0:
253,61,56598,1,4,0:3:0:0:
173,120,56748,1,0,0:0:0:0:
361,50,56898,2,0,L|369:134,1,76.4999976654053,8|0,0:0|0:0,0:0:0:0:
312,276,57198,6,0,L|146:258,1,152.999995330811,0|8,0:0|0:0,0:0:0:0:
94,145,57648,1,0,0:0:0:0:
96,163,57723,1,8,0:3:0:0:
98,182,57798,1,4,0:3:0:0:
189,163,57948,1,0,0:0:0:0:
72,278,58098,1,8,0:0:0:0:
153,79,58248,6,0,B|233:47|234:106|302:75,1,152.999995330811,0|0,0:0|0:0,0:0:0:0:
474,35,58698,1,8,0:0:0:0:
387,50,58848,1,0,0:0:0:0:
383,31,58923,1,8,0:3:0:0:
380,13,58998,1,4,0:3:0:0:
446,115,59148,1,0,0:0:0:0:
367,208,59298,2,0,P|355:159|361:125,1,76.4999976654053,8|0,0:0|0:0,0:0:0:0:
419,285,59598,6,0,P|369:301|284:248,1,152.999995330811,0|8,0:0|0:0,0:0:0:0:
261,90,60048,1,0,0:0:0:0:
261,90,60123,1,8,0:3:0:0:
261,90,60198,2,0,P|273:139|267:173,1,76.4999976654053,4|0,0:3|0:0,0:0:0:0:
338,41,60498,1,8,0:0:0:0:
180,140,60648,6,0,P|119:137|18:133,1,152.999995330811,4|0,0:0|0:0,0:0:0:0:
173,245,61098,2,0,P|219:241|259:237,1,76.4999976654053,8|0,0:0|0:0,0:0:0:0:
315,293,61323,1,8,0:3:0:0:
315,293,61398,2,0,P|353:289|391:286,1,76.4999976654053,4|0,0:3|0:0,0:0:0:0:
364,149,61698,2,0,P|326:153|288:156,1,76.4999976654053,8|0,0:0|0:0,0:0:0:0:
445,206,61998,6,0,P|469:157|443:66,1,152.999995330811,0|8,0:0|0:0,0:0:0:0:
348,57,62448,1,0,0:0:0:0:
348,57,62523,1,8,0:3:0:0:
348,57,62598,2,0,L|255:51,1,76.4999976654053,4|0,0:3|0:0,0:0:0:0:
184,20,62898,1,8,0:0:0:0:
89,134,63048,6,0,P|150:159|225:123,1,152.999995330811,0|0,0:0|0:0,0:0:0:0:
96,236,63498,2,0,P|81:282|76:324,1,76.4999976654053,8|0,0:0|0:0,0:0:0:0:
150,348,63723,1,8,0:3:0:0:
150,348,63798,2,0,P|205:339|236:335,2,76.4999976654053,4|0|8,0:3|0:0|0:0,0:0:0:0:
306,370,64248,6,0,P|334:324|301:227,1,152.999995330811,0|0,0:0|0:0,0:0:0:0:
239,91,64698,2,0,P|230:150|239:176,1,76.4999976654053,8|8,0:0|0:0,0:0:0:0:
314,134,64923,1,8,0:0:0:0:
314,134,64998,2,0,L|395:127,1,76.4999976654053,8|8,0:0|0:0,0:0:0:0:
153,108,65298,1,8,0:0:0:0:
326,220,65448,6,0,L|344:51,1,152.999995330811,4|0,0:0|0:0,0:0:0:0:
445,205,65898,1,8,0:0:0:0:
397,301,66048,1,0,0:0:0:0:
378,287,66348,5,0,0:0:0:0:
390,90,66498,1,8,0:0:0:0:
426,192,66648,1,0,0:0:0:0:
357,275,66948,5,0,0:0:0:0:
369,77,67098,1,8,0:0:0:0:
405,179,67248,1,0,0:0:0:0:
336,263,67548,5,0,0:0:0:0:
348,65,67698,1,8,0:0:0:0:
286,340,67848,6,0,P|223:359|147:301,1,152.999995330811,4|0,0:0|0:0,0:0:0:0:
140,118,68298,1,8,0:0:0:0:
191,210,68448,1,0,0:0:0:0:
191,210,68748,5,0,0:0:0:0:
175,23,68898,1,8,0:0:0:0:
239,108,69048,1,0,0:0:0:0:
175,226,69348,5,0,0:0:0:0:
159,39,69498,1,8,0:0:0:0:
223,124,69648,1,0,0:0:0:0:
159,243,69948,5,0,0:0:0:0:
143,56,70098,1,8,0:0:0:0:
100,313,70248,6,0,P|166:335|245:262,1,170,4|0,0:0|0:0,0:0:0:0:
223,124,70698,1,8,0:0:0:0:
298,195,70848,1,0,0:0:0:0:
159,243,70998,2,0,P|106:235|48:230,1,85,2|0,0:0|0:0,0:0:0:0:
248,305,71298,2,0,P|290:300|332:293,1,85,8|0,0:0|0:0,0:0:0:0:
375,128,71598,5,2,0:0:0:0:
409,219,71748,1,0,0:0:0:0:
283,119,71898,2,0,P|287:61|294:15,1,85,10|0,0:0|0:0,0:0:0:0:
409,219,72198,2,0,P|406:261|401:303,1,85,2|0,0:0|0:0,0:0:0:0:
470,144,72498,1,10,0:0:0:0:
319,207,72648,6,0,P|266:235|170:191,1,170,2|0,0:0|0:0,0:0:0:0:
143,8,73098,1,8,0:0:0:0:
158,103,73248,1,0,0:0:0:0:
315,50,73398,2,0,P|257:45|220:46,1,85,2|0,0:0|0:0,0:0:0:0:
127,206,73698,2,0,P|185:211|222:210,1,85,8|0,0:0|0:0,0:0:0:0:
315,50,73998,5,2,0:0:0:0:
289,151,74148,1,0,0:0:0:0:
230,1,74298,1,8,0:0:0:0:
380,120,74448,2,0,P|373:167|372:215,2,85,2|0|2,0:0|0:0|0:0,0:0:0:0:
412,34,74898,1,8,0:0:0:0:
317,264,75048,6,0,P|383:282|455:194,1,170,6|0,0:0|0:0,0:0:0:0:
240,213,75498,2,0,P|225:261|231:303,1,85,8|0,0:0|0:0,0:0:0:0:
184,106,75798,2,0,P|233:94|266:68,1,85,8|0,0:0|0:0,0:0:0:0:
129,204,76098,2,0,P|94:167|55:151,1,85,8|0,0:0|0:0,0:0:0:0:
39,317,76398,6,0,L|141:309,1,85,8|0,0:0|0:0,0:0:0:0:
324,206,76698,2,0,L|222:214,1,85,8|0,0:0|0:0,0:0:0:0:
90,119,76998,2,0,L|192:111,1,85,8|0,0:0|0:0,0:0:0:0:
70,204,77298,1,8,0:0:0:0:
224,27,77448,6,0,P|260:87|233:189,1,170,4|0,0:0|0:0,0:0:0:0:
174,333,77898,2,0,P|153:278|159:229,1,85,8|0,0:0|0:0,0:0:0:0:
336,254,78198,2,0,P|281:275|232:269,1,85,8|0,0:0|0:0,0:0:0:0:
240,86,78498,2,0,P|261:141|255:190,1,85,8|0,0:0|0:0,0:0:0:0:
88,169,78798,6,0,P|143:148|192:154,1,85,8|0,0:0|0:0,0:0:0:0:
391,46,79098,2,0,P|348:43|310:25,1,85,8|0,0:0|0:0,0:0:0:0:
317,216,79398,2,0,P|331:265|333:305,1,85,8|0,0:0|0:0,0:0:0:0:
487,200,79698,2,0,P|473:151|471:111,1,85,8|0,0:0|0:0,0:0:0:0:
408,364,79998,5,12,0:0:0:0:
85,192,84198,5,8,0:0:0:0:
106,155,84273,1,8,0:0:0:0:
142,133,84348,1,8,0:0:0:0:
184,128,84423,1,8,0:0:0:0:
223,143,84498,2,0,L|211:50,1,85,8|0,0:0|0:0,0:0:0:0:
343,271,84798,6,0,P|255:303|178:238,1,187.000005706787,4|8,0:0|0:0,0:0:0:0:
434,216,85248,2,0,P|449:277|439:326,1,93.5000028533936,2|0,0:0|0:0,0:0:0:0:
348,172,85548,1,2,0:0:0:0:
483,132,85698,1,8,0:0:0:0:
272,27,85848,6,0,P|262:100|266:215,1,187.000005706787,2|0,0:0|0:0,0:0:0:0:
181,67,86298,2,0,P|128:49|82:47,1,93.5000028533936,8|0,0:0|0:0,0:0:0:0:
175,233,86598,2,0,P|221:228|265:212,1,93.5000028533936,2|0,0:0|0:0,0:0:0:0:
87,175,86898,1,10,0:0:0:0:
78,283,87048,1,0,0:0:0:0:
6,124,87198,6,0,P|65:152|161:88,1,187.000005706787,2|8,0:0|0:0,0:0:0:0:
335,54,87648,2,0,P|272:36|227:41,1,93.5000028533936,2|0,0:0|0:0,0:0:0:0:
444,106,87948,2,0,P|442:37|424:-14,1,93.5000028533936,2|8,0:0|0:0,0:0:0:0:
326,166,88248,6,0,P|306:232|307:372,1,187.000005706787,2|0,0:0|0:0,0:0:0:0:
403,235,88698,1,8,0:0:0:0:
231,160,88848,1,0,0:0:0:0:
387,325,88998,2,0,P|456:312|497:299,1,93.5000028533936,2|0,0:0|0:0,0:0:0:0:
208,248,89298,2,0,P|136:264|98:274,1,93.5000028533936,10|0,0:0|0:0,0:0:0:0:
320,192,89598,6,0,P|336:104|336:-8,1,187.000005706787,2|8,0:0|0:0,0:0:0:0:
416,168,90048,1,0,0:0:0:0:
249,77,90198,2,0,P|185:53|137:53,1,93.5000028533936,2|0,0:0|0:0,0:0:0:0:
128,264,90498,1,8,0:0:0:0:
176,160,90648,1,0,0:0:0:0:
40,184,90798,6,0,P|24:288|40:368,1,187.000005706787,2|8,0:0|0:0,0:0:0:0:
128,264,91248,1,0,0:0:0:0:
96,97,91398,2,0,P|50:78|-4:90,1,93.5000028533936,2|0,0:0|0:0,0:0:0:0:
224,240,91698,2,0,L|344:224,1,93.5000028533936,8|0,0:0|0:0,0:0:0:0:
487,126,91998,5,2,0:0:0:0:
320,48,92148,1,0,0:0:0:0:
456,160,92298,2,0,L|448:272,1,93.5000028533936,10|0,0:0|0:0,0:0:0:0:
80,192,92598,5,2,0:0:0:0:
245,121,92748,1,0,0:0:0:0:
64,228,92898,2,0,L|72:332,1,93.5000028533936,10|0,0:0|0:0,0:0:0:0:
272,376,93198,6,0,P|296:296|256:224,1,140.25000428009,14|0,0:0|0:0,0:0:0:0:
272,232,93498,2,0,P|328:240|376:232,1,93.5000028533936,14|0,0:0|0:0,0:0:0:0:
165,29,93798,2,0,L|149:213,1,140.25000428009,14|0,0:0|0:0,0:0:0:0:
138,177,94098,2,0,L|42:169,1,93.5000028533936,14|0,0:0|0:0,0:0:0:0:
280,64,94398,6,0,P|360:88|456:0,1,187.000005706787,4|8,0:0|0:0,0:0:0:0:
256,176,94848,2,0,P|232:240|240:296,1,93.5000028533936,2|0,0:0|0:0,0:0:0:0:
338,251,95148,1,2,0:0:0:0:
138,177,95298,1,8,0:0:0:0:
338,251,95448,6,0,L|442:235,1,93.5000028533936,2|0,0:0|0:0,0:0:0:0:
200,360,95748,2,0,L|96:344,1,93.5000028533936,0|8,0:0|0:0,0:0:0:0:
24,280,96048,1,0,0:0:0:0:
138,177,96198,1,2,0:0:0:0:
40,122,96348,1,0,0:0:0:0:
236,233,96498,2,0,P|244:185|236:129,1,93.5000028533936,10|0,0:0|0:0,0:0:0:0:
96,32,96798,6,0,P|152:56|256:0,1,187.000005706787,2|8,0:0|0:0,0:0:0:0:
424,104,97248,2,0,P|360:80|312:88,1,93.5000028533936,2|0,0:0|0:0,0:0:0:0:
352,184,97548,1,2,0:0:0:0:
448,0,97698,1,8,0:0:0:0:
392,264,97848,6,0,B|296:296|312:224|208:256,1,187.000005706787,2|0,0:0|0:0,0:0:0:0:
352,184,98298,1,8,0:0:0:0:
248,336,98448,1,0,0:0:0:0:
352,184,98598,2,0,P|360:120|360:80,1,93.5000028533936,2|0,0:0|0:0,0:0:0:0:
192,0,98898,2,0,P|184:64|184:104,1,93.5000028533936,10|0,0:0|0:0,0:0:0:0:
248,336,99198,6,0,P|168:360|88:288,1,187.000005706787,2|8,0:0|0:0,0:0:0:0:
335,372,99648,1,0,0:0:0:0:
352,184,99798,2,0,P|360:248|352:296,1,93.5000028533936,2|0,0:0|0:0,0:0:0:0:
384,56,100098,2,0,P|424:96|448:136,1,93.5000028533936,8|0,0:0|0:0,0:0:0:0:
248,232,100398,6,0,P|176:208|32:184,1,187.000005706787,2|8,0:0|0:0,0:0:0:0:
200,120,100848,1,0,0:0:0:0:
112,288,100998,2,0,P|40:304|0:320,1,93.5000028533936,2|0,0:0|0:0,0:0:0:0:
16,72,101298,2,0,P|60:86|106:94,1,93.5000028533936,8|0,0:0|0:0,0:0:0:0:
368,72,101598,5,4,0:0:0:0:
272,48,101748,1,2,0:0:0:0:
296,144,101898,1,0,0:0:0:0:
456,32,102048,1,8,0:0:0:0:
382,204,102198,5,2,0:0:0:0:
368,72,102348,1,0,0:0:0:0:
296,246,102498,1,8,0:0:0:0:
442,325,102648,1,10,0:0:0:0:
444,301,102723,1,8,0:0:0:0:
446,278,102798,5,8,0:3:0:0:
344,338,102948,1,4,0:3:0:0:
213,196,103098,1,8,0:3:0:0:
193,337,103248,1,8,0:0:0:0:
216,334,103323,1,8,0:0:0:0:
239,331,103398,5,8,0:0:0:0:
116,209,103548,1,8,0:0:0:0:
296,246,103698,1,8,0:0:0:0:
60,294,103848,6,0,L|80:91,1,170,4|0,0:0|0:0,0:0:0:0:
183,22,104298,2,0,L|187:121,1,85,10|0,0:0|0:0,0:0:0:0:
256,153,104523,1,0,0:0:0:0:
256,153,104598,2,0,P|303:154|344:129,1,85,2|0,0:0|0:0,0:0:0:0:
490,33,104898,2,0,P|452:14|410:16,1,85,10|2,0:0|0:0,0:0:0:0:
436,130,105198,5,2,0:0:0:0:
421,170,105273,1,0,0:0:0:0:
414,211,105348,1,0,0:0:0:0:
414,254,105423,1,0,0:0:0:0:
422,296,105498,1,10,0:0:0:0:
411,336,105573,1,0,0:0:0:0:
379,363,105648,1,0,0:0:0:0:
338,368,105723,1,0,0:0:0:0:
300,349,105798,5,2,0:0:0:0:
281,312,105873,1,0,0:0:0:0:
285,270,105948,2,0,P|297:223|303:211,1,42.5,2|0,0:0|0:0,0:0:0:0:
328,128,106098,2,0,P|308:96|298:73,1,42.5,10|0,0:0|0:0,0:0:0:0:
217,162,106248,6,0,P|145:175|79:103,1,170,6|0,0:0|0:0,0:0:0:0:
176,66,106698,1,8,0:0:0:0:
183,266,106848,2,0,B|176:312|176:312|187:366,1,85,0|2,0:0|0:0,0:0:0:0:
328,128,107148,2,0,B|334:81|334:81|324:28,1,85,0|8,0:0|0:0,0:0:0:0:
303,250,107448,6,0,P|362:237|492:220,1,170,0|0,0:0|0:0,0:0:0:0:
273,339,107898,1,8,0:0:0:0:
232,197,108048,1,0,0:0:0:0:
234,175,108123,1,0,0:0:0:0:
237,154,108198,1,2,0:0:0:0:
203,280,108348,1,0,0:0:0:0:
186,72,108498,1,8,0:0:0:0:
339,171,108648,6,0,B|373:181|373:181|400:162|400:162|450:198|513:151,1,170,6|0,0:0|0:0,0:0:0:0:
348,75,109098,1,8,0:0:0:0:
353,271,109248,2,0,L|362:360,1,85,0|2,0:0|0:0,0:0:0:0:
232,197,109548,1,0,0:0:0:0:
447,97,109698,2,0,L|456:186,1,85,8|0,0:0|0:0,0:0:0:0:
304,80,109998,6,0,P|232:88|168:16,1,170,2|8,0:0|0:0,0:0:0:0:
24,184,110448,2,0,P|96:152|128:152,1,85,0|2,0:0|0:0,0:0:0:0:
144,240,110748,1,0,0:0:0:0:
64,56,110898,1,8,0:0:0:0:
48,296,111048,6,0,P|128:280|240:272,1,170,6|2,0:0|0:0,0:0:0:0:
376,352,111498,1,8,0:0:0:0:
390,312,111573,1,0,0:0:0:0:
392,269,111648,1,2,0:0:0:0:
380,229,111723,1,0,0:0:0:0:
355,194,111798,5,0,0:0:0:0:
340,155,111873,1,0,0:0:0:0:
335,113,111948,1,2,0:0:0:0:
341,71,112023,1,0,0:0:0:0:
358,32,112098,2,0,P|408:16|432:8,1,42.5,8|0,0:0|0:0,0:0:0:0:
480,136,112248,2,0,P|430:119|406:111,1,42.5,2|0,0:0|0:0,0:0:0:0:
264,208,112398,6,0,P|248:264|248:312,1,85,2|0,0:0|0:0,0:0:0:0:
208,80,112698,2,0,P|168:48|120:32,1,85,8|0,0:0|0:0,0:0:0:0:
8,240,112998,2,0,L|112:232,1,85,2|10,0:0|0:0,0:0:0:0:
140,170,113223,1,10,0:0:0:0:
140,170,113298,1,8,0:0:0:0:
88,336,113448,6,0,L|184:328,1,85,6|0,0:0|0:0,0:0:0:0:
415,251,113748,1,0,0:0:0:0:
259,208,113898,1,10,0:0:0:0:
415,251,114048,2,0,P|399:339|399:347,1,85,0|2,0:0|0:0,0:0:0:0:
488,108,114348,2,0,P|483:65|472:24,1,85,0|10,0:0|0:0,0:0:0:0:
240,104,114648,6,0,L|360:88,1,85,0|2,0:0|0:0,0:0:0:0:
88,40,114948,2,0,L|184:24,1,85,0|10,0:0|0:0,0:0:0:0:
72,200,115248,2,0,L|184:184,1,85,0|2,0:0|0:0,0:0:0:0:
264,208,115548,1,0,0:0:0:0:
88,40,115698,1,10,0:0:0:0:
208,296,115848,6,0,P|272:312|360:232,1,170,6|0,0:0|0:0,0:0:0:0:
328,136,116298,1,8,0:0:0:0:
464,200,116448,2,0,P|480:256|480:304,1,85,0|2,0:0|0:0,0:0:0:0:
432,80,116748,1,0,0:0:0:0:
328,136,116898,2,0,P|280:128|240:96,1,85,8|0,0:0|0:0,0:0:0:0:
88,40,117198,6,0,P|120:80|96:208,1,170,2|8,0:0|0:0,0:0:0:0:
32,328,117648,1,0,0:0:0:0:
24,216,117798,1,2,0:0:0:0:
136,280,117948,1,0,0:0:0:0:
192,96,118098,1,8,0:0:0:0:
136,280,118248,6,0,P|200:272|224:272,1,85,6|0,0:0|0:0,0:0:0:0:
328,336,118548,1,0,0:0:0:0:
424,168,118698,1,8,0:0:0:0:
512,272,118848,2,0,P|470:278|427:280,1,85,0|2,0:0|0:0,0:0:0:0:
328,216,119148,1,0,0:0:0:0:
316,28,119298,2,0,P|332:92|332:132,1,85,8|0,0:0|0:0,0:0:0:0:
216,208,119598,5,2,0:0:0:0:
192,96,119748,1,0,0:0:0:0:
240,320,119898,1,8,0:0:0:0:
112,176,120048,2,0,P|66:169|0:159,1,85,0|2,0:0|0:0,0:0:0:0:
134,279,120348,1,0,0:0:0:0:
96,72,120498,1,8,0:0:0:0:
280,16,120648,6,0,L|304:224,1,170,6|0,0:0|0:0,0:0:0:0:
219,368,121098,1,10,0:0:0:0:
244,334,121173,1,0,0:0:0:0:
283,319,121248,1,2,0:0:0:0:
325,325,121323,1,0,0:0:0:0:
358,351,121398,5,2,0:0:0:0:
399,357,121473,1,0,0:0:0:0:
437,339,121548,1,2,0:0:0:0:
461,305,121623,1,0,0:0:0:0:
463,263,121698,1,8,0:0:0:0:
341,144,121848,6,0,P|281:169|187:114,1,170,4|0,0:0|0:0,0:0:0:0:
69,11,122298,1,10,0:0:0:0:
50,49,122373,1,0,0:0:0:0:
39,90,122448,1,2,0:0:0:0:
33,132,122523,1,0,0:0:0:0:
35,174,122598,6,0,P|45:211|45:235,1,42.5,2|0,0:0|0:0,0:0:0:0:
64,380,122748,2,0,P|91:352|111:340,1,42.5,2|0,0:0|0:0,0:0:0:0:
252,251,122898,2,0,P|214:241|194:229,1,42.5,8|0,0:0|0:0,0:0:0:0:
124,264,123048,5,4,0:0:0:0:
256,192,123123,12,8,125298,0:0:0:0:
407,197,132048,5,0,0:0:0:0:
403,218,132123,1,8,0:3:0:0:
400,239,132198,1,4,0:3:0:0:
318,154,132348,1,0,0:0:0:0:
478,87,132498,1,8,0:0:0:0:
309,241,132648,6,0,P|233:256|176:184,1,152.999995330811,4|0,0:0|0:0,0:0:0:0:
216,32,133098,2,0,P|232:88|216:128,1,76.4999976654053,8|0,0:0|0:0,0:0:0:0:
144,80,133323,1,8,0:3:0:0:
144,80,133398,2,0,L|48:72,1,76.4999976654053,4|0,0:3|0:0,0:0:0:0:
304,24,133698,2,0,L|400:16,1,76.4999976654053,8|0,0:0|0:0,0:0:0:0:
468,213,133998,6,0,L|296:200,1,152.999995330811,0|8,0:0|0:0,0:0:0:0:
232,265,134448,1,0,0:0:0:0:
235,283,134523,1,8,0:3:0:0:
238,302,134598,1,4,0:3:0:0:
227,180,134748,1,0,0:0:0:0:
178,367,134898,1,8,0:0:0:0:
61,226,135048,6,0,P|110:208|143:210,1,76.4999976654053,0|0,0:0|0:0,0:0:0:0:
114,303,135348,1,0,0:0:0:0:
164,121,135498,2,0,L|155:40,1,76.4999976654053,8|0,0:0|0:0,0:0:0:0:
168,30,135723,1,8,0:3:0:0:
185,17,135798,1,4,0:3:0:0:
248,85,135948,1,0,0:0:0:0:
76,152,136098,1,8,0:0:0:0:
76,56,136248,1,0,0:0:0:0:
186,211,136398,6,0,P|256:198|355:181,1,152.999995330811,0|8,0:0|0:0,0:0:0:0:
376,64,136848,1,0,0:0:0:0:
371,82,136923,1,8,0:3:0:0:
366,101,136998,1,4,0:3:0:0:
304,18,137148,1,0,0:0:0:0:
460,31,137298,1,8,0:0:0:0:
427,169,137448,6,0,P|417:222|409:330,1,152.999995330811,4|0,0:0|0:0,0:0:0:0:
496,240,137898,1,8,0:0:0:0:
319,309,138048,1,0,0:0:0:0:
319,309,138123,1,8,0:3:0:0:
319,309,138198,2,0,P|276:313|236:295,1,76.4999976654053,4|0,0:3|0:0,0:0:0:0:
206,143,138498,2,0,P|249:139|289:157,1,76.4999976654053,8|0,0:0|0:0,0:0:0:0:
105,235,138798,6,0,P|91:173|96:76,1,152.999995330811,0|8,0:0|0:0,0:0:0:0:
197,16,139248,1,0,0:0:0:0:
191,34,139323,1,8,0:3:0:0:
186,52,139398,1,4,0:3:0:0:
302,28,139548,1,0,0:0:0:0:
206,143,139698,1,8,0:0:0:0:
382,122,139848,6,0,P|331:117|287:114,1,76.4999976654053,0|0,0:0|0:0,0:0:0:0:
433,209,140148,1,0,0:0:0:0:
475,43,140298,2,0,P|424:38|380:35,1,76.4999976654053,8|0,0:0|0:0,0:0:0:0:
336,207,140598,2,0,P|328:262|330:298,1,76.4999976654053,4|0,0:3|0:0,0:0:0:0:
418,301,140898,1,8,0:0:0:0:
277,361,141048,6,0,P|228:361|183:258,1,152.999995330811,4|0,0:0|0:0,0:0:0:0:
97,141,141498,2,0,L|85:228,1,76.4999976654053,8|8,0:0|0:0,0:0:0:0:
76,238,141723,1,8,0:0:0:0:
66,257,141798,1,8,0:0:0:0:
173,204,141948,1,8,0:0:0:0:
4,164,142098,1,8,0:0:0:0:
252,159,142248,6,0,L|433:144,1,152.999995330811,4|0,0:0|0:0,0:0:0:0:
188,67,142698,2,0,L|99:54,1,76.4999976654053,8|0,0:0|0:0,0:0:0:0:
279,73,143148,5,0,0:0:0:0:
160,150,143298,2,0,L|71:137,1,76.4999976654053,8|0,0:0|0:0,0:0:0:0:
252,159,143748,5,0,0:0:0:0:
134,239,143898,2,0,L|45:226,1,76.4999976654053,8|0,0:0|0:0,0:0:0:0:
223,245,144348,5,0,0:0:0:0:
109,327,144498,1,8,0:0:0:0:
301,361,144648,6,0,L|479:345,1,152.999995330811,4|0,0:0|0:0,0:0:0:0:
434,172,145098,2,0,L|423:261,1,76.4999976654053,8|0,0:0|0:0,0:0:0:0:
504,113,145548,5,0,0:0:0:0:
358,121,145698,2,0,L|347:210,1,76.4999976654053,8|0,0:0|0:0,0:0:0:0:
426,59,146148,5,0,0:0:0:0:
277,79,146298,2,0,L|266:168,1,76.4999976654053,8|0,0:0|0:0,0:0:0:0:
339,15,146748,5,0,0:0:0:0:
197,30,146898,1,8,0:0:0:0:
336,212,147048,6,0,P|401:205|522:191,1,170,4|0,0:0|0:0,0:0:0:0:
266,280,147498,1,8,0:0:0:0:
247,166,147648,1,0,0:0:0:0:
171,240,147798,2,0,P|164:293|155:333,1,85,2|0,0:0|0:0,0:0:0:0:
63,232,148098,2,0,P|54:190|49:148,1,85,8|0,0:0|0:0,0:0:0:0:
197,30,148398,5,2,0:0:0:0:
104,57,148548,1,0,0:0:0:0:
287,80,148698,2,0,P|338:72|380:66,1,85,10|0,0:0|0:0,0:0:0:0:
474,214,148998,2,0,P|423:222|381:228,2,85,2|0|10,0:0|0:0|0:0,0:0:0:0:
339,315,149448,6,0,P|303:264|327:151,1,170,2|0,0:0|0:0,0:0:0:0:
197,30,149898,2,0,L|203:123,1,85,8|0,0:0|0:0,0:0:0:0:
166,208,150198,1,2,0:0:0:0:
88,149,150348,1,0,0:0:0:0:
80,269,150498,2,0,L|88:363,1,85,8|0,0:0|0:0,0:0:0:0:
268,242,150798,5,2,0:0:0:0:
166,208,150948,1,0,0:0:0:0:
270,98,151098,1,8,0:0:0:0:
277,337,151248,2,0,P|225:331|194:301,1,85,2|0,0:0|0:0,0:0:0:0:
88,149,151548,2,0,P|120:119|167:115,1,85,2|8,0:0|0:0,0:0:0:0:
346,168,151848,6,0,P|412:180|492:90,1,170,6|0,0:0|0:0,0:0:0:0:
356,258,152298,2,0,P|350:318|354:360,1,85,8|0,0:0|0:0,0:0:0:0:
401,85,152598,2,0,P|402:42|396:0,1,85,8|0,0:0|0:0,0:0:0:0:
435,187,152898,2,0,P|493:172|532:163,1,85,8|0,0:0|0:0,0:0:0:0:
268,117,153198,6,0,P|211:111|175:102,1,85,8|0,0:0|0:0,0:0:0:0:
115,268,153498,2,0,P|150:227|181:199,1,85,8|0,0:0|0:0,0:0:0:0:
79,65,153798,2,0,B|94:125|95:162,1,85,8|0,0:0|0:0,0:0:0:0:
23,221,154098,1,8,0:0:0:0:
72,352,154248,6,0,P|136:371|204:292,1,170,4|0,0:0|0:0,0:0:0:0:
345,229,154698,2,0,P|297:215|254:229,1,85,8|0,0:0|0:0,0:0:0:0:
419,353,154998,2,0,P|425:308|435:260,1,85,8|0,0:0|0:0,0:0:0:0:
310,54,155298,2,0,P|318:97|324:137,1,85,8|0,0:0|0:0,0:0:0:0:
502,176,155598,6,0,P|455:173|409:165,1,85,8|0,0:0|0:0,0:0:0:0:
224,119,155898,2,0,P|182:112|139:109,1,85,8|0,0:0|0:0,0:0:0:0:
155,325,156198,1,8,0:0:0:0:
170,210,156348,1,0,0:0:0:0:
44,79,156498,1,8,0:0:0:0:
55,194,156648,1,0,0:0:0:0:
151,13,156798,5,12,0:0:0:0:
176,258,158298,6,0,L|165:351,1,76.4999976654053,0|8,0:0|0:3,0:0:0:0:
175,349,158523,1,0,0:0:0:0:
185,365,158598,1,4,0:3:0:0:
270,305,158748,1,0,0:0:0:0:
206,171,158898,2,0,P|167:166|126:187,1,76.4999976654053,0|0,0:0|0:0,0:0:0:0:
301,216,159198,2,0,L|407:202,1,76.4999976654053,8|8,0:3|0:3,0:0:0:0:
508,60,159498,5,4,0:3:0:0:
508,60,159648,1,0,0:0:0:0:
342,25,159798,1,0,0:0:0:0:
342,25,159948,1,8,0:3:0:0:
389,180,160098,1,0,0:0:0:0:
389,180,160248,1,8,0:0:0:0:
435,9,160398,5,8,0:0:0:0:
252,71,160548,1,8,0:0:0:0:
400,90,160698,1,8,0:0:0:0:
193,4,160848,1,8,0:0:0:0:
311,139,160998,5,8,0:0:0:0:
95,185,161148,1,8,0:0:0:0:
277,235,161298,1,8,0:0:0:0:
75,74,161448,1,8,0:0:0:0:
39,335,161598,6,0,P|120:356|209:287,1,187.000005706787,4|8,0:0|0:0,0:0:0:0:
311,139,162048,2,0,P|253:132|217:152,1,93.5000028533936,2|0,0:0|0:0,0:0:0:0:
375,206,162348,1,2,0:0:0:0:
394,79,162498,1,8,0:0:0:0:
321,281,162648,6,0,P|307:347|307:376,1,93.5000028533936,2|0,0:0|0:0,0:0:0:0:
421,299,162948,1,0,0:0:0:0:
488,112,163098,2,0,P|485:65|473:20,1,93.5000028533936,8|0,0:0|0:0,0:0:0:0:
266,58,163398,2,0,L|173:50,1,93.5000028533936,2|0,0:0|0:0,0:0:0:0:
91,140,163698,1,10,0:0:0:0:
66,9,163848,1,0,0:0:0:0:
51,239,163998,6,0,B|148:276|143:195|235:226,1,187.000005706787,2|8,0:0|0:0,0:0:0:0:
421,299,164448,2,0,P|415:260|411:198,1,93.5000028533936,2|0,0:0|0:0,0:0:0:0:
497,129,164748,1,2,0:0:0:0:
389,8,164898,1,8,0:0:0:0:
329,137,165048,6,0,P|317:206|318:250,1,93.5000028533936,2|0,0:0|0:0,0:0:0:0:
421,299,165348,1,0,0:0:0:0:
287,355,165498,2,0,P|230:348|172:345,1,93.5000028533936,8|0,0:0|0:0,0:0:0:0:
39,296,165798,1,2,0:0:0:0:
172,206,165948,1,0,0:0:0:0:
24,134,166098,1,10,0:0:0:0:
127,290,166248,1,0,0:0:0:0:
261,223,166398,6,0,P|331:238|412:157,1,187.000005706787,2|8,0:0|0:0,0:0:0:0:
249,28,166848,1,0,0:0:0:0:
249,28,166998,2,0,L|236:140,1,93.5000028533936,2|0,0:0|0:0,0:0:0:0:
347,306,167298,2,0,L|360:194,1,93.5000028533936,8|0,0:0|0:0,0:0:0:0:
356,13,167598,5,2,0:0:0:0:
420,105,167748,1,0,0:0:0:0:
267,158,167898,2,0,P|199:141|156:134,1,93.5000028533936,8|0,0:0|0:0,0:0:0:0:
68,228,168198,1,2,0:0:0:0:
49,90,168348,1,0,0:0:0:0:
68,228,168498,2,0,P|47:289|44:328,1,93.5000028533936,8|0,0:0|0:0,0:0:0:0:
250,294,168798,6,0,P|342:280|470:274,1,187.000005706787,2|10,0:0|0:0,0:0:0:0:
175,349,169248,1,0,0:0:0:0:
168,241,169398,2,0,P|155:182|156:118,1,93.5000028533936,2|0,0:0|0:0,0:0:0:0:
350,10,169698,2,0,P|363:69|362:133,1,93.5000028533936,10|0,0:0|0:0,0:0:0:0:
224,54,169998,6,0,P|156:71|84:35,1,140.25000428009,14|0,0:0|0:0,0:0:0:0:
81,32,170298,2,0,L|90:138,1,93.5000028533936,14|0,0:0|0:0,0:0:0:0:
35,361,170598,2,0,L|186:347,1,140.25000428009,14|0,0:0|0:0,0:0:0:0:
184,330,170898,2,0,L|287:318,1,93.5000028533936,14|0,0:0|0:0,0:0:0:0:
506,189,171198,6,0,B|444:176|444:176|391:193|391:193|309:170,1,187.000005706787,4|8,0:0|0:0,0:0:0:0:
224,54,171648,2,0,L|318:46,1,93.5000028533936,2|0,0:0|0:0,0:0:0:0:
143,102,171948,1,2,0:0:0:0:
319,24,172098,1,8,0:0:0:0:
225,166,172248,6,0,P|233:230|233:275,1,93.5000028533936,2|0,0:0|0:0,0:0:0:0:
40,135,172548,2,0,P|41:88|48:42,1,93.5000028533936,0|8,0:0|0:0,0:0:0:0:
115,219,172848,1,0,0:0:0:0:
225,166,172998,2,0,P|296:153|345:157,1,93.5000028533936,2|0,0:0|0:0,0:0:0:0:
290,311,173298,2,0,P|243:309|197:298,1,93.5000028533936,10|0,0:0|0:0,0:0:0:0:
406,63,173598,6,0,P|445:144|405:260,1,187.000005706787,2|8,0:0|0:0,0:0:0:0:
291,90,174048,2,0,P|291:47|320:-19,1,93.5000028533936,2|0,0:0|0:0,0:0:0:0:
352,192,174348,1,2,0:0:0:0:
190,112,174498,1,8,0:0:0:0:
285,267,174648,6,0,P|369:289|450:207,1,187.000005706787,2|0,0:0|0:0,0:0:0:0:
187,215,175098,1,8,0:0:0:0:
179,338,175248,1,0,0:0:0:0:
79,249,175398,2,0,P|86:178|87:137,1,93.5000028533936,2|0,0:0|0:0,0:0:0:0:
214,28,175698,2,0,P|207:99|206:140,1,93.5000028533936,10|0,0:0|0:0,0:0:0:0:
381,317,175998,6,0,P|388:221|401:113,1,187.000005706787,2|8,0:0|0:0,0:0:0:0:
493,240,176448,1,0,0:0:0:0:
280,226,176598,2,0,L|160:212,1,93.5000028533936,2|0,0:0|0:0,0:0:0:0:
28,101,176898,2,0,L|148:87,1,93.5000028533936,8|0,0:0|0:0,0:0:0:0:
280,124,177198,5,2,0:0:0:0:
214,28,177348,1,0,0:0:0:0:
187,215,177498,2,0,P|182:286|193:324,1,93.5000028533936,8|0,0:0|0:0,0:0:0:0:
390,169,177798,2,0,L|514:176,1,93.5000028533936,2|0,0:0|0:0,0:0:0:0:
404,362,178098,2,0,L|295:353,1,93.5000028533936,8|0,0:0|0:0,0:0:0:0:
113,290,178398,6,0,P|76:229|122:124,1,187.000005706787,4|8,0:0|0:0,0:0:0:0:
280,124,178848,1,8,0:0:0:0:
276,147,178923,1,8,0:0:0:0:
272,170,178998,1,8,0:3:0:0:
202,52,179148,1,8,0:3:0:0:
318,24,179298,1,4,0:3:0:0:
164,146,179448,1,8,0:0:0:0:
344,248,179598,6,0,P|406:235|458:228,1,93.5000028533936,8|8,0:3|0:3,0:0:0:0:
164,146,179898,1,4,0:3:0:0:
123,245,180048,1,8,0:0:0:0:
128,274,180123,1,8,0:0:0:0:
133,303,180198,5,8,0:0:0:0:
320,149,180348,1,8,0:0:0:0:
274,364,180498,5,8,0:0:0:0:
104,86,180648,1,8,0:0:0:0:
222,244,180798,6,0,L|209:25,1,187.000005706787,4|8,0:0|0:0,0:0:0:0:
414,156,181248,2,0,L|314:149,1,93.5000028533936,2|0,0:0|0:0,0:0:0:0:
325,247,181548,1,2,0:0:0:0:
309,55,181698,1,8,0:0:0:0:
177,147,181848,6,0,P|75:166|7:106,1,187.000005706787,2|0,0:0|0:0,0:0:0:0:
159,247,182298,2,0,P|178:309|174:348,1,93.5000028533936,8|0,0:0|0:0,0:0:0:0:
103,80,182598,1,2,0:0:0:0:
184,16,182748,1,0,0:0:0:0:
86,183,182898,2,0,L|-23:176,1,93.5000028533936,10|0,0:0|0:0,0:0:0:0:
155,342,183198,6,0,L|373:325,1,187.000005706787,2|8,0:0|0:0,0:0:0:0:
374,217,183648,1,2,0:0:0:0:
473,260,183798,2,0,P|466:316|464:355,1,93.5000028533936,0|2,0:0|0:0,0:0:0:0:
453,148,184098,1,8,0:0:0:0:
352,115,184248,6,0,B|257:153|262:77|161:116,1,187.000005706787,2|0,0:0|0:0,0:0:0:0:
308,33,184698,1,8,0:0:0:0:
219,195,184848,1,0,0:0:0:0:
77,123,184998,2,0,L|199:108,1,93.5000028533936,2|0,0:0|0:0,0:0:0:0:
140,283,185298,2,0,L|35:275,1,93.5000028533936,10|0,0:0|0:0,0:0:0:0:
219,195,185598,6,0,P|254:273|225:367,1,187.000005706787,2|8,0:0|0:0,0:0:0:0:
140,283,186048,1,0,0:0:0:0:
341,193,186198,2,0,P|396:173|439:170,1,93.5000028533936,2|0,0:0|0:0,0:0:0:0:
279,106,186498,2,0,P|246:61|228:21,1,93.5000028533936,8|0,0:0|0:0,0:0:0:0:
464,79,186798,6,0,P|445:162|439:303,1,187.000005706787,2|8,0:0|0:0,0:0:0:0:
481,366,187248,1,0,0:0:0:0:
360,342,187398,2,0,P|300:331|248:328,1,93.5000028533936,2|0,0:0|0:0,0:0:0:0:
107,370,187698,2,0,P|132:315|142:257,1,93.5000028533936,8|0,0:0|0:0,0:0:0:0:
67,125,187998,5,2,0:0:0:0:
28,275,188148,1,0,0:0:0:0:
67,125,188298,2,0,L|59:-1,1,93.5000028533936,10|0,0:0|0:0,0:0:0:0:
238,142,188598,5,2,0:0:0:0:
199,6,188748,1,0,0:0:0:0:
238,142,188898,2,0,L|230:268,1,93.5000028533936,10|0,0:0|0:0,0:0:0:0:
391,341,189198,6,0,P|424:276|372:199,1,140.25000428009,14|0,0:0|0:0,0:0:0:0:
383,196,189498,2,0,L|486:186,1,93.5000028533936,14|0,0:0|0:0,0:0:0:0:
244,276,189798,2,0,L|86:263,1,140.25000428009,14|0,0:0|0:0,0:0:0:0:
85,261,190098,2,0,L|95:355,1,93.5000028533936,14|0,0:0|0:0,0:0:0:0:
197,143,190398,6,0,P|111:156|31:74,1,187.000005706787,4|8,0:0|0:0,0:0:0:0:
281,81,190848,2,0,P|296:154|291:201,1,93.5000028533936,2|0,0:0|0:0,0:0:0:0:
184,48,191148,1,2,0:0:0:0:
336,8,191298,1,8,0:0:0:0:
295,172,191448,6,0,P|405:153|498:142,1,187.000005706787,2|0,0:0|0:0,0:0:0:0:
436,239,191898,1,8,0:0:0:0:
408,65,192048,1,0,0:0:0:0:
436,239,192198,2,0,P|441:296|439:347,1,93.5000028533936,2|0,0:0|0:0,0:0:0:0:
243,287,192498,1,10,0:0:0:0:
344,281,192648,1,0,0:0:0:0:
168,355,192798,6,0,P|88:369|11:282,1,187.000005706787,2|8,0:0|0:0,0:0:0:0:
171,162,193248,2,0,P|161:229|159:267,1,93.5000028533936,2|0,0:0|0:0,0:0:0:0:
267,192,193548,1,2,0:0:0:0:
84,109,193698,1,8,0:0:0:0:
214,70,193848,6,0,P|278:78|324:79,1,93.5000028533936,2|0,0:0|0:0,0:0:0:0:
393,20,194148,1,0,0:0:0:0:
475,182,194298,2,0,P|411:190|365:191,1,93.5000028533936,8|0,0:0|0:0,0:0:0:0:
267,192,194598,1,2,0:0:0:0:
324,91,194748,1,0,0:0:0:0:
327,279,194898,2,0,P|337:341|337:376,1,93.5000028533936,10|0,0:0|0:0,0:0:0:0:
163,232,195198,6,0,P|165:161|194:27,1,187.000005706787,2|8,0:0|0:0,0:0:0:0:
255,148,195648,1,0,0:0:0:0:
93,81,195798,2,0,P|39:90|-10:86,1,93.5000028533936,2|0,0:0|0:0,0:0:0:0:
216,12,196098,2,0,P|262:10|308:18,1,93.5000028533936,8|0,0:0|0:0,0:0:0:0:
374,195,196398,5,2,0:0:0:0:
476,123,196548,1,0,0:0:0:0:
425,322,196698,2,0,L|326:314,1,93.5000028533936,8|0,0:0|0:0,0:0:0:0:
154,211,196998,5,2,0:0:0:0:
82,307,197148,1,0,0:0:0:0:
248,277,197298,2,0,L|232:385,1,93.5000028533936,8|0,0:0|0:0,0:0:0:0:
67,210,197598,6,0,L|52:98,1,93.5000028533936,12|0,0:0|0:0,0:0:0:0:
345,23,197898,2,0,L|331:125,1,93.5000028533936,8|0,0:0|0:0,0:0:0:0:
179,115,198198,2,0,L|167:23,1,93.5000028533936,8|0,0:0|0:0,0:0:0:0:
457,117,198498,2,0,L|445:210,1,93.5000028533936,8|0,0:0|0:0,0:0:0:0:
304,365,198798,5,4,0:3:0:0:
280,191,198948,1,8,0:0:0:0:
303,194,199023,1,8,0:0:0:0:
326,198,199098,1,8,0:0:0:0:
199,276,199248,2,0,P|140:266|79:259,1,93.5000028533936,8|0,0:0|0:0,0:0:0:0:
281,83,199548,2,0,P|340:93|401:100,1,93.5000028533936,8|0,0:0|0:0,0:0:0:0:
121,0,199848,6,0,P|130:80|140:196,1,187.000005706787,4|0,0:0|0:0,0:0:0:0:
304,365,200298,2,0,P|303:316|319:242,1,93.5000028533936,8|0,0:0|0:0,0:0:0:0:
334,87,200598,2,0,P|268:118|236:125,1,93.5000028533936,8|0,0:0|0:0,0:0:0:0:
421,205,200898,2,0,P|489:226|513:239,1,93.5000028533936,8|0,0:0|0:0,0:0:0:0:
423,338,201198,5,4,0:3:0:0:
308,214,201348,1,8,0:0:0:0:
303,236,201423,1,8,0:0:0:0:
298,259,201498,1,8,0:0:0:0:
435,91,201648,1,8,0:0:0:0:
230,64,201798,5,8,0:0:0:0:
411,227,201948,1,8,0:0:0:0:
204,192,202098,1,8,0:3:0:0:
345,15,202248,1,4,0:3:0:0:
298,259,202398,5,4,0:0:0:0:
256,192,202473,12,2,206898,0:0:0:0:
256,192,208398,12,0,212598,0:0:0:0:
256,192,212748,5,0,0:0:0:0:
