osu file format v14

[General]
AudioFilename: audio.mp3
AudioLeadIn: 0
PreviewTime: 84648
Countdown: 0
SampleSet: Soft
StackLeniency: 0.7
Mode: 0
LetterboxInBreaks: 0
WidescreenStoryboard: 1

[Editor]
Bookmarks: 17598,27046,36648,46398,55848,65448,70248,75123,79998,84798,103773,123048,132723,142248,147048,151923,156798,161598
DistanceSpacing: 1.2
BeatDivisor: 4
GridSize: 32
TimelineZoom: 3.140002

[Metadata]
Title:Rock 'n' Roll Nandesu no
TitleUnicode:ロックンロールなんですの
Artist:supercell
ArtistUnicode:supercell
Creator:Milan-
Version:Extra
Source:
Tags:appleeaterx pkhg today is a beautiful day ryo nagi yanaginagi やなぎなぎ
BeatmapID:1314214
BeatmapSetID:623518

[Difficulty]
HPDrainRate:6.3
CircleSize:4.1
OverallDifficulty:8.6
ApproachRate:9.3
SliderMultiplier:1.4
SliderTickRate:1

[Events]
//Background and Video events
0,0,"backgrounda.jpg",0,0
//Break Periods
2,80198,83644
//Storyboard Layer 0 (Background)
//Storyboard Layer 1 (Fail)
//Storyboard Layer 2 (Pass)
//Storyboard Layer 3 (Foreground)
//Storyboard Sound Samples

[TimingPoints]
17598,300,4,2,1,60,1,0
17598,-111.111111111111,4,2,1,60,0,0
26898,-99.9999999999999,4,2,1,60,0,0
27048,-90.9090909090909,4,2,1,65,0,0
36648,-83.3333333333333,4,2,1,70,0,0
40848,-76.9230769230769,4,2,1,70,0,0
41148,-71.4285714285714,4,2,1,70,0,0
41448,-52.6315789473684,4,2,1,70,0,0
41898,-83.3333333333333,4,2,1,70,0,0
43848,-76.9230769230769,4,2,1,72,0,0
44448,-71.4285714285714,4,2,1,74,0,0
45048,-66.6666666666667,4,2,1,76,0,0
45648,-58.8235294117647,4,2,1,78,0,0
46398,-111.111111111111,4,2,1,60,0,0
55848,-100,4,2,1,65,0,0
65448,-125,4,2,1,70,0,0
65898,-200,4,2,1,60,0,0
67848,-125,4,2,1,70,0,0
68298,-200,4,2,1,60,0,0
70248,-83.3333333333333,4,2,1,65,0,0
75048,-100,4,2,1,70,0,0
84798,-76.9230769230769,4,2,1,75,0,1
93198,-71.4285714285714,4,2,1,75,0,1
94248,-76.9230769230769,4,2,1,75,0,0
94398,-76.9230769230769,4,2,1,75,0,1
103848,-83.3333333333333,4,2,1,70,0,0
123048,-111.111111111111,4,2,1,60,0,0
132048,-111.111111111111,4,2,1,60,0,0
132648,-100,4,2,1,65,0,0
142248,-125,4,2,1,70,0,0
142698,-200,4,2,1,60,0,0
144648,-125,4,2,1,70,0,0
145098,-200,4,2,1,60,0,0
147048,-83.3333333333333,4,2,1,65,0,0
151848,-100,4,2,1,70,0,0
158448,-111.111111111111,4,2,1,60,0,0
161598,-76.9230769230769,4,2,1,75,0,1
171048,-76.9230769230769,4,2,1,75,0,0
171198,-76.9230769230769,4,2,1,75,0,1
180648,-76.9230769230769,4,2,1,75,0,0
180798,-74.0740740740741,4,2,1,75,0,1
190248,-74.0740740740741,4,2,1,75,0,0
190398,-71.4285714285714,4,2,1,75,0,1
202398,-71.4285714285714,4,2,1,75,0,0
202473,-71.4285714285714,4,2,1,40,0,0
206898,-71.4285714285714,4,2,1,60,0,0
208398,-71.4285714285714,4,2,1,45,0,0

[Colours]
Combo1 : 255,128,255
Combo2 : 255,128,128
Combo3 : 128,255,128
Combo4 : 128,255,255

[HitObjects]
301,119,17598,6,0,P|266:126|216:132,1,62.9999980773926,4|0,0:0|0:0,0:0:0:0:
103,200,17898,2,0,P|151:208|212:216,1,94.499997116089,8|8,0:0|0:3,0:0:0:0:
197,214,18198,2,0,P|200:244|202:290,1,62.9999980773926,4|0,0:3|0:0,0:0:0:0:
291,357,18498,2,0,P|293:326|296:295,1,62.9999980773926,8|0,0:0|0:0,0:0:0:0:
394,197,18798,5,0,0:0:0:0:
384,284,18948,1,0,0:0:0:0:
401,112,19098,2,0,P|396:67|391:-6,1,94.499997116089,8|8,0:0|0:3,0:0:0:0:
392,17,19398,2,0,P|417:13|473:-1,1,62.9999980773926,4|0,0:3|0:0,0:0:0:0:
310,58,19698,2,0,P|284:54|228:39,1,62.9999980773926,8|0,0:0|0:0,0:0:0:0:
140,152,19998,6,0,P|186:147|280:140,1,125.999996154785,0|8,0:0|0:0,0:0:0:0:
337,243,20448,1,0,0:0:0:0:
337,243,20523,1,8,0:3:0:0:
337,243,20598,2,0,P|291:238|197:231,1,125.999996154785,4|8,0:3|0:0,0:0:0:0:
139,282,21048,1,0,0:0:0:0:
225,379,21198,6,0,P|223:348|219:317,1,62.9999980773926,0|0,0:0|0:0,0:0:0:0:
84,225,21498,2,0,P|85:193|90:162,1,62.9999980773926,8|0,0:0|0:0,0:0:0:0:
90,162,21723,1,8,0:3:0:0:
90,162,21798,2,0,P|117:156|216:135,1,125.999996154785,4|8,0:3|0:0,0:0:0:0:
283,82,22248,1,0,0:0:0:0:
415,142,22398,6,0,P|383:140|353:135,1,62.9999980773926,4|0,0:0|0:0,0:0:0:0:
298,305,22698,2,0,P|293:269|287:203,1,94.499997116089,8|8,0:0|0:3,0:0:0:0:
287,212,22998,2,0,P|318:213|349:219,1,62.9999980773926,4|0,0:3|0:0,0:0:0:0:
441,300,23298,2,0,P|437:269|435:238,1,62.9999980773926,8|0,0:0|0:0,0:0:0:0:
479,76,23598,5,0,0:0:0:0:
411,132,23748,1,0,0:0:0:0:
341,86,23898,2,0,P|303:81|221:72,1,94.499997116089,8|8,0:0|0:3,0:0:0:0:
247,75,24198,2,0,P|252:118|256:155,1,62.9999980773926,4|0,0:3|0:0,0:0:0:0:
155,63,24498,2,0,P|158:31|162:0,1,62.9999980773926,8|0,0:0|0:0,0:0:0:0:
168,152,24798,6,0,P|128:168|22:143,1,125.999996154785,0|8,0:0|0:0,0:0:0:0:
18,247,25248,1,0,0:0:0:0:
18,247,25323,1,8,0:3:0:0:
18,247,25398,2,0,P|23:279|27:322,1,62.9999980773926,4|0,0:3|0:0,0:0:0:0:
111,383,25698,2,0,P|114:351|119:320,1,62.9999980773926,8|0,0:0|0:0,0:0:0:0:
265,216,25998,5,0,0:0:0:0:
215,288,26148,1,0,0:0:0:0:
176,208,26298,1,8,0:0:0:0:
302,298,26448,1,8,0:0:0:0:
327,295,26523,1,8,0:0:0:0:
352,292,26598,1,8,0:0:0:0:
377,288,26673,1,8,0:0:0:0:
402,285,26748,1,8,0:0:0:0:
427,282,26823,1,8,0:0:0:0:
451,278,26898,2,0,L|453:239,1,35,8|8,0:0|0:0,0:0:0:0:
512,141,27048,6,0,P|450:152|358:111,1,154.000004699707,4|0,0:0|0:0,0:0:0:0:
272,58,27498,2,0,P|276:96|278:134,1,77.0000023498536,8|0,0:0|0:0,0:0:0:0:
188,229,27798,2,0,P|190:191|195:153,1,77.0000023498536,2|0,0:0|0:0,0:0:0:0:
88,82,28098,2,0,P|121:78|165:72,1,77.0000023498536,8|0,0:0|0:0,0:0:0:0:
103,182,28398,6,0,P|70:178|26:171,1,77.0000023498536,2|0,0:0|0:0,0:0:0:0:
49,269,28698,1,10,0:0:0:0:
49,269,28848,1,0,0:0:0:0:
188,229,28998,1,2,0:0:0:0:
188,229,29148,1,0,0:0:0:0:
142,330,29298,1,10,0:0:0:0:
103,182,29448,6,0,P|103:118|108:24,1,154.000004699707,2|0,0:0|0:0,0:0:0:0:
195,139,29898,2,0,P|194:100|196:62,1,77.0000023498536,8|0,0:0|0:0,0:0:0:0:
270,187,30198,2,0,P|300:184|356:175,1,77.0000023498536,2|0,0:0|0:0,0:0:0:0:
426,294,30498,2,0,P|427:256|424:218,1,77.0000023498536,8|0,0:0|0:0,0:0:0:0:
353,344,30798,2,0,P|314:340|277:333,1,77.0000023498536,2|0,0:0|0:0,0:0:0:0:
208,284,31098,1,8,0:0:0:0:
59,353,31248,6,0,P|97:351|134:343,1,77.0000023498536,2|0,0:0|0:0,0:0:0:0:
260,203,31548,2,0,P|222:194|184:193,1,77.0000023498536,2|8,0:0|0:0,0:0:0:0:
66,97,31848,6,0,P|79:167|91:266,1,154.000004699707,4|0,0:0|0:0,0:0:0:0:
160,108,32298,2,0,P|165:57|168:30,1,77.0000023498536,8|0,0:0|0:0,0:0:0:0:
322,63,32598,2,0,P|284:71|247:78,1,77.0000023498536,2|0,0:0|0:0,0:0:0:0:
395,210,32898,2,0,P|390:159|387:132,1,77.0000023498536,8|0,0:0|0:0,0:0:0:0:
232,165,33198,2,0,P|269:172|307:179,1,77.0000023498536,2|0,0:0|0:0,0:0:0:0:
256,262,33498,5,10,0:0:0:0:
256,262,33648,1,0,0:0:0:0:
130,166,33798,1,2,0:0:0:0:
130,166,33948,1,0,0:0:0:0:
143,274,34098,1,10,0:0:0:0:
232,165,34248,6,0,P|301:133|378:131,1,154.000004699707,2|0,0:0|0:0,0:0:0:0:
461,90,34698,2,0,P|453:59|443:11,1,77.0000023498536,8|0,0:0|0:0,0:0:0:0:
378,131,34998,2,0,P|370:161|360:210,1,77.0000023498536,2|0,0:0|0:0,0:0:0:0:
466,179,35298,1,8,0:0:0:0:
232,165,35448,5,6,0:0:0:0:
271,308,36648,6,0,P|189:300|134:239,1,167.999994873047,4|0,0:0|0:0,0:0:0:0:
231,118,37098,2,0,P|235:159|238:201,1,83.9999974365235,8|0,0:0|0:0,0:0:0:0:
136,140,37398,1,2,0:0:0:0:
323,157,37548,1,0,0:0:0:0:
136,140,37698,2,0,P|94:143|39:146,1,83.9999974365235,8|0,0:0|0:0,0:0:0:0:
201,32,37998,6,0,P|243:35|298:38,1,83.9999974365235,2|0,0:0|0:0,0:0:0:0:
420,131,38298,1,10,0:0:0:0:
363,6,38448,1,0,0:0:0:0:
323,157,38598,1,2,0:0:0:0:
504,74,38748,1,0,0:0:0:0:
464,225,38898,1,10,0:0:0:0:
323,157,39048,6,0,B|234:118|239:177|145:150,1,167.999994873047,2|0,0:0|0:0,0:0:0:0:
268,226,39498,1,8,0:0:0:0:
188,73,39648,1,0,0:0:0:0:
268,226,39798,2,0,P|267:266|265:320,1,83.9999974365235,2|0,0:0|0:0,0:0:0:0:
361,255,40098,1,8,0:0:0:0:
179,266,40248,1,0,0:0:0:0:
361,255,40398,6,0,P|401:254|446:253,1,83.9999974365235,2|0,0:0|0:0,0:0:0:0:
324,379,40698,1,8,0:0:0:0:
462,238,40848,6,0,P|411:241|323:176,1,136.499993751526,10|0,0:0|0:0,0:0:0:0:
256,131,41148,2,0,P|205:128|114:199,1,146.999995513916,10|0,0:0|0:0,0:0:0:0:
227,254,41448,6,0,B|266:269|289:226|239:152|125:208|191:375,1,265.999992897034,6|0,0:0|0:0,0:0:0:0:
32,301,41898,2,0,P|28:231|32:189,1,83.9999974365235,8|0,0:0|0:0,0:0:0:0:
105,333,42198,1,2,0:0:0:0:
29,217,42348,1,0,0:0:0:0:
138,137,42498,2,0,P|179:134|221:131,1,83.9999974365235,8|0,0:0|0:0,0:0:0:0:
83,15,42798,6,0,P|41:12|0:9,1,83.9999974365235,2|0,0:0|0:0,0:0:0:0:
177,44,43098,1,10,0:0:0:0:
27,113,43248,1,0,0:0:0:0:
159,153,43398,1,2,0:0:0:0:
83,15,43548,1,0,0:0:0:0:
284,70,43698,1,10,0:0:0:0:
211,265,43848,6,0,B|119:217|124:283|20:249,1,181.999991668702,6|0,0:0|0:0,0:0:0:0:
81,164,44298,1,8,0:0:0:0:
280,352,44448,6,0,P|319:268|263:167,1,195.999994018555,6|0,0:0|0:0,0:0:0:0:
211,265,44898,1,8,0:0:0:0:
426,66,45048,6,0,B|321:119|314:36|223:81,1,210.000008010865,6|0,0:0|0:0,0:0:0:0:
279,178,45498,1,8,0:0:0:0:
434,342,45648,6,0,P|395:258|480:144,1,238.00000453949,6|0,0:0|0:0,0:0:0:0:
512,255,46098,1,8,0:0:0:0:
342,378,46248,1,0,0:0:0:0:
211,265,46398,6,0,P|246:258|296:252,1,62.9999980773926,4|0,0:0|0:0,0:0:0:0:
409,184,46698,2,0,P|361:176|300:168,1,94.499997116089,8|8,0:0|0:3,0:0:0:0:
315,170,46998,2,0,P|312:140|310:94,1,62.9999980773926,4|0,0:3|0:0,0:0:0:0:
480,233,47298,2,0,P|478:264|475:295,1,62.9999980773926,8|0,0:0|0:0,0:0:0:0:
338,363,47598,5,0,0:0:0:0:
387,290,47748,1,0,0:0:0:0:
425,368,47898,1,8,0:0:0:0:
299,283,48048,1,0,0:0:0:0:
299,283,48123,1,8,0:3:0:0:
299,283,48198,1,4,0:3:0:0:
173,384,48348,2,0,P|139:380|90:374,1,62.9999980773926,0|8,0:0|0:0,0:0:0:0:
183,169,48648,6,0,P|190:226|197:303,1,125.999996154785,0|0,0:0|0:0,0:0:0:0:
45,289,49098,1,8,0:0:0:0:
99,220,49248,1,0,0:0:0:0:
99,220,49323,1,8,0:3:0:0:
99,220,49398,1,4,0:3:0:0:
39,154,49548,1,0,0:0:0:0:
161,83,49698,2,0,P|129:86|98:88,1,62.9999980773926,8|0,0:0|0:0,0:0:0:0:
245,109,49998,6,0,P|312:108|381:105,1,125.999996154785,0|8,0:0|0:0,0:0:0:0:
479,187,50448,1,0,0:0:0:0:
479,187,50523,1,8,0:3:0:0:
479,187,50598,2,0,P|473:222|464:270,1,62.9999980773926,4|0,0:3|0:0,0:0:0:0:
387,189,50898,1,8,0:0:0:0:
509,336,51048,6,0,P|454:325|373:312,1,125.999996154785,4|0,0:0|0:0,0:0:0:0:
281,233,51498,2,0,P|286:269|292:335,1,94.499997116089,8|8,0:0|0:3,0:0:0:0:
291,326,51798,2,0,P|261:323|210:316,1,62.9999980773926,4|0,0:3|0:0,0:0:0:0:
111,257,52098,2,0,P|141:253|192:246,1,62.9999980773926,8|0,0:0|0:0,0:0:0:0:
79,340,52398,5,0,0:0:0:0:
111,257,52548,1,0,0:0:0:0:
44,148,52698,2,0,L|26:208,1,62.9999980773926,8|0,0:0|0:0,0:0:0:0:
26,208,52923,1,8,0:3:0:0:
26,208,52998,1,4,0:3:0:0:
108,84,53148,2,0,L|90:23,1,62.9999980773926,0|8,0:0|0:0,0:0:0:0:
129,170,53448,6,0,P|181:163|269:147,1,125.999996154785,0|0,0:0|0:0,0:0:0:0:
356,73,53898,2,0,P|351:109|345:175,1,94.499997116089,8|8,0:0|0:3,0:0:0:0:
345,166,54198,2,0,P|376:161|426:155,1,62.9999980773926,4|0,0:3|0:0,0:0:0:0:
495,159,54498,1,8,0:0:0:0:
340,253,54648,6,0,P|371:248|421:242,1,62.9999980773926,0|0,0:0|0:0,0:0:0:0:
489,258,54948,1,0,0:0:0:0:
377,331,55098,1,8,0:0:0:0:
247,229,55248,1,0,0:0:0:0:
258,213,55323,1,8,0:3:0:0:
268,197,55398,1,4,0:3:0:0:
275,325,55548,1,0,0:0:0:0:
175,151,55698,1,8,0:0:0:0:
44,291,55848,6,0,B|107:268|115:314|182:294,1,140,4|0,0:0|0:0,0:0:0:0:
371,210,56298,2,0,P|319:203|267:196,1,105,8|8,0:0|0:3,0:0:0:0:
267,197,56598,2,0,P|264:167|261:115,1,70,4|0,0:3|0:0,0:0:0:0:
355,3,56898,2,0,P|353:34|349:73,1,70,8|0,0:0|0:0,0:0:0:0:
177,69,57198,5,0,0:0:0:0:
259,15,57348,1,0,0:0:0:0:
102,4,57498,1,8,0:0:0:0:
20,58,57648,1,0,0:0:0:0:
20,58,57723,1,8,0:3:0:0:
20,58,57798,1,4,0:3:0:0:
99,191,57948,2,0,P|98:156|93:122,1,70,0|8,0:0|0:0,0:0:0:0:
195,240,58248,6,0,P|188:303|184:386,1,140,0|0,0:0|0:0,0:0:0:0:
274,298,58698,1,8,0:0:0:0:
108,308,58848,1,0,0:0:0:0:
108,308,58923,1,8,0:3:0:0:
108,308,58998,1,4,0:3:0:0:
61,221,59148,1,0,0:0:0:0:
187,134,59298,2,0,P|152:138|118:141,1,70,8|0,0:0|0:0,0:0:0:0:
35,12,59598,6,0,P|34:47|39:82,1,70,0|0,0:0|0:0,0:0:0:0:
128,39,59898,1,8,0:0:0:0:
33,186,60048,1,0,0:0:0:0:
33,186,60123,1,8,0:3:0:0:
33,186,60198,1,4,0:3:0:0:
118,141,60348,1,0,0:0:0:0:
72,273,60498,1,8,0:0:0:0:
298,219,60648,6,0,P|228:225|159:226,1,140,4|0,0:0|0:0,0:0:0:0:
235,34,61098,2,0,P|227:86|222:138,1,105,8|8,0:0|0:3,0:0:0:0:
222,138,61398,2,0,P|252:135|306:127,1,70,4|0,0:3|0:0,0:0:0:0:
434,78,61698,2,0,P|404:75|350:67,1,70,8|0,0:0|0:0,0:0:0:0:
298,219,61998,5,0,0:0:0:0:
380,166,62148,1,0,0:0:0:0:
405,330,62298,2,0,P|394:297|386:263,1,70,8|0,0:0|0:0,0:0:0:0:
386,263,62523,1,8,0:3:0:0:
386,263,62598,1,4,0:3:0:0:
490,154,62748,2,0,P|481:188|470:221,1,70,0|8,0:0|0:0,0:0:0:0:
240,158,63048,6,0,P|309:163|379:165,1,140,0|0,0:0|0:0,0:0:0:0:
480,39,63498,1,8,0:0:0:0:
385,66,63648,1,0,0:0:0:0:
385,66,63723,1,8,0:3:0:0:
385,66,63798,2,0,P|349:61|308:54,1,70,4|0,0:3|0:0,0:0:0:0:
214,39,64098,1,8,0:0:0:0:
170,168,64248,6,0,P|205:163|247:156,1,70,0|0,0:0|0:0,0:0:0:0:
130,83,64548,1,0,0:0:0:0:
144,258,64698,1,8,0:0:0:0:
314,215,64848,1,8,0:0:0:0:
335,217,64923,1,8,0:0:0:0:
356,218,64998,1,8,0:0:0:0:
269,349,65148,1,8,0:0:0:0:
170,168,65298,1,8,0:0:0:0:
331,79,65448,6,0,P|366:77|462:77,1,112,4|0,0:0|0:0,0:0:0:0:
373,171,65898,2,0,L|411:170,1,35,8|0,0:0|0:0,0:0:0:0:
287,220,66498,2,0,L|314:246,1,35,8|0,0:0|0:0,0:0:0:0:
189,201,67098,2,0,L|190:239,1,35,8|0,0:0|0:0,0:0:0:0:
130,123,67698,1,8,0:0:0:0:
331,79,67848,6,0,P|275:79|219:76,1,112,4|0,0:0|0:0,0:0:0:0:
136,0,68298,2,0,L|142:35,1,35,8|0,0:0|0:0,0:0:0:0:
211,175,68898,2,0,L|205:210,1,35,8|0,0:0|0:0,0:0:0:0:
103,326,69498,2,0,L|109:361,1,35,8|0,0:0|0:0,0:0:0:0:
290,209,70098,1,8,0:0:0:0:
96,140,70248,6,0,P|151:79|232:71,1,167.999994873047,4|0,0:0|0:0,0:0:0:0:
204,257,70698,2,0,P|200:215|196:173,1,83.9999974365235,8|0,0:0|0:0,0:0:0:0:
109,241,70998,1,2,0:0:0:0:
290,209,71148,1,0,0:0:0:0:
109,241,71298,2,0,P|67:238|25:235,1,83.9999974365235,8|0,0:0|0:0,0:0:0:0:
201,349,71598,6,0,P|242:346|284:343,1,83.9999974365235,2|0,0:0|0:0,0:0:0:0:
430,282,71898,1,10,0:0:0:0:
290,209,72048,1,0,0:0:0:0:
384,358,72198,1,2,0:0:0:0:
502,229,72348,1,0,0:0:0:0:
408,80,72498,1,10,0:0:0:0:
290,209,72648,6,0,B|201:170|206:229|112:202,1,167.999994873047,2|0,0:0|0:0,0:0:0:0:
238,283,73098,1,8,0:0:0:0:
161,123,73248,1,0,0:0:0:0:
238,283,73398,2,0,P|237:323|235:377,1,83.9999974365235,2|0,0:0|0:0,0:0:0:0:
290,209,73698,1,8,0:0:0:0:
148,291,73848,1,0,0:0:0:0:
324,325,73998,5,2,0:0:0:0:
186,193,74148,2,0,P|187:155|193:103,1,83.9999974365235,0|8,0:0|0:0,0:0:0:0:
148,291,74448,2,0,P|107:284|33:267,1,83.9999974365235,2|0,0:0|0:0,0:0:0:0:
295,85,74748,2,0,P|335:78|410:61,1,83.9999974365235,2|8,0:0|0:0,0:0:0:0:
298,327,75048,6,0,P|291:257|286:187,1,140,6|0,0:0|0:0,0:0:0:0:
494,115,75498,5,8,0:0:0:0:
462,200,75648,1,0,0:0:0:0:
385,83,75798,1,8,0:0:0:0:
376,173,75948,1,0,0:0:0:0:
272,98,76098,1,8,0:0:0:0:
286,187,76248,1,0,0:0:0:0:
197,44,76398,5,8,0:0:0:0:
376,173,76548,1,0,0:0:0:0:
104,125,76698,5,8,0:0:0:0:
286,187,76848,1,0,0:0:0:0:
65,243,76998,5,8,0:0:0:0:
210,138,77148,1,0,0:0:0:0:
321,280,77298,1,8,0:0:0:0:
175,384,77448,6,0,P|181:314|186:244,1,140,4|0,0:0|0:0,0:0:0:0:
181,51,77898,1,8,0:0:0:0:
210,138,78048,1,0,0:0:0:0:
284,15,78198,1,8,0:0:0:0:
289,106,78348,1,0,0:0:0:0:
395,8,78498,1,8,0:0:0:0:
376,97,78648,1,0,0:0:0:0:
507,55,78798,5,8,0:0:0:0:
341,185,78948,1,0,0:0:0:0:
501,267,79098,5,8,0:0:0:0:
376,97,79248,1,0,0:0:0:0:
269,251,79398,5,8,0:0:0:0:
466,179,79548,1,0,0:0:0:0:
488,360,79698,5,8,0:0:0:0:
341,185,79848,1,0,0:0:0:0:
139,290,79998,5,12,0:0:0:0:
304,206,84198,5,8,0:0:0:0:
265,194,84273,1,8,0:0:0:0:
226,195,84348,1,8,0:0:0:0:
191,213,84423,1,8,0:0:0:0:
164,239,84498,1,8,0:0:0:0:
164,239,84798,6,0,P|153:198|151:143,1,90.9999958343508,4|0,0:0|0:0,0:0:0:0:
255,297,85098,1,8,0:0:0:0:
160,348,85248,2,0,P|95:340|53:323,1,90.9999958343508,2|0,0:0|0:0,0:0:0:0:
239,183,85548,2,0,P|304:175|343:162,1,90.9999958343508,2|8,0:0|0:0,0:0:0:0:
474,47,85848,6,0,P|427:128|465:219,1,181.999991668702,2|0,0:0|0:0,0:0:0:0:
350,346,86298,2,0,P|361:302|362:256,1,90.9999958343508,8|0,0:0|0:0,0:0:0:0:
259,289,86598,1,2,0:0:0:0:
449,327,86748,1,0,0:0:0:0:
259,289,86898,1,10,0:0:0:0:
381,151,87048,1,0,0:0:0:0:
259,289,87198,6,0,P|162:295|81:247,1,181.999991668702,2|8,0:0|0:0,0:0:0:0:
181,111,87648,2,0,P|191:156|195:201,1,90.9999958343508,2|0,0:0|0:0,0:0:0:0:
289,92,87948,2,0,P|292:47|301:3,1,90.9999958343508,2|8,0:0|0:0,0:0:0:0:
474,173,88248,6,0,P|384:165|304:206,1,181.999991668702,2|0,0:0|0:0,0:0:0:0:
195,201,88698,1,8,0:0:0:0:
289,92,88848,1,0,0:0:0:0:
165,19,88998,2,0,P|124:25|51:39,1,90.9999958343508,2|0,0:0|0:0,0:0:0:0:
0,158,89298,2,0,P|41:164|114:178,1,90.9999958343508,10|0,0:0|0:0,0:0:0:0:
181,111,89598,5,2,0:0:0:0:
122,271,89748,1,0,0:0:0:0:
292,273,89898,2,0,P|293:200|288:75,1,181.999991668702,8|2,0:0|0:0,0:0:0:0:
289,91,90348,1,0,0:0:0:0:
116,180,90498,2,0,P|160:188|206:195,1,90.9999958343508,8|0,0:0|0:0,0:0:0:0:
382,81,90798,6,0,P|338:89|293:96,1,90.9999958343508,2|0,0:0|0:0,0:0:0:0:
161,85,91098,2,0,P|162:40|183:0,1,90.9999958343508,8|0,0:0|0:0,0:0:0:0:
382,162,91398,2,0,P|338:170|293:177,1,90.9999958343508,2|0,0:0|0:0,0:0:0:0:
162,255,91698,2,0,P|131:222|116:180,1,90.9999958343508,8|0,0:0|0:0,0:0:0:0:
355,266,91998,5,2,0:0:0:0:
355,266,92148,1,0,0:0:0:0:
258,316,92298,1,10,0:0:0:0:
258,316,92448,1,0,0:0:0:0:
431,336,92598,5,2,0:0:0:0:
263,227,92748,1,0,0:0:0:0:
451,244,92898,1,10,0:0:0:0:
317,384,93048,1,0,0:0:0:0:
157,264,93198,6,0,P|154:192|196:133,1,146.999995513916,14|0,0:0|0:0,0:0:0:0:
242,318,93498,2,0,P|181:357|110:351,1,146.999995513916,14|0,0:0|0:0,0:0:0:0:
246,218,93798,2,0,P|310:251|341:317,1,146.999995513916,14|0,0:0|0:0,0:0:0:0:
157,264,94098,2,0,P|154:192|196:133,1,146.999995513916,14|0,0:0|0:0,0:0:0:0:
275,62,94398,6,0,P|230:58|180:51,1,90.9999958343508,4|0,0:0|0:0,0:0:0:0:
362,14,94698,1,8,0:0:0:0:
290,157,94848,2,0,P|334:154|392:147,1,90.9999958343508,2|0,0:0|0:0,0:0:0:0:
295,255,95148,2,0,P|251:252|193:245,1,90.9999958343508,2|8,0:0|0:0,0:0:0:0:
32,163,95448,6,0,P|96:181|202:122,1,181.999991668702,2|0,0:0|0:0,0:0:0:0:
290,14,95898,2,0,P|289:58|291:105,1,90.9999958343508,8|0,0:0|0:0,0:0:0:0:
297,206,96198,1,2,0:0:0:0:
390,99,96348,1,0,0:0:0:0:
297,206,96498,1,10,0:0:0:0:
438,239,96648,1,0,0:0:0:0:
321,336,96798,6,0,P|257:354|151:295,1,181.999991668702,2|8,0:0|0:0,0:0:0:0:
41,221,97248,2,0,P|86:216|131:208,1,90.9999958343508,2|0,0:0|0:0,0:0:0:0:
277,125,97548,2,0,P|232:116|187:111,1,90.9999958343508,2|8,0:0|0:0,0:0:0:0:
75,26,97848,6,0,P|77:71|84:116,1,90.9999958343508,2|0,0:0|0:0,0:0:0:0:
187,111,98148,1,0,0:0:0:0:
75,26,98298,1,8,0:0:0:0:
130,208,98448,1,0,0:0:0:0:
295,128,98598,2,0,P|330:122|406:103,1,90.9999958343508,2|0,0:0|0:0,0:0:0:0:
239,306,98898,2,0,P|235:261|235:216,1,90.9999958343508,10|0,0:0|0:0,0:0:0:0:
447,197,99198,5,2,0:0:0:0:
295,128,99348,1,0,0:0:0:0:
333,317,99498,2,0,P|403:304|521:288,1,181.999991668702,8|2,0:0|0:0,0:0:0:0:
345,219,99948,1,0,0:0:0:0:
451,106,100098,2,0,P|451:151|446:197,1,90.9999958343508,8|0,0:0|0:0,0:0:0:0:
295,128,100398,6,0,P|290:82|290:37,1,90.9999958343508,2|0,0:0|0:0,0:0:0:0:
481,3,100698,2,0,P|440:5|381:9,1,90.9999958343508,8|0,0:0|0:0,0:0:0:0:
193,74,100998,2,0,P|147:70|102:68,1,90.9999958343508,2|0,0:0|0:0,0:0:0:0:
294,127,101298,2,0,P|294:172|290:218,1,90.9999958343508,8|0,0:0|0:0,0:0:0:0:
57,166,101598,5,4,0:0:0:0:
214,173,101748,1,2,0:0:0:0:
214,173,101898,1,0,0:0:0:0:
64,304,102048,5,8,0:0:0:0:
216,260,102198,1,2,0:0:0:0:
216,260,102348,1,0,0:0:0:0:
142,110,102498,5,8,0:0:0:0:
238,345,102648,1,10,0:0:0:0:
214,346,102723,1,8,0:0:0:0:
190,347,102798,1,8,0:3:0:0:
289,218,102948,1,4,0:3:0:0:
135,216,103098,1,8,0:3:0:0:
384,261,103248,5,8,0:0:0:0:
389,239,103323,1,8,0:0:0:0:
395,217,103398,1,8,0:0:0:0:
215,148,103548,1,8,0:0:0:0:
476,269,103698,1,8,0:0:0:0:
300,385,103848,6,0,P|293:301|288:217,1,167.999994873047,4|0,0:0|0:0,0:0:0:0:
215,148,104223,1,0,0:0:0:0:
215,148,104298,2,0,P|199:186|185:237,1,83.9999974365235,10|0,0:0|0:0,0:0:0:0:
305,127,104523,1,0,0:0:0:0:
305,127,104598,2,0,P|293:86|277:47,1,83.9999974365235,2|0,0:0|0:0,0:0:0:0:
135,55,104823,1,0,0:0:0:0:
135,55,104898,2,0,L|198:43,1,41.9999987182618,10|0,0:0|0:0,0:0:0:0:
119,148,105048,2,0,L|77:140,1,41.9999987182618,2|0,0:0|0:0,0:0:0:0:
30,22,105198,6,0,L|42:74,1,41.9999987182618,2|0,0:0|0:0,0:0:0:0:
82,226,105348,2,0,L|70:278,1,41.9999987182618,0|0,0:0|0:0,0:0:0:0:
30,80,105498,2,0,L|46:141,1,41.9999987182618,10|0,0:0|0:0,0:0:0:0:
92,293,105648,1,0,0:0:0:0:
92,293,105723,1,0,0:0:0:0:
92,293,105798,2,0,L|79:348,1,41.9999987182618,2|0,0:0|0:0,0:0:0:0:
202,247,105948,2,0,L|160:208,1,41.9999987182618,2|0,0:0|0:0,0:0:0:0:
171,351,106098,2,0,L|225:334,1,41.9999987182618,10|0,0:0|0:0,0:0:0:0:
325,217,106248,6,0,P|320:300|313:384,1,167.999994873047,6|0,0:0|0:0,0:0:0:0:
442,326,106698,2,0,P|438:283|431:211,1,83.9999974365235,8|0,0:0|0:0,0:0:0:0:
434,242,106923,1,0,0:0:0:0:
434,242,106998,1,2,0:0:0:0:
325,217,107148,1,0,0:0:0:0:
495,137,107298,2,0,P|459:136|408:133,1,83.9999974365235,8|0,0:0|0:0,0:0:0:0:
497,40,107598,5,2,0:0:0:0:
411,134,107748,1,0,0:0:0:0:
312,26,107898,2,0,P|316:60|320:109,1,83.9999974365235,8|0,0:0|0:0,0:0:0:0:
319,108,108123,1,0,0:0:0:0:
319,108,108198,1,2,0:0:0:0:
229,85,108348,1,0,0:0:0:0:
156,142,108498,1,8,0:0:0:0:
61,15,108648,6,0,P|109:12|235:2,1,167.999994873047,6|0,0:0|0:0,0:0:0:0:
156,142,109098,2,0,P|126:138|55:132,1,83.9999974365235,8|0,0:0|0:0,0:0:0:0:
14,190,109323,1,0,0:0:0:0:
14,190,109398,2,0,P|24:228|37:286,1,83.9999974365235,2|0,0:0|0:0,0:0:0:0:
172,228,109698,1,8,0:0:0:0:
83,349,109848,1,0,0:0:0:0:
156,142,109998,5,2,0:0:0:0:
197,309,110148,1,0,0:0:0:0:
345,224,110298,1,8,0:0:0:0:
172,228,110448,1,0,0:0:0:0:
263,84,110598,1,2,0:0:0:0:
263,84,110673,1,0,0:0:0:0:
263,84,110748,2,0,P|299:81|351:72,1,83.9999974365235,0|8,0:0|0:0,0:0:0:0:
416,60,110973,1,0,0:0:0:0:
455,124,111048,6,0,P|456:159|453:269,1,125.999996154785,6|0,0:0|0:0,0:0:0:0:
362,242,111348,2,0,P|354:203|349:146,1,83.9999974365235,2|8,0:0|0:0,0:0:0:0:
407,319,111573,1,0,0:0:0:0:
391,324,111648,2,0,L|349:331,1,41.9999987182618,2|0,0:0|0:0,0:0:0:0:
263,239,111798,2,0,L|275:279,1,41.9999987182618,0|0,0:0|0:0,0:0:0:0:
183,362,111948,2,0,L|195:321,1,41.9999987182618,2|0,0:0|0:0,0:0:0:0:
264,208,112098,2,0,L|276:248,1,41.9999987182618,8|0,0:0|0:0,0:0:0:0:
112,283,112248,2,0,L|141:247,1,41.9999987182618,2|0,0:0|0:0,0:0:0:0:
267,180,112398,5,2,0:0:0:0:
80,183,112548,1,0,0:0:0:0:
205,52,112698,1,8,0:0:0:0:
80,183,112848,1,0,0:0:0:0:
293,89,112998,1,2,0:0:0:0:
322,91,113073,1,2,0:0:0:0:
350,99,113148,1,10,0:0:0:0:
374,114,113223,1,10,0:0:0:0:
393,135,113298,2,0,L|398:88,1,41.9999987182618,8|0,0:0|0:0,0:0:0:0:
309,186,113448,6,0,P|317:263|322:358,1,167.999994873047,6|0,0:0|0:0,0:0:0:0:
406,325,113823,1,0,0:0:0:0:
406,325,113898,2,0,P|408:287|412:241,1,83.9999974365235,10|0,0:0|0:0,0:0:0:0:
476,145,114123,1,0,0:0:0:0:
476,145,114198,2,0,P|441:140|379:133,1,83.9999974365235,2|0,0:0|0:0,0:0:0:0:
295,87,114423,1,0,0:0:0:0:
295,87,114498,2,0,P|251:94|176:108,1,83.9999974365235,10|0,0:0|0:0,0:0:0:0:
314,174,114723,1,0,0:0:0:0:
314,174,114798,5,2,0:0:0:0:
381,33,114948,1,0,0:0:0:0:
212,100,115098,5,10,0:0:0:0:
266,255,115248,1,0,0:0:0:0:
82,266,115398,5,2,0:0:0:0:
227,182,115548,1,0,0:0:0:0:
230,349,115698,1,10,0:0:0:0:
82,266,115848,6,0,P|86:190|96:95,1,167.999994873047,6|0,0:0|0:0,0:0:0:0:
241,6,116298,2,0,P|199:10|158:13,1,83.9999974365235,8|0,0:0|0:0,0:0:0:0:
95,98,116598,1,2,0:0:0:0:
271,97,116748,1,0,0:0:0:0:
194,232,116898,2,0,P|191:198|189:146,1,83.9999974365235,8|0,0:0|0:0,0:0:0:0:
271,97,117198,5,2,0:0:0:0:
194,232,117348,1,0,0:0:0:0:
377,225,117498,1,8,0:0:0:0:
377,225,117648,1,0,0:0:0:0:
185,139,117798,1,2,0:0:0:0:
185,139,117948,1,0,0:0:0:0:
354,58,118098,2,0,L|358:120,1,41.9999987182618,8|0,0:0|0:0,0:0:0:0:
286,162,118248,6,0,P|354:145|473:125,1,167.999994873047,6|0,0:0|0:0,0:0:0:0:
242,249,118698,2,0,P|237:287|229:365,1,83.9999974365235,8|0,0:0|0:0,0:0:0:0:
153,279,118923,1,0,0:0:0:0:
153,279,118998,2,0,P|148:241|140:163,1,83.9999974365235,2|0,0:0|0:0,0:0:0:0:
227,62,119298,2,0,P|193:58|139:51,1,83.9999974365235,8|0,0:0|0:0,0:0:0:0:
65,116,119598,5,2,0:0:0:0:
227,62,119748,1,0,0:0:0:0:
54,29,119898,1,8,0:0:0:0:
191,159,120048,1,0,0:0:0:0:
13,212,120198,1,2,0:0:0:0:
13,212,120348,1,0,0:0:0:0:
140,70,120498,1,8,0:0:0:0:
256,235,120648,6,0,P|180:256|103:196,1,167.999994873047,6|0,0:0|0:0,0:0:0:0:
38,137,121023,1,0,0:0:0:0:
38,137,121098,2,0,L|80:130,1,41.9999987182618,10|0,0:0|0:0,0:0:0:0:
225,52,121248,2,0,L|267:59,1,41.9999987182618,2|0,0:0|0:0,0:0:0:0:
67,110,121398,2,0,L|109:103,1,41.9999987182618,2|0,0:0|0:0,0:0:0:0:
270,42,121548,2,0,L|312:49,1,41.9999987182618,2|0,0:0|0:0,0:0:0:0:
135,3,121698,1,8,0:0:0:0:
191,159,121848,6,0,P|187:201|172:330,1,167.999994873047,4|0,0:0|0:0,0:0:0:0:
96,374,122223,1,0,0:0:0:0:
86,362,122298,2,0,L|81:312,1,41.9999987182618,10|0,0:0|0:0,0:0:0:0:
267,295,122448,2,0,L|277:247,1,41.9999987182618,2|0,0:0|0:0,0:0:0:0:
73,331,122598,2,0,L|68:281,1,41.9999987182618,2|0,0:0|0:0,0:0:0:0:
283,276,122748,2,0,L|293:228,1,41.9999987182618,2|0,0:0|0:0,0:0:0:0:
91,189,122898,1,8,0:0:0:0:
312,128,123048,6,0,P|249:129|186:123,1,125.999996154785,4|0,0:0|0:0,0:0:0:0:
9,42,123498,2,0,P|50:38|106:35,1,94.499997116089,8|8,0:0|0:3,0:0:0:0:
103,35,123798,2,0,P|106:65|108:111,1,62.9999980773926,4|0,0:3|0:0,0:0:0:0:
39,235,124098,2,0,P|40:203|43:172,1,62.9999980773926,8|0,0:0|0:0,0:0:0:0:
195,207,124398,5,0,0:0:0:0:
123,258,124548,1,0,0:0:0:0:
241,356,124698,1,8,0:0:0:0:
150,346,124848,1,0,0:0:0:0:
150,346,124923,1,8,0:3:0:0:
150,346,124998,1,4,0:3:0:0:
195,207,125148,2,0,P|224:200|267:187,1,62.9999980773926,0|8,0:0|0:0,0:0:0:0:
348,93,125448,6,0,P|344:153|343:230,1,125.999996154785,0|0,0:0|0:0,0:0:0:0:
291,332,125898,1,8,0:0:0:0:
379,304,126048,1,0,0:0:0:0:
379,304,126123,1,8,0:3:0:0:
379,304,126198,1,4,0:3:0:0:
429,376,126348,1,0,0:0:0:0:
291,332,126498,2,0,P|262:325|219:312,1,62.9999980773926,8|0,0:0|0:0,0:0:0:0:
142,379,126798,6,0,P|140:316|137:253,1,125.999996154785,0|8,0:0|0:0,0:0:0:0:
23,195,127248,1,0,0:0:0:0:
23,195,127323,1,8,0:3:0:0:
23,195,127398,2,0,P|46:192|98:181,1,62.9999980773926,4|0,0:3|0:0,0:0:0:0:
158,134,127698,1,8,0:0:0:0:
331,223,127848,6,0,P|268:216|206:206,1,125.999996154785,4|0,0:0|0:0,0:0:0:0:
150,39,128298,2,0,L|160:158,1,94.499997116089,8|8,0:0|0:3,0:0:0:0:
157,133,128598,2,0,P|182:126|238:113,1,62.9999980773926,4|0,0:3|0:0,0:0:0:0:
333,64,128898,2,0,P|303:57|272:48,1,62.9999980773926,8|0,0:0|0:0,0:0:0:0:
422,54,129198,5,0,0:0:0:0:
387,134,129348,1,0,0:0:0:0:
461,231,129498,2,0,P|465:199|468:168,1,62.9999980773926,8|0,0:0|0:0,0:0:0:0:
468,168,129723,1,8,0:3:0:0:
468,168,129798,1,4,0:3:0:0:
395,293,129948,2,0,P|398:324|402:355,1,62.9999980773926,0|8,0:0|0:0,0:0:0:0:
336,226,130248,6,0,P|284:233|196:249,1,125.999996154785,0|0,0:0|0:0,0:0:0:0:
120,304,130698,2,0,P|125:268|131:202,1,94.499997116089,8|8,0:0|0:3,0:0:0:0:
131,211,130998,2,0,P|100:216|50:222,1,62.9999980773926,4|0,0:3|0:0,0:0:0:0:
90,134,131298,1,8,0:0:0:0:
1,31,131448,6,0,P|4:63|11:94,1,62.9999980773926,0|0,0:0|0:0,0:0:0:0:
166,85,131748,1,0,0:0:0:0:
10,93,131898,1,8,0:0:0:0:
247,123,132048,1,0,0:0:0:0:
251,104,132123,1,8,0:3:0:0:
255,85,132198,1,4,0:3:0:0:
131,211,132348,1,0,0:0:0:0:
213,10,132498,1,8,0:0:0:0:
409,109,132648,6,0,P|416:162|425:268,1,140,4|0,0:0|0:0,0:0:0:0:
257,301,133098,2,0,P|310:309|371:317,1,105,8|8,0:0|0:3,0:0:0:0:
360,315,133398,2,0,P|355:351|354:389,1,70,4|0,0:3|0:0,0:0:0:0:
185,235,133698,2,0,P|180:200|178:165,1,70,8|0,0:0|0:0,0:0:0:0:
257,301,133998,5,0,0:0:0:0:
164,332,134148,1,0,0:0:0:0:
0,233,134298,1,8,0:0:0:0:
92,264,134448,1,0,0:0:0:0:
92,264,134523,1,8,0:3:0:0:
92,264,134598,1,4,0:3:0:0:
73,97,134748,2,0,P|73:132|75:167,1,70,0|8,0:0|0:0,0:0:0:0:
186,229,135048,6,0,P|189:159|190:89,1,140,0|0,0:0|0:0,0:0:0:0:
308,0,135498,1,8,0:0:0:0:
289,96,135648,1,0,0:0:0:0:
289,96,135723,1,8,0:3:0:0:
289,96,135798,1,4,0:3:0:0:
381,63,135948,1,0,0:0:0:0:
273,194,136098,2,0,P|308:190|342:187,1,70,8|0,0:0|0:0,0:0:0:0:
433,301,136398,6,0,P|434:266|430:232,1,70,0|0,0:0|0:0,0:0:0:0:
349,351,136698,1,8,0:0:0:0:
260,309,136848,1,0,0:0:0:0:
260,309,136923,1,8,0:3:0:0:
260,309,136998,1,4,0:3:0:0:
346,262,137148,1,0,0:0:0:0:
181,364,137298,1,8,0:0:0:0:
51,220,137448,6,0,P|121:214|190:213,1,140,4|0,0:0|0:0,0:0:0:0:
343,137,137898,2,0,P|273:131|206:129,1,105,8|8,0:0|0:3,0:0:0:0:
238,129,138198,2,0,P|235:93|235:58,1,70,4|0,0:3|0:0,0:0:0:0:
410,0,138498,2,0,P|410:34|407:69,1,70,8|0,0:0|0:0,0:0:0:0:
418,200,138798,5,0,0:0:0:0:
343,137,138948,1,0,0:0:0:0:
325,300,139098,2,0,P|322:265|322:230,1,70,8|0,0:0|0:0,0:0:0:0:
323,231,139323,1,8,0:3:0:0:
323,231,139398,1,4,0:3:0:0:
238,337,139548,2,0,P|207:335|161:329,1,70,0|8,0:0|0:0,0:0:0:0:
42,237,139848,6,0,P|106:235|181:230,1,140,0|0,0:0|0:0,0:0:0:0:
252,110,140298,1,8,0:0:0:0:
160,144,140448,1,0,0:0:0:0:
160,144,140523,1,8,0:3:0:0:
160,144,140598,2,0,P|123:139|83:131,1,70,4|0,0:3|0:0,0:0:0:0:
178,55,140898,1,8,0:0:0:0:
234,205,141048,5,4,0:0:0:0:
178,55,141198,1,0,0:0:0:0:
314,165,141348,1,0,0:0:0:0:
152,233,141498,1,8,0:0:0:0:
276,74,141648,1,8,0:0:0:0:
296,72,141723,1,8,0:0:0:0:
316,69,141798,1,8,0:0:0:0:
234,205,141948,1,8,0:0:0:0:
409,54,142098,1,8,0:0:0:0:
508,263,142248,6,0,P|472:259|384:253,1,112,4|0,0:0|0:0,0:0:0:0:
304,328,142698,2,0,L|311:290,1,35,8|0,0:0|0:0,0:0:0:0:
176,325,143298,2,0,L|207:303,1,35,8|0,0:0|0:0,0:0:0:0:
80,240,143898,2,0,L|118:247,1,35,8|0,0:0|0:0,0:0:0:0:
114,246,144498,1,8,0:0:0:0:
170,62,144648,6,0,P|174:103|182:196,1,112,4|0,0:0|0:0,0:0:0:0:
282,121,145098,2,0,L|274:167,1,35,8|0,0:0|0:0,0:0:0:0:
408,97,145698,2,0,L|369:123,1,35,8|0,0:0|0:0,0:0:0:0:
512,175,146298,2,0,L|465:167,1,35,8|0,0:0|0:0,0:0:0:0:
477,169,146898,1,8,0:0:0:0:
279,312,147048,6,0,P|361:304|416:244,1,167.999994873047,4|0,0:0|0:0,0:0:0:0:
308,127,147498,2,0,P|312:169|316:211,1,83.9999974365235,8|0,0:0|0:0,0:0:0:0:
403,143,147798,1,2,0:0:0:0:
222,175,147948,1,0,0:0:0:0:
403,143,148098,2,0,P|445:146|487:149,1,83.9999974365235,8|0,0:0|0:0,0:0:0:0:
311,35,148398,6,0,P|270:38|228:41,1,83.9999974365235,2|0,0:0|0:0,0:0:0:0:
105,139,148698,1,10,0:0:0:0:
227,41,148848,1,0,0:0:0:0:
69,56,148998,1,2,0:0:0:0:
222,175,149148,1,0,0:0:0:0:
42,242,149298,1,10,0:0:0:0:
222,175,149448,6,0,B|311:136|306:195|400:168,1,167.999994873047,2|0,0:0|0:0,0:0:0:0:
277,253,149898,1,8,0:0:0:0:
353,91,150048,1,0,0:0:0:0:
277,253,150198,2,0,P|278:294|279:336,1,83.9999974365235,2|0,0:0|0:0,0:0:0:0:
222,175,150498,1,8,0:0:0:0:
369,289,150648,1,0,0:0:0:0:
190,337,150798,5,2,0:0:0:0:
43,225,150948,2,0,P|44:183|45:141,1,83.9999974365235,0|8,0:0|0:0,0:0:0:0:
225,84,151248,1,2,0:0:0:0:
135,259,151398,1,0,0:0:0:0:
299,167,151548,1,2,0:0:0:0:
109,72,151698,1,8,0:0:0:0:
245,265,151848,6,0,P|291:263|395:258,1,140,6|0,0:0|0:0,0:0:0:0:
497,140,152298,5,8,0:0:0:0:
411,171,152448,1,0,0:0:0:0:
271,66,152598,5,8,0:0:0:0:
357,97,152748,1,0,0:0:0:0:
512,7,152898,5,8,0:0:0:0:
426,38,153048,1,0,0:0:0:0:
187,31,153198,5,8,0:0:0:0:
411,171,153348,1,0,0:0:0:0:
175,119,153498,5,8,0:0:0:0:
426,38,153648,1,0,0:0:0:0:
189,204,153798,5,8,0:0:0:0:
461,297,153948,1,0,0:0:0:0:
309,114,154098,1,8,0:0:0:0:
108,241,154248,6,0,P|111:310|116:391,1,140,4|0,0:0|0:0,0:0:0:0:
313,283,154698,5,8,0:0:0:0:
231,323,154848,1,0,0:0:0:0:
291,122,154998,5,8,0:0:0:0:
261,208,155148,1,0,0:0:0:0:
161,23,155298,5,8,0:0:0:0:
200,105,155448,1,0,0:0:0:0:
63,194,155598,5,8,0:0:0:0:
291,122,155748,1,0,0:0:0:0:
86,76,155898,5,8,0:0:0:0:
139,309,156048,1,0,0:0:0:0:
322,207,156198,5,8,0:0:0:0:
63,194,156348,1,0,0:0:0:0:
246,46,156498,5,8,0:0:0:0:
255,302,156648,1,0,0:0:0:0:
482,258,156798,5,12,0:0:0:0:
370,155,158448,5,8,0:3:0:0:
370,155,158523,1,0,0:0:0:0:
370,155,158598,2,0,P|397:153|442:148,1,62.9999980773926,4|0,0:3|0:0,0:0:0:0:
288,105,158898,2,0,P|261:103|216:98,1,62.9999980773926,0|0,0:0|0:0,0:0:0:0:
288,197,159198,6,0,P|290:231|293:263,1,62.9999980773926,8|8,0:3|0:3,0:0:0:0:
292,259,159423,1,0,0:0:0:0:
292,259,159498,1,4,0:3:0:0:
387,243,159648,1,0,0:0:0:0:
370,155,159798,1,0,0:0:0:0:
208,154,159948,1,8,0:3:0:0:
387,243,160098,2,0,P|385:277|382:309,1,62.9999980773926,0|8,0:0|0:0,0:0:0:0:
382,305,160323,1,8,0:0:0:0:
382,305,160398,5,8,0:0:0:0:
370,155,160548,1,8,0:0:0:0:
311,350,160698,5,8,0:0:0:0:
495,260,160848,1,8,0:0:0:0:
289,209,160998,5,8,0:0:0:0:
415,331,161148,1,8,0:0:0:0:
216,363,161298,5,8,0:0:0:0:
379,242,161448,1,8,0:0:0:0:
198,153,161598,6,0,P|186:197|184:243,1,90.9999958343508,4|0,0:0|0:0,0:0:0:0:
289,209,161898,1,8,0:0:0:0:
82,217,162048,2,0,P|84:262|96:306,1,90.9999958343508,2|0,0:0|0:0,0:0:0:0:
286,335,162348,2,0,P|240:339|196:347,1,90.9999958343508,2|8,0:0|0:0,0:0:0:0:
331,235,162648,6,0,P|390:238|516:239,1,181.999991668702,2|0,0:0|0:0,0:0:0:0:
498,64,163098,2,0,P|460:66|398:65,1,90.9999958343508,8|0,0:0|0:0,0:0:0:0:
316,127,163398,1,2,0:0:0:0:
506,151,163548,1,0,0:0:0:0:
333,221,163698,1,10,0:0:0:0:
319,31,163848,1,0,0:0:0:0:
134,131,163998,6,0,P|225:131|316:127,1,181.999991668702,2|8,0:0|0:0,0:0:0:0:
241,259,164448,2,0,P|199:243|155:234,1,90.9999958343508,2|0,0:0|0:0,0:0:0:0:
349,235,164748,2,0,P|374:272|392:314,1,90.9999958343508,2|8,0:0|0:0,0:0:0:0:
420,156,165048,6,0,P|432:84|516:-5,1,181.999991668702,2|0,0:0|0:0,0:0:0:0:
420,156,165498,1,8,0:0:0:0:
347,2,165648,1,0,0:0:0:0:
232,122,165798,2,0,P|277:116|321:108,1,90.9999958343508,2|0,0:0|0:0,0:0:0:0:
438,249,166098,2,0,P|397:243|324:229,1,90.9999958343508,10|0,0:0|0:0,0:0:0:0:
232,122,166398,5,2,0:0:0:0:
265,295,166548,1,0,0:0:0:0:
11,213,166698,6,0,P|99:192|185:220,1,181.999991668702,8|2,0:0|0:0,0:0:0:0:
290,190,167148,1,0,0:0:0:0:
269,384,167298,2,0,P|272:338|264:293,1,90.9999958343508,8|0,0:0|0:0,0:0:0:0:
75,357,167598,6,0,P|120:348|165:342,1,90.9999958343508,2|0,0:0|0:0,0:0:0:0:
290,190,167898,2,0,P|334:196|379:205,1,90.9999958343508,8|0,0:0|0:0,0:0:0:0:
72,267,168198,2,0,P|116:258|161:251,1,90.9999958343508,2|0,0:0|0:0,0:0:0:0:
286,101,168498,2,0,P|330:107|375:116,1,90.9999958343508,8|0,0:0|0:0,0:0:0:0:
110,166,168798,5,2,0:0:0:0:
110,166,168948,1,0,0:0:0:0:
248,264,169098,1,10,0:0:0:0:
248,264,169248,1,0,0:0:0:0:
184,90,169398,5,2,0:0:0:0:
161,251,169548,1,0,0:0:0:0:
314,199,169698,1,10,0:0:0:0:
161,251,169848,1,0,0:0:0:0:
294,86,169998,6,0,P|361:91|411:139,1,136.499993751526,14|0,0:0|0:0,0:0:0:0:
238,257,170298,2,0,P|209:197|224:132,1,136.499993751526,14|0,0:0|0:0,0:0:0:0:
415,220,170598,2,0,P|378:275|314:295,1,136.499993751526,14|0,0:0|0:0,0:0:0:0:
294,86,170898,2,0,P|361:91|411:139,1,136.499993751526,14|0,0:0|0:0,0:0:0:0:
318,188,171198,6,0,P|272:182|221:178,1,90.9999958343508,4|0,0:0|0:0,0:0:0:0:
132,126,171498,1,8,0:0:0:0:
76,306,171648,2,0,P|71:261|70:216,1,90.9999958343508,2|0,0:0|0:0,0:0:0:0:
256,292,171948,2,0,P|254:337|249:382,1,90.9999958343508,2|8,0:0|0:0,0:0:0:0:
165,251,172248,6,0,P|252:262|344:213,1,181.999991668702,2|0,0:0|0:0,0:0:0:0:
479,117,172698,2,0,P|434:124|389:126,1,90.9999958343508,8|0,0:0|0:0,0:0:0:0:
279,128,172998,1,2,0:0:0:0:
413,36,173148,1,0,0:0:0:0:
279,128,173298,1,10,0:0:0:0:
417,218,173448,1,0,0:0:0:0:
283,310,173598,6,0,P|196:321|104:272,1,181.999991668702,2|8,0:0|0:0,0:0:0:0:
41,118,174048,2,0,P|39:164|31:209,1,90.9999958343508,2|0,0:0|0:0,0:0:0:0:
150,106,174348,2,0,P|141:61|139:15,1,90.9999958343508,2|8,0:0|0:0,0:0:0:0:
314,174,174648,6,0,P|268:177|224:185,1,90.9999958343508,2|0,0:0|0:0,0:0:0:0:
258,80,174948,1,0,0:0:0:0:
281,256,175098,1,8,0:0:0:0:
421,148,175248,1,0,0:0:0:0:
258,80,175398,2,0,P|212:76|167:69,1,90.9999958343508,2|0,0:0|0:0,0:0:0:0:
381,12,175698,2,0,P|427:8|472:1,1,90.9999958343508,10|0,0:0|0:0,0:0:0:0:
314,174,175998,5,2,0:0:0:0:
381,12,176148,1,0,0:0:0:0:
258,80,176298,2,0,P|271:165|286:284,1,181.999991668702,8|2,0:0|0:0,0:0:0:0:
167,204,176748,1,0,0:0:0:0:
73,297,176898,2,0,P|73:257|77:207,1,90.9999958343508,8|0,0:0|0:0,0:0:0:0:
162,8,177198,6,0,P|165:53|166:98,1,90.9999958343508,2|0,0:0|0:0,0:0:0:0:
283,260,177498,2,0,P|324:259|373:251,1,90.9999958343508,8|0,0:0|0:0,0:0:0:0:
276,49,177798,2,0,P|280:94|281:140,1,90.9999958343508,2|0,0:0|0:0,0:0:0:0:
179,315,178098,2,0,P|138:314|88:306,1,90.9999958343508,8|0,0:0|0:0,0:0:0:0:
157,162,178398,5,4,0:0:0:0:
283,260,178548,1,0,0:0:0:0:
88,306,178698,1,8,0:0:0:0:
255,166,178848,1,8,0:0:0:0:
252,144,178923,1,8,0:0:0:0:
249,122,178998,1,8,0:3:0:0:
180,263,179148,1,8,0:3:0:0:
359,186,179298,1,4,0:3:0:0:
147,135,179448,5,8,0:0:0:0:
150,113,179523,1,8,0:0:0:0:
153,91,179598,1,8,0:3:0:0:
337,70,179748,1,8,0:3:0:0:
283,260,179898,1,4,0:3:0:0:
78,207,180048,5,8,0:0:0:0:
56,204,180123,1,8,0:0:0:0:
34,201,180198,1,8,0:0:0:0:
244,167,180348,1,8,0:0:0:0:
88,306,180498,1,8,0:0:0:0:
53,110,180648,1,8,0:0:0:0:
224,307,180798,6,0,B|318:323|310:261|411:294,1,189.000000720978,4|8,0:0|0:0,0:0:0:0:
287,120,181248,2,0,P|269:164|263:211,1,94.5000003604889,2|0,0:0|0:0,0:0:0:0:
420,100,181548,2,0,P|414:53|396:9,1,94.5000003604889,2|8,0:0|0:0,0:0:0:0:
349,185,181848,6,0,P|413:203|520:146,1,189.000000720978,2|0,0:0|0:0,0:0:0:0:
310,31,182298,2,0,P|268:29|194:28,1,94.5000003604889,8|0,0:0|0:0,0:0:0:0:
420,100,182598,1,2,0:0:0:0:
244,138,182748,1,0,0:0:0:0:
310,31,182898,1,10,0:0:0:0:
350,208,183048,1,0,0:0:0:0:
167,216,183198,6,0,P|161:169|159:121,1,94.5000003604889,2|0,0:0|0:0,0:0:0:0:
263,276,183498,1,8,0:0:0:0:
74,346,183648,2,0,P|120:340|169:331,1,94.5000003604889,2|0,0:0|0:0,0:0:0:0:
342,175,183948,2,0,P|302:164|243:161,1,94.5000003604889,2|8,0:0|0:0,0:0:0:0:
70,21,184248,6,0,P|147:71|238:56,1,189.000000720978,2|0,0:0|0:0,0:0:0:0:
351,44,184698,1,8,0:0:0:0:
249,160,184848,1,0,0:0:0:0:
378,245,184998,2,0,P|383:198|386:150,1,94.5000003604889,2|0,0:0|0:0,0:0:0:0:
232,290,185298,2,0,P|235:337|240:384,1,94.5000003604889,10|0,0:0|0:0,0:0:0:0:
378,245,185598,5,2,0:0:0:0:
249,160,185748,1,0,0:0:0:0:
326,337,185898,2,0,P|399:327|514:304,1,189.000000720978,8|2,0:0|0:0,0:0:0:0:
386,150,186348,1,0,0:0:0:0:
491,108,186498,2,0,P|491:153|486:205,1,94.5000003604889,8|0,0:0|0:0,0:0:0:0:
293,108,186798,6,0,P|288:63|291:9,1,94.5000003604889,2|0,0:0|0:0,0:0:0:0:
125,207,187098,2,0,P|171:197|218:189,1,94.5000003604889,8|0,0:0|0:0,0:0:0:0:
308,324,187398,6,0,P|313:279|313:226,1,94.5000003604889,2|0,0:0|0:0,0:0:0:0:
196,100,187698,2,0,P|149:91|103:81,1,94.5000003604889,8|0,0:0|0:0,0:0:0:0:
327,110,187998,5,2,0:0:0:0:
327,110,188148,1,0,0:0:0:0:
197,0,188298,1,10,0:0:0:0:
197,0,188448,1,0,0:0:0:0:
252,172,188598,5,2,0:0:0:0:
325,22,188748,1,0,0:0:0:0:
341,202,188898,1,10,0:0:0:0:
159,202,189048,1,0,0:0:0:0:
400,114,189198,6,0,P|437:175|426:274,1,141.750000540733,14|0,0:0|0:0,0:0:0:0:
274,320,189498,2,0,P|324:269|341:202,1,141.750000540733,14|0,0:0|0:0,0:0:0:0:
113,259,189798,2,0,P|183:258|244:222,1,141.750000540733,14|0,0:0|0:0,0:0:0:0:
38,100,190098,2,0,P|88:148|157:165,1,141.750000540733,14|0,0:0|0:0,0:0:0:0:
226,26,190398,6,0,P|185:53|138:63,1,97.9999970092774,4|0,0:0|0:0,0:0:0:0:
328,62,190698,1,8,0:0:0:0:
274,155,190848,2,0,P|266:212|271:259,1,97.9999970092774,2|0,0:0|0:0,0:0:0:0:
426,106,191148,2,0,P|429:57|421:8,1,97.9999970092774,2|8,0:0|0:0,0:0:0:0:
152,20,191448,6,0,P|231:73|327:61,1,195.999994018555,2|0,0:0|0:0,0:0:0:0:
156,164,191898,2,0,P|109:203|88:244,1,97.9999970092774,8|0,0:0|0:0,0:0:0:0:
85,95,192198,1,2,0:0:0:0:
187,251,192348,1,0,0:0:0:0:
2,275,192498,1,10,0:0:0:0:
156,164,192648,1,0,0:0:0:0:
216,344,192798,6,0,P|167:346|123:325,1,97.9999970092774,2|0,0:0|0:0,0:0:0:0:
51,184,193098,1,8,0:0:0:0:
156,164,193248,2,0,P|152:119|150:66,1,97.9999970092774,2|0,0:0|0:0,0:0:0:0:
307,203,193548,2,0,P|305:251|301:300,1,97.9999970092774,2|8,0:0|0:0,0:0:0:0:
243,111,193848,6,0,P|294:109|374:102,1,97.9999970092774,2|0,0:0|0:0,0:0:0:0:
410,187,194148,1,0,0:0:0:0:
499,42,194298,1,8,0:0:0:0:
340,105,194448,1,0,0:0:0:0:
381,272,194598,6,0,P|432:274|512:281,1,97.9999970092774,2|0,0:0|0:0,0:0:0:0:
277,219,194898,2,0,P|278:267|285:336,1,97.9999970092774,10|0,0:0|0:0,0:0:0:0:
410,187,195198,5,2,0:0:0:0:
243,111,195348,1,0,0:0:0:0:
190,284,195498,2,0,P|141:287|92:289,1,97.9999970092774,8|0,0:0|0:0,0:0:0:0:
125,97,195798,2,0,P|136:135|145:194,1,97.9999970092774,2|0,0:0|0:0,0:0:0:0:
243,111,196098,2,0,P|249:62|262:15,1,97.9999970092774,8|0,0:0|0:0,0:0:0:0:
446,92,196398,6,0,P|397:90|348:86,1,97.9999970092774,2|0,0:0|0:0,0:0:0:0:
144,192,196698,2,0,P|95:193|46:197,1,97.9999970092774,8|0,0:0|0:0,0:0:0:0:
410,214,196998,2,0,P|363:199|316:183,1,97.9999970092774,2|0,0:0|0:0,0:0:0:0:
93,88,197298,2,0,P|46:102|0:118,1,97.9999970092774,8|0,0:0|0:0,0:0:0:0:
333,276,197598,5,12,0:0:0:0:
253,96,197748,1,0,0:0:0:0:
130,249,197898,5,8,0:0:0:0:
339,85,198048,1,0,0:0:0:0:
421,281,198198,5,8,0:0:0:0:
166,109,198348,1,0,0:0:0:0:
44,244,198498,5,8,0:0:0:0:
284,188,198648,1,0,0:0:0:0:
174,361,198798,2,0,P|171:319|169:246,1,97.9999970092774,4|8,0:3|0:0,0:0:0:0:
169,263,199023,1,8,0:0:0:0:
169,263,199098,1,8,0:0:0:0:
42,339,199248,5,8,0:0:0:0:
312,294,199398,1,0,0:0:0:0:
92,153,199548,5,8,0:0:0:0:
312,294,199698,1,0,0:0:0:0:
236,40,199848,6,0,B|244:107|244:107|216:167|216:167|225:228,1,195.999994018555,4|0,0:0|0:0,0:0:0:0:
334,57,200298,5,8,0:0:0:0:
132,236,200448,1,0,0:0:0:0:
394,255,200598,5,8,0:0:0:0:
92,153,200748,1,0,0:0:0:0:
366,156,200898,5,8,0:0:0:0:
110,325,201048,1,0,0:0:0:0:
222,122,201198,6,0,P|219:164|217:237,1,97.9999970092774,4|8,0:3|0:0,0:0:0:0:
217,220,201423,1,8,0:0:0:0:
217,220,201498,1,8,0:0:0:0:
366,156,201648,1,8,0:0:0:0:
254,39,201798,1,8,0:0:0:0:
316,236,201948,1,8,0:0:0:0:
473,103,202098,1,8,0:3:0:0:
266,138,202248,1,4,0:3:0:0:
294,348,202398,5,4,0:0:0:0:
256,192,202473,12,2,206898,0:0:0:0:
348,269,208398,6,0,L|334:312,1,24.4999992523194,6|0,0:0|0:0,0:0:0:0:
