osu file format v14

[General]
AudioFilename: audio.mp3
AudioLeadIn: 0
PreviewTime: 130224
Countdown: 1
SampleSet: Normal
StackLeniency: 0.7
Mode: 3
LetterboxInBreaks: 0
SpecialStyle: 0
WidescreenStoryboard: 0

[Editor]
DistanceSpacing: 1
BeatDivisor: 4
GridSize: 8
TimelineZoom: 1

[Metadata]
Title:My Dearest
TitleUnicode:My Dearest
Artist:supercell
ArtistUnicode:supercell
Creator:Fantyful
Version:FF
Source:Guilty Crown
Tags:Guilty Crown Koeda ryo
BeatmapID:1019515
BeatmapSetID:477311

[Difficulty]
HPDrainRate:7
CircleSize:4
OverallDifficulty:7
ApproachRate:5
SliderMultiplier:1.4
SliderTickRate:1

[Events]
//Background and Video events
0,0,"My Dearest BG2.jpg",0,0
//Break Periods
//Storyboard Layer 0 (Background)
//Storyboard Layer 1 (Fail)
//Storyboard Layer 2 (Pass)
//Storyboard Layer 3 (Foreground)
//Storyboard Sound Samples

[TimingPoints]
1653,357.142857142857,4,1,0,90,1,0
1653,-100,4,1,0,40,0,0
13082,-100,4,1,0,75,0,0
13439,-100,4,1,0,30,0,0
14421,-100,4,1,0,75,0,0
14867,-100,4,1,0,30,0,0
17278,-100,4,1,0,75,0,0
17724,-100,4,1,0,30,0,0
20135,-100,4,1,0,75,0,0
20582,-100,4,1,0,30,0,0
22992,-100,4,1,0,75,0,0
23439,-100,4,1,0,30,0,0
23617,-100,4,1,0,75,0,0
23974,-100,4,1,0,75,0,0
23974,-100,4,1,0,30,0,0
24153,-100,4,1,0,50,0,0
24510,-100,4,1,0,75,0,0
24867,-100,4,1,0,30,0,0
25849,-100,4,1,0,75,0,0
26296,-100,4,1,0,30,0,0
26474,-100,4,1,0,15,0,0
26653,-100,4,1,0,75,0,0
27010,-100,4,1,0,15,0,0
27724,-100,4,1,0,30,0,0
28707,-100,4,1,0,75,0,0
29332,-100,4,1,0,50,0,0
30582,-100,4,1,0,30,0,0
31564,-100,4,1,0,75,0,0
32010,-100,4,1,0,30,0,0
33082,-100,4,1,0,50,0,0
33617,-100,4,1,0,75,0,0
33796,-100,4,1,0,50,0,0
33974,-100,4,1,0,75,0,0
34153,-100,4,1,0,50,0,0
34421,-100,4,1,0,75,0,0
34689,-100,4,1,0,60,0,0
34867,-100,4,1,0,50,0,0
35046,-100,4,1,0,40,0,0
35224,-100,4,1,0,30,0,0
35403,-100,4,1,0,20,0,0
35582,-100,4,1,0,15,0,0
35760,-100,4,1,0,10,0,0
35939,-100,4,1,0,15,0,0
36296,-100,4,1,0,50,0,0
36296,-100,4,1,0,20,0,0
41653,-100,4,1,0,40,0,0
47367,-100,4,1,0,40,0,0
47546,-100,4,1,0,20,0,0
53082,-100,4,1,0,40,0,0
53260,-100,4,1,0,20,0,0
58796,-100,4,1,0,50,0,0
58974,-100,4,1,0,20,0,0
60582,-100,4,1,0,40,0,0
60939,-100,4,1,0,20,0,0
61117,-100,4,1,0,40,0,0
61296,-100,4,1,0,20,0,0
61653,-100,4,1,0,40,0,0
62010,-100,4,1,0,20,0,0
63439,-100,4,1,0,40,0,0
63796,-100,4,1,0,20,0,0
63974,-100,4,1,0,40,0,0
64153,-100,4,1,0,20,0,0
64510,-100,4,1,0,20,0,0
64510,-100,4,1,0,40,0,0
65046,-100,4,1,0,15,0,0
66296,-100,4,1,0,40,0,0
66653,-100,4,1,0,20,0,0
66832,-100,4,1,0,40,0,0
67010,-100,4,1,0,20,0,0
67367,-100,4,1,0,40,0,0
67724,-100,4,1,0,20,0,0
69153,-100,4,1,0,40,0,0
69510,-100,4,1,0,20,0,0
69867,-100,4,1,0,40,0,0
70403,-100,4,1,0,20,0,0
72010,-100,4,1,0,40,0,0
73260,-100,4,1,0,20,0,0
74867,-100,4,1,0,40,0,0
75224,-100,4,1,0,20,0,0
75403,-100,4,1,0,40,0,0
75760,-100,4,1,0,20,0,0
75939,-100,4,1,0,40,0,0
76117,-100,4,1,0,20,0,0
77724,-100,4,1,0,40,0,0
79153,-100,4,1,0,20,0,0
79867,-100,4,1,0,15,0,0
80403,-100,4,1,0,40,0,0
81653,-100,4,1,0,75,0,0
82010,-100,4,1,0,30,0,0
83082,-100,4,1,0,75,0,0
83439,-100,4,1,0,50,0,0
84332,-100,4,1,0,75,0,0
85046,-100,4,1,0,30,0,0
85403,-100,4,1,0,75,0,0
85582,-100,4,1,0,30,0,0
85760,-100,4,1,0,75,0,0
85939,-100,4,1,0,30,0,0
86653,-100,4,1,0,75,0,0
88260,-100,4,1,0,50,0,0
88796,-100,4,1,0,75,0,0
89153,-100,4,1,0,15,0,0
89332,-100,4,1,0,75,0,0
89689,-100,4,1,0,50,0,0
89867,-100,4,1,0,30,0,0
90046,-100,4,1,0,15,0,0
90224,-100,4,1,0,50,0,0
90582,-100,4,1,0,15,0,0
90849,-100,4,1,0,75,0,0
91296,-100,4,1,0,15,0,0
91474,-100,4,1,0,75,0,0
92189,-100,4,1,0,15,0,0
92367,-100,4,1,0,50,0,0
92903,-100,4,1,0,15,0,0
93082,-100,4,1,0,75,0,0
93439,-100,4,1,0,20,0,0
94510,-100,4,1,0,60,0,0
94689,-100,4,1,0,30,0,0
95939,-100,4,1,0,60,0,0
96117,-100,4,1,0,40,0,0
97367,-100,4,1,0,60,0,0
97546,-100,4,1,0,50,0,0
98617,-100,4,1,0,60,0,0
98885,-100,4,1,0,20,0,0
100224,-100,4,1,0,60,0,0
100224,-100,4,1,0,30,0,0
100314,-100,4,1,0,40,0,0
101653,-100,4,1,0,60,0,0
101742,-100,4,1,0,50,0,0
103082,-100,4,1,0,60,0,0
103796,-100,4,1,0,65,0,0
104510,-100,4,1,0,75,0,0
104867,-100,4,1,0,15,0,0
105224,-100,4,1,0,75,0,0
110582,-100,4,1,0,15,0,0
111653,-100,4,1,0,40,0,0
112010,-100,4,1,0,15,0,0
112189,-100,4,1,0,40,0,0
112367,-100,4,1,0,15,0,0
112724,-100,4,1,0,40,0,0
113439,-100,4,1,0,15,0,0
114510,-100,4,1,0,40,0,0
114867,-100,4,1,0,15,0,0
115046,-100,4,1,0,50,0,0
115224,-100,4,1,0,15,0,0
115582,-100,4,1,0,40,0,0
115939,-100,4,1,0,60,0,0
116296,-100,4,1,0,15,0,0
117367,-100,4,1,0,40,0,0
117724,-100,4,1,0,15,0,0
117903,-100,4,1,0,40,0,0
118082,-100,4,1,0,15,0,0
118439,-100,4,1,0,40,0,0
119153,-100,4,1,0,15,0,0
120224,-100,4,1,0,75,0,0
121117,-100,4,1,0,60,0,0
121296,-100,4,1,0,40,0,0
121474,-100,4,1,0,20,0,0
121653,-100,4,1,0,40,0,0
122010,-100,4,1,0,20,0,0
123082,-100,4,1,0,40,0,0
123260,-100,4,1,0,20,0,0
123617,-100,4,1,0,40,0,0
123796,-100,4,1,0,20,0,0
124153,-100,4,1,0,40,0,0
124332,-100,4,1,0,40,0,0
124510,-100,4,1,0,60,0,0
124689,-100,4,1,0,30,0,0
125939,-100,4,1,0,60,0,0
126117,-100,4,1,0,40,0,0
127367,-100,4,1,0,60,0,0
127457,-100,4,1,0,40,0,0
128796,-100,4,1,0,50,0,0
129867,-100,4,1,0,60,0,0
130224,-100,4,1,0,75,0,0
130760,-100,4,1,0,50,0,0
132367,-100,4,1,0,75,0,0
133082,-100,4,1,0,75,0,1
155939,-100,4,1,0,40,0,0
158617,-100,4,1,0,60,0,0
160939,-100,4,1,0,75,0,0
161653,-100,4,1,0,50,0,0
162010,-100,4,1,0,20,0,0
163439,-100,4,1,0,40,0,0
163796,-100,4,1,0,20,0,0
163974,-100,4,1,0,40,0,0
164153,-100,4,1,0,20,0,0
164510,-100,4,1,0,40,0,0
164867,-100,4,1,0,20,0,0
166296,-100,4,1,0,40,0,0
166653,-100,4,1,0,20,0,0
166832,-100,4,1,0,40,0,0
167010,-100,4,1,0,20,0,0
167367,-100,4,1,0,40,0,0
167724,-100,4,1,0,20,0,0
167903,-100,4,1,0,15,0,0
168260,-100,4,1,0,20,0,0
169153,-100,4,1,0,40,0,0
169510,-100,4,1,0,20,0,0
169689,-100,4,1,0,40,0,0
169867,-100,4,1,0,20,0,0
170224,-100,4,1,0,40,0,0
170582,-100,4,1,0,20,0,0
172010,-100,4,1,0,40,0,0
172367,-100,4,1,0,20,0,0
172546,-100,4,1,0,40,0,0
172724,-100,4,1,0,40,0,0
172724,-100,4,1,0,20,0,0
173082,-100,4,1,0,40,0,0
173439,-100,4,1,0,20,0,0
174867,-100,4,1,0,40,0,0
175224,-100,4,1,0,20,0,0
175403,-100,4,1,0,40,0,0
175582,-100,4,1,0,20,0,0
175939,-100,4,1,0,40,0,0
176296,-100,4,1,0,20,0,0
177724,-100,4,1,0,40,0,0
177992,-100,4,1,0,20,0,0
178260,-100,4,1,0,40,0,0
178439,-100,4,1,0,20,0,0
178796,-100,4,1,0,40,0,0
179153,-100,4,1,0,20,0,0
180582,-100,4,1,0,40,0,0
180939,-100,4,1,0,20,0,0
181117,-100,4,1,0,40,0,0
181296,-100,4,1,0,20,0,0
181653,-100,4,1,0,40,0,0
182010,-100,4,1,0,20,0,0
183082,-100,4,1,0,75,0,0
184332,-100,4,1,0,50,0,0
184510,-100,4,1,0,75,0,0
184867,-100,4,1,0,15,0,0
185939,-100,4,1,0,40,0,0
186296,-100,4,1,0,20,0,0
186474,-100,4,1,0,40,0,0
186832,-100,4,1,0,20,0,0
187010,-100,4,1,0,40,0,0
187724,-100,4,1,0,20,0,0
188796,-100,4,1,0,40,0,0
189153,-100,4,1,0,20,0,0
189332,-100,4,1,0,40,0,0
189689,-100,4,1,0,20,0,0
189867,-100,4,1,0,40,0,0
190582,-100,4,1,0,20,0,0
191653,-100,4,1,0,40,0,0
192010,-100,4,1,0,20,0,0
192189,-100,4,1,0,40,0,0
192546,-100,4,1,0,20,0,0
192724,-100,4,1,0,40,0,0
193439,-100,4,1,0,20,0,0
194510,-100,4,1,0,40,0,0
194689,-100,4,1,0,60,0,0
194867,-100,4,1,0,50,0,0
195046,-100,4,1,0,40,0,0
195224,-100,4,1,0,30,0,0
195403,-100,4,1,0,60,0,0
195582,-100,4,1,0,50,0,0
195760,-100,4,1,0,40,0,0
195939,-100,4,1,0,60,0,0
196117,-100,4,1,0,15,0,0
197367,-100,4,1,0,60,0,0
197546,-100,4,1,0,20,0,0
198796,-100,4,1,0,60,0,0
198974,-100,4,1,0,30,0,0
200224,-100,4,1,0,60,0,0
200403,-100,4,1,0,40,0,0
200760,-100,4,1,0,60,0,0
200939,-100,4,1,0,40,0,0
201296,-100,4,1,0,60,0,0
201474,-100,4,1,0,40,0,0
201653,-100,4,1,0,60,0,0
201742,-100,4,1,0,30,0,0
203082,-100,4,1,0,40,0,0
204510,-100,4,1,0,50,0,0
206653,-100,4,1,0,75,0,0
207367,-100,4,1,0,75,0,1
229510,-100,4,1,0,60,0,1
229689,-100,4,1,0,50,0,1
229867,-100,4,1,0,75,0,1
230046,-100,4,1,0,50,0,1
230224,-100,4,1,0,40,0,0
230224,-100,4,1,0,75,0,0
230760,-100,4,1,0,60,0,0
235046,-100,4,1,0,75,0,0
235224,-100,4,1,0,60,0,0
238260,-100,4,1,0,40,0,0
238796,-100,4,1,0,60,0,0
239153,-100,4,1,0,40,0,0
239332,-100,4,1,0,60,0,0
240582,-100,4,1,0,40,0,0
241653,-100,4,1,0,60,0,0
242367,-100,4,1,0,30,0,0
242992,-100,4,1,0,60,0,0
243260,-100,4,1,0,30,0,0
245760,-100,4,1,0,60,0,0
246117,-100,4,1,0,30,0,0
247903,-100,4,1,0,75,0,0
248260,-100,4,1,0,30,0,0
248320,-100,4,1,0,75,0,0
248439,-100,4,1,0,30,0,0
249064,-100,4,1,0,75,0,0
249332,-100,4,1,0,30,0,0
249629,-100,4,1,0,60,0,0
249748,-100,4,1,0,50,0,0
249867,-100,4,1,0,40,0,0
249986,-100,4,1,0,60,0,0
250105,-100,4,1,0,50,0,0
250224,-100,4,1,0,30,0,0
251653,-100,4,1,0,40,0,0
251653,-100,4,1,0,15,0,0
253082,-100,4,1,0,30,0,0
258796,-100,4,1,0,50,0,0
258885,-100,4,1,0,30,0,0
264510,-100,4,1,0,50,0,0
264599,-100,4,1,0,30,0,0
270224,-100,4,1,0,50,0,0
270314,-100,4,1,0,30,0,0
274153,-100,4,1,0,15,0,0
275939,-100,4,1,0,50,0,0
276028,-100,4,1,0,30,0,0
278796,-100,4,1,0,50,0,0
278885,-100,4,1,0,30,0,0
281653,-100,4,1,0,60,0,0
281832,-100,4,1,0,40,0,0
283082,-100,4,1,0,60,0,0
283260,-100,4,1,0,50,0,0
284510,-100,4,1,0,75,0,0
284867,-100,4,1,0,50,0,0
286653,-100,4,1,0,75,0,1
310224,-100,4,1,0,75,0,0
310760,-100,4,1,0,50,0,0
312903,-100,4,1,0,75,0,0
315939,-100,4,1,0,60,0,0
316296,-100,4,1,0,40,0,0
318796,-100,4,1,0,50,0,0
320224,-100,4,1,0,75,0,0
321653,-100,4,1,0,60,0,0
321832,-100,4,1,0,40,0,0
324510,-100,4,1,0,50,0,0
325939,-100,4,1,0,75,0,0
327367,-100,4,1,0,75,0,0
327546,-100,4,1,0,50,0,0
330224,-100,4,1,0,60,0,0
331653,-100,4,1,0,75,0,0

[HitObjects]
320,192,1653,5,2,0:0:0:0:
64,192,1832,1,0,0:0:0:0:
192,192,2010,1,0,0:0:0:0:
448,192,2189,1,0,0:0:0:0:
192,192,2367,1,2,0:0:0:0:
64,192,2546,1,0,0:0:0:0:
320,192,2724,1,0,0:0:0:0:
448,192,2903,1,0,0:0:0:0:
192,192,3082,1,2,0:0:0:0:
320,192,3260,1,0,0:0:0:0:
64,192,3439,1,0,0:0:0:0:
448,192,3617,1,0,0:0:0:0:
320,192,3796,1,2,0:0:0:0:
64,192,3974,1,0,0:0:0:0:
192,192,4153,1,0,0:0:0:0:
448,192,4332,1,0,0:0:0:0:
192,192,4510,1,2,0:0:0:0:
320,192,4689,1,0,0:0:0:0:
64,192,4867,1,0,0:0:0:0:
448,192,5046,1,0,0:0:0:0:
192,192,5224,1,2,0:0:0:0:
64,192,5403,1,0,0:0:0:0:
320,192,5582,1,0,0:0:0:0:
192,192,5760,1,0,0:0:0:0:
448,192,5939,1,2,0:0:0:0:
320,192,6117,1,0,0:0:0:0:
64,192,6296,1,0,0:0:0:0:
192,192,6474,1,0,0:0:0:0:
448,192,6653,1,2,0:0:0:0:
192,192,6832,1,0,0:0:0:0:
320,192,7010,1,0,0:0:0:0:
64,192,7189,1,0,0:0:0:0:
448,192,7367,1,2,0:0:0:0:
320,192,7546,1,0,0:0:0:0:
64,192,7724,1,0,0:0:0:0:
192,192,7903,1,0,0:0:0:0:
448,192,8082,1,2,0:0:0:0:
192,192,8260,1,0,0:0:0:0:
64,192,8439,1,0,0:0:0:0:
320,192,8617,1,0,0:0:0:0:
192,192,8796,1,2,0:0:0:0:
448,192,8974,1,0,0:0:0:0:
64,192,9153,1,0,0:0:0:0:
192,192,9332,1,0,0:0:0:0:
448,192,9510,1,2,0:0:0:0:
320,192,9689,1,0,0:0:0:0:
64,192,9867,1,0,0:0:0:0:
448,192,10046,1,0,0:0:0:0:
192,192,10224,128,2,13081:0:0:0:0:
320,192,10224,128,2,13082:0:0:0:0:
448,192,13082,1,0,0:0:0:0:
64,192,13082,1,0,0:0:0:0:
448,192,13439,1,0,0:0:0:0:
192,192,13439,1,0,0:0:0:0:
320,192,13796,1,0,0:0:0:0:
64,192,13796,1,0,0:0:0:0:
448,192,14153,1,0,0:0:0:0:
192,192,14153,1,0,0:0:0:0:
320,192,14421,1,0,0:0:0:0:
192,192,14421,1,0,0:0:0:0:
64,192,14510,1,8,0:0:0:0:
448,192,14510,1,8,0:0:0:0:
320,192,14867,1,0,0:0:0:0:
448,192,14867,1,0,0:0:0:0:
192,192,15224,1,0,0:0:0:0:
320,192,15224,1,0,0:0:0:0:
64,192,15582,1,0,0:0:0:0:
192,192,15582,1,0,0:0:0:0:
320,192,15939,1,0,0:0:0:0:
64,192,15939,1,0,0:0:0:0:
320,192,16296,1,0,0:0:0:0:
192,192,16296,1,0,0:0:0:0:
448,192,16653,1,0,0:0:0:0:
192,192,16653,1,0,0:0:0:0:
320,192,17010,1,0,0:0:0:0:
448,192,17010,1,0,0:0:0:0:
448,192,17278,1,0,0:0:0:0:
320,192,17278,1,0,0:0:0:0:
192,192,17367,1,8,0:0:0:0:
64,192,17367,1,8,0:0:0:0:
192,192,17724,1,0,0:0:0:0:
64,192,17724,1,0,0:0:0:0:
448,192,18082,1,0,0:0:0:0:
320,192,18082,1,0,0:0:0:0:
192,192,18439,1,0,0:0:0:0:
64,192,18439,1,0,0:0:0:0:
448,192,18796,1,0,0:0:0:0:
64,192,18796,1,0,0:0:0:0:
448,192,19153,1,0,0:0:0:0:
192,192,19153,1,0,0:0:0:0:
448,192,19510,1,0,0:0:0:0:
320,192,19510,1,0,0:0:0:0:
448,192,19867,1,0,0:0:0:0:
192,192,19867,1,0,0:0:0:0:
320,192,20135,1,0,0:0:0:0:
192,192,20135,1,0,0:0:0:0:
448,192,20224,1,8,0:0:0:0:
64,192,20224,1,8,0:0:0:0:
320,192,20582,1,0,0:0:0:0:
64,192,20582,1,0,0:0:0:0:
192,192,20939,1,0,0:0:0:0:
64,192,20939,1,0,0:0:0:0:
192,192,21296,1,0,0:0:0:0:
320,192,21296,1,0,0:0:0:0:
448,192,21653,1,0,0:0:0:0:
320,192,21653,1,0,0:0:0:0:
192,192,22010,1,0,0:0:0:0:
64,192,22010,1,0,0:0:0:0:
448,192,22367,1,0,0:0:0:0:
192,192,22367,1,0,0:0:0:0:
320,192,22724,1,0,0:0:0:0:
64,192,22724,1,0,0:0:0:0:
192,192,22992,1,0,0:0:0:0:
64,192,22992,1,0,0:0:0:0:
448,192,23081,1,8,0:0:0:0:
320,192,23082,1,8,0:0:0:0:
64,192,23438,1,0,0:0:0:0:
192,192,23438,1,0,0:0:0:0:
448,192,23617,1,0,0:0:0:0:
320,192,23676,1,0,0:0:0:0:
192,192,23736,1,0,0:0:0:0:
64,192,23796,1,0,0:0:0:0:
192,192,23885,1,0,0:0:0:0:
320,192,23974,1,0,0:0:0:0:
192,192,24063,1,0,0:0:0:0:
64,192,24152,1,0,0:0:0:0:
192,192,24242,1,0,0:0:0:0:
320,192,24331,1,0,0:0:0:0:
192,192,24420,1,0,0:0:0:0:
64,192,24510,1,2,0:0:0:0:
448,192,24510,128,2,25939:0:0:0:0:
64,192,24867,1,0,0:0:0:0:
320,192,25224,1,0,0:0:0:0:
64,192,25582,1,0,0:0:0:0:
192,192,25849,1,0,0:0:0:0:
320,192,25939,1,8,0:0:0:0:
64,192,25939,128,8,26474:0:0:0:0:
320,192,26296,1,0,0:0:0:0:
192,192,26474,128,0,27010:0:0:0:0:
448,192,26653,1,0,0:0:0:0:
320,192,27010,128,0,27367:0:0:0:0:
448,192,27367,128,0,28796:0:0:0:0:
192,192,27724,1,0,0:0:0:0:
320,192,28082,1,0,0:0:0:0:
64,192,28439,1,0,0:0:0:0:
64,192,28707,1,0,0:0:0:0:
192,192,28796,1,8,0:0:0:0:
320,192,28796,128,8,29332:0:0:0:0:
448,192,29153,1,0,0:0:0:0:
192,192,29332,1,0,0:0:0:0:
64,192,29510,1,0,0:0:0:0:
192,192,29599,1,0,0:0:0:0:
320,192,29689,1,0,0:0:0:0:
448,192,29778,1,0,0:0:0:0:
64,192,29867,1,0,0:0:0:0:
192,192,29957,1,0,0:0:0:0:
320,192,30046,1,0,0:0:0:0:
448,192,30135,1,0,0:0:0:0:
64,192,30224,128,0,32010:0:0:0:0:
320,192,30582,1,0,0:0:0:0:
192,192,30939,1,0,0:0:0:0:
320,192,31296,1,0,0:0:0:0:
448,192,31564,1,0,0:0:0:0:
320,192,31653,1,8,0:0:0:0:
192,192,31653,1,8,0:0:0:0:
192,192,32010,128,0,32367:0:0:0:0:
320,192,32367,128,0,32724:0:0:0:0:
192,192,32724,128,0,33082:0:0:0:0:
448,192,33082,128,0,34510:0:0:0:0:
320,192,33439,1,0,0:0:0:0:
192,192,33617,1,8,0:0:0:0:
64,192,33617,1,8,0:0:0:0:
320,192,33796,1,0,0:0:0:0:
192,192,33974,1,8,0:0:0:0:
64,192,33974,1,8,0:0:0:0:
320,192,34153,1,0,0:0:0:0:
320,192,34421,1,0,0:0:0:0:
192,192,34510,1,0,0:0:0:0:
320,192,34689,1,0,0:0:0:0:
448,192,34867,1,0,0:0:0:0:
320,192,35046,1,0,0:0:0:0:
192,192,35224,1,0,0:0:0:0:
320,192,35403,1,0,0:0:0:0:
192,192,35582,1,0,0:0:0:0:
64,192,35760,1,0,0:0:0:0:
320,192,35939,128,0,36832:0:0:0:0:
64,192,36474,1,0,0:0:0:0:
192,192,36653,1,0,0:0:0:0:
64,192,37010,1,0,0:0:0:0:
64,192,37189,1,0,0:0:0:0:
192,192,37367,1,0,0:0:0:0:
448,192,37546,1,0,0:0:0:0:
320,192,37724,1,0,0:0:0:0:
448,192,38082,1,0,0:0:0:0:
192,192,38260,1,0,0:0:0:0:
64,192,38439,1,0,0:0:0:0:
192,192,38617,1,0,0:0:0:0:
320,192,38796,128,0,39332:0:0:0:0:
64,192,38974,1,0,0:0:0:0:
64,192,39152,1,0,0:0:0:0:
448,192,39332,128,0,39867:0:0:0:0:
192,192,39510,1,0,0:0:0:0:
192,192,39867,1,0,0:0:0:0:
192,192,40045,1,0,0:0:0:0:
64,192,40224,1,0,0:0:0:0:
192,192,40403,1,0,0:0:0:0:
64,192,40582,1,0,0:0:0:0:
320,192,40939,1,0,0:0:0:0:
448,192,41117,1,0,0:0:0:0:
448,192,41296,1,0,0:0:0:0:
320,192,41474,1,0,0:0:0:0:
448,192,41653,1,0,0:0:0:0:
64,192,41653,1,0,0:0:0:0:
320,192,41832,1,0,0:0:0:0:
192,192,42189,1,0,0:0:0:0:
448,192,42367,1,0,0:0:0:0:
320,192,42724,1,0,0:0:0:0:
448,192,42903,1,0,0:0:0:0:
192,192,43082,1,0,0:0:0:0:
448,192,43260,1,0,0:0:0:0:
64,192,43439,1,0,0:0:0:0:
64,192,43796,1,0,0:0:0:0:
192,192,43974,1,0,0:0:0:0:
448,192,44153,1,0,0:0:0:0:
320,192,44332,1,0,0:0:0:0:
192,192,44510,128,0,45224:0:0:0:0:
64,192,44689,1,0,0:0:0:0:
64,192,44867,1,0,0:0:0:0:
448,192,45046,1,0,0:0:0:0:
320,192,45224,128,0,45582:0:0:0:0:
448,192,45582,128,0,46296:0:0:0:0:
192,192,45760,1,0,0:0:0:0:
64,192,45939,1,0,0:0:0:0:
192,192,46117,1,0,0:0:0:0:
64,192,46296,128,0,47010:0:0:0:0:
192,192,46653,1,0,0:0:0:0:
192,192,46832,1,0,0:0:0:0:
320,192,47010,128,0,47367:0:0:0:0:
192,192,47189,1,0,0:0:0:0:
192,192,47367,1,4,0:0:0:0:
448,192,47367,1,4,0:0:0:0:
64,192,47546,1,0,0:0:0:0:
320,192,47903,1,0,0:0:0:0:
448,192,48082,1,0,0:0:0:0:
320,192,48439,1,0,0:0:0:0:
192,192,48617,1,0,0:0:0:0:
320,192,48796,1,0,0:0:0:0:
448,192,48974,1,0,0:0:0:0:
192,192,49153,1,0,0:0:0:0:
320,192,49510,1,0,0:0:0:0:
192,192,49689,1,0,0:0:0:0:
320,192,50046,1,0,0:0:0:0:
64,192,50224,1,0,0:0:0:0:
192,192,50403,1,0,0:0:0:0:
64,192,50760,1,0,0:0:0:0:
320,192,50939,1,0,0:0:0:0:
192,192,51296,1,0,0:0:0:0:
448,192,51474,1,0,0:0:0:0:
320,192,51653,1,0,0:0:0:0:
448,192,51832,1,0,0:0:0:0:
192,192,52010,1,0,0:0:0:0:
64,192,52367,1,0,0:0:0:0:
448,192,52546,1,0,0:0:0:0:
192,192,52903,1,0,0:0:0:0:
64,192,53082,128,4,53439:0:0:0:0:
320,192,53082,1,4,0:0:0:0:
448,192,53260,1,0,0:0:0:0:
192,192,53439,1,0,0:0:0:0:
448,192,53617,1,0,0:0:0:0:
320,192,53617,128,0,55581:0:0:0:0:
192,192,53795,1,0,0:0:0:0:
192,192,54153,1,0,0:0:0:0:
64,192,54331,1,0,0:0:0:0:
448,192,54510,1,0,0:0:0:0:
192,192,54689,1,0,0:0:0:0:
448,192,54867,1,0,0:0:0:0:
448,192,55224,1,0,0:0:0:0:
64,192,55402,1,0,0:0:0:0:
64,192,55760,1,0,0:0:0:0:
192,192,55939,1,0,0:0:0:0:
320,192,56117,1,0,0:0:0:0:
64,192,56474,1,0,0:0:0:0:
320,192,56653,1,0,0:0:0:0:
64,192,57010,1,0,0:0:0:0:
448,192,57189,1,0,0:0:0:0:
320,192,57367,128,0,58796:0:0:0:0:
64,192,58796,1,4,0:0:0:0:
192,192,58796,1,4,0:0:0:0:
320,192,58974,1,0,0:0:0:0:
192,192,59332,1,0,0:0:0:0:
448,192,59510,1,0,0:0:0:0:
192,192,59867,1,0,0:0:0:0:
448,192,60046,1,0,0:0:0:0:
192,192,60224,1,0,0:0:0:0:
448,192,60403,1,0,0:0:0:0:
64,192,60582,1,0,0:0:0:0:
448,192,60939,1,0,0:0:0:0:
64,192,61117,1,0,0:0:0:0:
320,192,61296,1,0,0:0:0:0:
192,192,61474,1,0,0:0:0:0:
64,192,61653,1,4,0:0:0:0:
448,192,61653,128,4,62189:0:0:0:0:
64,192,62010,1,0,0:0:0:0:
320,192,62189,1,0,0:0:0:0:
192,192,62278,1,0,0:0:0:0:
64,192,62367,1,0,0:0:0:0:
192,192,62546,1,0,0:0:0:0:
320,192,62724,1,0,0:0:0:0:
448,192,62903,1,0,0:0:0:0:
320,192,63082,1,0,0:0:0:0:
192,192,63082,1,0,0:0:0:0:
64,192,63439,1,0,0:0:0:0:
448,192,63796,1,0,0:0:0:0:
64,192,63974,1,0,0:0:0:0:
448,192,64153,1,0,0:0:0:0:
320,192,64332,1,0,0:0:0:0:
192,192,64510,128,4,65046:0:0:0:0:
64,192,64510,1,4,0:0:0:0:
448,192,65046,128,0,65939:0:0:0:0:
64,192,65224,1,0,0:0:0:0:
192,192,65582,1,0,0:0:0:0:
64,192,65760,1,0,0:0:0:0:
192,192,65849,1,0,0:0:0:0:
320,192,65939,1,0,0:0:0:0:
64,192,66296,1,0,0:0:0:0:
448,192,66653,1,0,0:0:0:0:
192,192,66832,1,0,0:0:0:0:
64,192,67010,1,0,0:0:0:0:
192,192,67189,1,0,0:0:0:0:
64,192,67367,1,4,0:0:0:0:
448,192,67367,1,4,0:0:0:0:
192,192,67724,1,0,0:0:0:0:
320,192,68082,1,0,0:0:0:0:
192,192,68439,1,0,0:0:0:0:
320,192,68796,1,0,0:0:0:0:
64,192,69153,1,0,0:0:0:0:
192,192,69153,1,0,0:0:0:0:
448,192,69510,1,0,0:0:0:0:
192,192,69689,1,0,0:0:0:0:
64,192,69867,1,0,0:0:0:0:
448,192,70224,1,4,0:0:0:0:
320,192,70224,1,4,0:0:0:0:
192,192,70403,1,0,0:0:0:0:
64,192,70582,1,0,0:0:0:0:
320,192,70760,1,0,0:0:0:0:
192,192,70849,1,0,0:0:0:0:
64,192,70939,1,0,0:0:0:0:
448,192,71117,1,0,0:0:0:0:
192,192,71296,1,0,0:0:0:0:
448,192,71474,1,0,0:0:0:0:
192,192,71653,1,0,0:0:0:0:
64,192,71653,1,0,0:0:0:0:
64,192,72010,1,0,0:0:0:0:
320,192,72367,1,0,0:0:0:0:
64,192,72546,1,0,0:0:0:0:
448,192,72903,1,0,0:0:0:0:
320,192,72992,1,0,0:0:0:0:
192,192,73082,1,4,0:0:0:0:
320,192,73260,1,0,0:0:0:0:
320,192,73617,1,0,0:0:0:0:
192,192,73796,1,0,0:0:0:0:
448,192,74153,1,0,0:0:0:0:
192,192,74332,1,0,0:0:0:0:
320,192,74510,1,0,0:0:0:0:
448,192,74689,1,0,0:0:0:0:
64,192,74867,1,0,0:0:0:0:
448,192,75224,1,0,0:0:0:0:
64,192,75403,1,0,0:0:0:0:
448,192,75760,1,0,0:0:0:0:
320,192,75849,1,0,0:0:0:0:
192,192,75939,1,4,0:0:0:0:
448,192,76117,1,0,0:0:0:0:
64,192,76474,1,0,0:0:0:0:
448,192,76653,128,0,78617:0:0:0:0:
320,192,76832,1,0,0:0:0:0:
192,192,77010,1,0,0:0:0:0:
320,192,77189,1,0,0:0:0:0:
192,192,77367,1,0,0:0:0:0:
64,192,77367,1,0,0:0:0:0:
64,192,77724,1,0,0:0:0:0:
320,192,78082,1,0,0:0:0:0:
64,192,78260,1,0,0:0:0:0:
64,192,78795,1,4,0:0:0:0:
192,192,78796,1,4,0:0:0:0:
448,192,79153,1,0,0:0:0:0:
320,192,79510,1,0,0:0:0:0:
192,192,79867,1,0,0:0:0:0:
448,192,80046,1,0,0:0:0:0:
320,192,80135,1,0,0:0:0:0:
192,192,80224,1,0,0:0:0:0:
64,192,80224,1,0,0:0:0:0:
320,192,80403,1,0,0:0:0:0:
64,192,80760,1,0,0:0:0:0:
320,192,81117,1,0,0:0:0:0:
192,192,81296,1,0,0:0:0:0:
448,192,81474,1,0,0:0:0:0:
64,192,81652,1,4,0:0:0:0:
320,192,81653,1,4,0:0:0:0:
192,192,82010,1,0,0:0:0:0:
320,192,82367,1,0,0:0:0:0:
192,192,82724,1,0,0:0:0:0:
64,192,83081,1,8,0:0:0:0:
448,192,83082,1,8,0:0:0:0:
320,192,83439,1,0,0:0:0:0:
192,192,83707,1,0,0:0:0:0:
320,192,83796,1,0,0:0:0:0:
320,192,83974,128,0,84242:0:0:0:0:
448,192,84332,1,0,0:0:0:0:
192,192,84332,1,0,0:0:0:0:
320,192,84510,1,0,0:0:0:0:
64,192,84510,1,0,0:0:0:0:
192,192,84689,1,8,0:0:0:0:
64,192,84689,1,8,0:0:0:0:
320,192,85046,1,0,0:0:0:0:
320,192,85403,1,0,0:0:0:0:
64,192,85403,1,0,0:0:0:0:
192,192,85582,1,0,0:0:0:0:
448,192,85760,1,0,0:0:0:0:
64,192,85760,1,0,0:0:0:0:
320,192,85939,1,0,0:0:0:0:
192,192,86117,1,0,0:0:0:0:
64,192,86296,1,0,0:0:0:0:
320,192,86474,1,0,0:0:0:0:
448,192,86652,1,8,0:0:0:0:
64,192,86653,128,8,87367:0:0:0:0:
192,192,87367,128,4,88796:0:0:0:0:
320,192,87367,128,4,88796:0:0:0:0:
448,192,88260,1,0,0:0:0:0:
64,192,88439,1,0,0:0:0:0:
64,192,88796,1,8,0:0:0:0:
448,192,88796,1,8,0:0:0:0:
448,192,89153,1,0,0:0:0:0:
64,192,89332,1,0,0:0:0:0:
192,192,89332,1,0,0:0:0:0:
320,192,89421,1,0,0:0:0:0:
448,192,89421,1,0,0:0:0:0:
192,192,89510,1,0,0:0:0:0:
64,192,89510,1,0,0:0:0:0:
320,192,89689,1,0,0:0:0:0:
192,192,89867,1,0,0:0:0:0:
64,192,90046,1,0,0:0:0:0:
64,192,90224,1,0,0:0:0:0:
64,192,90582,1,0,0:0:0:0:
192,192,90760,1,0,0:0:0:0:
320,192,90820,1,0,0:0:0:0:
448,192,90879,1,8,0:0:0:0:
64,192,90939,1,0,0:0:0:0:
192,192,90939,1,0,0:0:0:0:
64,192,91117,1,0,0:0:0:0:
192,192,91117,1,0,0:0:0:0:
448,192,91296,1,0,0:0:0:0:
320,192,91474,1,8,0:0:0:0:
64,192,91474,1,8,0:0:0:0:
448,192,91832,1,0,0:0:0:0:
192,192,91832,1,0,0:0:0:0:
320,192,92189,1,0,0:0:0:0:
64,192,92367,1,0,0:0:0:0:
448,192,92427,1,0,0:0:0:0:
192,192,92486,1,0,0:0:0:0:
320,192,92605,1,0,0:0:0:0:
448,192,92724,1,0,0:0:0:0:
192,192,92903,1,0,0:0:0:0:
320,192,93082,1,0,0:0:0:0:
64,192,93082,1,0,0:0:0:0:
320,192,93439,1,0,0:0:0:0:
320,192,93617,1,0,0:0:0:0:
320,192,93796,1,0,0:0:0:0:
320,192,93974,1,0,0:0:0:0:
320,192,94153,1,0,0:0:0:0:
320,192,94332,1,0,0:0:0:0:
192,192,94510,1,0,0:0:0:0:
448,192,94510,1,0,0:0:0:0:
64,192,94689,1,0,0:0:0:0:
64,192,94867,1,0,0:0:0:0:
64,192,95046,1,0,0:0:0:0:
64,192,95224,1,0,0:0:0:0:
64,192,95403,1,0,0:0:0:0:
64,192,95582,1,0,0:0:0:0:
64,192,95760,1,0,0:0:0:0:
192,192,95939,1,0,0:0:0:0:
320,192,95939,1,0,0:0:0:0:
448,192,96117,1,0,0:0:0:0:
448,192,96296,1,0,0:0:0:0:
448,192,96474,1,0,0:0:0:0:
448,192,96653,1,0,0:0:0:0:
448,192,96832,1,0,0:0:0:0:
448,192,97010,1,0,0:0:0:0:
448,192,97189,1,0,0:0:0:0:
64,192,97367,1,0,0:0:0:0:
320,192,97367,1,0,0:0:0:0:
192,192,97546,1,0,0:0:0:0:
192,192,97724,1,0,0:0:0:0:
192,192,97903,1,0,0:0:0:0:
192,192,98082,1,0,0:0:0:0:
192,192,98260,1,0,0:0:0:0:
192,192,98439,1,0,0:0:0:0:
64,192,98617,1,0,0:0:0:0:
448,192,98617,1,0,0:0:0:0:
448,192,98796,1,0,0:0:0:0:
64,192,98796,1,0,0:0:0:0:
192,192,98885,1,0,0:0:0:0:
320,192,98974,1,0,0:0:0:0:
448,192,99063,1,0,0:0:0:0:
64,192,99153,1,0,0:0:0:0:
192,192,99242,1,0,0:0:0:0:
320,192,99331,1,0,0:0:0:0:
448,192,99420,1,0,0:0:0:0:
320,192,99510,1,0,0:0:0:0:
192,192,99599,1,0,0:0:0:0:
64,192,99688,1,0,0:0:0:0:
448,192,99778,1,0,0:0:0:0:
320,192,99867,1,0,0:0:0:0:
192,192,99956,1,0,0:0:0:0:
64,192,100045,1,0,0:0:0:0:
448,192,100135,1,0,0:0:0:0:
320,192,100224,1,0,0:0:0:0:
64,192,100224,1,0,0:0:0:0:
192,192,100314,1,0,0:0:0:0:
64,192,100403,1,0,0:0:0:0:
192,192,100492,1,0,0:0:0:0:
320,192,100581,1,0,0:0:0:0:
448,192,100670,1,0,0:0:0:0:
64,192,100760,1,0,0:0:0:0:
192,192,100849,1,0,0:0:0:0:
320,192,100938,1,0,0:0:0:0:
448,192,101027,1,0,0:0:0:0:
320,192,101117,1,0,0:0:0:0:
192,192,101206,1,0,0:0:0:0:
64,192,101295,1,0,0:0:0:0:
448,192,101385,1,0,0:0:0:0:
320,192,101474,1,0,0:0:0:0:
192,192,101563,1,0,0:0:0:0:
448,192,101653,1,0,0:0:0:0:
64,192,101653,1,0,0:0:0:0:
320,192,101742,1,0,0:0:0:0:
64,192,101832,1,0,0:0:0:0:
192,192,101920,1,0,0:0:0:0:
448,192,102010,1,0,0:0:0:0:
320,192,102099,1,0,0:0:0:0:
64,192,102189,1,0,0:0:0:0:
192,192,102277,1,0,0:0:0:0:
448,192,102367,1,0,0:0:0:0:
320,192,102456,1,0,0:0:0:0:
192,192,102546,1,0,0:0:0:0:
64,192,102635,1,0,0:0:0:0:
320,192,102724,1,0,0:0:0:0:
448,192,102814,1,0,0:0:0:0:
192,192,102903,1,0,0:0:0:0:
64,192,102992,1,0,0:0:0:0:
448,192,103081,1,0,0:0:0:0:
320,192,103082,1,0,0:0:0:0:
192,192,103171,1,0,0:0:0:0:
64,192,103260,1,0,0:0:0:0:
192,192,103349,1,0,0:0:0:0:
320,192,103438,1,0,0:0:0:0:
448,192,103527,1,0,0:0:0:0:
64,192,103617,1,0,0:0:0:0:
448,192,103707,1,0,0:0:0:0:
320,192,103796,1,0,0:0:0:0:
192,192,103885,1,0,0:0:0:0:
64,192,103974,1,0,0:0:0:0:
448,192,104063,1,0,0:0:0:0:
64,192,104152,1,0,0:0:0:0:
192,192,104242,1,0,0:0:0:0:
320,192,104332,1,0,0:0:0:0:
448,192,104421,1,0,0:0:0:0:
64,192,104510,128,4,104867:0:0:0:0:
320,192,104510,128,4,104867:0:0:0:0:
192,192,104867,1,0,0:0:0:0:
448,192,105224,1,8,0:0:0:0:
192,192,105224,1,8,0:0:0:0:
64,192,105581,1,0,0:0:0:0:
192,192,105760,1,8,0:0:0:0:
320,192,105760,1,8,0:0:0:0:
448,192,105938,1,0,0:0:0:0:
320,192,106117,1,8,0:0:0:0:
192,192,106117,1,8,0:0:0:0:
192,192,106296,128,0,106653:0:0:0:0:
320,192,106296,128,0,106653:0:0:0:0:
64,192,106653,1,8,0:0:0:0:
448,192,106653,1,8,0:0:0:0:
448,192,107010,1,0,0:0:0:0:
320,192,107189,1,0,0:0:0:0:
448,192,107367,1,8,0:0:0:0:
192,192,107367,1,8,0:0:0:0:
320,192,107724,1,8,0:0:0:0:
64,192,107724,1,8,0:0:0:0:
192,192,107903,1,0,0:0:0:0:
320,192,108082,128,0,108439:0:0:0:0:
64,192,108082,128,0,108439:0:0:0:0:
448,192,108439,1,4,0:0:0:0:
320,192,108617,1,8,0:0:0:0:
64,192,108617,1,8,0:0:0:0:
448,192,109510,1,8,0:0:0:0:
192,192,109510,1,8,0:0:0:0:
64,192,109689,1,0,0:0:0:0:
320,192,109689,1,0,0:0:0:0:
448,192,110046,1,0,0:0:0:0:
64,192,110224,1,0,0:0:0:0:
192,192,110224,1,0,0:0:0:0:
192,192,110582,1,0,0:0:0:0:
64,192,110939,1,0,0:0:0:0:
320,192,111296,1,0,0:0:0:0:
448,192,111653,1,2,0:0:0:0:
192,192,111653,1,2,0:0:0:0:
64,192,112010,1,0,0:0:0:0:
320,192,112189,1,2,0:0:0:0:
192,192,112189,1,2,0:0:0:0:
64,192,112367,1,0,0:0:0:0:
320,192,112724,1,2,0:0:0:0:
64,192,112724,1,2,0:0:0:0:
192,192,113082,1,2,0:0:0:0:
64,192,113082,1,2,0:0:0:0:
320,192,113439,1,0,0:0:0:0:
448,192,113796,1,0,0:0:0:0:
192,192,114153,1,0,0:0:0:0:
448,192,114510,1,2,0:0:0:0:
192,192,114510,1,2,0:0:0:0:
320,192,114867,1,0,0:0:0:0:
448,192,115046,1,2,0:0:0:0:
192,192,115046,1,2,0:0:0:0:
320,192,115224,1,0,0:0:0:0:
320,192,115582,1,2,0:0:0:0:
192,192,115582,1,2,0:0:0:0:
320,192,115939,128,6,117367:0:0:0:0:
448,192,115939,128,6,117367:0:0:0:0:
192,192,116296,1,0,0:0:0:0:
64,192,116652,1,0,0:0:0:0:
192,192,117010,1,0,0:0:0:0:
192,192,117367,1,2,0:0:0:0:
64,192,117367,1,2,0:0:0:0:
64,192,117724,1,0,0:0:0:0:
320,192,117903,1,2,0:0:0:0:
448,192,117903,1,2,0:0:0:0:
64,192,118082,1,0,0:0:0:0:
320,192,118439,1,2,0:0:0:0:
448,192,118439,1,2,0:0:0:0:
192,192,118796,1,2,0:0:0:0:
64,192,118796,1,2,0:0:0:0:
320,192,119153,1,0,0:0:0:0:
448,192,119510,1,0,0:0:0:0:
320,192,119867,1,0,0:0:0:0:
64,192,120224,1,0,0:0:0:0:
320,192,120224,1,0,0:0:0:0:
192,192,120314,1,0,0:0:0:0:
320,192,120403,1,8,0:0:0:0:
448,192,120403,1,8,0:0:0:0:
448,192,120582,1,0,0:0:0:0:
320,192,120582,1,0,0:0:0:0:
192,192,120760,1,8,0:0:0:0:
64,192,120760,1,8,0:0:0:0:
320,192,121117,1,0,0:0:0:0:
192,192,121296,1,0,0:0:0:0:
64,192,121474,1,0,0:0:0:0:
192,192,121652,128,4,122010:0:0:0:0:
448,192,121653,128,4,122010:0:0:0:0:
320,192,122010,1,0,0:0:0:0:
64,192,122189,1,0,0:0:0:0:
192,192,122367,1,0,0:0:0:0:
448,192,122546,1,0,0:0:0:0:
320,192,122724,1,0,0:0:0:0:
64,192,122903,1,0,0:0:0:0:
448,192,123082,1,0,0:0:0:0:
64,192,123260,1,0,0:0:0:0:
448,192,123439,1,0,0:0:0:0:
192,192,123617,1,0,0:0:0:0:
448,192,123796,1,0,0:0:0:0:
64,192,123974,1,0,0:0:0:0:
320,192,124153,1,0,0:0:0:0:
192,192,124332,1,0,0:0:0:0:
448,192,124332,1,0,0:0:0:0:
192,192,124510,1,0,0:0:0:0:
448,192,124510,1,0,0:0:0:0:
320,192,124689,1,0,0:0:0:0:
320,192,124867,1,0,0:0:0:0:
64,192,125046,1,0,0:0:0:0:
192,192,125224,1,0,0:0:0:0:
64,192,125403,1,0,0:0:0:0:
448,192,125582,1,0,0:0:0:0:
320,192,125760,1,0,0:0:0:0:
448,192,125939,1,0,0:0:0:0:
192,192,125939,1,0,0:0:0:0:
64,192,126117,1,0,0:0:0:0:
192,192,126296,1,0,0:0:0:0:
64,192,126474,1,0,0:0:0:0:
320,192,126653,1,0,0:0:0:0:
192,192,126653,1,0,0:0:0:0:
64,192,126832,1,0,0:0:0:0:
192,192,126832,1,0,0:0:0:0:
448,192,127010,1,0,0:0:0:0:
320,192,127010,1,0,0:0:0:0:
320,192,127189,1,0,0:0:0:0:
448,192,127189,1,0,0:0:0:0:
64,192,127367,1,0,0:0:0:0:
192,192,127367,1,0,0:0:0:0:
320,192,127457,1,0,0:0:0:0:
448,192,127546,1,0,0:0:0:0:
64,192,127635,1,0,0:0:0:0:
192,192,127724,1,0,0:0:0:0:
320,192,127814,1,0,0:0:0:0:
448,192,127903,1,0,0:0:0:0:
320,192,127992,1,0,0:0:0:0:
192,192,128082,1,0,0:0:0:0:
64,192,128171,1,0,0:0:0:0:
192,192,128260,1,0,0:0:0:0:
320,192,128349,1,0,0:0:0:0:
448,192,128439,1,0,0:0:0:0:
64,192,128528,1,0,0:0:0:0:
192,192,128617,1,0,0:0:0:0:
320,192,128707,1,0,0:0:0:0:
448,192,128796,1,0,0:0:0:0:
64,192,128885,1,0,0:0:0:0:
192,192,128974,1,0,0:0:0:0:
320,192,129064,1,0,0:0:0:0:
448,192,129153,1,0,0:0:0:0:
64,192,129242,1,0,0:0:0:0:
192,192,129332,1,0,0:0:0:0:
320,192,129421,1,0,0:0:0:0:
192,192,129510,1,0,0:0:0:0:
320,192,129599,1,0,0:0:0:0:
192,192,129689,1,0,0:0:0:0:
320,192,129778,1,0,0:0:0:0:
64,192,129867,1,0,0:0:0:0:
448,192,129957,1,0,0:0:0:0:
64,192,130046,1,0,0:0:0:0:
448,192,130135,1,0,0:0:0:0:
64,192,130224,128,0,130760:0:0:0:0:
192,192,130224,128,0,130760:0:0:0:0:
320,192,130760,1,0,0:0:0:0:
192,192,130939,1,8,0:0:0:0:
64,192,130939,1,8,0:0:0:0:
448,192,131474,1,0,0:0:0:0:
192,192,131474,1,0,0:0:0:0:
448,192,131831,1,0,0:0:0:0:
320,192,131831,1,0,0:0:0:0:
320,192,132010,1,0,0:0:0:0:
448,192,132010,1,0,0:0:0:0:
64,192,132367,1,8,0:0:0:0:
192,192,132367,1,8,0:0:0:0:
448,192,132457,1,8,0:0:0:0:
320,192,132457,1,8,0:0:0:0:
192,192,132546,1,8,0:0:0:0:
64,192,132546,1,8,0:0:0:0:
320,192,132635,1,8,0:0:0:0:
448,192,132635,1,8,0:0:0:0:
192,192,132724,1,8,0:0:0:0:
64,192,132724,1,8,0:0:0:0:
320,192,132814,1,8,0:0:0:0:
448,192,132814,1,8,0:0:0:0:
192,192,132903,1,8,0:0:0:0:
64,192,132903,1,8,0:0:0:0:
192,192,133082,1,0,0:0:0:0:
448,192,133082,1,8,0:0:0:0:
320,192,133260,1,0,0:0:0:0:
320,192,133439,1,0,0:0:0:0:
192,192,133617,1,0,0:0:0:0:
64,192,133617,1,8,0:0:0:0:
448,192,133796,1,0,0:0:0:0:
448,192,133974,1,0,0:0:0:0:
192,192,134152,1,0,0:0:0:0:
64,192,134153,1,8,0:0:0:0:
448,192,134332,1,0,0:0:0:0:
192,192,134510,1,0,0:0:0:0:
64,192,134688,1,0,0:0:0:0:
320,192,134689,1,8,0:0:0:0:
192,192,134867,1,0,0:0:0:0:
64,192,135046,1,0,0:0:0:0:
448,192,135224,1,0,0:0:0:0:
320,192,135224,1,8,0:0:0:0:
192,192,135402,1,0,0:0:0:0:
320,192,135582,1,8,0:0:0:0:
448,192,135582,1,0,0:0:0:0:
192,192,135760,1,0,0:0:0:0:
320,192,135939,1,8,0:0:0:0:
448,192,135939,1,0,0:0:0:0:
192,192,136117,1,0,0:0:0:0:
320,192,136296,1,0,0:0:0:0:
448,192,136474,1,0,0:0:0:0:
64,192,136474,1,8,0:0:0:0:
192,192,136653,1,0,0:0:0:0:
320,192,136832,1,0,0:0:0:0:
448,192,137010,1,0,0:0:0:0:
192,192,137010,1,8,0:0:0:0:
320,192,137189,1,0,0:0:0:0:
192,192,137367,1,0,0:0:0:0:
64,192,137546,1,0,0:0:0:0:
320,192,137546,1,8,0:0:0:0:
192,192,137724,1,0,0:0:0:0:
320,192,137903,1,8,0:0:0:0:
64,192,137903,1,0,0:0:0:0:
64,192,138081,1,12,0:0:0:0:
320,192,138082,1,4,0:0:0:0:
192,192,138260,1,8,0:0:0:0:
448,192,138260,1,0,0:0:0:0:
320,192,138439,1,0,0:0:0:0:
64,192,138439,1,8,0:0:0:0:
192,192,138617,1,0,0:0:0:0:
448,192,138617,1,8,0:0:0:0:
192,192,138796,1,8,0:0:0:0:
448,192,138796,1,8,0:0:0:0:
320,192,138974,1,0,0:0:0:0:
448,192,139153,1,0,0:0:0:0:
192,192,139332,1,8,0:0:0:0:
64,192,139332,1,0,0:0:0:0:
320,192,139510,1,0,0:0:0:0:
192,192,139689,1,0,0:0:0:0:
320,192,139867,1,8,0:0:0:0:
448,192,139867,1,0,0:0:0:0:
192,192,140046,1,0,0:0:0:0:
64,192,140224,1,0,0:0:0:0:
192,192,140403,1,8,0:0:0:0:
448,192,140403,1,0,0:0:0:0:
320,192,140582,1,0,0:0:0:0:
448,192,140760,1,0,0:0:0:0:
320,192,140939,1,0,0:0:0:0:
64,192,140939,1,8,0:0:0:0:
192,192,141117,1,0,0:0:0:0:
320,192,141296,1,0,0:0:0:0:
64,192,141296,1,8,0:0:0:0:
192,192,141474,1,0,0:0:0:0:
448,192,141653,1,0,0:0:0:0:
320,192,141653,1,8,0:0:0:0:
320,192,141832,1,0,0:0:0:0:
192,192,142010,1,0,0:0:0:0:
320,192,142189,1,8,0:0:0:0:
64,192,142189,1,0,0:0:0:0:
192,192,142367,1,0,0:0:0:0:
320,192,142546,1,0,0:0:0:0:
448,192,142724,1,0,0:0:0:0:
192,192,142724,1,8,0:0:0:0:
64,192,142903,1,0,0:0:0:0:
320,192,143082,1,0,0:0:0:0:
64,192,143260,1,0,0:0:0:0:
192,192,143260,1,8,0:0:0:0:
320,192,143439,1,0,0:0:0:0:
448,192,143617,1,0,0:0:0:0:
320,192,143796,1,0,0:0:0:0:
448,192,143974,1,0,0:0:0:0:
64,192,144152,1,0,0:0:0:0:
192,192,144153,1,8,0:0:0:0:
320,192,144242,1,8,0:0:0:0:
448,192,144331,1,0,0:0:0:0:
192,192,144510,1,8,0:0:0:0:
64,192,144510,128,0,145045:0:0:0:0:
448,192,144689,1,0,0:0:0:0:
192,192,144867,1,0,0:0:0:0:
320,192,145046,1,8,0:0:0:0:
448,192,145046,1,0,0:0:0:0:
64,192,145224,1,0,0:0:0:0:
192,192,145403,1,0,0:0:0:0:
320,192,145582,1,8,0:0:0:0:
448,192,145582,1,0,0:0:0:0:
64,192,145760,1,0,0:0:0:0:
192,192,145939,1,0,0:0:0:0:
320,192,146117,1,8,0:0:0:0:
448,192,146117,1,0,0:0:0:0:
192,192,146296,1,0,0:0:0:0:
320,192,146474,1,0,0:0:0:0:
192,192,146653,1,8,0:0:0:0:
64,192,146653,1,0,0:0:0:0:
448,192,146832,1,0,0:0:0:0:
192,192,147010,1,8,0:0:0:0:
64,192,147010,1,0,0:0:0:0:
448,192,147189,1,0,0:0:0:0:
192,192,147367,1,8,0:0:0:0:
64,192,147367,1,0,0:0:0:0:
448,192,147546,1,0,0:0:0:0:
64,192,147724,1,0,0:0:0:0:
320,192,147902,1,0,0:0:0:0:
192,192,147903,1,8,0:0:0:0:
448,192,148082,1,0,0:0:0:0:
64,192,148260,1,0,0:0:0:0:
320,192,148438,1,0,0:0:0:0:
192,192,148439,1,8,0:0:0:0:
448,192,148617,1,0,0:0:0:0:
192,192,148796,1,0,0:0:0:0:
320,192,148974,1,8,0:0:0:0:
448,192,148974,1,0,0:0:0:0:
192,192,149153,1,0,0:0:0:0:
320,192,149332,1,0,0:0:0:0:
192,192,149510,1,8,0:0:0:0:
448,192,149510,1,0,0:0:0:0:
64,192,149689,1,0,0:0:0:0:
448,192,149867,1,0,0:0:0:0:
192,192,149867,1,8,0:0:0:0:
64,192,150046,1,0,0:0:0:0:
448,192,150224,1,0,0:0:0:0:
192,192,150224,1,8,0:0:0:0:
320,192,150403,1,0,0:0:0:0:
192,192,150581,1,0,0:0:0:0:
64,192,150760,1,0,0:0:0:0:
320,192,150760,1,8,0:0:0:0:
192,192,150938,1,0,0:0:0:0:
448,192,151117,1,0,0:0:0:0:
64,192,151295,1,0,0:0:0:0:
320,192,151295,1,8,0:0:0:0:
448,192,151474,1,0,0:0:0:0:
192,192,151652,1,0,0:0:0:0:
64,192,151831,1,0,0:0:0:0:
320,192,151831,1,8,0:0:0:0:
192,192,152010,1,0,0:0:0:0:
320,192,152189,1,0,0:0:0:0:
448,192,152367,1,0,0:0:0:0:
192,192,152367,1,8,0:0:0:0:
64,192,152546,1,0,0:0:0:0:
448,192,152724,1,0,0:0:0:0:
192,192,152724,1,8,0:0:0:0:
64,192,152903,1,0,0:0:0:0:
192,192,153082,1,8,0:0:0:0:
448,192,153082,1,0,0:0:0:0:
320,192,153260,1,0,0:0:0:0:
320,192,153439,1,0,0:0:0:0:
448,192,153617,1,8,0:0:0:0:
192,192,153617,1,0,0:0:0:0:
320,192,153795,1,0,0:0:0:0:
448,192,153974,1,0,0:0:0:0:
192,192,154153,1,8,0:0:0:0:
320,192,154153,1,8,0:0:0:0:
64,192,154332,1,0,0:0:0:0:
192,192,154510,1,0,0:0:0:0:
64,192,154688,128,8,155224:0:0:0:0:
192,192,154689,1,0,0:0:0:0:
320,192,155046,1,0,0:0:0:0:
448,192,155135,1,0,0:0:0:0:
320,192,155224,1,8,0:0:0:0:
192,192,155224,1,0,0:0:0:0:
320,192,155402,1,0,0:0:0:0:
448,192,155492,1,0,0:0:0:0:
320,192,155582,1,0,0:0:0:0:
192,192,155671,1,0,0:0:0:0:
64,192,155760,1,0,0:0:0:0:
192,192,155849,1,0,0:0:0:0:
320,192,155939,128,0,156474:0:0:0:0:
192,192,156474,128,0,157010:0:0:0:0:
64,192,157010,128,0,157546:0:0:0:0:
192,192,157546,128,0,158082:0:0:0:0:
320,192,158082,128,0,158796:0:0:0:0:
192,192,158617,1,0,0:0:0:0:
64,192,158617,1,0,0:0:0:0:
448,192,158707,1,0,0:0:0:0:
192,192,158796,1,8,0:0:0:0:
64,192,158796,1,8,0:0:0:0:
192,192,158974,1,0,0:0:0:0:
320,192,159153,1,0,0:0:0:0:
64,192,159332,1,8,0:0:0:0:
448,192,159332,1,8,0:0:0:0:
192,192,159510,1,0,0:0:0:0:
320,192,159689,1,0,0:0:0:0:
448,192,159867,1,8,0:0:0:0:
64,192,159867,1,8,0:0:0:0:
192,192,160046,1,0,0:0:0:0:
320,192,160135,1,0,0:0:0:0:
448,192,160224,1,0,0:0:0:0:
64,192,160403,1,0,0:0:0:0:
192,192,160403,1,8,0:0:0:0:
320,192,160582,1,0,0:0:0:0:
192,192,160760,1,0,0:0:0:0:
320,192,160849,1,0,0:0:0:0:
448,192,160939,1,8,0:0:0:0:
64,192,160939,1,8,0:0:0:0:
448,192,161117,1,8,0:0:0:0:
64,192,161117,1,8,0:0:0:0:
192,192,161653,1,4,0:0:0:0:
64,192,161653,1,4,0:0:0:0:
320,192,162010,1,0,0:0:0:0:
192,192,162189,1,0,0:0:0:0:
64,192,162367,1,0,0:0:0:0:
320,192,162724,1,0,0:0:0:0:
192,192,162903,1,0,0:0:0:0:
64,192,163082,1,8,0:0:0:0:
320,192,163082,1,8,0:0:0:0:
448,192,163439,1,0,0:0:0:0:
192,192,163796,1,0,0:0:0:0:
448,192,163974,1,0,0:0:0:0:
192,192,164153,1,0,0:0:0:0:
448,192,164510,1,4,0:0:0:0:
192,192,164867,1,0,0:0:0:0:
320,192,165046,1,0,0:0:0:0:
320,192,165403,128,0,165582:0:0:0:0:
192,192,165582,1,0,0:0:0:0:
64,192,165760,1,0,0:0:0:0:
320,192,165939,1,8,0:0:0:0:
448,192,165939,1,8,0:0:0:0:
448,192,166296,1,0,0:0:0:0:
64,192,166653,1,0,0:0:0:0:
320,192,166832,1,0,0:0:0:0:
64,192,167010,1,0,0:0:0:0:
448,192,167367,128,4,167902:0:0:0:0:
192,192,167724,1,0,0:0:0:0:
64,192,167903,128,0,168974:0:0:0:0:
192,192,168260,128,0,168439:0:0:0:0:
320,192,168439,1,0,0:0:0:0:
448,192,168617,1,0,0:0:0:0:
192,192,168796,1,8,0:0:0:0:
320,192,168796,1,8,0:0:0:0:
192,192,169153,1,0,0:0:0:0:
448,192,169510,1,0,0:0:0:0:
192,192,169689,1,0,0:0:0:0:
448,192,169867,1,0,0:0:0:0:
192,192,170224,1,4,0:0:0:0:
192,192,170582,1,0,0:0:0:0:
448,192,170760,128,0,170939:0:0:0:0:
448,192,171117,128,0,171296:0:0:0:0:
192,192,171474,1,0,0:0:0:0:
64,192,171653,1,8,0:0:0:0:
320,192,171653,1,8,0:0:0:0:
192,192,172010,1,0,0:0:0:0:
64,192,172367,1,0,0:0:0:0:
320,192,172546,1,0,0:0:0:0:
64,192,172724,1,0,0:0:0:0:
320,192,172992,1,0,0:0:0:0:
448,192,173082,1,4,0:0:0:0:
320,192,173439,1,0,0:0:0:0:
192,192,173617,1,0,0:0:0:0:
192,192,173974,128,0,174153:0:0:0:0:
320,192,174153,1,0,0:0:0:0:
64,192,174332,1,0,0:0:0:0:
192,192,174510,1,8,0:0:0:0:
320,192,174510,1,8,0:0:0:0:
320,192,174867,1,0,0:0:0:0:
448,192,175224,1,0,0:0:0:0:
192,192,175403,1,0,0:0:0:0:
448,192,175582,1,0,0:0:0:0:
320,192,175939,1,4,0:0:0:0:
192,192,176296,1,0,0:0:0:0:
64,192,176474,1,0,0:0:0:0:
448,192,176832,128,0,177010:0:0:0:0:
320,192,177010,1,0,0:0:0:0:
192,192,177189,1,0,0:0:0:0:
320,192,177367,1,8,0:0:0:0:
448,192,177367,1,8,0:0:0:0:
448,192,177724,1,0,0:0:0:0:
192,192,177992,1,0,0:0:0:0:
448,192,178082,1,0,0:0:0:0:
64,192,178260,1,0,0:0:0:0:
448,192,178439,1,0,0:0:0:0:
448,192,178796,1,4,0:0:0:0:
320,192,179153,1,0,0:0:0:0:
64,192,179332,1,0,0:0:0:0:
448,192,179689,128,0,179867:0:0:0:0:
192,192,179867,1,0,0:0:0:0:
448,192,180046,1,0,0:0:0:0:
192,192,180224,1,8,0:0:0:0:
64,192,180224,1,8,0:0:0:0:
192,192,180582,1,0,0:0:0:0:
64,192,180939,1,0,0:0:0:0:
320,192,181117,1,0,0:0:0:0:
64,192,181296,1,0,0:0:0:0:
448,192,181653,1,4,0:0:0:0:
64,192,182010,1,0,0:0:0:0:
448,192,182189,1,0,0:0:0:0:
192,192,182546,128,0,182724:0:0:0:0:
320,192,182724,1,0,0:0:0:0:
64,192,182903,1,0,0:0:0:0:
320,192,183082,1,8,0:0:0:0:
448,192,183082,1,8,0:0:0:0:
448,192,183617,1,0,0:0:0:0:
192,192,183617,1,0,0:0:0:0:
320,192,183974,1,0,0:0:0:0:
448,192,184153,1,0,0:0:0:0:
320,192,184332,1,0,0:0:0:0:
64,192,184510,1,12,0:0:0:0:
192,192,184510,1,12,0:0:0:0:
320,192,184867,1,0,0:0:0:0:
192,192,185224,1,0,0:0:0:0:
320,192,185582,1,0,0:0:0:0:
448,192,185939,1,2,0:0:0:0:
192,192,185939,1,2,0:0:0:0:
320,192,186296,1,0,0:0:0:0:
192,192,186474,1,2,0:0:0:0:
448,192,186474,1,2,0:0:0:0:
320,192,186832,1,0,0:0:0:0:
192,192,187010,1,2,0:0:0:0:
448,192,187010,1,2,0:0:0:0:
64,192,187367,1,2,0:0:0:0:
320,192,187367,1,2,0:0:0:0:
192,192,187724,1,0,0:0:0:0:
320,192,187903,1,0,0:0:0:0:
320,192,188260,1,0,0:0:0:0:
448,192,188439,1,0,0:0:0:0:
448,192,188796,1,2,0:0:0:0:
320,192,188796,1,2,0:0:0:0:
448,192,189153,1,0,0:0:0:0:
192,192,189332,1,2,0:0:0:0:
320,192,189332,1,2,0:0:0:0:
320,192,189689,1,0,0:0:0:0:
64,192,189867,1,2,0:0:0:0:
192,192,189867,1,2,0:0:0:0:
192,192,190224,1,2,0:0:0:0:
448,192,190224,1,2,0:0:0:0:
320,192,190582,1,0,0:0:0:0:
64,192,190760,1,0,0:0:0:0:
320,192,191117,1,0,0:0:0:0:
64,192,191296,1,0,0:0:0:0:
320,192,191653,1,2,0:0:0:0:
448,192,191653,1,2,0:0:0:0:
64,192,192010,1,0,0:0:0:0:
192,192,192189,1,2,0:0:0:0:
448,192,192189,1,2,0:0:0:0:
64,192,192546,1,0,0:0:0:0:
448,192,192724,1,2,0:0:0:0:
192,192,192724,1,2,0:0:0:0:
192,192,193082,1,2,0:0:0:0:
64,192,193082,1,2,0:0:0:0:
64,192,193439,1,0,0:0:0:0:
448,192,193617,1,0,0:0:0:0:
64,192,193974,128,0,194153:0:0:0:0:
448,192,194153,1,0,0:0:0:0:
320,192,194332,1,0,0:0:0:0:
64,192,194510,128,2,195224:0:0:0:0:
192,192,194510,1,2,0:0:0:0:
320,192,194689,1,0,0:0:0:0:
192,192,194867,1,0,0:0:0:0:
320,192,195046,1,0,0:0:0:0:
448,192,195224,1,0,0:0:0:0:
320,192,195403,1,0,0:0:0:0:
192,192,195582,1,0,0:0:0:0:
64,192,195760,1,0,0:0:0:0:
192,192,195939,1,12,0:0:0:0:
448,192,195939,1,12,0:0:0:0:
320,192,196117,1,0,0:0:0:0:
320,192,196296,1,0,0:0:0:0:
320,192,196474,1,0,0:0:0:0:
320,192,196653,1,0,0:0:0:0:
320,192,196832,1,0,0:0:0:0:
320,192,197010,1,0,0:0:0:0:
320,192,197189,1,0,0:0:0:0:
448,192,197367,1,2,0:0:0:0:
192,192,197367,1,2,0:0:0:0:
64,192,197546,1,0,0:0:0:0:
64,192,197724,1,0,0:0:0:0:
64,192,197903,1,0,0:0:0:0:
64,192,198082,1,0,0:0:0:0:
64,192,198260,1,0,0:0:0:0:
64,192,198439,1,0,0:0:0:0:
64,192,198617,1,0,0:0:0:0:
192,192,198796,1,2,0:0:0:0:
320,192,198796,1,2,0:0:0:0:
448,192,198974,1,0,0:0:0:0:
448,192,199153,1,0,0:0:0:0:
448,192,199332,1,0,0:0:0:0:
448,192,199510,1,0,0:0:0:0:
448,192,199689,1,0,0:0:0:0:
448,192,199867,1,0,0:0:0:0:
448,192,200046,1,0,0:0:0:0:
320,192,200224,1,2,0:0:0:0:
64,192,200224,1,2,0:0:0:0:
192,192,200403,1,0,0:0:0:0:
192,192,200582,1,0,0:0:0:0:
64,192,200760,1,2,0:0:0:0:
320,192,200760,1,2,0:0:0:0:
192,192,200939,1,0,0:0:0:0:
192,192,201117,1,0,0:0:0:0:
64,192,201296,1,2,0:0:0:0:
320,192,201296,1,2,0:0:0:0:
192,192,201474,1,0,0:0:0:0:
448,192,201653,1,2,0:0:0:0:
64,192,201653,1,2,0:0:0:0:
320,192,201742,1,0,0:0:0:0:
192,192,201832,1,0,0:0:0:0:
64,192,201921,1,0,0:0:0:0:
192,192,202010,1,0,0:0:0:0:
320,192,202099,1,0,0:0:0:0:
448,192,202189,1,0,0:0:0:0:
320,192,202278,1,0,0:0:0:0:
192,192,202367,1,0,0:0:0:0:
64,192,202457,1,0,0:0:0:0:
448,192,202546,1,0,0:0:0:0:
320,192,202635,1,0,0:0:0:0:
192,192,202724,1,0,0:0:0:0:
64,192,202814,1,0,0:0:0:0:
448,192,202903,1,0,0:0:0:0:
320,192,202992,1,0,0:0:0:0:
192,192,203082,1,0,0:0:0:0:
64,192,203171,1,0,0:0:0:0:
320,192,203260,1,0,0:0:0:0:
64,192,203349,1,0,0:0:0:0:
192,192,203439,1,0,0:0:0:0:
320,192,203528,1,0,0:0:0:0:
448,192,203617,1,0,0:0:0:0:
320,192,203707,1,0,0:0:0:0:
192,192,203796,1,0,0:0:0:0:
64,192,203885,1,0,0:0:0:0:
192,192,203974,1,0,0:0:0:0:
320,192,204064,1,0,0:0:0:0:
448,192,204153,1,0,0:0:0:0:
320,192,204242,1,0,0:0:0:0:
192,192,204332,1,0,0:0:0:0:
64,192,204421,1,0,0:0:0:0:
192,192,204510,1,0,0:0:0:0:
448,192,204510,1,0,0:0:0:0:
192,192,204867,1,0,0:0:0:0:
64,192,205046,1,0,0:0:0:0:
320,192,205046,1,0,0:0:0:0:
448,192,205224,1,8,0:0:0:0:
192,192,205224,1,8,0:0:0:0:
320,192,205582,1,0,0:0:0:0:
320,192,205760,1,0,0:0:0:0:
192,192,206117,1,0,0:0:0:0:
192,192,206296,1,0,0:0:0:0:
320,192,206653,1,8,0:0:0:0:
448,192,206653,1,8,0:0:0:0:
192,192,206742,1,8,0:0:0:0:
64,192,206742,1,8,0:0:0:0:
320,192,206832,1,8,0:0:0:0:
448,192,206832,1,8,0:0:0:0:
192,192,206921,1,8,0:0:0:0:
64,192,206921,1,8,0:0:0:0:
320,192,207010,1,8,0:0:0:0:
448,192,207010,1,8,0:0:0:0:
192,192,207099,1,8,0:0:0:0:
64,192,207099,1,8,0:0:0:0:
320,192,207189,1,8,0:0:0:0:
448,192,207189,1,8,0:0:0:0:
64,192,207367,1,0,0:0:0:0:
320,192,207367,1,8,0:0:0:0:
192,192,207546,1,0,0:0:0:0:
192,192,207724,1,0,0:0:0:0:
448,192,207903,1,0,0:0:0:0:
320,192,207903,1,8,0:0:0:0:
192,192,208082,1,0,0:0:0:0:
64,192,208260,1,0,0:0:0:0:
448,192,208439,1,0,0:0:0:0:
320,192,208439,1,8,0:0:0:0:
192,192,208617,1,0,0:0:0:0:
320,192,208796,1,0,0:0:0:0:
192,192,208974,1,8,0:0:0:0:
64,192,208974,1,0,0:0:0:0:
320,192,209153,1,0,0:0:0:0:
448,192,209332,1,0,0:0:0:0:
64,192,209510,1,0,0:0:0:0:
192,192,209510,1,8,0:0:0:0:
448,192,209689,1,0,0:0:0:0:
192,192,209867,1,8,0:0:0:0:
64,192,209867,1,0,0:0:0:0:
448,192,210046,1,0,0:0:0:0:
64,192,210224,1,0,0:0:0:0:
192,192,210224,1,8,0:0:0:0:
448,192,210403,1,0,0:0:0:0:
192,192,210582,1,0,0:0:0:0:
320,192,210760,1,8,0:0:0:0:
448,192,210760,1,0,0:0:0:0:
64,192,210939,1,0,0:0:0:0:
320,192,211117,1,0,0:0:0:0:
192,192,211296,1,8,0:0:0:0:
64,192,211296,1,0,0:0:0:0:
448,192,211474,1,0,0:0:0:0:
64,192,211653,1,0,0:0:0:0:
448,192,211832,1,0,0:0:0:0:
192,192,211832,1,8,0:0:0:0:
320,192,212010,1,0,0:0:0:0:
320,192,212188,1,0,0:0:0:0:
64,192,212189,1,0,0:0:0:0:
192,192,212367,1,4,0:0:0:0:
448,192,212367,1,12,0:0:0:0:
64,192,212545,1,0,0:0:0:0:
320,192,212546,1,8,0:0:0:0:
64,192,212724,1,8,0:0:0:0:
320,192,212724,1,0,0:0:0:0:
192,192,212902,1,0,0:0:0:0:
448,192,212903,1,0,0:0:0:0:
64,192,213081,1,0,0:0:0:0:
192,192,213082,1,8,0:0:0:0:
448,192,213260,1,0,0:0:0:0:
320,192,213439,1,0,0:0:0:0:
192,192,213617,1,8,0:0:0:0:
64,192,213617,1,0,0:0:0:0:
320,192,213796,1,0,0:0:0:0:
448,192,213974,1,0,0:0:0:0:
192,192,214153,1,8,0:0:0:0:
320,192,214153,1,0,0:0:0:0:
64,192,214332,1,0,0:0:0:0:
448,192,214510,1,0,0:0:0:0:
192,192,214689,1,8,0:0:0:0:
64,192,214689,1,0,0:0:0:0:
320,192,214867,1,0,0:0:0:0:
64,192,215046,1,0,0:0:0:0:
448,192,215224,1,0,0:0:0:0:
320,192,215224,1,8,0:0:0:0:
192,192,215403,1,0,0:0:0:0:
320,192,215582,1,8,0:0:0:0:
448,192,215582,1,0,0:0:0:0:
192,192,215760,1,0,0:0:0:0:
320,192,215939,1,8,0:0:0:0:
448,192,215939,1,0,0:0:0:0:
192,192,216117,1,0,0:0:0:0:
448,192,216296,1,0,0:0:0:0:
64,192,216474,1,0,0:0:0:0:
192,192,216474,1,8,0:0:0:0:
448,192,216653,1,0,0:0:0:0:
192,192,216832,1,0,0:0:0:0:
448,192,217010,1,0,0:0:0:0:
320,192,217010,1,8,0:0:0:0:
64,192,217189,1,0,0:0:0:0:
320,192,217367,1,0,0:0:0:0:
192,192,217546,1,8,0:0:0:0:
64,192,217546,1,0,0:0:0:0:
448,192,217724,1,0,0:0:0:0:
448,192,217903,1,0,0:0:0:0:
64,192,218082,1,0,0:0:0:0:
64,192,218260,1,0,0:0:0:0:
192,192,218438,1,8,0:0:0:0:
448,192,218439,1,0,0:0:0:0:
320,192,218528,1,8,0:0:0:0:
192,192,218617,1,0,0:0:0:0:
64,192,218795,128,8,219331:0:0:0:0:
320,192,218796,1,0,0:0:0:0:
448,192,218974,1,0,0:0:0:0:
192,192,219153,1,0,0:0:0:0:
448,192,219331,1,8,0:0:0:0:
320,192,219332,1,8,0:0:0:0:
192,192,219510,1,0,0:0:0:0:
320,192,219689,1,0,0:0:0:0:
448,192,219867,1,0,0:0:0:0:
192,192,219867,1,8,0:0:0:0:
64,192,220045,1,0,0:0:0:0:
192,192,220224,1,0,0:0:0:0:
320,192,220403,1,8,0:0:0:0:
64,192,220403,1,0,0:0:0:0:
448,192,220581,1,0,0:0:0:0:
320,192,220760,1,0,0:0:0:0:
448,192,220939,1,8,0:0:0:0:
192,192,220939,1,0,0:0:0:0:
320,192,221117,1,0,0:0:0:0:
448,192,221296,1,8,0:0:0:0:
192,192,221296,1,0,0:0:0:0:
320,192,221474,1,0,0:0:0:0:
192,192,221653,1,8,0:0:0:0:
64,192,221653,1,0,0:0:0:0:
448,192,221831,1,0,0:0:0:0:
320,192,222010,1,0,0:0:0:0:
192,192,222189,1,0,0:0:0:0:
64,192,222189,1,8,0:0:0:0:
448,192,222367,1,0,0:0:0:0:
320,192,222546,1,0,0:0:0:0:
192,192,222724,1,8,0:0:0:0:
64,192,222724,1,0,0:0:0:0:
320,192,222903,1,0,0:0:0:0:
192,192,223082,1,0,0:0:0:0:
320,192,223260,1,0,0:0:0:0:
448,192,223260,1,8,0:0:0:0:
64,192,223439,1,0,0:0:0:0:
192,192,223617,1,0,0:0:0:0:
320,192,223796,1,0,0:0:0:0:
448,192,223796,1,8,0:0:0:0:
64,192,223974,1,0,0:0:0:0:
448,192,224153,1,8,0:0:0:0:
192,192,224153,1,0,0:0:0:0:
320,192,224332,1,0,0:0:0:0:
192,192,224510,1,8,0:0:0:0:
64,192,224510,1,0,0:0:0:0:
448,192,224689,1,0,0:0:0:0:
448,192,224867,1,0,0:0:0:0:
320,192,225046,1,0,0:0:0:0:
192,192,225046,1,8,0:0:0:0:
448,192,225224,1,0,0:0:0:0:
448,192,225403,1,0,0:0:0:0:
192,192,225582,1,8,0:0:0:0:
64,192,225582,1,0,0:0:0:0:
448,192,225760,1,0,0:0:0:0:
448,192,225939,1,0,0:0:0:0:
320,192,226117,1,8,0:0:0:0:
64,192,226117,1,0,0:0:0:0:
448,192,226296,1,0,0:0:0:0:
448,192,226474,1,0,0:0:0:0:
320,192,226653,1,8,0:0:0:0:
64,192,226653,1,0,0:0:0:0:
448,192,226832,1,0,0:0:0:0:
64,192,227010,1,0,0:0:0:0:
192,192,227010,1,8,0:0:0:0:
448,192,227189,1,0,0:0:0:0:
320,192,227367,1,8,0:0:0:0:
192,192,227367,1,0,0:0:0:0:
64,192,227546,1,0,0:0:0:0:
64,192,227724,1,0,0:0:0:0:
192,192,227903,1,0,0:0:0:0:
448,192,227903,1,8,0:0:0:0:
64,192,228082,1,0,0:0:0:0:
64,192,228260,1,0,0:0:0:0:
64,192,228439,1,0,0:0:0:0:
320,192,228617,1,8,0:0:0:0:
448,192,228617,1,0,0:0:0:0:
192,192,228796,1,0,0:0:0:0:
64,192,228974,1,0,0:0:0:0:
192,192,229064,1,0,0:0:0:0:
320,192,229153,1,0,0:0:0:0:
64,192,229332,1,0,0:0:0:0:
192,192,229510,1,0,0:0:0:0:
320,192,229689,1,0,0:0:0:0:
192,192,229867,1,0,0:0:0:0:
320,192,230046,1,0,0:0:0:0:
448,192,230224,128,0,231296:0:0:0:0:
320,192,230760,1,0,0:0:0:0:
192,192,230939,1,8,0:0:0:0:
64,192,230939,1,8,0:0:0:0:
320,192,231296,128,0,231474:0:0:0:0:
192,192,231474,128,0,232902:0:0:0:0:
64,192,231832,1,0,0:0:0:0:
64,192,232010,1,0,0:0:0:0:
320,192,232367,1,8,0:0:0:0:
448,192,232367,1,8,0:0:0:0:
320,192,232903,1,0,0:0:0:0:
448,192,233082,128,0,234867:0:0:0:0:
192,192,233260,1,8,0:0:0:0:
64,192,233260,1,8,0:0:0:0:
320,192,233617,1,0,0:0:0:0:
192,192,233796,1,8,0:0:0:0:
64,192,233796,1,8,0:0:0:0:
320,192,234153,1,0,0:0:0:0:
320,192,234332,1,0,0:0:0:0:
192,192,234689,1,8,0:0:0:0:
64,192,234689,1,8,0:0:0:0:
320,192,234867,128,0,235046:0:0:0:0:
192,192,235045,128,0,235224:0:0:0:0:
448,192,235046,128,0,235582:0:0:0:0:
64,192,235224,1,8,0:0:0:0:
192,192,235581,128,0,235760:0:0:0:0:
320,192,235760,1,0,0:0:0:0:
448,192,235849,1,0,0:0:0:0:
64,192,235938,128,0,238260:0:0:0:0:
192,192,236296,1,0,0:0:0:0:
320,192,236474,1,0,0:0:0:0:
448,192,236653,1,8,0:0:0:0:
192,192,236653,1,8,0:0:0:0:
320,192,237010,1,0,0:0:0:0:
320,192,237189,1,0,0:0:0:0:
192,192,237367,1,0,0:0:0:0:
448,192,237546,1,8,0:0:0:0:
320,192,237546,1,8,0:0:0:0:
192,192,237724,1,0,0:0:0:0:
192,192,237903,1,0,0:0:0:0:
320,192,238082,1,8,0:0:0:0:
448,192,238082,1,8,0:0:0:0:
192,192,238260,128,0,238439:0:0:0:0:
320,192,238439,128,0,238617:0:0:0:0:
448,192,238617,128,0,238796:0:0:0:0:
64,192,238796,128,0,238974:0:0:0:0:
320,192,238796,1,0,0:0:0:0:
192,192,238974,128,8,239153:0:0:0:0:
320,192,238974,1,8,0:0:0:0:
320,192,239153,128,0,239332:0:0:0:0:
448,192,239332,128,4,240403:0:0:0:0:
64,192,239510,1,12,0:0:0:0:
192,192,239510,1,0,0:0:0:0:
64,192,239867,1,12,0:0:0:0:
320,192,239867,1,12,0:0:0:0:
192,192,240045,1,0,0:0:0:0:
320,192,240403,128,0,240582:0:0:0:0:
64,192,240403,1,0,0:0:0:0:
192,192,240582,128,0,240760:0:0:0:0:
320,192,240760,128,0,240939:0:0:0:0:
448,192,240939,128,0,241117:0:0:0:0:
320,192,241117,128,0,241296:0:0:0:0:
448,192,241296,128,0,241474:0:0:0:0:
320,192,241474,128,0,241653:0:0:0:0:
192,192,241653,128,8,242010:0:0:0:0:
64,192,241653,1,8,0:0:0:0:
192,192,242367,128,0,242457:0:0:0:0:
192,192,242546,128,0,242635:0:0:0:0:
192,192,242724,128,0,242814:0:0:0:0:
192,192,242903,128,0,242992:0:0:0:0:
320,192,242992,1,8,0:0:0:0:
448,192,243082,128,8,243171:0:0:0:0:
448,192,243260,128,0,243349:0:0:0:0:
448,192,243439,128,0,243528:0:0:0:0:
64,192,243617,128,0,243707:0:0:0:0:
64,192,243796,128,0,244153:0:0:0:0:
320,192,244332,128,0,244510:0:0:0:0:
192,192,244510,128,0,244599:0:0:0:0:
192,192,244689,128,0,244778:0:0:0:0:
192,192,244867,128,0,244957:0:0:0:0:
320,192,245046,128,0,245135:0:0:0:0:
320,192,245224,128,0,245314:0:0:0:0:
448,192,245403,128,0,245492:0:0:0:0:
448,192,245582,128,0,245671:0:0:0:0:
448,192,245760,128,0,245849:0:0:0:0:
64,192,245760,1,8,0:0:0:0:
192,192,245849,1,8,0:0:0:0:
320,192,245939,128,8,246028:0:0:0:0:
320,192,246117,128,0,246207:0:0:0:0:
192,192,246296,128,0,246385:0:0:0:0:
192,192,246474,128,0,246564:0:0:0:0:
192,192,246653,128,0,246742:0:0:0:0:
320,192,247189,128,0,247367:0:0:0:0:
192,192,247367,128,0,247457:0:0:0:0:
192,192,247546,128,0,247635:0:0:0:0:
192,192,247724,128,0,247814:0:0:0:0:
192,192,247903,128,0,247992:0:0:0:0:
448,192,247903,1,8,0:0:0:0:
320,192,247992,1,8,0:0:0:0:
448,192,248082,128,0,248171:0:0:0:0:
448,192,248260,128,0,248349:0:0:0:0:
192,192,248320,1,8,0:0:0:0:
320,192,248438,128,8,248527:0:0:0:0:
320,192,248617,128,0,248707:0:0:0:0:
64,192,248795,128,0,248885:0:0:0:0:
192,192,248974,128,0,249063:0:0:0:0:
320,192,249064,1,8,0:0:0:0:
64,192,249152,128,0,249242:0:0:0:0:
448,192,249152,1,0,0:0:0:0:
320,192,249272,1,0,0:0:0:0:
192,192,249332,128,0,249421:0:0:0:0:
448,192,249391,1,0,0:0:0:0:
64,192,249510,128,0,249867:0:0:0:0:
320,192,249510,1,0,0:0:0:0:
192,192,249629,1,0,0:0:0:0:
320,192,249748,1,0,0:0:0:0:
192,192,249867,128,0,250224:0:0:0:0:
448,192,249867,1,0,0:0:0:0:
320,192,249986,1,0,0:0:0:0:
448,192,250105,1,0,0:0:0:0:
64,192,250224,128,0,253082:0:0:0:0:
320,192,250224,1,0,0:0:0:0:
192,192,251653,128,0,253082:0:0:0:0:
320,192,253082,1,0,0:0:0:0:
448,192,253171,1,0,0:0:0:0:
320,192,253260,1,0,0:0:0:0:
192,192,253349,1,0,0:0:0:0:
64,192,253439,1,0,0:0:0:0:
448,192,253617,1,0,0:0:0:0:
320,192,253707,1,0,0:0:0:0:
192,192,253796,1,0,0:0:0:0:
320,192,253885,1,0,0:0:0:0:
448,192,253974,1,0,0:0:0:0:
192,192,255760,1,0,0:0:0:0:
320,192,255849,1,0,0:0:0:0:
448,192,255939,1,0,0:0:0:0:
320,192,256028,1,0,0:0:0:0:
192,192,256117,1,0,0:0:0:0:
64,192,256207,1,0,0:0:0:0:
448,192,256296,1,0,0:0:0:0:
64,192,256474,1,0,0:0:0:0:
192,192,256564,1,0,0:0:0:0:
320,192,256653,1,0,0:0:0:0:
448,192,256742,1,0,0:0:0:0:
64,192,256832,1,0,0:0:0:0:
320,192,258617,1,0,0:0:0:0:
448,192,258707,1,0,0:0:0:0:
320,192,258796,1,0,0:0:0:0:
192,192,258885,1,0,0:0:0:0:
64,192,258974,1,0,0:0:0:0:
192,192,259064,1,0,0:0:0:0:
320,192,259153,1,0,0:0:0:0:
448,192,259332,1,0,0:0:0:0:
320,192,259421,1,0,0:0:0:0:
192,192,259510,1,0,0:0:0:0:
320,192,259599,1,0,0:0:0:0:
448,192,259689,1,0,0:0:0:0:
320,192,261474,1,0,0:0:0:0:
448,192,261564,1,0,0:0:0:0:
320,192,261653,1,0,0:0:0:0:
192,192,261742,1,0,0:0:0:0:
320,192,261832,1,0,0:0:0:0:
448,192,261921,1,0,0:0:0:0:
320,192,262010,1,0,0:0:0:0:
64,192,262189,1,0,0:0:0:0:
192,192,262278,1,0,0:0:0:0:
320,192,262367,1,0,0:0:0:0:
192,192,262457,1,0,0:0:0:0:
64,192,262546,1,0,0:0:0:0:
448,192,264332,1,0,0:0:0:0:
320,192,264421,1,0,0:0:0:0:
64,192,264510,1,4,0:0:0:0:
192,192,264510,1,4,0:0:0:0:
320,192,264599,1,0,0:0:0:0:
448,192,264689,1,0,0:0:0:0:
320,192,264778,1,0,0:0:0:0:
192,192,264867,1,0,0:0:0:0:
320,192,265046,1,0,0:0:0:0:
192,192,265135,1,0,0:0:0:0:
64,192,265224,1,0,0:0:0:0:
192,192,265314,1,0,0:0:0:0:
320,192,265403,1,0,0:0:0:0:
192,192,265939,1,2,0:0:0:0:
320,192,266474,1,2,0:0:0:0:
448,192,267010,1,2,0:0:0:0:
64,192,267189,1,0,0:0:0:0:
192,192,267278,1,0,0:0:0:0:
320,192,267367,1,0,0:0:0:0:
192,192,267457,1,0,0:0:0:0:
64,192,267546,1,0,0:0:0:0:
192,192,267635,1,0,0:0:0:0:
320,192,267724,1,0,0:0:0:0:
192,192,267903,1,0,0:0:0:0:
320,192,267992,1,0,0:0:0:0:
448,192,268082,1,0,0:0:0:0:
320,192,268171,1,0,0:0:0:0:
192,192,268260,1,0,0:0:0:0:
64,192,270046,1,0,0:0:0:0:
192,192,270135,1,0,0:0:0:0:
448,192,270224,1,4,0:0:0:0:
320,192,270224,1,4,0:0:0:0:
192,192,270314,1,0,0:0:0:0:
64,192,270403,1,0,0:0:0:0:
192,192,270492,1,0,0:0:0:0:
320,192,270582,1,0,0:0:0:0:
192,192,270760,1,0,0:0:0:0:
320,192,270849,1,0,0:0:0:0:
448,192,270939,1,0,0:0:0:0:
320,192,271028,1,0,0:0:0:0:
192,192,271117,1,0,0:0:0:0:
320,192,271653,1,2,0:0:0:0:
320,192,272903,1,0,0:0:0:0:
192,192,272992,1,0,0:0:0:0:
64,192,273082,1,0,0:0:0:0:
192,192,273171,1,0,0:0:0:0:
320,192,273260,1,0,0:0:0:0:
448,192,273349,1,0,0:0:0:0:
64,192,273439,1,0,0:0:0:0:
448,192,273617,1,0,0:0:0:0:
320,192,273707,1,0,0:0:0:0:
192,192,273796,1,0,0:0:0:0:
64,192,273885,1,0,0:0:0:0:
448,192,273974,1,0,0:0:0:0:
192,192,274153,128,2,274510:0:0:0:0:
64,192,274510,128,2,275224:0:0:0:0:
320,192,275224,128,2,275939:0:0:0:0:
64,192,275938,128,6,278081:0:0:0:0:
192,192,275939,1,4,0:0:0:0:
448,192,276028,1,0,0:0:0:0:
320,192,276117,1,0,0:0:0:0:
192,192,276207,1,0,0:0:0:0:
448,192,276296,1,0,0:0:0:0:
192,192,276474,1,0,0:0:0:0:
448,192,276564,1,0,0:0:0:0:
320,192,276653,1,0,0:0:0:0:
192,192,276742,1,0,0:0:0:0:
448,192,276832,1,0,0:0:0:0:
320,192,277367,1,2,0:0:0:0:
192,192,278617,1,0,0:0:0:0:
320,192,278796,1,6,0:0:0:0:
64,192,278796,1,4,0:0:0:0:
448,192,278885,1,0,0:0:0:0:
320,192,278974,1,0,0:0:0:0:
192,192,279063,1,0,0:0:0:0:
448,192,279152,1,0,0:0:0:0:
192,192,279331,1,0,0:0:0:0:
64,192,279420,1,0,0:0:0:0:
192,192,279510,1,0,0:0:0:0:
320,192,279599,1,0,0:0:0:0:
64,192,279688,1,0,0:0:0:0:
448,192,280224,128,2,280760:0:0:0:0:
320,192,280760,128,2,281295:0:0:0:0:
192,192,281295,128,2,281652:0:0:0:0:
448,192,281652,1,8,0:0:0:0:
320,192,281653,1,8,0:0:0:0:
192,192,281832,1,0,0:0:0:0:
192,192,282010,1,0,0:0:0:0:
192,192,282189,1,0,0:0:0:0:
192,192,282367,1,0,0:0:0:0:
192,192,282546,1,0,0:0:0:0:
192,192,282724,1,0,0:0:0:0:
192,192,282903,1,0,0:0:0:0:
64,192,283082,1,8,0:0:0:0:
320,192,283082,1,8,0:0:0:0:
448,192,283260,1,0,0:0:0:0:
448,192,283439,1,0,0:0:0:0:
448,192,283617,1,0,0:0:0:0:
448,192,283796,1,0,0:0:0:0:
448,192,283974,1,0,0:0:0:0:
448,192,284153,1,0,0:0:0:0:
448,192,284332,1,0,0:0:0:0:
320,192,284510,1,8,0:0:0:0:
192,192,284510,1,8,0:0:0:0:
192,192,284867,1,0,0:0:0:0:
448,192,285046,1,0,0:0:0:0:
192,192,285224,1,8,0:0:0:0:
64,192,285224,1,8,0:0:0:0:
320,192,285403,1,0,0:0:0:0:
320,192,285582,1,0,0:0:0:0:
448,192,285760,1,0,0:0:0:0:
320,192,285939,1,2,0:0:0:0:
192,192,285939,1,2,0:0:0:0:
448,192,286117,1,0,0:0:0:0:
192,192,286296,1,0,0:0:0:0:
448,192,286653,1,8,0:0:0:0:
320,192,286653,1,8,0:0:0:0:
192,192,286742,1,8,0:0:0:0:
64,192,286742,1,8,0:0:0:0:
320,192,286832,1,8,0:0:0:0:
448,192,286832,1,8,0:0:0:0:
192,192,286921,1,8,0:0:0:0:
64,192,286921,1,8,0:0:0:0:
320,192,287010,1,8,0:0:0:0:
448,192,287010,1,8,0:0:0:0:
192,192,287099,1,8,0:0:0:0:
64,192,287099,1,8,0:0:0:0:
320,192,287189,1,8,0:0:0:0:
448,192,287189,1,8,0:0:0:0:
64,192,287367,1,0,0:0:0:0:
320,192,287367,1,8,0:0:0:0:
192,192,287546,1,0,0:0:0:0:
64,192,287724,1,0,0:0:0:0:
320,192,287902,1,8,0:0:0:0:
448,192,287902,1,0,0:0:0:0:
192,192,288082,1,0,0:0:0:0:
192,192,288260,1,0,0:0:0:0:
320,192,288439,1,8,0:0:0:0:
448,192,288439,1,0,0:0:0:0:
64,192,288617,1,0,0:0:0:0:
320,192,288796,1,0,0:0:0:0:
448,192,288974,1,8,0:0:0:0:
64,192,288974,1,0,0:0:0:0:
320,192,289153,1,0,0:0:0:0:
320,192,289332,1,0,0:0:0:0:
192,192,289510,1,8,0:0:0:0:
64,192,289510,1,8,0:0:0:0:
448,192,289689,1,0,0:0:0:0:
192,192,289867,1,8,0:0:0:0:
64,192,289867,1,0,0:0:0:0:
448,192,290046,1,0,0:0:0:0:
192,192,290224,1,8,0:0:0:0:
64,192,290224,1,0,0:0:0:0:
320,192,290403,1,0,0:0:0:0:
192,192,290582,1,0,0:0:0:0:
448,192,290760,1,0,0:0:0:0:
320,192,290760,1,8,0:0:0:0:
192,192,290939,1,0,0:0:0:0:
320,192,291117,1,0,0:0:0:0:
192,192,291295,1,8,0:0:0:0:
64,192,291296,1,0,0:0:0:0:
320,192,291474,1,0,0:0:0:0:
192,192,291653,1,0,0:0:0:0:
320,192,291832,1,8,0:0:0:0:
448,192,291832,1,0,0:0:0:0:
320,192,292010,1,0,0:0:0:0:
192,192,292188,1,0,0:0:0:0:
64,192,292188,1,0,0:0:0:0:
192,192,292367,1,4,0:0:0:0:
448,192,292367,1,4,0:0:0:0:
320,192,292546,1,8,0:0:0:0:
64,192,292546,1,0,0:0:0:0:
448,192,292724,1,0,0:0:0:0:
192,192,292724,1,0,0:0:0:0:
64,192,292903,1,0,0:0:0:0:
320,192,292903,1,0,0:0:0:0:
192,192,293082,1,0,0:0:0:0:
320,192,293082,1,8,0:0:0:0:
448,192,293260,1,0,0:0:0:0:
448,192,293439,1,0,0:0:0:0:
192,192,293617,1,8,0:0:0:0:
320,192,293617,1,0,0:0:0:0:
64,192,293796,1,0,0:0:0:0:
64,192,293974,1,0,0:0:0:0:
448,192,294153,1,0,0:0:0:0:
320,192,294153,1,8,0:0:0:0:
192,192,294332,1,0,0:0:0:0:
64,192,294510,1,0,0:0:0:0:
192,192,294689,1,0,0:0:0:0:
320,192,294689,1,8,0:0:0:0:
448,192,294867,1,0,0:0:0:0:
448,192,295046,1,0,0:0:0:0:
192,192,295224,1,8,0:0:0:0:
64,192,295224,1,0,0:0:0:0:
320,192,295403,1,0,0:0:0:0:
192,192,295582,1,8,0:0:0:0:
64,192,295582,1,0,0:0:0:0:
320,192,295760,1,0,0:0:0:0:
192,192,295939,1,8,0:0:0:0:
64,192,295939,1,0,0:0:0:0:
320,192,296117,1,0,0:0:0:0:
320,192,296296,1,0,0:0:0:0:
448,192,296474,1,0,0:0:0:0:
192,192,296474,1,8,0:0:0:0:
320,192,296653,1,0,0:0:0:0:
320,192,296832,1,0,0:0:0:0:
448,192,297010,1,0,0:0:0:0:
192,192,297010,1,8,0:0:0:0:
64,192,297189,1,0,0:0:0:0:
64,192,297367,1,0,0:0:0:0:
192,192,297546,1,0,0:0:0:0:
448,192,297546,1,8,0:0:0:0:
64,192,297724,1,0,0:0:0:0:
448,192,297903,1,0,0:0:0:0:
320,192,298082,1,0,0:0:0:0:
192,192,298260,1,0,0:0:0:0:
64,192,298438,1,0,0:0:0:0:
192,192,298439,1,0,0:0:0:0:
320,192,298528,1,8,0:0:0:0:
448,192,298617,1,0,0:0:0:0:
320,192,298795,128,0,299331:0:0:0:0:
192,192,298796,1,8,0:0:0:0:
64,192,298974,1,0,0:0:0:0:
448,192,299152,1,0,0:0:0:0:
64,192,299331,1,0,0:0:0:0:
192,192,299331,1,8,0:0:0:0:
448,192,299510,1,0,0:0:0:0:
448,192,299689,1,0,0:0:0:0:
320,192,299867,1,0,0:0:0:0:
192,192,299867,1,8,0:0:0:0:
64,192,300045,1,0,0:0:0:0:
64,192,300224,1,0,0:0:0:0:
192,192,300403,1,0,0:0:0:0:
320,192,300403,1,8,0:0:0:0:
64,192,300581,1,0,0:0:0:0:
320,192,300760,1,0,0:0:0:0:
64,192,300938,1,0,0:0:0:0:
448,192,300938,1,8,0:0:0:0:
192,192,301117,1,0,0:0:0:0:
448,192,301296,1,8,0:0:0:0:
64,192,301296,1,0,0:0:0:0:
320,192,301474,1,0,0:0:0:0:
64,192,301652,1,0,0:0:0:0:
448,192,301653,1,8,0:0:0:0:
192,192,301831,1,0,0:0:0:0:
448,192,302010,1,0,0:0:0:0:
320,192,302189,1,8,0:0:0:0:
64,192,302189,1,0,0:0:0:0:
448,192,302367,1,0,0:0:0:0:
192,192,302546,1,0,0:0:0:0:
448,192,302724,1,0,0:0:0:0:
320,192,302724,1,8,0:0:0:0:
192,192,302902,1,0,0:0:0:0:
64,192,303082,1,0,0:0:0:0:
448,192,303260,1,0,0:0:0:0:
192,192,303260,1,8,0:0:0:0:
64,192,303438,1,0,0:0:0:0:
320,192,303617,1,0,0:0:0:0:
448,192,303796,1,0,0:0:0:0:
64,192,303796,1,8,0:0:0:0:
192,192,303974,1,0,0:0:0:0:
448,192,304153,1,8,0:0:0:0:
64,192,304153,1,0,0:0:0:0:
320,192,304332,1,0,0:0:0:0:
448,192,304510,1,0,0:0:0:0:
64,192,304510,1,8,0:0:0:0:
192,192,304689,1,0,0:0:0:0:
192,192,304867,1,0,0:0:0:0:
320,192,305046,1,8,0:0:0:0:
448,192,305046,1,0,0:0:0:0:
64,192,305224,1,0,0:0:0:0:
64,192,305403,1,0,0:0:0:0:
192,192,305582,1,8,0:0:0:0:
320,192,305582,1,0,0:0:0:0:
448,192,305760,1,0,0:0:0:0:
448,192,305939,1,0,0:0:0:0:
320,192,306117,1,8,0:0:0:0:
64,192,306117,1,0,0:0:0:0:
192,192,306296,1,0,0:0:0:0:
192,192,306474,1,0,0:0:0:0:
320,192,306564,1,0,0:0:0:0:
448,192,306653,1,8,0:0:0:0:
192,192,306653,1,0,0:0:0:0:
320,192,306832,1,0,0:0:0:0:
448,192,307010,1,8,0:0:0:0:
192,192,307010,1,0,0:0:0:0:
320,192,307189,1,0,0:0:0:0:
64,192,307367,1,0,0:0:0:0:
192,192,307367,1,8,0:0:0:0:
448,192,307546,1,0,0:0:0:0:
320,192,307724,1,0,0:0:0:0:
192,192,307903,1,8,0:0:0:0:
64,192,307903,1,0,0:0:0:0:
448,192,308082,1,0,0:0:0:0:
64,192,308260,1,0,0:0:0:0:
320,192,308439,1,8,0:0:0:0:
448,192,308439,1,0,0:0:0:0:
192,192,308617,1,0,0:0:0:0:
320,192,308707,1,0,0:0:0:0:
64,192,308795,1,0,0:0:0:0:
448,192,308796,1,8,0:0:0:0:
64,192,308974,1,0,0:0:0:0:
192,192,309064,1,0,0:0:0:0:
448,192,309153,1,0,0:0:0:0:
320,192,309242,1,0,0:0:0:0:
64,192,309332,1,0,0:0:0:0:
192,192,309421,1,0,0:0:0:0:
448,192,309510,1,0,0:0:0:0:
320,192,309599,1,0,0:0:0:0:
64,192,309689,1,0,0:0:0:0:
192,192,309778,1,0,0:0:0:0:
448,192,309867,1,0,0:0:0:0:
320,192,309957,1,0,0:0:0:0:
64,192,310046,1,0,0:0:0:0:
192,192,310135,1,0,0:0:0:0:
320,192,310224,1,2,0:0:0:0:
448,192,310224,1,2,0:0:0:0:
448,192,310760,1,2,0:0:0:0:
320,192,311296,1,2,0:0:0:0:
192,192,311832,1,2,0:0:0:0:
64,192,312367,1,2,0:0:0:0:
448,192,312902,1,0,0:0:0:0:
64,192,312903,1,0,0:0:0:0:
320,192,312992,1,0,0:0:0:0:
192,192,313082,1,0,0:0:0:0:
64,192,313082,1,8,0:0:0:0:
448,192,313260,1,0,0:0:0:0:
448,192,313439,1,0,0:0:0:0:
192,192,313617,1,8,0:0:0:0:
64,192,313617,1,8,0:0:0:0:
448,192,313796,1,0,0:0:0:0:
448,192,313974,1,0,0:0:0:0:
192,192,314153,1,8,0:0:0:0:
64,192,314153,1,8,0:0:0:0:
320,192,314332,1,0,0:0:0:0:
320,192,314510,1,0,0:0:0:0:
192,192,314689,1,8,0:0:0:0:
448,192,314689,1,0,0:0:0:0:
320,192,314867,1,0,0:0:0:0:
192,192,315046,1,0,0:0:0:0:
320,192,315135,1,0,0:0:0:0:
448,192,315224,1,8,0:0:0:0:
64,192,315224,1,8,0:0:0:0:
64,192,315403,1,8,0:0:0:0:
448,192,315403,1,8,0:0:0:0:
192,192,315939,1,4,0:0:0:0:
320,192,315939,1,4,0:0:0:0:
192,192,316296,1,0,0:0:0:0:
64,192,316474,1,0,0:0:0:0:
320,192,316653,1,0,0:0:0:0:
448,192,316832,1,0,0:0:0:0:
192,192,317010,1,0,0:0:0:0:
64,192,317189,1,0,0:0:0:0:
448,192,317367,1,0,0:0:0:0:
320,192,317546,1,0,0:0:0:0:
192,192,317724,1,0,0:0:0:0:
64,192,317903,1,0,0:0:0:0:
192,192,318082,1,0,0:0:0:0:
320,192,318260,1,0,0:0:0:0:
64,192,318439,1,0,0:0:0:0:
448,192,318617,1,0,0:0:0:0:
64,192,318796,1,0,0:0:0:0:
448,192,318974,1,0,0:0:0:0:
64,192,319153,1,0,0:0:0:0:
192,192,319332,1,0,0:0:0:0:
320,192,319510,1,0,0:0:0:0:
64,192,319689,1,0,0:0:0:0:
320,192,319867,1,0,0:0:0:0:
64,192,320046,1,0,0:0:0:0:
192,192,320224,1,0,0:0:0:0:
448,192,320403,1,0,0:0:0:0:
192,192,320582,1,0,0:0:0:0:
320,192,320760,1,0,0:0:0:0:
192,192,320939,1,0,0:0:0:0:
64,192,321117,1,0,0:0:0:0:
448,192,321296,1,0,0:0:0:0:
192,192,321296,1,0,0:0:0:0:
320,192,321474,1,0,0:0:0:0:
64,192,321474,1,0,0:0:0:0:
192,192,321653,1,4,0:0:0:0:
448,192,321653,1,4,0:0:0:0:
320,192,321832,1,0,0:0:0:0:
192,192,322010,1,0,0:0:0:0:
64,192,322189,1,0,0:0:0:0:
320,192,322367,1,0,0:0:0:0:
192,192,322546,1,0,0:0:0:0:
64,192,322724,1,0,0:0:0:0:
320,192,322903,1,0,0:0:0:0:
192,192,323082,1,0,0:0:0:0:
64,192,323260,1,0,0:0:0:0:
320,192,323439,1,0,0:0:0:0:
448,192,323617,1,0,0:0:0:0:
192,192,323796,1,0,0:0:0:0:
320,192,323974,1,0,0:0:0:0:
448,192,324153,1,0,0:0:0:0:
64,192,324332,1,0,0:0:0:0:
192,192,324510,1,0,0:0:0:0:
320,192,324689,1,0,0:0:0:0:
448,192,324867,1,0,0:0:0:0:
64,192,325046,1,0,0:0:0:0:
192,192,325224,1,0,0:0:0:0:
64,192,325403,1,0,0:0:0:0:
320,192,325582,1,0,0:0:0:0:
192,192,325760,1,0,0:0:0:0:
64,192,325939,1,0,0:0:0:0:
192,192,326117,1,0,0:0:0:0:
320,192,326296,1,0,0:0:0:0:
192,192,326474,1,0,0:0:0:0:
64,192,326653,1,0,0:0:0:0:
192,192,326832,1,0,0:0:0:0:
448,192,327010,1,0,0:0:0:0:
320,192,327010,1,0,0:0:0:0:
448,192,327189,1,0,0:0:0:0:
320,192,327189,1,0,0:0:0:0:
448,192,327367,1,4,0:0:0:0:
320,192,327367,1,4,0:0:0:0:
192,192,327546,1,0,0:0:0:0:
320,192,327724,1,0,0:0:0:0:
64,192,327903,1,0,0:0:0:0:
192,192,328082,1,0,0:0:0:0:
64,192,328260,1,0,0:0:0:0:
320,192,328439,1,0,0:0:0:0:
64,192,328617,1,0,0:0:0:0:
448,192,328796,1,0,0:0:0:0:
192,192,328974,1,0,0:0:0:0:
448,192,329153,1,0,0:0:0:0:
64,192,329332,1,0,0:0:0:0:
448,192,329510,1,0,0:0:0:0:
192,192,329689,1,0,0:0:0:0:
448,192,329867,1,0,0:0:0:0:
320,192,330046,1,0,0:0:0:0:
192,192,330224,1,0,0:0:0:0:
448,192,330224,1,0,0:0:0:0:
64,192,330403,1,0,0:0:0:0:
192,192,330582,1,0,0:0:0:0:
320,192,330760,1,0,0:0:0:0:
448,192,330939,1,0,0:0:0:0:
64,192,331117,1,0,0:0:0:0:
192,192,331296,1,0,0:0:0:0:
320,192,331474,1,0,0:0:0:0:
448,192,331653,1,0,0:0:0:0:
192,192,331653,1,0,0:0:0:0:
320,192,331832,1,0,0:0:0:0:
192,192,332010,1,0,0:0:0:0:
64,192,332189,1,0,0:0:0:0:
320,192,332367,1,0,0:0:0:0:
192,192,332367,1,0,0:0:0:0:
448,192,332546,1,0,0:0:0:0:
64,192,332546,1,0,0:0:0:0:
192,192,332724,1,0,0:0:0:0:
320,192,332724,1,0,0:0:0:0:
64,192,332903,128,10,333082:0:0:0:0:
448,192,332903,128,10,333082:0:0:0:0:
