osu file format v14

[General]
AudioFilename: audio.mp3
AudioLeadIn: 0
PreviewTime: 75330
Countdown: 0
SampleSet: Soft
StackLeniency: 0.7
Mode: 0
LetterboxInBreaks: 0
WidescreenStoryboard: 1

[Editor]
Bookmarks: 96531
DistanceSpacing: 1.2
BeatDivisor: 4
GridSize: 32
TimelineZoom: 1.8

[Metadata]
Title:Mr.Downer
TitleUnicode:Mr.Downer
Artist:supercell
ArtistUnicode:supercell
Creator:Reform
Version:AF's Extra
Source:
Tags:ryo Zigaexperientia kujinn Affirmation neoskylove xenon- xehn japanese pop
BeatmapID:1951733
BeatmapSetID:932165

[Difficulty]
HPDrainRate:5.3
CircleSize:3.3
OverallDifficulty:8.3
ApproachRate:9
SliderMultiplier:0.999999999999999
SliderTickRate:1

[Events]
//Background and Video events
0,0,"BG.png",0,0
//Break Periods
//Storyboard Layer 0 (Background)
//Storyboard Layer 1 (Fail)
//Storyboard Layer 2 (Pass)
//Storyboard Layer 3 (Foreground)
//Storyboard Sound Samples

[TimingPoints]
385,335.195530726257,4,2,1,65,1,0
10440,-71.4285714285714,4,2,1,65,0,0
11111,-55.5555555555556,4,2,1,75,0,0
21837,-83.3333333333333,4,2,1,40,0,0
32228,-83.3333333333333,4,2,1,60,0,0
32563,-62.5,4,2,1,50,0,0
42619,-62.5,4,2,1,60,0,0
43290,-71.4285714285714,4,2,1,40,0,0
51334,-71.4285714285714,4,2,1,60,0,0
53345,-111.111111111111,4,2,1,60,0,0
54016,-70.4225352112676,4,2,1,50,0,0
62060,-61.7283950617284,4,2,1,60,0,0
64742,-400,4,2,1,60,0,0
64826,-400,4,2,1,5,0,0
69434,-400,4,2,1,40,0,0
69435,-400,4,2,1,35,0,0
70105,-68.9655172413793,4,2,1,40,0,0
70272,-68.9655172413793,4,2,1,30,0,0
70440,-68.9655172413793,4,2,1,40,0,0
70607,-68.9655172413793,4,2,1,30,0,0
70776,-68.9655172413793,4,2,1,40,0,0
70943,-68.9655172413793,4,2,1,30,0,0
71111,-68.9655172413793,4,2,1,40,0,0
71278,-68.9655172413793,4,2,1,30,0,0
71446,-68.9655172413793,4,2,1,45,0,0
72787,-68.9655172413793,4,2,1,70,0,0
74798,-250,4,2,1,35,0,0
75468,-55.5555555555556,4,2,1,80,0,0
96921,-58.8235294117647,4,2,1,80,0,0
102295,447.761194029851,4,2,1,60,1,0
102295,-71.4285714285714,4,2,1,60,0,0
102966,-100,4,2,1,60,0,0
103645,833.333333333333,4,2,1,60,1,0
104478,-117.647058823529,4,2,1,30,0,0

[Colours]
Combo1 : 69,90,107
Combo2 : 95,35,35
Combo3 : 220,24,24
Combo4 : 171,122,31

[HitObjects]
268,240,10440,5,8,0:0:0:0:
450,251,10608,2,0,B|405:258|405:258|376:291|376:291|326:298,1,139.999995727539,0|0,1:0|1:0,0:0:0:0:
138,274,11111,5,12,0:0:0:0:
239,75,11278,2,0,B|279:121|279:121|267:239,1,179.999994506836,0|0,1:0|1:0,0:0:0:0:
37,192,11781,2,0,L|169:168,1,134.999995880127,8|0,0:0|1:0,0:0:0:0:
169,168,12116,1,8,0:0:0:0:
411,89,12284,6,0,B|299:113|359:46|237:74,1,179.999994506836,0|0,1:0|1:0,0:0:0:0:
371,311,12787,2,0,B|400:269|400:269|379:187,1,134.999995880127,8|0,0:0|0:0,0:0:0:0:
379,187,13122,1,0,1:0:0:0:
212,300,13290,1,0,1:0:0:0:
467,322,13457,1,8,0:0:0:0:
256,192,13625,1,0,1:0:0:0:
446,78,13792,5,12,0:0:0:0:
241,208,13960,2,0,B|122:222|192:159|71:178,1,179.999994506836,0|0,1:0|1:0,0:0:0:0:
96,384,14463,2,0,B|125:345|125:345|108:260,1,134.999995880127,8|0,0:0|1:0,0:0:0:0:
108,260,14798,5,8,0:0:0:0:
252,118,14966,2,0,L|231:296,1,179.999994506836,0|0,1:0|1:0,0:0:0:0:
445,367,15468,2,0,P|479:311|453:251,1,134.999995880127,8|0,0:0|1:0,0:0:0:0:
453,251,15803,1,0,1:0:0:0:
232,297,15971,1,0,1:0:0:0:
416,128,16139,1,8,0:2:0:0:
253,279,16306,1,0,1:0:0:0:
291,54,16474,5,12,0:0:0:0:
332,334,16641,2,0,B|346:271|346:271|327:213|327:213|334:159,1,179.999994506836,0|0,1:0|1:0,0:0:0:0:
123,274,17144,2,0,B|164:294|164:294|253:279,1,134.999995880127,8|0,0:0|1:0,0:0:0:0:
253,279,17479,5,8,0:0:0:0:
113,99,17647,2,0,B|96:195|153:163|123:274,1,179.999994506836,0|0,1:0|1:0,0:0:0:0:
263,138,18150,2,0,L|249:49,1,89.999997253418,8|0,0:0|1:0,0:0:0:0:
249,49,18401,1,0,1:0:0:0:
249,49,18485,1,0,1:0:0:0:
182,213,18653,1,0,1:0:0:0:
361,108,18820,1,0,1:0:0:0:
139,44,18988,1,8,0:0:0:0:
326,208,19155,5,12,0:0:0:0:
114,27,19323,2,0,B|71:71|71:71|90:187,1,179.999994506836,0|0,1:0|1:0,0:0:0:0:
254,345,19826,2,0,P|261:301|247:258,1,89.999997253418,8|0,0:0|1:0,0:0:0:0:
247,258,20077,1,0,1:0:0:0:
247,258,20161,5,8,0:0:0:0:
0,317,20329,2,0,B|112:334|60:282|175:308,1,179.999994506836,0|0,1:0|1:0,0:0:0:0:
414,191,20831,2,0,L|325:209,1,89.999997253418,8|0,0:0|1:0,0:0:0:0:
325,209,21083,1,0,1:0:0:0:
325,209,21167,1,0,1:0:0:0:
495,227,21334,1,0,1:0:0:0:
367,111,21502,1,12,0:0:0:0:
404,280,21669,1,0,0:0:0:0:
473,124,21837,5,6,0:0:0:0:
473,124,22005,2,0,P|478:64|485:4,1,119.999996337891,0|0,0:0|0:0,0:0:0:0:
414,191,22507,2,0,P|417:220|419:250,1,59.9999981689453,2|0,0:0|0:0,0:0:0:0:
299,322,22843,6,0,B|365:311|344:356|413:337,1,119.999996337891,2|0,0:0|0:0,0:0:0:0:
296,236,23345,2,0,P|236:229|176:221,1,119.999996337891,2|0,0:0|0:0,0:0:0:0:
57,354,23848,2,0,B|80:315|80:315|69:241,1,119.999996337891,2|0,0:0|0:0,0:0:0:0:
173,73,24351,6,0,L|167:132,1,59.9999981689453,2|2,0:0|0:0,0:0:0:0:
176,221,24686,1,2,0:0:0:0:
176,221,25021,2,0,P|235:214|295:206,1,119.999996337891,2|2,0:0|0:0,0:0:0:0:
348,80,25524,2,0,L|339:139,1,59.9999981689453,2|0,0:0|0:0,0:0:0:0:
395,294,25859,1,2,0:0:0:0:
395,294,26027,1,2,0:0:0:0:
458,239,26195,2,0,L|441:114,2,119.999996337891,2|2|0,0:0|0:0|0:0,0:0:0:0:
304,355,27033,1,2,0:0:0:0:
266,254,27200,5,0,0:0:0:0:
303,354,27368,2,0,P|247:336|188:340,1,119.999996337891,2|2,0:0|0:0,0:0:0:0:
74,308,27871,2,0,L|62:249,1,59.9999981689453,0|2,0:0|0:0,0:0:0:0:
223,143,28206,2,0,L|211:201,1,59.9999981689453,2|0,0:0|0:0,0:0:0:0:
103,129,28541,2,0,L|91:71,2,59.9999981689453,2|2|2,0:0|0:0|0:0,0:0:0:0:
285,88,29044,2,0,P|232:61|175:75,2,119.999996337891,2|2|2,0:0|0:0|0:0,0:0:0:0:
349,250,29882,5,2,0:0:0:0:
364,167,30049,2,0,L|377:47,1,119.999996337891,2|2,0:0|0:0,0:0:0:0:
263,233,30552,2,0,L|269:292,1,59.9999981689453,2|0,0:0|0:0,0:0:0:0:
159,176,30887,1,2,0:0:0:0:
225,124,31055,6,0,L|284:117,1,59.9999981689453,0|2,0:0|0:0,0:0:0:0:
93,228,31390,2,0,L|33:221,1,59.9999981689453,2|2,0:0|0:0,0:0:0:0:
107,110,31725,1,2,0:0:0:0:
211,242,31893,2,0,L|207:271,2,29.9999990844727,10|8|0,0:0|0:0|1:0,0:0:0:0:
370,116,32228,2,0,B|338:130|338:130|284:117,1,89.999997253418,10|0,0:0|0:0,0:0:0:0:
284,117,32563,6,0,L|302:275,1,160,6|2,1:2|1:2,0:0:0:0:
200,186,33066,1,0,0:0:0:0:
383,212,33234,2,0,P|422:214|462:211,1,79.9999999999999,2|2,1:2|0:0,0:0:0:0:
292,360,33569,1,2,1:2:0:0:
216,312,33736,2,0,P|138:303|61:323,2,160,2|2|2,0:0|0:0|0:0,0:0:0:0:
292,360,34574,1,0,1:2:0:0:
287,142,34742,1,2,0:0:0:0:
381,368,34910,1,2,1:2:0:0:
418,128,35077,1,2,0:0:0:0:
200,186,35245,5,0,1:2:0:0:
359,197,35412,2,0,L|200:186,1,160,2|2,0:0|0:0,0:0:0:0:
291,358,35915,2,0,P|300:319|296:279,1,79.9999999999999,2|2,1:2|0:0,0:0:0:0:
174,101,36250,1,2,1:2:0:0:
113,165,36418,6,0,P|99:243|116:321,1,160,2|2,0:0|0:0,0:0:0:0:
199,186,36921,1,2,1:2:0:0:
17,282,37088,1,2,0:0:0:0:
225,338,37256,2,0,P|285:331|345:324,2,120,2|2|2,1:2|0:0|0:0,0:0:0:0:
298,104,37926,5,2,1:2:0:0:
448,352,38094,2,0,B|424:260|479:291|450:195,1,160,2|2,0:0|0:0,0:0:0:0:
231,214,38597,2,0,P|290:223|349:233,2,120,2|2|2,1:2|0:0|0:0,0:0:0:0:
55,72,39267,5,2,1:2:0:0:
120,256,39435,2,0,B|153:209|153:209|135:107,1,160,2|2,0:0|0:0,0:0:0:0:
37,325,39938,1,2,1:2:0:0:
117,359,40105,2,0,B|215:371|164:314|269:332,1,160,0|2,0:0|0:0,0:0:0:0:
435,370,40608,5,2,1:2:0:0:
420,210,40776,2,0,L|434:369,1,160,2|2,0:0|0:0,0:0:0:0:
490,164,41278,2,0,L|500:44,2,120,2|2|2,1:2|0:0|0:0,0:0:0:0:
303,106,41949,6,0,P|341:97|381:103,1,79.9999999999999,2|2,1:2|0:0,0:0:0:0:
183,211,42284,2,0,L|103:204,1,79.9999999999999,2|2,1:2|0:0,0:0:0:0:
304,265,42619,2,0,L|300:304,2,40,8|8|0,0:0|0:0|1:2,0:0:0:0:
198,49,42954,2,0,B|165:27|165:27|174:106,1,120,8|0,0:0|0:0,0:0:0:0:
174,106,43290,5,4,1:2:0:0:
404,66,43457,2,0,P|346:28|280:42,1,139.999995727539,0|0,0:0|0:0,0:0:0:0:
381,165,43960,2,0,P|414:152|447:141,1,69.9999978637695,10|0,0:0|0:0,0:0:0:0:
272,142,44295,2,0,P|284:174|295:207,1,69.9999978637695,0|0,1:2|0:0,0:0:0:0:
223,350,44630,5,2,1:2:0:0:
164,288,44798,2,0,P|228:265|289:295,1,139.999995727539,0|0,0:0|0:0,0:0:0:0:
139,370,45301,2,0,P|104:363|70:358,1,69.9999978637695,10|0,0:0|0:0,0:0:0:0:
289,295,45636,2,0,P|323:288|357:283,1,69.9999978637695,0|0,1:2|0:0,0:0:0:0:
195,227,45971,5,2,1:2:0:0:
184,91,46139,2,0,B|202:128|202:128|195:227,1,139.999995727539,0|0,0:0|0:0,0:0:0:0:
45,165,46641,2,0,L|114:157,1,69.9999978637695,10|0,0:0|0:0,0:0:0:0:
358,197,46977,2,0,P|324:206|289:203,1,69.9999978637695,0|0,1:2|0:0,0:0:0:0:
432,56,47312,5,2,1:2:0:0:
476,126,47479,2,0,L|473:265,2,139.999995727539,0|2|0,0:0|0:0|0:0,0:0:0:0:
289,203,48317,2,0,P|324:206|358:197,1,69.9999978637695,2|0,1:2|0:0,0:0:0:0:
221,313,48653,5,2,1:2:0:0:
150,268,48820,2,0,P|81:270|29:315,1,139.999995727539,0|0,0:0|0:0,0:0:0:0:
29,315,49491,2,0,B|38:263|38:263|23:222|23:222|28:178,1,139.999995727539,0|0,0:0|0:0,0:0:0:0:
144,61,49993,1,0,1:2:0:0:
201,122,50161,6,0,P|132:109|63:95,2,139.999995727539,0|0|0,0:0|0:0|0:0,0:0:0:0:
201,122,51167,1,0,0:0:0:0:
388,221,51334,5,10,0:0:0:0:
388,221,51418,1,8,0:0:0:0:
388,221,51502,1,0,1:2:0:0:
168,335,52507,5,10,0:0:0:0:
168,335,52591,1,8,0:0:0:0:
168,335,52675,1,0,1:2:0:0:
234,113,53178,5,10,0:0:0:0:
234,113,53262,1,8,0:0:0:0:
234,113,53345,2,0,B|262:158|262:158|247:261,1,157.499995193481,8|0,0:2|0:0,0:0:0:0:
247,261,54016,6,0,P|317:253|388:245,1,141.999992849732,4|0,1:2|1:2,0:0:0:0:
225,343,54519,1,0,0:0:0:0:
144,316,54686,2,0,P|108:311|73:307,1,70.9999964248658,2|0,1:2|0:0,0:0:0:0:
315,347,55021,2,0,P|350:342|385:338,1,70.9999964248658,0|0,1:2|0:0,0:0:0:0:
210,204,55357,6,0,B|200:283|238:264|224:342,1,141.999992849732,2|0,1:2|1:2,0:0:0:0:
330,172,55859,1,0,0:0:0:0:
273,107,56027,2,0,L|259:37,1,70.9999964248658,2|0,1:2|0:0,0:0:0:0:
387,237,56362,2,0,L|373:306,1,70.9999964248658,0|0,1:2|0:0,0:0:0:0:
161,254,56697,6,0,B|212:247|212:247|243:265|243:265|295:258,1,141.999992849732,2|0,1:2|1:2,0:0:0:0:
431,133,57200,1,0,0:0:0:0:
259,37,57368,2,0,L|273:107,1,70.9999964248658,2|0,1:2|0:0,0:0:0:0:
463,280,57703,2,0,P|471:245|466:210,1,70.9999964248658,0|0,1:2|0:0,0:0:0:0:
213,159,58038,6,0,P|282:145|352:131,1,141.999992849732,2|0,1:2|1:2,0:0:0:0:
184,270,58541,2,0,B|101:282|146:229|50:243,1,141.999992849732,2|0,0:0|0:0,0:0:0:0:
269,368,59044,2,0,P|277:333|272:298,1,70.9999964248658,2|0,1:2|0:0,0:0:0:0:
352,131,59379,6,0,P|344:201|357:270,1,141.999992849732,2|0,1:2|1:2,0:0:0:0:
460,350,59882,1,0,0:0:0:0:
501,168,60049,2,0,P|467:178|433:190,1,70.9999964248658,0|0,1:2|0:0,0:0:0:0:
260,209,60385,2,0,P|226:197|192:186,1,70.9999964248658,0|0,1:2|0:0,0:0:0:0:
70,35,60720,6,0,B|54:123|86:81|67:175,1,141.999992849732,0|0,1:2|1:2,0:0:0:0:
40,350,61222,1,0,0:0:0:0:
16,247,61390,2,0,P|50:253|85:261,1,70.9999964248658,0|0,1:2|0:0,0:0:0:0:
212,339,61725,2,0,P|177:345|142:353,1,70.9999964248658,0|0,1:2|0:0,0:0:0:0:
277,163,62060,5,12,0:0:0:0:
329,350,62228,2,0,P|344:270|367:192,1,162.000003955078,0|0,1:0|1:0,0:0:0:0:
175,85,62731,2,0,P|182:124|187:164,1,81.000001977539,8|0,0:0|1:0,0:0:0:0:
274,33,63066,1,8,0:0:0:0:
91,150,63234,1,0,1:0:0:0:
277,163,63401,6,0,P|356:149|436:135,1,162.000003955078,2|8,1:2|0:0,0:0:0:0:
238,279,63904,1,0,1:0:0:0:
128,148,64072,2,0,L|118:67,1,81.000001977539,10|0,0:0|1:0,0:0:0:0:
347,258,64407,2,0,L|337:338,1,81.000001977539,8|0,0:0|1:0,0:0:0:0:
21,305,64742,6,0,B|143:337|143:337|238:280|238:280|129:253,1,350,6|0,1:2|0:0,0:0:0:0:
130,254,70105,6,0,P|125:219|120:183,1,72.5000022125244,2|0,1:2|0:0,0:0:0:0:
207,165,70440,2,0,P|185:136|162:107,1,72.5000022125244,0|0,1:2|0:0,0:0:0:0:
19,295,70776,2,0,P|33:261|46:227,1,72.5000022125244,0|0,1:2|0:0,0:0:0:0:
51,135,71111,2,0,P|46:99|41:63,1,72.5000022125244,0|0,1:2|0:0,0:0:0:0:
207,165,71446,6,0,P|239:149|275:142,1,72.5000022125244,0|0,1:2|1:2,0:0:0:0:
326,215,71781,2,0,P|355:235|379:262,1,72.5000022125244,0|0,1:2|1:2,0:0:0:0:
160,327,72116,2,0,P|162:290|174:256,1,72.5000022125244,0|0,1:2|1:2,0:0:0:0:
365,343,72452,2,0,B|289:358|289:358|259:347,1,108.750003318787,0|0,1:2|0:0,0:0:0:0:
259,347,72787,5,2,1:2:0:0:
315,241,72954,1,0,1:2:0:0:
196,178,73122,2,0,P|206:212|215:247,1,72.5000022125244,0|0,1:2|1:2,0:0:0:0:
291,145,73457,5,0,1:2:0:0:
125,240,73625,1,0,1:2:0:0:
315,240,73792,2,0,P|350:233|386:229,1,72.5000022125244,0|0,1:2|1:2,0:0:0:0:
114,139,74128,6,0,P|78:131|42:127,1,72.5000022125244,2|0,1:2|1:2,0:0:0:0:
287,31,74463,1,2,1:2:0:0:
215,247,74630,1,10,0:0:0:0:
178,68,74798,6,0,L|171:49,3,20,0|0|0|0,0:0|0:0|0:0|0:0,0:0:0:0:
269,118,75468,6,0,L|358:107,1,89.999997253418,14|0,0:0|0:0,0:0:0:0:
142,234,75803,2,0,L|52:223,1,89.999997253418,8|0,0:0|0:0,0:0:0:0:
287,272,76139,1,10,0:0:0:0:
176,128,76306,1,2,1:2:0:0:
297,285,76474,2,0,P|314:326|303:369,1,89.999997253418,10|0,0:0|1:2,0:0:0:0:
122,272,76809,5,10,0:0:0:0:
394,167,76977,1,0,0:0:0:0:
130,158,77144,5,10,0:0:0:0:
401,263,77312,1,0,1:2:0:0:
108,277,77479,5,10,0:0:0:0:
407,162,77647,1,0,1:2:0:0:
116,152,77815,5,10,0:0:0:0:
415,267,77982,1,0,1:2:0:0:
253,125,78150,6,0,L|246:35,1,89.999997253418,12|0,0:0|0:0,0:0:0:0:
253,259,78485,2,0,L|246:348,1,89.999997253418,10|0,0:0|0:0,0:0:0:0:
496,191,78820,2,0,B|437:158|437:158|328:188,1,179.999994506836,10|8,0:0|0:0,0:0:0:0:
152,270,79323,1,0,1:2:0:0:
425,365,79491,6,0,L|432:276,1,89.999997253418,10|0,0:0|1:2,0:0:0:0:
315,13,79826,2,0,L|308:102,1,89.999997253418,10|0,0:0|1:2,0:0:0:0:
152,270,80161,1,10,0:0:0:0:
438,161,80329,1,0,1:2:0:0:
226,178,80496,1,10,0:0:0:0:
512,321,80664,1,0,1:2:0:0:
244,374,80831,6,0,P|230:331|243:288,1,89.999997253418,14|0,0:0|0:0,0:0:0:0:
438,161,81167,2,0,P|451:203|438:246,1,89.999997253418,8|0,0:0|0:0,0:0:0:0:
279,67,81502,1,10,0:0:0:0:
477,10,81669,1,2,1:2:0:0:
315,183,81837,2,0,L|225:177,1,89.999997253418,10|0,0:0|1:2,0:0:0:0:
99,274,82172,5,10,0:0:0:0:
438,245,82340,1,0,1:2:0:0:
99,86,82507,5,10,0:0:0:0:
438,115,82675,1,0,1:2:0:0:
81,283,82843,5,10,0:0:0:0:
455,251,83010,1,0,1:2:0:0:
81,76,83178,5,8,0:0:0:0:
455,109,83345,1,0,1:2:0:0:
193,352,83513,6,0,L|182:262,1,89.999997253418,12|0,0:0|0:0,0:0:0:0:
336,80,83848,1,10,0:0:0:0:
109,156,84016,1,2,0:0:0:0:
319,352,84183,2,0,L|329:262,1,89.999997253418,10|2,0:0|1:2,0:0:0:0:
221,37,84519,2,0,L|210:126,1,89.999997253418,10|2,0:0|1:2,0:0:0:0:
496,127,84854,6,0,P|455:107|411:110,1,89.999997253418,10|0,0:0|1:2,0:0:0:0:
182,262,85189,1,10,0:0:0:0:
453,347,85357,2,0,L|497:352,2,44.999998626709,0|0|10,1:2|1:0|0:0,0:0:0:0:
312,78,85692,1,0,1:2:0:0:
329,262,85859,2,0,L|319:352,1,89.999997253418,10|0,0:0|1:2,0:0:0:0:
132,184,86195,6,0,P|174:171|218:178,1,89.999997253418,14|0,0:0|0:0,0:0:0:0:
498,353,86530,2,0,P|455:365|411:358,1,89.999997253418,8|0,0:0|0:0,0:0:0:0:
273,106,86865,1,10,0:0:0:0:
449,268,87033,1,2,1:2:0:0:
193,352,87200,2,0,L|183:262,1,89.999997253418,10|0,0:0|1:2,0:0:0:0:
411,85,87535,5,10,0:0:0:0:
325,307,87703,1,0,1:2:0:0:
413,70,87871,5,10,0:0:0:0:
410,357,88038,1,0,1:2:0:0:
415,55,88206,5,10,0:0:0:0:
227,307,88373,1,0,1:2:0:0:
314,22,88541,5,10,0:0:0:0:
416,372,88709,1,0,1:2:0:0:
163,133,88876,6,0,P|206:123|250:132,1,89.999997253418,12|0,0:0|0:0,0:0:0:0:
483,271,89211,2,0,P|439:281|395:272,1,89.999997253418,10|0,0:0|0:0,0:0:0:0:
341,14,89547,2,0,B|328:74|328:74|347:127|347:127|333:187,1,179.999994506836,10|8,0:0|0:0,0:0:0:0:
234,353,90049,1,0,1:2:0:0:
73,139,90217,6,0,L|162:133,1,89.999997253418,10|0,0:0|1:2,0:0:0:0:
395,272,90552,2,0,L|305:277,1,89.999997253418,10|0,0:0|1:2,0:0:0:0:
134,23,90887,1,10,0:0:0:0:
162,275,91055,1,0,1:2:0:0:
39,19,91222,1,10,0:0:0:0:
69,296,91390,1,0,1:2:0:0:
310,69,91558,6,0,P|267:57|224:69,1,89.999997253418,14|0,0:0|0:0,0:0:0:0:
415,273,91893,2,0,P|457:284|500:272,1,89.999997253418,8|0,0:0|0:0,0:0:0:0:
400,64,92228,1,10,0:0:0:0:
222,199,92396,1,2,1:2:0:0:
407,362,92563,2,0,L|414:272,1,89.999997253418,10|0,0:0|1:2,0:0:0:0:
184,33,92898,5,10,0:0:0:0:
193,321,93066,1,0,0:0:0:0:
327,33,93234,5,10,0:0:0:0:
318,321,93401,1,0,1:2:0:0:
176,17,93569,5,10,0:0:0:0:
186,335,93736,1,0,1:2:0:0:
334,17,93904,5,8,0:0:0:0:
324,335,94072,1,0,1:2:0:0:
113,138,94239,6,0,P|156:127|200:134,1,89.999997253418,12|0,0:0|0:0,0:0:0:0:
81,348,94574,2,0,L|78:258,1,89.999997253418,10|0,0:0|0:0,0:0:0:0:
303,122,94910,2,0,L|300:211,1,89.999997253418,10|0,0:0|1:2,0:0:0:0:
25,115,95245,2,0,L|22:25,1,89.999997253418,10|0,0:0|1:2,0:0:0:0:
303,122,95580,5,10,0:0:0:0:
78,258,95748,1,0,1:2:0:0:
318,321,95915,2,0,L|408:318,1,89.999997253418,10|0,0:0|1:2,0:0:0:0:
149,117,96250,1,10,0:0:0:0:
230,374,96418,1,0,1:2:0:0:
392,124,96586,2,0,L|302:121,1,89.999997253418,8|0,0:0|1:2,0:0:0:0:
78,258,96921,6,0,B|182:289|182:289|233:254,1,170.000003242493,12|8,0:0|0:0,0:0:0:0:
302,121,97424,1,0,0:0:0:0:
52,69,97591,2,0,L|53:153,1,85.0000016212463,10|0,0:0|1:2,0:0:0:0:
316,303,97926,2,0,L|317:218,1,85.0000016212463,8|0,0:0|1:2,0:0:0:0:
140,21,98262,6,0,P|182:15|224:20,1,85.0000016212463,10|0,0:0|0:0,0:0:0:0:
404,200,98597,1,8,0:0:0:0:
120,261,98764,2,0,L|77:257,2,42.5000008106231,0|0|10,1:2|1:0|0:0,0:0:0:0:
422,193,99100,1,0,1:2:0:0:
224,20,99267,2,0,P|219:62|224:104,1,85.0000016212463,8|0,0:0|1:2,0:0:0:0:
398,305,99602,6,0,L|482:296,1,85.0000016212463,14|0,0:0|0:0,0:0:0:0:
222,361,99938,2,0,L|137:352,1,85.0000016212463,8|0,0:0|1:2,0:0:0:0:
301,165,100273,2,0,P|306:207|301:249,1,85.0000016212463,10|0,0:0|1:2,0:0:0:0:
35,382,100608,2,0,P|29:339|34:297,1,85.0000016212463,8|0,0:0|1:2,0:0:0:0:
260,67,100943,5,10,0:0:0:0:
222,361,101111,1,0,1:2:0:0:
264,43,101278,1,10,0:0:0:0:
330,334,101446,2,0,L|326:376,2,42.5000008106231,2|0|8,1:2|1:2|0:0,0:0:0:0:
171,127,101781,1,2,1:2:0:0:
409,268,101949,2,0,L|494:257,1,85.0000016212463,12|0,0:0|0:0,0:0:0:0:
221,361,102295,6,0,P|188:350|155:339,2,69.9999978637695,0|0|0,1:2|1:2|1:2,0:0:0:0:
99,256,102966,2,0,P|75:263|51:270,2,50,0|0|0,1:2|1:2|1:2,0:0:0:0:
230,143,103645,6,0,B|206:173|206:173|220:232,1,99.9999999999999,0|0,1:2|0:0,0:0:0:0:
