osu file format v14

[General]
AudioFilename: audio.mp3
AudioLeadIn: 0
PreviewTime: 60664
Countdown: 0
SampleSet: None
StackLeniency: 0.7
Mode: 2
LetterboxInBreaks: 0
WidescreenStoryboard: 0

[Editor]
DistanceSpacing: 2
BeatDivisor: 4
GridSize: 8
TimelineZoom: 1

[Metadata]
Title:Kokuhaku (TV Edit)
TitleUnicode:Kokuhaku (TV Edit)
Artist:supercell
ArtistUnicode:supercell
Creator:IMkoley
Version:Platter
Source:ギルティクラウン
Tags:koeda ending ryo guilty crown inori yuzuhira zigaexperientia
BeatmapID:1533746
BeatmapSetID:726479

[Difficulty]
HPDrainRate:5.5
CircleSize:3.5
OverallDifficulty:8
ApproachRate:8
SliderMultiplier:1.4
SliderTickRate:1

[Events]
//Background and Video events
0,0,"guilty_crown_wallpaper_by_totoro_gx-d7tmsda.jpg",0,0
//Break Periods
//Storyboard Layer 0 (Background)
//Storyboard Layer 1 (Fail)
//Storyboard Layer 2 (Pass)
//Storyboard Layer 3 (Foreground)
//Storyboard Sound Samples

[TimingPoints]
678,333.333333333333,4,1,0,75,1,0
11344,-100,4,1,0,75,0,0
14010,327.868852459016,4,2,0,90,1,0
15156,333.333333333333,4,2,0,90,1,0
17991,335.195530726257,4,2,0,90,1,0
23331,333.333333333333,4,2,0,90,1,0
39330,-100,4,2,0,90,0,0
49997,-100,4,2,0,90,0,0
63330,-100,4,2,0,90,0,1
64330,-83.3333333333333,4,2,0,90,0,1
65164,-90.9090909090909,4,2,0,90,0,1
84330,-100,4,2,0,90,0,0

[HitObjects]
264,224,678,5,0,0:0:0:0:
416,160,1011,1,0,0:0:0:0:
139,204,1344,2,0,P|75:140|75:76,1,140
179,79,1844,1,0,0:0:0:0:
352,64,2011,2,0,P|416:128|384:192,1,140
256,192,2677,2,0,L|96:192,1,140
256,288,3344,5,0,0:0:0:0:
384,256,3677,1,0,0:0:0:0:
192,256,3844,2,0,P|127:222|96:160,1,140
320,128,4511,6,0,L|128:128,1,140
32,128,5177,2,0,L|256:128,1,210
416,128,6011,1,0,0:0:0:0:
136,152,6344,1,0,0:0:0:0:
48,224,6511,1,0,0:0:0:0:
184,224,6677,6,0,L|408:224,1,210
256,224,7344,2,0,P|304:280|296:352,1,140
40,248,8011,2,0,L|232:280,1,140
256,192,8677,12,0,11011,0:0:0:0:
456,264,11344,5,0,0:0:0:0:
368,200,11511,1,0,0:0:0:0:
213,293,11677,2,0,L|201:209,1,70
63,163,12011,2,0,P|87:99|159:75,1,140
289,90,12511,2,0,P|312:153|248:198,1,140
132,246,13011,2,0,P|132:310|196:342,1,140
335,340,13511,1,0,0:0:0:0:
473,323,13677,6,0,P|489:264|415:220,1,140
154,215,14337,2,0,P|102:151|151:116,1,140
270,111,14829,2,0,P|272:168|248:256,1,140
512,272,15489,1,0,0:0:0:0:
408,176,15656,1,0,0:0:0:0:
272,192,15822,2,0,L|432:144,1,140
256,192,16489,12,0,17655,0:0:0:0:
122,266,17991,6,0,L|12:167,1,140
296,133,18661,2,0,P|351:89|420:102,2,140
19,174,19666,1,0,0:0:0:0:
297,212,20002,2,0,P|232:157|272:131,1,140
379,90,20504,1,0,0:0:0:0:
510,40,20672,2,0,P|497:126|441:133,1,140
320,112,21175,6,0,P|216:96|208:184,1,210
472,264,22013,2,0,P|485:322|413:369,1,140
232,360,22683,1,0,0:0:0:0:
40,328,23018,2,0,P|8:267|63:229,1,140
290,227,23664,1,0,0:0:0:0:
358,239,23831,2,0,P|390:219|399:178,1,70
120,176,24331,6,0,P|128:96|192:88,1,140
448,128,24997,2,0,P|503:179|479:232,1,140
208,296,25664,2,0,P|170:240|240:186,1,140
474,185,26330,1,0,0:0:0:0:
348,169,26497,2,0,L|278:104,1,70
13,107,26997,6,0,P|88:123|165:92,1,140
400,224,27664,2,0,L|264:176,1,140
448,144,28330,1,0,0:0:0:0:
328,72,28497,1,0,0:0:0:0:
129,22,28664,2,0,P|150:88|206:129,1,140
355,148,29164,6,0,P|368:218|303:271,1,140
190,306,29664,1,0,0:0:0:0:
51,294,29830,2,0,P|29:249|26:220,1,70
304,263,30330,2,0,P|360:237|301:198,1,140
65,206,30997,5,0,0:0:0:0:
3,130,31164,1,0,0:0:0:0:
123,126,31330,2,0,L|250:67,1,140
388,87,31830,2,0,P|417:159|359:177,1,140
103,195,32330,2,0,L|256:194,1,140
486,208,32997,2,0,L|318:209,1,140
96,108,33664,6,0,L|160:160,1,70
288,224,33997,2,0,P|343:275|290:327,1,140
176,320,34497,2,0,P|133:250|186:238,1,140
368,368,35164,2,0,L|525:366,1,140
232,368,35830,2,0,P|160:328|152:272,1,140
240,224,36330,5,0,0:0:0:0:
344,216,36497,1,0,0:0:0:0:
208,184,36664,2,0,P|176:224|88:192,1,140
0,160,37164,1,0,0:0:0:0:
169,118,37330,2,0,L|183:210,1,70
320,176,37664,2,0,L|280:264,1,70
432,256,37997,6,0,P|440:181|336:128,1,140
120,152,38497,1,0,0:0:0:0:
224,160,38664,1,0,0:0:0:0:
320,160,38830,1,0,0:0:0:0:
416,160,38997,1,0,0:0:0:0:
225,206,39330,5,0,0:0:0:0:
85,215,39497,2,0,P|34:149|79:115,1,140
201,128,39997,2,0,P|269:80|232:22,1,140
118,38,40497,1,0,0:0:0:0:
6,123,40664,2,0,P|79:138|144:98,1,140
274,104,41164,5,0,0:0:0:0:
346,141,41330,1,0,0:0:0:0:
388,208,41497,1,0,0:0:0:0:
247,208,41664,2,0,L|386:206,1,140
184,184,42164,6,0,P|139:144|192:120,1,140
328,112,42664,2,0,P|395:140|380:196,1,140
240,216,43164,1,0,0:0:0:0:
104,232,43330,2,0,P|57:283|92:345,1,140
333,347,43830,2,0,P|402:250|348:165,1,210
261,147,44497,5,0,0:0:0:0:
120,139,44664,2,0,L|40:136,1,70
192,144,44997,2,0,L|280:152,1,70
367,235,45330,2,0,P|432:264|465:325,1,140
320,336,45830,2,0,L|392:336,1,70
192,344,46164,5,0,0:0:0:0:
112,328,46330,1,0,0:0:0:0:
240,272,46497,2,0,L|324:274,1,70
184,208,46830,1,0,0:0:0:0:
46,248,46997,2,0,L|195:250,1,140
328,248,47497,1,0,0:0:0:0:
472,248,47664,6,0,L|408:310,1,70
296,240,47997,2,0,L|239:282,1,70
88,304,48330,1,0,0:0:0:0:
0,232,48497,1,0,0:0:0:0:
168,216,48664,2,0,L|206:126,1,70
335,140,48997,2,0,L|240:142,1,70
0,72,49330,6,0,L|80:72,1,70
208,64,49664,2,0,P|258:133|226:165,1,140
120,280,50164,1,0,0:0:0:0:
8,336,50330,6,0,L|157:335,1,140
288,320,50830,1,0,0:0:0:0:
416,256,50997,6,0,P|448:332|389:337,1,140
136,312,51664,1,0,0:0:0:0:
48,208,51830,1,0,0:0:0:0:
291,200,51997,2,0,P|340:130|309:97,1,140
219,93,52497,1,0,0:0:0:0:
74,104,52664,6,0,P|23:177|109:268,1,210
224,280,53330,1,0,0:0:0:0:
360,264,53497,2,0,L|285:222,1,70
164,189,53830,2,0,L|215:122,1,70
65,120,54164,2,0,L|129:72,1,70
280,72,54497,2,0,L|435:71,1,140
304,150,54997,1,0,0:0:0:0:
169,188,55164,5,0,0:0:0:0:
307,204,55330,1,0,0:0:0:0:
392,234,55497,1,0,0:0:0:0:
364,318,55664,1,0,0:0:0:0:
184,328,55830,2,0,L|35:330,1,140
184,328,56330,1,0,0:0:0:0:
328,328,56497,6,0,P|280:256|318:221,1,140
512,248,56997,1,0,0:0:0:0:
376,240,57164,2,0,L|236:240,1,140
40,200,57830,1,0,0:0:0:0:
143,181,57914,1,0,0:0:0:0:
253,186,57997,2,0,P|439:208|478:80,1,350
338,93,58997,5,0,0:0:0:0:
199,67,59164,2,0,L|128:121,1,70
352,91,59497,1,0,0:0:0:0:
487,115,59664,1,0,0:0:0:0:
352,128,59830,1,0,0:0:0:0:
192,160,59997,5,0,0:0:0:0:
96,57,60164,1,0,0:0:0:0:
256,96,60330,1,0,0:0:0:0:
384,96,60497,1,0,0:0:0:0:
256,160,60664,1,0,0:0:0:0:
384,192,60830,6,0,L|416:256,1,70
272,256,61164,1,0,0:0:0:0:
132,257,61330,2,0,L|217:217,1,70
329,183,61664,1,0,0:0:0:0:
196,139,61830,2,0,L|266:139,1,70
397,141,62164,1,0,0:0:0:0:
264,168,62330,6,0,P|304:112|376:104,1,140
512,104,62830,1,0,0:0:0:0:
376,144,62997,1,0,0:0:0:0:
240,184,63164,1,0,0:0:0:0:
0,192,63330,2,0,L|129:193,1,70
208,192,63664,2,0,L|296:192,1,70
392,112,63997,2,0,L|304:112,1,70
105,79,64330,6,0,B|199:138,1,83.9999974365235
339,167,64664,2,0,B|411:249,1,83.9999974365235
226,246,64997,2,0,L|124:291,1,83.9999974365235
16,200,65330,1,0,0:0:0:0:
112,80,65497,1,0,0:0:0:0:
364,80,65664,2,0,L|336:176,1,77.0000023498536
192,128,65997,2,0,P|120:160|153:214,1,154.000004699707
296,224,66497,6,0,L|272:320,1,77.0000023498536
432,296,66830,2,0,L|365:242,1,77.0000023498536
202,174,67164,1,0,0:0:0:0:
89,278,67330,1,0,0:0:0:0:
400,288,67664,2,0,L|312:288,1,77.0000023498536
168,288,67997,2,0,L|256:288,1,77.0000023498536
400,272,68330,6,0,L|312:272,1,77.0000023498536
168,288,68664,2,0,P|129:219|180:190,1,154.000004699707
280,184,69164,1,0,0:0:0:0:
489,281,69330,2,0,P|496:232|408:183,1,154.000004699707
336,88,69830,1,0,0:0:0:0:
179,115,69997,6,0,P|117:143|148:215,1,154.000004699707
263,252,70497,1,0,0:0:0:0:
401,257,70664,2,0,P|443:205|361:155,1,154.000004699707
240,144,71164,1,0,0:0:0:0:
137,169,71330,1,0,0:0:0:0:
288,176,71497,1,0,0:0:0:0:
392,192,71664,1,0,0:0:0:0:
240,192,71830,6,0,P|99:151|122:71,1,231.000007049561
256,88,72497,1,0,0:0:0:0:
360,96,72664,2,0,L|432:176,1,77.0000023498536
256,160,72997,2,0,L|168:160,1,77.0000023498536
24,152,73330,2,0,L|178:152,1,154.000004699707
474,281,73997,6,0,L|434:203,1,77.0000023498536
312,120,74330,2,0,L|232:120,1,77.0000023498536
80,120,74664,6,0,L|184:120,1,77.0000023498536
0,128,74997,2,0,P|-1:214|67:247,1,154.000004699707
200,272,75497,1,0,0:0:0:0:
352,272,75664,2,0,P|407:270|505:197,1,154.000004699707
376,200,76164,1,0,0:0:0:0:
260,280,76330,2,0,P|197:284|102:235,1,154.000004699707
41,200,76830,5,0,0:0:0:0:
194,185,76997,1,0,0:0:0:0:
394,165,77164,2,0,P|451:132|516:41,1,154.000004699707
384,64,77664,1,0,0:0:0:0:
264,64,77830,1,0,0:0:0:0:
74,80,77997,6,0,P|30:159|66:187,1,154.000004699707
157,201,78497,1,0,0:0:0:0:
310,219,78664,2,0,L|233:136,1,77.0000023498536
411,167,78997,2,0,L|335:165,1,77.0000023498536
176,176,79330,6,0,L|200:272,1,77.0000023498536
344,272,79664,2,0,P|410:212|476:203,2,154.000004699707
40,248,80664,2,0,P|6:172|64:168,1,154.000004699707
123,170,81164,1,0,0:0:0:0:
276,167,81330,2,0,P|344:134|337:66,1,154.000004699707
57,45,81997,2,0,P|138:61|256:-16,1,231.000007049561
407,56,82664,6,0,P|459:158|370:162,1,231.000007049561
229,185,83330,2,0,P|143:229|126:362,1,231.000007049561
295,346,83997,2,0,P|373:313|377:241,1,154.000004699707
128,252,84664,1,0,0:0:0:0:
38,202,84830,1,0,0:0:0:0:
218,182,84997,1,0,0:0:0:0:
340,180,85164,6,0,L|468:88,1,140
356,89,85664,1,0,0:0:0:0:
168,88,85830,2,0,P|107:131|116:202,1,140
220,242,86330,1,0,0:0:0:0:
470,243,86497,1,0,0:0:0:0:
371,182,86664,1,0,0:0:0:0:
168,160,86830,5,0,0:0:0:0:
53,209,86997,1,0,0:0:0:0:
159,274,87164,1,0,0:0:0:0:
364,276,87330,1,0,0:0:0:0:
256,192,87664,12,0,89164,0:0:0:0:
