osu file format v14

[General]
AudioFilename: audio.mp3
AudioLeadIn: 0
PreviewTime: 239827
Countdown: 1
SampleSet: None
StackLeniency: 0.7
Mode: 0
LetterboxInBreaks: 0
WidescreenStoryboard: 1

[Editor]
Bookmarks: 12191,29645,41282,52918,55827,67464,96555,102373,114009,125645,128555,134373,139464,140191,163464,169282,175100,191100,192555,202009,213645,228191,239827,251464,262373,263100,274736,286373,298009,315464,327827
DistanceSpacing: 0.7
BeatDivisor: 4
GridSize: 4
TimelineZoom: 1.2

[Metadata]
Title:Kimi no shiranai monogatari
TitleUnicode:君の知らない物語
Artist:supercell
ArtistUnicode:supercell
Creator:Nenonious
Version:Arles Stine ar10
Source:
Tags:by request
BeatmapID:1873546
BeatmapSetID:896715

[Difficulty]
HPDrainRate:5
CircleSize:4
OverallDifficulty:9
ApproachRate:10
SliderMultiplier:1.5
SliderTickRate:1

[Events]
//Background and Video events
0,0,"buckroun.jpg",0,0
//Break Periods
//Storyboard Layer 0 (Background)
//Storyboard Layer 1 (Fail)
//Storyboard Layer 2 (Pass)
//Storyboard Layer 3 (Foreground)
//Storyboard Sound Samples

[TimingPoints]
555,363.636363636364,4,2,22,20,1,0
12191,-66.6666666666667,4,2,22,32,0,0
20918,-58.8235294117647,4,2,22,32,0,0
23827,-62.5,4,2,22,32,0,0
29645,-66.6666666666667,4,2,22,32,0,0
40918,-100,4,2,22,32,0,0
41282,-62.5,4,2,22,32,0,0
67464,-58.8235294117647,4,2,22,32,0,1
84918,-66.6666666666667,4,2,22,32,0,1
90736,-58.8235294117647,4,2,22,32,0,1
102373,-62.5,4,2,22,20,0,0
137282,-62.5,4,2,22,32,0,0
140191,-58.8235294117647,4,2,22,32,0,1
157645,-62.5,4,2,22,32,0,1
175100,-66.6666666666667,4,2,22,20,0,0
180918,-66.6666666666667,4,2,22,32,0,0
186736,-62.5,4,2,22,32,0,0
191100,-100,4,2,22,32,0,0
192555,-66.6666666666667,4,2,22,32,0,0
202009,-62.5,4,2,22,32,0,0
228191,-100,4,2,22,10,0,0
239827,-76.9230769230769,4,2,22,20,0,0
245645,-100,4,2,22,10,0,0
250736,-66.6666666666667,4,2,22,32,0,0
251464,-58.8235294117647,4,2,22,32,0,1
263100,-66.6666666666667,4,2,22,32,0,1
286373,-58.8235294117647,4,2,22,32,0,1
298009,-52.6315789473684,4,2,22,32,0,1
315464,-58.8235294117647,4,2,22,32,0,1
327827,-66.6666666666667,4,2,22,32,0,0

[Colours]
Combo1 : 0,128,128
Combo2 : 128,64,64
Combo3 : 238,197,2
Combo4 : 210,0,0

[HitObjects]
90,104,555,5,0,0:0:0:0:
242,252,736,1,0,0:0:0:0:
105,234,918,1,0,0:0:0:0:
229,125,1100,2,0,P|294:87|368:82,1,150
512,116,1645,1,0,0:0:0:0:
326,213,1827,1,0,0:0:0:0:
512,199,2009,1,0,0:0:0:0:
378,84,2191,1,0,0:0:0:0:
431,243,2373,1,0,0:0:0:0:
291,190,2555,2,0,P|189:194|125:246,1,150
24,343,3282,5,0,0:0:0:0:
217,276,3464,1,0,0:0:0:0:
37,265,3645,1,0,0:0:0:0:
152,321,3827,1,0,0:0:0:0:
51,179,4009,1,0,0:0:0:0:
3,37,4191,2,0,P|56:43|110:34,1,75
235,17,4555,1,0,0:0:0:0:
235,17,4736,1,0,0:0:0:0:
175,153,4918,1,0,0:0:0:0:
346,1,5100,1,0,0:0:0:0:
345,175,5282,1,0,0:0:0:0:
436,116,5464,2,0,P|447:213|389:264,1,150
343,315,6373,6,0,L|155:331,1,150
116,231,7100,2,0,L|303:247,1,150
411,149,7827,2,0,L|261:162,1,150
44,54,8555,2,0,L|231:70,1,150
445,92,9282,5,0,0:0:0:0:
445,92,9645,2,0,L|437:179,1,75
382,353,10009,2,0,L|374:265,1,75
364,114,10373,1,0,0:0:0:0:
291,308,10555,1,0,0:0:0:0:
220,48,10736,5,0,0:0:0:0:
366,253,10918,1,0,0:0:0:0:
326,24,11100,1,0,0:0:0:0:
189,272,11282,1,0,0:0:0:0:
4,92,11464,1,0,0:0:0:0:
349,129,11645,1,0,0:0:0:0:
385,136,11735,1,0,0:0:0:0:
414,159,11826,1,0,0:0:0:0:
430,193,11917,1,0,0:0:0:0:
429,230,12008,1,0,0:0:0:0:
411,263,12099,1,0,0:0:0:0:
381,284,12191,6,0,P|316:303|248:278,1,112.500004291535
190,165,12555,2,0,P|255:146|323:171,1,112.500004291535
430,193,12918,2,0,P|438:138|420:85,1,112.500004291535
180,57,13282,2,0,P|171:111|189:164,1,112.500004291535
289,302,13645,6,0,L|169:312,1,112.500004291535
3,188,14009,2,0,L|122:198,1,112.500004291535
310,117,14373,2,0,L|190:127,1,112.500004291535
24,3,14737,2,0,P|95:26|128:71,1,112.500004291535
195,168,15100,6,0,P|250:173|305:160,1,112.500004291535
508,97,15464,2,0,P|452:91|397:104,1,112.500004291535
146,50,15827,2,0,P|201:55|256:42,1,112.500004291535
494,242,16191,2,0,P|438:236|383:249,1,112.500004291535
364,265,16464,1,0,0:0:0:0:
346,294,16555,6,0,P|280:307|204:289,1,112.500004291535
210,287,16827,1,0,0:0:0:0:
185,272,16918,1,0,0:0:0:0:
14,98,17100,1,0,0:0:0:0:
282,23,17282,1,0,0:0:0:0:
278,60,17373,1,0,0:0:0:0:
273,101,17464,1,0,0:0:0:0:
85,183,17645,1,0,0:0:0:0:
80,146,17736,1,0,0:0:0:0:
76,105,17827,1,0,0:0:0:0:
74,58,17918,1,0,0:0:0:0:
73,17,18009,6,0,P|96:78|164:115,1,112.500004291535
146,342,18373,2,0,P|207:319|244:251,1,112.500004291535
305,123,18736,2,0,P|282:62|214:25,1,112.500004291535
471,188,19100,2,0,P|410:211|373:279,1,112.500004291535
367,278,19373,1,0,0:0:0:0:
353,308,19464,6,0,P|286:328|218:300,1,112.500004291535
292,215,19827,2,0,P|301:160|281:108,1,112.500004291535
183,33,20191,2,0,P|128:23|76:43,1,112.500004291535
33,78,20464,1,0,0:0:0:0:
16,131,20555,1,0,0:0:0:0:
31,185,20646,1,0,0:0:0:0:
72,222,20737,1,0,0:0:0:0:
127,231,20828,1,0,0:0:0:0:
178,208,20918,6,0,P|231:190|304:203,1,127.50000243187
334,219,21191,1,0,0:0:0:0:
363,243,21282,1,0,0:0:0:0:
457,45,21464,2,0,L|441:224,1,127.50000243187
426,331,21827,1,0,0:0:0:0:
360,47,22009,1,0,0:0:0:0:
164,253,22191,2,0,P|214:295|316:299,1,127.50000243187
512,250,22555,1,0,0:0:0:0:
110,152,22736,1,0,0:0:0:0:
502,63,22918,5,0,0:0:0:0:
10,98,23282,1,0,0:0:0:0:
55,51,23827,6,0,L|42:190,1,120
28,296,24191,2,0,P|79:317|166:264,1,120
205,108,24555,2,0,L|217:247,1,120
308,119,24918,2,0,L|318:0,1,120
480,146,25282,2,0,P|412:255|304:265,1,240
342,146,25827,2,0,P|227:165|171:266,1,240
83,74,26373,2,0,L|96:233,1,120
105,346,26736,6,0,P|176:348|229:301,1,120
293,194,27100,2,0,P|222:192|169:239,1,120
289,303,27464,2,0,P|360:305|413:258,1,120
471,185,27827,1,0,0:0:0:0:
189,248,28009,1,0,0:0:0:0:
228,160,28373,5,0,0:0:0:0:
293,304,28555,1,0,0:0:0:0:
354,67,28736,1,0,0:0:0:0:
426,346,28918,1,0,0:0:0:0:
483,20,29100,1,0,0:0:0:0:
108,133,29282,1,0,0:0:0:0:
512,257,29464,1,0,0:0:0:0:
92,28,29645,6,0,P|38:64|7:120,1,112.500004291535
108,133,30009,2,0,P|64:182|48:244,1,112.500004291535
114,357,30373,2,0,P|157:307|173:245,1,112.500004291535
193,120,30736,1,0,0:0:0:0:
193,120,30918,1,0,0:0:0:0:
262,186,31100,2,0,P|317:226|472:191,1,225.000008583069
410,77,31645,2,0,P|370:132|405:287,1,225.000008583069
396,277,32373,5,0,0:0:0:0:
293,250,32555,2,0,P|226:240|155:266,1,112.500004291535
83,290,32918,2,0,P|83:217|152:172,1,112.500004291535
207,94,33282,1,0,0:0:0:0:
30,155,33464,1,0,0:0:0:0:
237,220,33645,1,0,0:0:0:0:
95,45,33827,2,0,L|230:56,1,112.500004291535
379,62,34191,1,0,0:0:0:0:
162,152,34373,1,0,0:0:0:0:
290,11,34555,1,0,0:0:0:0:
194,288,34918,1,0,0:0:0:0:
194,288,35464,6,0,P|62:264|21:161,1,225.000008583069
318,288,36191,2,0,P|450:264|491:161,1,225.000008583069
155,34,36918,2,0,P|105:115|181:260,1,225.000008583069
357,34,37645,2,0,P|407:115|331:260,1,225.000008583069
48,151,38373,2,0,P|193:50|434:183,1,450.000017166138
482,275,39282,1,0,0:0:0:0:
486,99,39464,1,0,0:0:0:0:
339,191,39645,2,0,P|228:226|101:200,1,225.000008583069
23,157,40191,2,0,L|33:280,1,112.500004291535
126,358,40555,2,0,L|135:245,1,112.500004291535
154,41,40918,2,0,L|239:48,1,75
362,50,41282,6,0,P|354:137|311:188,1,120
182,271,41645,1,0,0:0:0:0:
232,118,41827,2,0,P|290:125|337:162,1,120
447,315,42191,1,0,0:0:0:0:
372,78,42373,1,0,0:0:0:0:
333,335,42555,1,0,0:0:0:0:
458,144,42736,6,0,P|414:188|314:186,1,120
151,159,43100,1,0,0:0:0:0:
345,57,43282,2,0,L|217:68,1,120
29,97,43645,2,0,L|156:108,1,120
343,117,44009,1,0,0:0:0:0:
154,40,44191,5,0,0:0:0:0:
333,237,44373,1,0,0:0:0:0:
273,27,44555,1,0,0:0:0:0:
127,259,44736,1,0,0:0:0:0:
208,25,44918,1,0,0:0:0:0:
382,264,45100,1,0,0:0:0:0:
363,9,45282,1,0,0:0:0:0:
268,245,45464,2,0,P|203:302|126:298,1,120
5,271,45827,1,0,0:0:0:0:
243,174,46009,1,0,0:0:0:0:
77,62,46191,2,0,L|90:217,1,120
225,356,46555,2,0,L|235:236,1,120
256,22,46918,1,0,0:0:0:0:
370,35,47100,6,0,P|293:133|140:152,1,240
495,219,47827,2,0,P|397:142|378:-11,1,240
310,344,48555,2,0,P|387:246|540:227,1,240
185,160,49282,2,0,P|283:237|302:390,1,240
447,105,50009,2,0,L|210:280,1,240
277,101,50736,2,0,L|452:338,1,240
495,187,51464,2,0,L|258:362,1,240
72,90,52191,2,0,L|247:327,1,240
307,361,52918,6,0,P|349:307|351:235,1,120
342,102,53282,1,0,0:0:0:0:
232,288,53464,1,0,0:0:0:0:
453,185,53645,1,0,0:0:0:0:
186,188,53827,1,0,0:0:0:0:
405,281,54009,1,0,0:0:0:0:
204,76,54191,1,0,0:0:0:0:
473,80,54373,1,0,0:0:0:0:
78,150,54555,1,0,0:0:0:0:
509,223,54736,1,0,0:0:0:0:
87,293,54918,1,0,0:0:0:0:
364,0,55100,1,0,0:0:0:0:
400,343,55282,1,0,0:0:0:0:
57,379,55464,1,0,0:0:0:0:
21,36,55645,1,0,0:0:0:0:
164,40,55827,6,0,P|140:115|74:158,1,120
63,373,56191,2,0,P|87:298|153:255,1,120
281,171,56555,1,0,0:0:0:0:
34,221,56736,1,0,0:0:0:0:
184,312,56918,2,0,P|266:330|342:307,1,120
451,265,57282,1,0,0:0:0:0:
240,216,57464,1,0,0:0:0:0:
381,160,57645,2,0,P|356:248|319:302,1,120
205,124,58009,2,0,P|293:101|358:106,1,120
261,294,58373,2,0,P|197:228|169:169,1,120
100,25,58736,6,0,L|110:192,1,120
150,343,59100,2,0,L|157:223,1,120
167,11,59464,1,0,0:0:0:0:
59,261,59645,1,0,0:0:0:0:
355,119,59827,1,0,0:0:0:0:
92,94,60009,1,0,0:0:0:0:
58,94,60100,1,0,0:0:0:0:
22,114,60191,1,0,0:0:0:0:
210,290,60373,1,0,0:0:0:0:
98,27,60555,2,0,L|249:40,1,120
477,131,60918,2,0,L|357:141,1,120
290,165,61191,1,0,0:0:0:0:
247,216,61282,1,0,0:0:0:0:
245,283,61373,1,0,0:0:0:0:
284,336,61464,1,0,0:0:0:0:
349,353,61555,1,0,0:0:0:0:
410,327,61645,6,0,P|441:275|428:202,1,120
369,43,62009,1,0,0:0:0:0:
455,15,62373,1,0,0:0:0:0:
239,370,62555,1,0,0:0:0:0:
176,18,62736,1,0,0:0:0:0:
73,22,63100,6,0,P|128:74|160:161,1,120
180,280,63464,1,0,0:0:0:0:
221,50,63827,2,0,P|166:102|134:189,1,120
114,308,64191,1,0,0:0:0:0:
128,21,64555,5,0,0:0:0:0:
190,322,64736,1,0,0:0:0:0:
444,162,64918,1,0,0:0:0:0:
76,297,65100,1,0,0:0:0:0:
244,27,65282,1,0,0:0:0:0:
424,336,65464,1,0,0:0:0:0:
460,281,65555,1,0,0:0:0:0:
456,215,65645,1,0,0:0:0:0:
424,157,65736,1,0,0:0:0:0:
399,95,65827,1,0,0:0:0:0:
425,34,65918,1,0,0:0:0:0:
472,0,66009,5,0,0:0:0:0:
484,27,67464,6,0,P|480:90|451:148,1,127.50000243187
268,312,67827,1,0,0:0:0:0:
224,61,68009,1,0,0:0:0:0:
465,305,68191,1,0,0:0:0:0:
376,22,68373,1,0,0:0:0:0:
483,147,68555,2,0,P|428:196|318:194,1,127.50000243187
143,139,68918,6,0,P|198:90|308:92,1,127.50000243187
437,63,69282,1,0,0:0:0:0:
271,205,69464,2,0,P|226:249|209:310,1,127.50000243187
427,379,69827,2,0,P|471:334|488:273,1,127.50000243187
493,55,70191,1,0,0:0:0:0:
156,144,70373,6,0,L|315:157,1,127.50000243187
481,173,70736,1,0,0:0:0:0:
169,250,70918,1,0,0:0:0:0:
467,325,71100,1,0,0:0:0:0:
377,30,71282,1,0,0:0:0:0:
313,275,71464,2,0,P|266:325|197:328,1,127.50000243187
87,48,71827,2,0,L|101:227,1,127.50000243187
111,365,72191,1,0,0:0:0:0:
163,121,72373,2,0,P|222:96|285:93,1,127.50000243187
506,261,72736,2,0,P|447:285|384:288,1,127.50000243187
193,254,73100,1,0,0:0:0:0:
436,38,73282,6,0,L|422:189,1,127.50000243187
331,366,73645,2,0,L|319:238,1,127.50000243187
300,48,74009,1,0,0:0:0:0:
417,305,74191,1,0,0:0:0:0:
164,151,74373,2,0,L|304:139,1,127.50000243187
508,117,74736,1,0,0:0:0:0:
168,281,74918,1,0,0:0:0:0:
396,46,75100,2,0,L|255:33,1,127.50000243187
109,10,75464,6,0,P|59:92|137:191,1,191.250003647804
133,199,75827,2,0,P|234:234|318:217,1,191.250003647804
349,198,76191,2,0,P|387:127|353:64,1,127.50000243187
299,0,76555,1,0,0:0:0:0:
512,227,76736,1,0,0:0:0:0:
304,96,76918,2,0,P|227:166|222:227,1,127.50000243187
192,363,77282,1,0,0:0:0:0:
130,70,77464,1,0,0:0:0:0:
256,258,77645,2,0,P|310:298|404:276,1,127.50000243187
512,237,78009,1,0,0:0:0:0:
230,342,78191,1,0,0:0:0:0:
167,346,78281,1,0,0:0:0:0:
117,309,78372,1,0,0:0:0:0:
105,248,78463,1,0,0:0:0:0:
135,194,78554,1,0,0:0:0:0:
194,173,78645,1,0,0:0:0:0:
252,197,78736,1,0,0:0:0:0:
309,222,78826,1,0,0:0:0:0:
366,198,78917,1,0,0:0:0:0:
388,140,79008,1,0,0:0:0:0:
361,84,79100,6,0,P|294:48|203:71,1,127.50000243187
25,100,79464,2,0,P|92:136|183:113,1,127.50000243187
313,73,79827,2,0,P|371:47|430:65,1,127.50000243187
482,338,80191,2,0,L|493:206,1,127.50000243187
375,21,80555,2,0,P|353:83|254:122,1,127.50000243187
95,160,80918,1,0,0:0:0:0:
354,264,81100,2,0,L|206:251,1,127.50000243187
58,224,81464,2,0,P|16:177|34:114,1,127.50000243187
111,3,81827,1,0,0:0:0:0:
168,192,82009,6,0,L|156:327,1,127.50000243187
257,127,82373,2,0,L|245:0,1,127.50000243187
320,237,82736,2,0,L|308:372,1,127.50000243187
412,50,83100,1,0,0:0:0:0:
452,334,83282,1,0,0:0:0:0:
174,161,83464,6,0,P|229:129|292:132,1,127.50000243187
491,190,83827,1,0,0:0:0:0:
186,46,84009,1,0,0:0:0:0:
186,46,84100,1,0,0:0:0:0:
186,46,84191,1,0,0:0:0:0:
344,319,84373,1,0,0:0:0:0:
393,282,84463,1,0,0:0:0:0:
398,220,84554,1,0,0:0:0:0:
355,176,84645,1,0,0:0:0:0:
294,179,84736,1,0,0:0:0:0:
235,203,84826,1,0,0:0:0:0:
173,197,84918,6,0,P|107:155|94:105,1,112.500004291535
99,0,85282,1,0,0:0:0:0:
0,233,85464,1,0,0:0:0:0:
162,98,85645,2,0,P|234:71|301:78,1,112.500004291535
385,99,86009,2,0,P|372:174|332:229,1,112.500004291535
272,291,86373,6,0,P|212:242|185:180,1,112.500004291535
148,60,86736,1,0,0:0:0:0:
124,324,86918,1,0,0:0:0:0:
276,182,87100,2,0,P|308:122|301:48,1,112.500004291535
422,280,87464,1,0,0:0:0:0:
224,156,87645,6,0,P|176:130|114:137,1,112.500004291535
0,247,88009,2,0,P|48:273|110:266,1,112.500004291535
275,180,88373,1,0,0:0:0:0:
73,356,88555,1,0,0:0:0:0:
58,269,88918,6,0,P|55:213|83:161,1,112.500004291535
104,139,89191,1,0,0:0:0:0:
132,121,89282,1,0,0:0:0:0:
296,215,89464,1,0,0:0:0:0:
271,238,89555,1,0,0:0:0:0:
240,252,89645,1,0,0:0:0:0:
272,91,89827,1,0,0:0:0:0:
156,341,90009,2,0,L|283:329,1,112.500004291535
499,302,90373,1,0,0:0:0:0:
220,260,90555,1,0,0:0:0:0:
370,124,90736,5,0,0:0:0:0:
180,156,90918,1,0,0:0:0:0:
386,251,91100,1,0,0:0:0:0:
196,282,91282,1,0,0:0:0:0:
284,56,91464,5,0,0:0:0:0:
290,312,91645,1,0,0:0:0:0:
410,54,91827,1,0,0:0:0:0:
135,165,92009,1,0,0:0:0:0:
444,191,92191,5,0,0:0:0:0:
127,56,92373,1,0,0:0:0:0:
441,5,92555,1,0,0:0:0:0:
213,247,92736,1,0,0:0:0:0:
57,23,92918,5,0,0:0:0:0:
417,167,93100,1,0,0:0:0:0:
473,7,93282,1,0,0:0:0:0:
69,178,93464,1,0,0:0:0:0:
352,372,93645,5,0,0:0:0:0:
246,18,93827,1,0,0:0:0:0:
166,347,94009,1,0,0:0:0:0:
471,112,94191,5,0,0:0:0:0:
20,222,94373,1,0,0:0:0:0:
324,12,94555,1,0,0:0:0:0:
212,301,94736,2,0,P|158:354|67:358,1,127.50000243187
188,127,95100,2,0,P|242:74|333:70,1,127.50000243187
509,28,95464,1,0,0:0:0:0:
30,70,95645,2,0,L|180:76,1,127.50000243187
496,279,96009,2,0,L|326:272,1,127.50000243187
247,265,96555,6,0,P|185:253|135:214,1,127.50000243187
62,54,96918,1,0,0:0:0:0:
308,244,97100,1,0,0:0:0:0:
394,0,97282,1,0,0:0:0:0:
204,244,97464,1,0,0:0:0:0:
450,330,97645,1,0,0:0:0:0:
204,140,97827,1,0,0:0:0:0:
471,71,98009,2,0,P|457:150|377:211,1,127.50000243187
238,300,98373,1,0,0:0:0:0:
373,82,98555,2,0,P|296:41|212:61,1,127.50000243187
314,326,98918,1,0,0:0:0:0:
120,114,99100,2,0,P|182:118|235:153,1,127.50000243187
41,335,99464,2,0,L|168:323,1,127.50000243187
377,295,99827,1,0,0:0:0:0:
138,255,100009,1,0,0:0:0:0:
362,155,100191,1,0,0:0:0:0:
236,349,100373,1,0,0:0:0:0:
223,319,100463,1,0,0:0:0:0:
216,288,100554,1,0,0:0:0:0:
217,257,100645,1,0,0:0:0:0:
224,225,100736,1,0,0:0:0:0:
288,29,101100,5,0,0:0:0:0:
367,356,101282,1,0,0:0:0:0:
480,16,101464,1,0,0:0:0:0:
63,210,101645,1,0,0:0:0:0:
363,229,101827,1,0,0:0:0:0:
418,207,101917,1,0,0:0:0:0:
416,147,102008,1,0,0:0:0:0:
359,129,102099,1,0,0:0:0:0:
297,145,102190,1,0,0:0:0:0:
234,149,102281,1,0,0:0:0:0:
170,143,102373,6,0,P|107:116|58:63,1,120
316,84,102736,2,0,P|379:111|428:164,1,120
512,268,103100,1,0,0:0:0:0:
274,198,103282,1,0,0:0:0:0:
339,347,103464,1,0,0:0:0:0:
482,152,103645,1,0,0:0:0:0:
317,45,103827,6,0,P|234:22|165:53,1,120
31,84,104191,1,0,0:0:0:0:
249,128,104373,2,0,P|211:220|165:264,1,120
58,334,104736,1,0,0:0:0:0:
269,335,104918,1,0,0:0:0:0:
97,200,105100,1,0,0:0:0:0:
319,264,105282,5,0,0:0:0:0:
410,126,105464,1,0,0:0:0:0:
180,207,105645,1,0,0:0:0:0:
89,69,105827,1,0,0:0:0:0:
317,154,106009,1,0,0:0:0:0:
408,16,106191,1,0,0:0:0:0:
131,139,106373,1,0,0:0:0:0:
361,85,106555,1,0,0:0:0:0:
89,69,106736,6,0,P|48:120|67:193,1,120
97,276,107100,1,0,0:0:0:0:
198,67,107282,2,0,L|131:217,1,120
299,124,107645,2,0,L|366:274,1,120
378,37,108009,1,0,0:0:0:0:
0,225,108191,6,0,P|92:174|202:215,1,240
512,225,108918,2,0,P|419:174|310:215,1,240
152,292,109645,2,0,P|110:182|151:72,1,240
359,291,110373,2,0,P|400:181|360:71,1,240
476,143,110918,1,0,0:0:0:0:
315,200,111100,2,0,P|203:194|107:73,1,240
261,58,111645,1,0,0:0:0:0:
63,223,111827,1,0,0:0:0:0:
204,12,112009,1,0,0:0:0:0:
186,210,112191,2,0,P|196:286|266:333,1,120
313,230,112555,5,0,0:0:0:0:
137,306,112736,1,0,0:0:0:0:
351,35,112918,1,0,0:0:0:0:
434,144,113100,1,0,0:0:0:0:
33,113,113464,1,0,0:0:0:0:
103,41,114009,6,0,P|133:105|106:186,1,120
47,285,114373,1,0,0:0:0:0:
268,163,114555,1,0,0:0:0:0:
178,339,114736,1,0,0:0:0:0:
184,108,114918,1,0,0:0:0:0:
269,274,115100,2,0,P|303:322|377:334,1,120
511,260,115464,1,0,0:0:0:0:
227,349,115645,1,0,0:0:0:0:
438,359,115827,1,0,0:0:0:0:
358,191,116009,2,0,P|315:149|252:136,1,120
86,63,116373,2,0,P|129:105|192:118,1,120
365,88,116736,1,0,0:0:0:0:
165,40,116918,5,0,0:0:0:0:
342,183,117100,1,0,0:0:0:0:
112,242,117282,5,0,0:0:0:0:
307,40,117464,1,0,0:0:0:0:
471,252,117645,5,0,0:0:0:0:
173,324,117827,1,0,0:0:0:0:
174,98,118009,5,0,0:0:0:0:
372,370,118191,1,0,0:0:0:0:
416,98,118373,5,0,0:0:0:0:
75,241,118555,1,0,0:0:0:0:
420,274,118736,5,0,0:0:0:0:
55,126,118918,1,0,0:0:0:0:
272,59,119100,6,0,P|302:125|288:212,1,120
199,359,119464,6,0,P|196:299|169:246,1,120
55,126,119827,6,0,P|128:84|202:94,1,120
263,88,120191,1,0,0:0:0:0:
263,88,120282,1,0,0:0:0:0:
263,88,120373,1,0,0:0:0:0:
384,229,120555,2,0,P|311:187|237:197,1,120
176,191,120919,1,0,0:0:0:0:
176,191,121010,1,0,0:0:0:0:
176,191,121101,1,0,0:0:0:0:
100,340,121282,6,0,P|58:267|68:193,1,120
62,132,121646,1,0,0:0:0:0:
62,132,121737,1,0,0:0:0:0:
62,132,121828,1,0,0:0:0:0:
326,342,122009,2,0,P|368:269|358:195,1,120
364,134,122373,1,0,0:0:0:0:
364,134,122464,1,0,0:0:0:0:
364,134,122555,1,0,0:0:0:0:
90,43,122736,6,0,P|149:102|158:176,1,120
180,234,123100,1,0,0:0:0:0:
180,234,123191,1,0,0:0:0:0:
180,234,123282,1,0,0:0:0:0:
422,43,123464,2,0,P|362:102|353:176,1,120
332,234,123828,1,0,0:0:0:0:
332,234,123919,1,0,0:0:0:0:
332,234,124010,1,0,0:0:0:0:
213,126,124191,5,0,0:0:0:0:
187,110,124281,1,0,0:0:0:0:
158,106,124372,1,0,0:0:0:0:
130,116,124463,1,0,0:0:0:0:
108,136,124554,1,0,0:0:0:0:
98,164,124645,1,0,0:0:0:0:
101,194,124736,1,0,0:0:0:0:
116,219,124827,1,0,0:0:0:0:
138,235,124918,5,0,0:0:0:0:
209,255,125008,1,0,0:0:0:0:
279,233,125099,1,0,0:0:0:0:
326,175,125190,1,0,0:0:0:0:
334,102,125281,1,0,0:0:0:0:
300,36,125372,1,0,0:0:0:0:
236,0,125463,1,0,0:0:0:0:
162,5,125554,1,0,0:0:0:0:
103,49,125645,5,0,0:0:0:0:
209,82,126009,1,0,0:0:0:0:
40,122,126191,1,0,0:0:0:0:
304,165,126373,1,0,0:0:0:0:
46,56,126555,1,0,0:0:0:0:
300,66,126736,1,0,0:0:0:0:
70,194,126918,1,0,0:0:0:0:
341,262,127100,5,0,0:0:0:0:
134,29,127282,1,0,0:0:0:0:
186,354,127464,1,0,0:0:0:0:
272,27,127645,1,0,0:0:0:0:
346,337,127827,1,0,0:0:0:0:
392,274,127918,1,0,0:0:0:0:
398,196,128009,1,0,0:0:0:0:
379,120,128100,1,0,0:0:0:0:
352,46,128191,1,0,0:0:0:0:
278,72,128282,1,0,0:0:0:0:
200,77,128373,1,0,0:0:0:0:
119,54,128464,1,0,0:0:0:0:
45,13,128555,6,0,L|56:160,1,120
279,201,128918,2,0,L|145:137,1,120
12,337,129282,2,0,L|133:252,1,120
246,138,129645,1,0,0:0:0:0:
39,221,129827,1,0,0:0:0:0:
179,92,130009,5,0,0:0:0:0:
266,290,130191,1,0,0:0:0:0:
45,178,130373,2,0,L|201:178,1,120
31,51,130736,1,0,0:0:0:0:
146,255,130918,1,0,0:0:0:0:
303,169,131100,2,0,B|389:118|420:182|371:197,1,120
328,323,131464,6,0,P|245:326|202:311,1,120
108,227,131827,1,0,0:0:0:0:
350,245,132009,1,0,0:0:0:0:
396,101,132191,1,0,0:0:0:0:
191,317,132373,1,0,0:0:0:0:
160,112,132555,2,0,P|112:47|32:51,1,120
234,43,132918,1,0,0:0:0:0:
43,151,133100,1,0,0:0:0:0:
154,231,133282,2,0,P|223:263|309:234,1,120
294,248,133555,1,0,0:0:0:0:
327,226,133645,1,0,0:0:0:0:
452,89,133827,1,0,0:0:0:0:
423,346,134009,2,0,P|420:278|384:206,1,120
332,73,134373,5,0,0:0:0:0:
323,90,135827,5,0,0:0:0:0:
314,107,137282,5,0,0:0:0:0:
355,221,137645,1,0,0:0:0:0:
155,11,137827,1,0,0:0:0:0:
509,109,138009,1,0,0:0:0:0:
148,285,138191,1,0,0:0:0:0:
290,0,138373,1,0,0:0:0:0:
508,199,138555,1,0,0:0:0:0:
271,333,138736,5,0,0:0:0:0:
212,346,138826,1,0,0:0:0:0:
153,339,138917,1,0,0:0:0:0:
99,314,139008,1,0,0:0:0:0:
55,273,139099,1,0,0:0:0:0:
28,220,139190,1,0,0:0:0:0:
19,161,139281,1,0,0:0:0:0:
30,102,139372,1,0,0:0:0:0:
58,50,139464,5,0,0:0:0:0:
69,131,139554,1,0,0:0:0:0:
113,202,139645,1,0,0:0:0:0:
183,247,139736,1,0,0:0:0:0:
266,258,139827,1,0,0:0:0:0:
345,234,139918,1,0,0:0:0:0:
407,179,140009,1,0,0:0:0:0:
440,103,140100,1,0,0:0:0:0:
437,19,140191,6,0,P|361:40|300:92,1,127.50000243187
148,247,140555,1,0,0:0:0:0:
258,8,140737,1,0,0:0:0:0:
17,173,140919,1,0,0:0:0:0:
333,163,141101,1,0,0:0:0:0:
205,65,141282,2,0,P|130:30|49:67,1,127.50000243187
336,0,141645,6,0,L|321:163,1,127.50000243187
297,331,142010,1,0,0:0:0:0:
215,134,142191,2,0,P|274:98|373:113,1,127.50000243187
297,331,142554,2,0,P|238:367|139:352,1,127.50000243187
0,312,142919,1,0,0:0:0:0:
60,53,143100,6,0,P|66:162|100:216,1,127.50000243187
171,314,143465,1,0,0:0:0:0:
205,77,143646,1,0,0:0:0:0:
11,233,143828,1,0,0:0:0:0:
308,135,144010,1,0,0:0:0:0:
42,146,144191,2,0,P|92:203|69:300,1,127.50000243187
19,0,144555,2,0,P|59:68|141:101,1,127.50000243187
349,4,144919,1,0,0:0:0:0:
232,264,145100,2,0,P|198:173|139:145,1,127.50000243187
21,50,145464,1,0,0:0:0:0:
325,267,145645,1,0,0:0:0:0:
89,305,145828,1,0,0:0:0:0:
250,90,146009,6,0,P|318:51|410:62,1,127.50000243187
512,138,146373,2,0,P|444:177|352:166,1,127.50000243187
181,129,146737,1,0,0:0:0:0:
421,70,146919,1,0,0:0:0:0:
216,46,147100,2,0,P|143:41|69:114,1,127.50000243187
24,319,147464,1,0,0:0:0:0:
25,279,147554,1,0,0:0:0:0:
36,241,147645,1,0,0:0:0:0:
57,207,147736,1,0,0:0:0:0:
86,179,147827,1,0,0:0:0:0:
120,160,147918,1,0,0:0:0:0:
159,150,148009,1,0,0:0:0:0:
198,150,148100,1,0,0:0:0:0:
237,160,148191,6,0,P|313:175|419:98,1,191.250003647804
422,93,148555,2,0,P|477:141|428:268,1,191.250003647804
439,270,148918,2,0,P|397:281|293:243,1,127.50000243187
114,94,149283,1,0,0:0:0:0:
222,360,149465,1,0,0:0:0:0:
462,102,149646,2,0,P|393:168|380:233,1,127.50000243187
409,363,150010,1,0,0:0:0:0:
325,84,150192,1,0,0:0:0:0:
475,211,150373,2,0,P|404:271|332:270,1,127.50000243187
138,242,150737,1,0,0:0:0:0:
427,142,150919,1,0,0:0:0:0:
170,33,151100,1,0,0:0:0:0:
161,72,151191,1,0,0:0:0:0:
170,108,151282,1,0,0:0:0:0:
227,269,151464,1,0,0:0:0:0:
233,330,151554,1,0,0:0:0:0:
188,372,151645,1,0,0:0:0:0:
128,361,151736,1,0,0:0:0:0:
100,306,151827,6,0,P|102:218|152:169,1,127.50000243187
79,11,152191,2,0,P|77:99|27:148,1,127.50000243187
180,42,152555,2,0,P|247:20|330:50,1,127.50000243187
498,196,152918,2,0,P|431:218|348:188,1,127.50000243187
221,113,153282,2,0,L|232:240,1,127.50000243187
143,23,153646,1,0,0:0:0:0:
46,226,153827,2,0,P|23:295|48:399,1,127.50000243187
126,68,154191,2,0,P|149:137|124:241,1,127.50000243187
94,348,154555,1,0,0:0:0:0:
278,302,154736,6,0,L|413:313,1,127.50000243187
145,190,155100,2,0,L|9:201,1,127.50000243187
250,52,155464,2,0,L|385:63,1,127.50000243187
159,125,155828,1,0,0:0:0:0:
417,0,156010,1,0,0:0:0:0:
322,163,156191,6,0,P|295:221|298:284,1,127.50000243187
475,249,156555,1,0,0:0:0:0:
322,163,156736,1,0,0:0:0:0:
283,154,156827,1,0,0:0:0:0:
247,163,156918,1,0,0:0:0:0:
108,205,157100,1,0,0:0:0:0:
45,204,157190,1,0,0:0:0:0:
0,162,157281,1,0,0:0:0:0:
0,100,157372,1,0,0:0:0:0:
30,50,157463,1,0,0:0:0:0:
91,37,157554,1,0,0:0:0:0:
145,68,157645,6,0,P|183:117|182:206,1,120
139,341,158009,1,0,0:0:0:0:
67,104,158191,1,0,0:0:0:0:
316,194,158373,2,0,P|308:252|270:297,1,120
98,133,158736,2,0,P|105:74|143:29,1,120
0,225,159100,6,0,L|139:212,1,120
394,192,159464,1,0,0:0:0:0:
89,363,159645,1,0,0:0:0:0:
194,152,159827,2,0,P|229:105|285:86,1,120
484,111,160191,1,0,0:0:0:0:
243,28,160373,6,0,P|243:115|291:169,1,120
376,349,160736,2,0,P|376:262|328:208,1,120
246,78,161100,1,0,0:0:0:0:
245,345,161282,1,0,0:0:0:0:
77,214,161645,6,0,P|149:181|224:194,1,120
223,190,161918,1,0,0:0:0:0:
256,203,162009,1,0,0:0:0:0:
110,314,162191,1,0,0:0:0:0:
74,323,162282,1,0,0:0:0:0:
35,314,162373,1,0,0:0:0:0:
283,363,162554,1,0,0:0:0:0:
54,183,162736,1,0,0:0:0:0:
282,252,162918,2,0,P|341:276|387:348,1,120
266,169,163282,1,0,0:0:0:0:
314,98,163464,5,0,0:0:0:0:
210,247,163646,1,0,0:0:0:0:
366,126,163828,1,0,0:0:0:0:
183,183,164010,1,0,0:0:0:0:
426,184,164192,5,0,0:0:0:0:
144,113,164373,1,0,0:0:0:0:
451,264,164555,1,0,0:0:0:0:
171,42,164737,1,0,0:0:0:0:
403,322,164919,5,0,0:0:0:0:
238,2,165101,1,0,0:0:0:0:
348,366,165283,1,0,0:0:0:0:
315,1,165464,1,0,0:0:0:0:
256,366,165646,5,0,0:0:0:0:
404,10,165828,1,0,0:0:0:0:
156,340,166010,1,0,0:0:0:0:
476,42,166192,1,0,0:0:0:0:
116,40,166373,5,0,0:0:0:0:
492,349,166555,1,0,0:0:0:0:
63,216,166737,1,0,0:0:0:0:
471,112,166919,5,0,0:0:0:0:
56,327,167101,1,0,0:0:0:0:
312,39,167283,1,0,0:0:0:0:
39,154,167464,2,0,P|63:217|151:259,1,120
386,267,167827,2,0,P|362:204|274:162,1,120
169,76,168192,1,0,0:0:0:0:
0,278,168373,2,0,L|147:265,1,120
436,84,168737,2,0,L|266:77,1,120
127,77,169282,5,0,0:0:0:0:
310,365,169464,1,0,0:0:0:0:
478,72,169645,1,0,0:0:0:0:
71,148,169827,5,0,0:0:0:0:
343,354,170009,1,0,0:0:0:0:
399,22,170191,1,0,0:0:0:0:
51,241,170373,5,0,0:0:0:0:
376,343,170555,1,0,0:0:0:0:
316,13,170736,1,0,0:0:0:0:
61,332,170918,5,0,0:0:0:0:
400,317,171100,1,0,0:0:0:0:
232,26,171281,1,0,0:0:0:0:
173,362,171464,5,0,0:0:0:0:
404,41,171645,1,0,0:0:0:0:
413,369,171827,5,0,0:0:0:0:
96,35,172009,1,0,0:0:0:0:
434,133,172191,5,0,0:0:0:0:
68,292,172373,1,0,0:0:0:0:
299,44,172555,1,0,0:0:0:0:
275,342,172736,5,0,0:0:0:0:
77,53,172918,1,0,0:0:0:0:
464,210,173100,1,0,0:0:0:0:
215,21,173282,5,0,0:0:0:0:
434,359,173464,1,0,0:0:0:0:
395,0,173645,1,0,0:0:0:0:
134,345,173827,5,0,0:0:0:0:
353,72,174009,1,0,0:0:0:0:
125,103,174191,1,0,0:0:0:0:
420,307,174373,1,0,0:0:0:0:
176,36,174555,1,0,0:0:0:0:
114,0,174645,1,0,0:0:0:0:
43,20,174736,1,0,0:0:0:0:
25,93,174827,1,0,0:0:0:0:
67,158,174918,1,0,0:0:0:0:
78,228,175009,1,0,0:0:0:0:
59,297,175100,5,0,0:0:0:0:
178,213,175464,5,0,0:0:0:0:
198,298,175645,1,0,0:0:0:0:
272,219,175827,1,0,0:0:0:0:
262,302,176009,1,0,0:0:0:0:
316,231,176191,1,0,0:0:0:0:
339,317,176373,1,0,0:0:0:0:
384,243,176555,1,0,0:0:0:0:
399,322,176736,1,0,0:0:0:0:
435,239,176918,1,0,0:0:0:0:
450,329,177100,1,0,0:0:0:0:
487,240,177282,1,0,0:0:0:0:
324,304,177464,1,0,0:0:0:0:
442,150,177645,1,0,0:0:0:0:
43,198,177827,5,0,0:0:0:0:
392,247,178009,1,0,0:0:0:0:
53,87,178191,1,0,0:0:0:0:
383,81,178373,1,0,0:0:0:0:
365,151,178555,1,0,0:0:0:0:
311,87,178736,1,0,0:0:0:0:
307,167,178918,1,0,0:0:0:0:
244,107,179100,1,0,0:0:0:0:
228,184,179282,1,0,0:0:0:0:
185,124,179464,1,0,0:0:0:0:
165,189,179645,1,0,0:0:0:0:
98,122,179827,1,0,0:0:0:0:
81,205,180009,1,0,0:0:0:0:
346,42,180191,1,0,0:0:0:0:
408,26,180281,1,0,0:0:0:0:
465,55,180372,1,0,0:0:0:0:
490,115,180463,1,0,0:0:0:0:
470,176,180554,1,0,0:0:0:0:
415,209,180645,1,0,0:0:0:0:
352,199,180736,1,0,0:0:0:0:
293,182,180827,1,0,0:0:0:0:
233,196,180918,6,0,P|178:242|168:314,1,112.500004291535
321,311,181282,1,0,0:0:0:0:
148,115,181464,1,0,0:0:0:0:
102,339,181645,2,0,P|47:281|57:214,1,112.500004291535
62,24,182009,1,0,0:0:0:0:
208,308,182191,1,0,0:0:0:0:
48,188,182373,5,0,0:0:0:0:
181,140,182555,2,0,P|256:129|321:161,1,112.500004291535
505,197,182918,1,0,0:0:0:0:
208,34,183100,1,0,0:0:0:0:
512,48,183282,1,0,0:0:0:0:
217,188,183464,1,0,0:0:0:0:
442,333,183645,1,0,0:0:0:0:
438,269,183736,1,0,0:0:0:0:
429,206,183827,6,0,P|380:128|328:105,1,112.500004291535
78,116,184191,2,0,P|127:194|179:217,1,112.500004291535
336,271,184555,1,0,0:0:0:0:
148,41,184736,1,0,0:0:0:0:
417,0,184918,2,0,L|406:115,1,112.500004291535
380,317,185282,5,0,0:0:0:0:
147,258,185464,2,0,P|221:213|284:216,1,112.500004291535
375,205,185827,1,0,0:0:0:0:
416,203,185918,1,0,0:0:0:0:
449,181,186009,1,0,0:0:0:0:
143,77,186191,2,0,P|217:122|280:119,1,112.500004291535
419,89,186555,1,0,0:0:0:0:
407,343,186736,6,0,L|380:192,1,120
336,48,187100,2,0,L|326:194,1,120
308,360,187464,1,0,0:0:0:0:
484,192,187645,1,0,0:0:0:0:
189,256,187827,1,0,0:0:0:0:
464,320,188009,1,0,0:0:0:0:
240,78,188191,5,0,0:0:0:0:
308,360,188373,1,0,0:0:0:0:
418,110,188555,1,0,0:0:0:0:
188,350,188736,1,0,0:0:0:0:
26,105,188918,1,0,0:0:0:0:
371,283,189100,1,0,0:0:0:0:
248,101,189282,2,0,P|205:59|146:50,1,120
5,64,189645,5,0,0:0:0:0:
81,334,189827,1,0,0:0:0:0:
179,55,190009,2,0,P|158:142|127:203,1,120
276,372,190373,2,0,P|297:285|328:224,1,120
416,66,190736,1,0,0:0:0:0:
416,66,190918,1,0,0:0:0:0:
476,198,191100,6,0,L|396:191,1,75
312,174,191464,1,0,0:0:0:0:
378,273,191645,1,0,0:0:0:0:
378,273,191736,1,0,0:0:0:0:
378,273,191827,1,0,0:0:0:0:
293,304,192009,1,0,0:0:0:0:
216,255,192191,2,0,L|224:159,1,75
238,14,192555,6,0,P|287:70|295:160,1,112.500004291535
157,214,192918,2,0,P|108:158|100:68,1,112.500004291535
46,235,193282,1,0,0:0:0:0:
59,274,193372,1,0,0:0:0:0:
83,308,193463,1,0,0:0:0:0:
118,333,193554,1,0,0:0:0:0:
158,345,193645,1,0,0:0:0:0:
200,344,193736,1,0,0:0:0:0:
239,330,193827,1,0,0:0:0:0:
272,304,193918,1,0,0:0:0:0:
296,269,194009,5,0,0:0:0:0:
53,201,194191,1,0,0:0:0:0:
392,144,194373,1,0,0:0:0:0:
144,221,194555,1,0,0:0:0:0:
373,273,194736,2,0,P|435:262|476:205,1,112.500004291535
254,103,195100,2,0,P|192:114|151:171,1,112.500004291535
114,316,195464,5,0,0:0:0:0:
378,292,195645,1,0,0:0:0:0:
93,169,195827,5,0,0:0:0:0:
390,194,196008,1,0,0:0:0:0:
70,42,196191,5,0,0:0:0:0:
400,13,196372,1,0,0:0:0:0:
209,323,196555,5,0,0:0:0:0:
319,23,196736,1,0,0:0:0:0:
335,339,196918,1,0,0:0:0:0:
173,27,197100,1,0,0:0:0:0:
58,279,197282,1,0,0:0:0:0:
412,121,197464,1,0,0:0:0:0:
430,346,197645,1,0,0:0:0:0:
35,162,197827,1,0,0:0:0:0:
201,49,198009,2,0,L|193:190,1,112.500004291535
178,342,198373,5,0,0:0:0:0:
466,213,198555,1,0,0:0:0:0:
94,195,198736,1,0,0:0:0:0:
409,358,198918,1,0,0:0:0:0:
194,45,199100,1,0,0:0:0:0:
303,362,199282,1,0,0:0:0:0:
412,29,199464,1,0,0:0:0:0:
488,349,199645,1,0,0:0:0:0:
75,259,199827,5,0,0:0:0:0:
511,168,200009,1,0,0:0:0:0:
19,58,200191,1,0,0:0:0:0:
427,368,200373,1,0,0:0:0:0:
334,0,200555,1,0,0:0:0:0:
212,384,200736,1,0,0:0:0:0:
50,119,200918,5,0,0:0:0:0:
101,88,201008,1,0,0:0:0:0:
160,69,201099,1,0,0:0:0:0:
220,61,201190,1,0,0:0:0:0:
280,65,201281,1,0,0:0:0:0:
339,83,201372,1,0,0:0:0:0:
393,110,201463,1,0,0:0:0:0:
332,169,201554,1,0,0:0:0:0:
297,246,201645,1,0,0:0:0:0:
327,324,201736,1,0,0:0:0:0:
405,354,201827,1,0,0:0:0:0:
480,316,201918,1,0,0:0:0:0:
496,233,202009,6,0,P|488:156|448:97,1,120
429,65,202282,1,0,0:0:0:0:
380,19,202373,1,0,0:0:0:0:
411,279,202555,1,0,0:0:0:0:
265,78,202736,2,0,P|235:143|238:198,1,120
279,357,203100,1,0,0:0:0:0:
377,138,203282,1,0,0:0:0:0:
449,195,203645,6,0,P|392:222|307:196,1,120
146,113,204009,1,0,0:0:0:0:
353,29,204191,2,0,L|317:180,1,120
63,89,204555,2,0,L|99:240,1,120
444,172,204918,6,0,P|407:250|345:291,1,120
324,304,205191,1,0,0:0:0:0:
258,309,205282,1,0,0:0:0:0:
38,293,205464,1,0,0:0:0:0:
343,185,205645,1,0,0:0:0:0:
45,146,205827,1,0,0:0:0:0:
258,309,206009,1,0,0:0:0:0:
66,67,206191,1,0,0:0:0:0:
153,30,206555,6,0,P|226:18|306:39,1,120
440,79,206918,1,0,0:0:0:0:
193,164,207100,1,0,0:0:0:0:
384,22,207282,1,0,0:0:0:0:
148,86,207464,2,0,P|103:146|133:228,1,120
172,341,207827,5,0,0:0:0:0:
214,360,207917,1,0,0:0:0:0:
261,368,208008,1,0,0:0:0:0:
307,360,208099,1,0,0:0:0:0:
350,339,208190,1,0,0:0:0:0:
385,306,208281,1,0,0:0:0:0:
408,265,208372,1,0,0:0:0:0:
416,219,208463,1,0,0:0:0:0:
412,170,208554,1,0,0:0:0:0:
397,131,208645,1,0,0:0:0:0:
363,107,208736,1,0,0:0:0:0:
322,107,208827,1,0,0:0:0:0:
288,130,208918,1,0,0:0:0:0:
273,169,209009,1,0,0:0:0:0:
284,210,209100,1,0,0:0:0:0:
310,256,209190,1,0,0:0:0:0:
304,309,209281,5,0,0:0:0:0:
265,347,209372,1,0,0:0:0:0:
211,353,209463,1,0,0:0:0:0:
166,325,209554,1,0,0:0:0:0:
148,274,209645,1,0,0:0:0:0:
164,224,209736,1,0,0:0:0:0:
172,154,209827,1,0,0:0:0:0:
148,86,209918,1,0,0:0:0:0:
103,28,210009,2,0,P|156:2|215:1,1,120
358,101,210282,2,0,P|305:75|246:74,1,120
172,154,210555,2,0,L|263:145,1,60
316,147,210736,6,0,P|306:229|255:273,1,120
247,299,211009,1,0,0:0:0:0:
225,278,211100,1,0,0:0:0:0:
193,324,211191,1,0,0:0:0:0:
188,294,211282,1,0,0:0:0:0:
133,299,211373,1,0,0:0:0:0:
146,272,211464,1,0,0:0:0:0:
94,258,211555,1,0,0:0:0:0:
115,237,211645,1,0,0:0:0:0:
81,203,211736,1,0,0:0:0:0:
109,194,211827,1,0,0:0:0:0:
85,151,211918,1,0,0:0:0:0:
114,148,212009,1,0,0:0:0:0:
98,101,212100,1,0,0:0:0:0:
82,54,212191,5,0,0:0:0:0:
101,305,212373,1,0,0:0:0:0:
185,125,212736,1,0,0:0:0:0:
201,78,212827,1,0,0:0:0:0:
217,31,212918,5,0,0:0:0:0:
184,354,213100,1,0,0:0:0:0:
282,327,213645,5,0,0:0:0:0:
13,221,213827,1,0,0:0:0:0:
421,128,214009,1,0,0:0:0:0:
74,307,214191,1,0,0:0:0:0:
253,53,214373,1,0,0:0:0:0:
401,331,214555,1,0,0:0:0:0:
443,96,214736,2,0,P|393:48|311:40,1,120
109,51,215100,5,0,0:0:0:0:
417,167,215282,1,0,0:0:0:0:
61,259,215464,1,0,0:0:0:0:
340,0,215645,1,0,0:0:0:0:
244,331,215827,1,0,0:0:0:0:
479,188,216009,1,0,0:0:0:0:
132,94,216191,1,0,0:0:0:0:
427,36,216373,1,0,0:0:0:0:
121,271,216555,2,0,P|167:210|236:187,1,120
463,105,216918,1,0,0:0:0:0:
341,20,217282,1,0,0:0:0:0:
337,352,217464,1,0,0:0:0:0:
86,191,217645,1,0,0:0:0:0:
406,250,217827,1,0,0:0:0:0:
441,226,217918,1,0,0:0:0:0:
453,183,218009,1,0,0:0:0:0:
420,2,218191,1,0,0:0:0:0:
512,237,218373,1,0,0:0:0:0:
291,161,218555,2,0,P|217:173|288:283,1,240
306,288,219009,1,0,0:0:0:0:
343,268,219100,1,0,0:0:0:0:
364,231,219191,1,0,0:0:0:0:
372,189,219282,1,0,0:0:0:0:
383,6,219464,5,0,0:0:0:0:
128,280,219645,1,0,0:0:0:0:
133,29,219827,1,0,0:0:0:0:
480,192,220009,1,0,0:0:0:0:
189,344,220191,1,0,0:0:0:0:
301,19,220373,1,0,0:0:0:0:
278,323,220555,1,0,0:0:0:0:
227,61,220736,1,0,0:0:0:0:
385,106,220918,5,0,0:0:0:0:
73,215,221100,1,0,0:0:0:0:
405,177,221282,1,0,0:0:0:0:
155,96,221464,2,0,P|91:75|29:90,1,120
345,13,221827,1,0,0:0:0:0:
198,192,222009,2,0,P|167:263|213:339,1,120
459,232,222373,6,0,L|318:244,1,120
64,254,222736,1,0,0:0:0:0:
394,55,222918,1,0,0:0:0:0:
72,92,223100,1,0,0:0:0:0:
257,356,223282,1,0,0:0:0:0:
335,3,223464,1,0,0:0:0:0:
137,337,223645,1,0,0:0:0:0:
157,41,223827,6,0,P|214:46|295:116,1,120
466,292,224191,1,0,0:0:0:0:
93,115,224373,1,0,0:0:0:0:
366,353,224555,1,0,0:0:0:0:
224,32,224736,1,0,0:0:0:0:
228,344,224918,1,0,0:0:0:0:
360,33,225100,1,0,0:0:0:0:
5,79,225282,5,0,0:0:0:0:
231,167,225464,1,0,0:0:0:0:
458,255,225645,1,0,0:0:0:0:
500,98,225827,1,0,0:0:0:0:
258,123,226009,1,0,0:0:0:0:
15,149,226190,1,0,0:0:0:0:
386,353,226373,1,0,0:0:0:0:
188,17,226555,1,0,0:0:0:0:
0,384,226736,5,0,0:0:0:0:
512,0,226918,1,0,0:0:0:0:
512,377,227100,1,0,0:0:0:0:
0,0,227282,1,0,0:0:0:0:
98,307,227464,1,0,0:0:0:0:
380,83,227645,1,0,0:0:0:0:
401,311,227827,1,0,0:0:0:0:
121,93,228009,1,0,0:0:0:0:
165,184,228191,6,0,P|216:237|244:240,1,75
373,187,228555,2,0,L|285:194,1,75
224,116,228918,2,0,L|311:123,1,75
418,59,229282,1,0,0:0:0:0:
298,50,229464,1,0,0:0:0:0:
448,152,229645,2,0,L|440:239,1,75
373,342,230009,2,0,L|366:267,1,75
351,73,230373,2,0,L|263:80,1,75
96,140,230737,2,0,L|170:146,1,75
299,162,231100,6,0,L|289:265,1,75
374,337,231464,2,0,L|367:262,1,75
350,113,231827,1,0,0:0:0:0:
437,197,232009,1,0,0:0:0:0:
431,86,232191,1,0,0:0:0:0:
357,195,232373,2,0,P|304:228|263:231,1,75
181,236,232736,1,0,0:0:0:0:
217,103,232918,2,0,L|223:182,1,75
303,27,233282,2,0,L|296:106,1,75
123,40,233645,2,0,L|129:119,1,75
143,252,234009,6,0,P|163:292|202:315,1,75
311,282,234373,2,0,P|291:242|252:219,1,75
153,159,234736,1,0,0:0:0:0:
346,188,234918,1,0,0:0:0:0:
229,102,235100,1,0,0:0:0:0:
294,263,235282,1,0,0:0:0:0:
360,42,235464,2,0,L|353:121,1,75
497,168,235827,2,0,L|417:174,1,75
497,328,236191,2,0,L|490:248,1,75
473,43,236555,2,0,P|427:49|383:93,1,75
316,125,236918,6,0,P|286:138|240:124,1,75
158,44,237282,1,0,0:0:0:0:
262,208,237464,1,0,0:0:0:0:
260,28,237645,1,0,0:0:0:0:
159,218,237827,1,0,0:0:0:0:
27,59,238009,2,0,L|34:143,1,75
47,278,238373,1,0,0:0:0:0:
117,104,238555,1,0,0:0:0:0:
186,297,238736,1,0,0:0:0:0:
193,121,238918,1,0,0:0:0:0:
317,302,239100,1,0,0:0:0:0:
269,127,239282,1,0,0:0:0:0:
382,251,239464,2,0,P|417:277|471:287,1,75
488,143,239827,6,0,L|376:152,1,97.4999955368044
316,200,240191,2,0,L|204:209,1,97.4999955368044
133,71,240555,2,0,P|197:103|206:142,1,97.4999955368044
219,280,240918,1,0,0:0:0:0:
333,21,241100,1,0,0:0:0:0:
330,44,241191,1,0,0:0:0:0:
328,72,241282,1,0,0:0:0:0:
295,220,241464,1,0,0:0:0:0:
228,44,241645,1,0,0:0:0:0:
407,375,242009,1,0,0:0:0:0:
241,341,242191,1,0,0:0:0:0:
404,278,242373,2,0,P|454:242|458:181,1,97.4999955368044
410,24,242736,6,0,P|360:60|356:121,1,97.4999955368044
356,190,243100,2,0,P|338:234|297:258,1,97.4999955368044
132,288,243464,1,0,0:0:0:0:
287,348,243645,2,0,L|402:339,1,97.4999955368044
410,337,243918,1,0,0:0:0:0:
439,335,244009,1,0,0:0:0:0:
421,153,244191,6,0,L|308:160,1,97.4999955368044
161,164,244555,1,0,0:0:0:0:
294,70,244736,1,0,0:0:0:0:
292,82,244827,1,0,0:0:0:0:
291,99,244918,1,0,0:0:0:0:
279,241,245100,1,0,0:0:0:0:
149,42,245282,2,0,L|157:141,1,97.4999955368044
163,242,245645,6,0,P|116:254|65:232,1,75
241,214,246009,2,0,P|288:202|339:224,1,75
182,161,246373,2,0,P|170:114|192:63,1,75
221,294,246736,1,0,0:0:0:0:
293,144,246918,1,0,0:0:0:0:
186,66,247100,2,0,P|139:42|94:52,1,75
2,188,247464,2,0,P|49:164|94:174,1,75
175,323,247827,2,0,P|128:299|83:309,1,75
56,135,248191,2,0,P|103:159|148:145,1,75
256,112,248555,2,0,L|256:262,1,150
256,262,250009,2,0,L|256:112,1,150
34,146,250736,5,0,0:0:0:0:
498,195,250918,1,0,0:0:0:0:
368,38,251464,6,0,L|378:193,1,127.50000243187
386,366,251827,1,0,0:0:0:0:
463,136,252009,1,0,0:0:0:0:
194,304,252191,1,0,0:0:0:0:
472,223,252373,1,0,0:0:0:0:
272,152,252555,2,0,P|194:135|119:157,1,127.50000243187
46,56,252918,6,0,L|64:215,1,127.50000243187
89,357,253282,1,0,0:0:0:0:
175,53,253464,2,0,P|194:143|260:178,1,127.50000243187
217,376,253827,2,0,P|198:286|132:251,1,127.50000243187
18,148,254191,1,0,0:0:0:0:
20,171,254282,1,0,0:0:0:0:
24,199,254373,5,0,0:0:0:0:
112,8,254555,1,0,0:0:0:0:
178,302,254736,1,0,0:0:0:0:
193,63,254918,1,0,0:0:0:0:
367,302,255100,1,0,0:0:0:0:
275,77,255282,1,0,0:0:0:0:
102,237,255464,2,0,P|186:197|256:213,1,127.50000243187
469,221,255827,6,0,L|297:248,1,127.50000243187
156,263,256191,1,0,0:0:0:0:
380,25,256373,2,0,L|368:177,1,127.50000243187
346,367,256736,1,0,0:0:0:0:
340,333,256827,1,0,0:0:0:0:
336,296,256918,1,0,0:0:0:0:
275,314,257008,1,0,0:0:0:0:
211,309,257099,1,0,0:0:0:0:
154,282,257190,1,0,0:0:0:0:
110,237,257281,1,0,0:0:0:0:
90,74,257645,5,0,0:0:0:0:
136,31,257735,1,0,0:0:0:0:
198,25,257826,1,0,0:0:0:0:
251,59,257917,1,0,0:0:0:0:
274,117,258008,1,0,0:0:0:0:
287,178,258099,1,0,0:0:0:0:
336,217,258190,1,0,0:0:0:0:
398,217,258282,1,0,0:0:0:0:
445,176,258372,1,0,0:0:0:0:
456,115,258463,1,0,0:0:0:0:
425,61,258554,1,0,0:0:0:0:
366,39,258645,1,0,0:0:0:0:
308,60,258736,5,0,0:0:0:0:
265,106,258826,1,0,0:0:0:0:
207,132,258917,1,0,0:0:0:0:
143,134,259008,1,0,0:0:0:0:
85,110,259099,1,0,0:0:0:0:
46,160,259190,1,0,0:0:0:0:
44,222,259281,1,0,0:0:0:0:
80,274,259372,1,0,0:0:0:0:
139,295,259463,1,0,0:0:0:0:
180,246,259554,1,0,0:0:0:0:
237,218,259645,1,0,0:0:0:0:
300,215,259736,1,0,0:0:0:0:
359,238,259827,1,0,0:0:0:0:
419,254,259917,1,0,0:0:0:0:
468,217,260008,1,0,0:0:0:0:
469,156,260099,1,0,0:0:0:0:
421,117,260190,5,0,0:0:0:0:
224,51,260373,1,0,0:0:0:0:
224,51,260464,1,0,0:0:0:0:
224,51,260555,1,0,0:0:0:0:
345,360,260736,2,0,P|367:237|296:119,1,255.000004863739
458,238,261282,2,0,P|346:264|318:309,1,127.50000243187
230,358,261645,5,0,0:0:0:0:
199,367,261735,1,0,0:0:0:0:
167,367,261826,1,0,0:0:0:0:
137,356,261917,1,0,0:0:0:0:
112,337,262008,1,0,0:0:0:0:
94,311,262099,1,0,0:0:0:0:
85,281,262190,1,0,0:0:0:0:
86,249,262281,1,0,0:0:0:0:
98,220,262372,1,0,0:0:0:0:
155,263,262463,1,0,0:0:0:0:
225,254,262554,1,0,0:0:0:0:
271,197,262645,1,0,0:0:0:0:
263,125,262736,1,0,0:0:0:0:
270,53,262826,1,0,0:0:0:0:
324,3,262917,1,0,0:0:0:0:
396,0,263009,1,0,0:0:0:0:
454,43,263100,6,0,L|440:193,1,112.500004291535
424,338,263464,2,0,P|350:352|289:336,1,112.500004291535
88,338,264191,2,0,P|161:352|222:336,1,112.500004291535
58,43,264555,2,0,L|71:193,1,112.500004291535
88,338,264918,1,0,0:0:0:0:
237,109,265100,2,0,P|180:139|143:190,1,112.500004291535
275,275,265464,2,0,P|332:245|369:194,1,112.500004291535
256,16,265827,2,0,L|256:176,1,112.500004291535
317,327,266373,2,0,P|255:341|192:329,1,112.500004291535
195,57,267100,2,0,P|256:42|319:54,1,112.500004291535
188,144,267464,2,0,L|177:302,1,112.500004291535
389,130,267827,1,0,0:0:0:0:
383,253,268009,2,0,P|309:217|291:161,1,112.500004291535
246,34,268373,2,0,P|141:24|87:48,1,112.500004291535
37,178,268736,2,0,P|142:188|196:164,1,112.500004291535
390,29,269100,2,0,P|327:19|266:34,1,112.500004291535
256,265,270009,2,0,L|256:109,1,112.500004291535
255,45,270373,2,0,P|187:81|168:145,1,112.500004291535
159,265,270736,2,0,P|196:316|255:339,1,112.500004291535
340,338,271100,6,0,L|493:348,1,112.500004291535
384,228,271464,2,0,L|222:239,1,112.500004291535
53,111,271827,2,0,P|129:80|184:87,1,112.500004291535
372,99,272191,1,0,0:0:0:0:
241,30,272373,1,0,0:0:0:0:
203,207,272555,2,0,P|160:292|101:324,1,112.500004291535
311,211,272918,1,0,0:0:0:0:
100,234,273100,1,0,0:0:0:0:
292,315,273282,2,0,P|365:333|436:291,1,112.500004291535
270,173,273645,1,0,0:0:0:0:
482,250,273827,1,0,0:0:0:0:
465,39,274009,2,0,P|411:72|387:131,1,112.500004291535
390,296,274373,1,0,0:0:0:0:
278,85,274555,1,0,0:0:0:0:
403,124,274736,6,0,P|477:167|489:237,1,112.500004291535
481,374,275100,2,0,P|407:331|391:266,1,112.500004291535
355,109,275464,1,0,0:0:0:0:
442,252,275645,1,0,0:0:0:0:
286,181,275827,2,0,P|211:157|127:174,1,112.500004291535
23,35,276191,2,0,P|140:67|176:60,1,112.500004291535
313,37,276555,1,0,0:0:0:0:
96,106,276736,2,0,P|163:195|205:190,1,112.500004291535
416,106,277100,2,0,P|349:195|307:190,1,112.500004291535
122,220,277464,1,0,0:0:0:0:
251,22,277645,6,0,L|238:169,1,112.500004291535
205,335,278009,1,0,0:0:0:0:
162,177,278191,1,0,0:0:0:0:
275,262,278373,1,0,0:0:0:0:
123,273,278555,1,0,0:0:0:0:
250,178,278736,2,0,P|311:138|396:156,1,112.500004291535
447,2,279100,2,0,L|433:161,1,112.500004291535
414,305,279464,1,0,0:0:0:0:
300,42,279645,2,0,L|310:191,1,112.500004291535
99,175,280009,2,0,P|190:157|234:177,1,112.500004291535
381,208,280373,1,0,0:0:0:0:
138,58,280555,2,0,L|284:56,1,112.500004291535
124,272,280918,1,0,0:0:0:0:
247,111,281100,1,0,0:0:0:0:
348,305,281282,1,0,0:0:0:0:
126,317,281464,1,0,0:0:0:0:
98,100,281645,2,0,P|161:181|203:196,1,112.500004291535
414,284,282009,6,0,P|351:203|309:188,1,112.500004291535
173,98,282373,1,0,0:0:0:0:
276,335,282555,2,0,L|291:191,1,112.500004291535
386,12,282918,2,0,L|391:171,1,112.500004291535
391,307,283282,1,0,0:0:0:0:
391,307,283373,1,0,0:0:0:0:
391,307,283464,2,0,P|305:333|252:308,1,112.500004291535
146,233,283827,1,0,0:0:0:0:
346,250,284009,1,0,0:0:0:0:
450,108,284191,1,0,0:0:0:0:
218,99,284373,1,0,0:0:0:0:
303,16,284555,2,0,P|327:89|314:171,1,112.500004291535
278,266,284918,5,0,0:0:0:0:
254,156,285039,1,0,0:0:0:0:
358,199,285161,1,0,0:0:0:0:
206,220,285282,1,0,0:0:0:0:
326,123,285403,1,0,0:0:0:0:
357,276,285524,1,0,0:0:0:0:
232,123,285645,1,0,0:0:0:0:
395,186,285767,1,0,0:0:0:0:
264,297,285888,1,0,0:0:0:0:
347,42,286009,5,0,0:0:0:0:
347,345,286191,1,0,0:0:0:0:
222,56,286373,6,0,L|239:192,1,127.50000243187
111,46,286736,2,0,L|162:172,1,127.50000243187
1,65,287100,2,0,L|83:174,1,127.50000243187
191,286,287464,1,0,0:0:0:0:
114,92,287645,1,0,0:0:0:0:
293,292,287827,5,0,0:0:0:0:
489,125,288009,1,0,0:0:0:0:
374,346,288191,1,0,0:0:0:0:
114,192,288373,1,0,0:0:0:0:
396,0,288555,1,0,0:0:0:0:
469,301,288736,1,0,0:0:0:0:
142,285,288918,1,0,0:0:0:0:
470,181,289100,1,0,0:0:0:0:
241,45,289282,6,0,P|146:33|100:80,1,127.50000243187
5,138,289645,1,0,0:0:0:0:
44,278,289827,1,0,0:0:0:0:
110,64,290009,1,0,0:0:0:0:
133,340,290191,1,0,0:0:0:0:
274,14,290373,1,0,0:0:0:0:
212,349,290555,1,0,0:0:0:0:
436,25,290736,1,0,0:0:0:0:
73,252,290918,1,0,0:0:0:0:
453,150,291100,1,0,0:0:0:0:
58,130,291282,1,0,0:0:0:0:
457,296,291464,1,0,0:0:0:0:
136,52,291645,1,0,0:0:0:0:
369,26,291827,1,0,0:0:0:0:
193,349,292009,1,0,0:0:0:0:
279,51,292191,6,0,L|306:224,1,127.50000243187
332,375,292555,1,0,0:0:0:0:
196,117,292736,1,0,0:0:0:0:
443,211,292918,1,0,0:0:0:0:
105,263,293100,1,0,0:0:0:0:
398,327,293282,1,0,0:0:0:0:
269,35,293464,1,0,0:0:0:0:
153,331,293645,1,0,0:0:0:0:
475,102,293827,1,0,0:0:0:0:
53,132,294009,1,0,0:0:0:0:
395,29,294191,1,0,0:0:0:0:
238,349,294373,1,0,0:0:0:0:
83,14,294555,1,0,0:0:0:0:
428,372,294736,1,0,0:0:0:0:
512,0,294918,1,0,0:0:0:0:
0,384,295100,5,0,0:0:0:0:
246,93,295282,1,0,0:0:0:0:
286,48,295373,1,0,0:0:0:0:
326,2,295464,1,0,0:0:0:0:
502,296,295645,5,0,0:0:0:0:
112,124,295827,1,0,0:0:0:0:
56,100,295918,1,0,0:0:0:0:
0,75,296009,1,0,0:0:0:0:
416,12,296191,5,0,0:0:0:0:
295,336,296373,1,0,0:0:0:0:
231,365,296464,1,0,0:0:0:0:
164,343,296555,1,0,0:0:0:0:
28,34,296736,1,0,0:0:0:0:
91,3,296827,1,0,0:0:0:0:
158,21,296918,1,0,0:0:0:0:
464,8,297282,5,0,0:0:0:0:
411,66,297372,1,0,0:0:0:0:
397,144,297463,1,0,0:0:0:0:
426,217,297554,1,0,0:0:0:0:
489,264,297645,1,0,0:0:0:0:
446,330,297735,1,0,0:0:0:0:
377,367,297826,1,0,0:0:0:0:
298,365,297917,1,0,0:0:0:0:
231,324,298008,5,0,0:0:0:0:
0,18,298191,1,0,0:0:0:0:
7,97,298282,1,0,0:0:0:0:
13,181,298373,2,0,P|93:197|179:149,1,142.49999619484
316,99,298736,1,0,0:0:0:0:
382,77,298826,1,0,0:0:0:0:
450,95,298917,1,0,0:0:0:0:
498,146,299008,1,0,0:0:0:0:
511,215,299099,1,0,0:0:0:0:
484,281,299190,1,0,0:0:0:0:
427,321,299281,1,0,0:0:0:0:
357,325,299372,1,0,0:0:0:0:
296,290,299464,6,0,P|222:260|138:285,1,142.49999619484
42,47,299827,1,0,0:0:0:0:
48,117,299918,1,0,0:0:0:0:
55,187,300009,2,0,L|68:342,1,142.49999619484
250,17,300373,2,0,L|236:172,1,142.49999619484
232,237,300645,1,0,0:0:0:0:
268,306,300736,1,0,0:0:0:0:
345,317,300827,1,0,0:0:0:0:
411,274,300918,6,0,P|432:191|360:129,1,142.49999619484
346,92,301191,1,0,0:0:0:0:
271,68,301282,1,0,0:0:0:0:
193,77,301373,1,0,0:0:0:0:
121,108,301464,1,0,0:0:0:0:
389,339,301645,1,0,0:0:0:0:
342,13,301827,1,0,0:0:0:0:
159,226,302009,2,0,P|119:312|135:394,1,142.49999619484
9,58,302373,6,0,P|92:24|168:35,1,142.49999619484
453,49,302736,1,0,0:0:0:0:
166,122,302918,1,0,0:0:0:0:
100,146,303009,1,0,0:0:0:0:
53,207,303100,1,0,0:0:0:0:
213,357,303282,1,0,0:0:0:0:
279,333,303373,1,0,0:0:0:0:
326,272,303464,1,0,0:0:0:0:
267,200,303555,1,0,0:0:0:0:
234,114,303645,1,0,0:0:0:0:
280,33,303736,1,0,0:0:0:0:
367,1,303827,6,0,L|353:160,1,142.49999619484
332,357,304191,1,0,0:0:0:0:
434,108,304373,1,0,0:0:0:0:
117,171,304555,1,0,0:0:0:0:
36,21,305100,5,0,0:0:0:0:
43,63,305191,1,0,0:0:0:0:
50,105,305282,1,0,0:0:0:0:
85,372,305464,1,0,0:0:0:0:
0,117,305645,1,0,0:0:0:0:
282,2,305827,1,0,0:0:0:0:
27,245,306009,1,0,0:0:0:0:
483,171,306373,1,0,0:0:0:0:
216,349,306555,1,0,0:0:0:0:
512,289,306736,6,0,L|368:276,1,142.49999619484
27,231,307100,1,0,0:0:0:0:
377,19,307282,1,0,0:0:0:0:
485,363,307464,1,0,0:0:0:0:
144,44,307827,6,0,P|148:127|202:181,1,142.49999619484
501,306,308191,1,0,0:0:0:0:
235,34,308373,1,0,0:0:0:0:
490,74,308555,1,0,0:0:0:0:
275,333,308736,1,0,0:0:0:0:
365,111,308918,1,0,0:0:0:0:
9,291,309100,1,0,0:0:0:0:
342,29,309282,1,0,0:0:0:0:
425,8,309372,1,0,0:0:0:0:
490,64,309463,1,0,0:0:0:0:
482,149,309554,1,0,0:0:0:0:
407,192,309645,5,0,0:0:0:0:
17,262,309827,1,0,0:0:0:0:
66,266,309918,1,0,0:0:0:0:
110,273,310009,1,0,0:0:0:0:
433,302,310191,1,0,0:0:0:0:
69,53,310373,1,0,0:0:0:0:
177,357,310555,1,0,0:0:0:0:
221,331,310646,1,0,0:0:0:0:
265,305,310736,1,0,0:0:0:0:
506,128,310918,1,0,0:0:0:0:
11,95,311100,5,0,0:0:0:0:
469,366,311282,1,0,0:0:0:0:
443,322,311373,1,0,0:0:0:0:
417,278,311463,1,0,0:0:0:0:
268,12,311645,1,0,0:0:0:0:
122,345,311827,1,0,0:0:0:0:
488,76,312009,1,0,0:0:0:0:
438,80,312100,1,0,0:0:0:0:
388,84,312191,1,0,0:0:0:0:
62,104,312373,1,0,0:0:0:0:
266,57,312555,5,0,0:0:0:0:
431,214,312736,1,0,0:0:0:0:
124,349,312918,1,0,0:0:0:0:
336,2,313100,1,0,0:0:0:0:
427,348,313282,1,0,0:0:0:0:
25,120,313464,1,0,0:0:0:0:
504,45,313645,1,0,0:0:0:0:
29,362,313827,1,0,0:0:0:0:
295,25,314009,2,0,P|317:92|273:176,1,142.49999619484
221,227,314373,1,0,0:0:0:0:
86,78,314555,2,0,L|245:87,1,142.49999619484
465,216,314918,2,0,L|306:225,1,142.49999619484
221,227,315282,1,0,0:0:0:0:
149,30,315464,6,0,P|77:106|63:168,1,127.50000243187
10,366,315827,1,0,0:0:0:0:
185,101,316009,1,0,0:0:0:0:
303,368,316191,1,0,0:0:0:0:
89,134,316373,1,0,0:0:0:0:
396,93,316555,1,0,0:0:0:0:
122,226,316736,1,0,0:0:0:0:
365,280,316918,6,0,P|451:269|493:210,1,127.50000243187
218,188,317282,1,0,0:0:0:0:
325,0,317464,2,0,P|333:77|275:139,1,127.50000243187
127,247,317827,1,0,0:0:0:0:
42,43,318009,2,0,P|114:18|185:47,1,127.50000243187
345,270,318373,2,0,P|273:295|202:266,1,127.50000243187
14,151,318736,1,0,0:0:0:0:
225,358,318918,1,0,0:0:0:0:
320,85,319100,1,0,0:0:0:0:
126,343,319282,1,0,0:0:0:0:
182,36,319464,1,0,0:0:0:0:
25,3,319827,6,0,L|36:130,1,127.50000243187
70,359,320191,1,0,0:0:0:0:
320,161,320373,2,0,P|216:172|170:223,1,127.50000243187
356,344,320736,1,0,0:0:0:0:
432,309,320826,1,0,0:0:0:0:
477,239,320917,1,0,0:0:0:0:
475,155,321008,1,0,0:0:0:0:
427,86,321099,1,0,0:0:0:0:
349,56,321190,1,0,0:0:0:0:
267,72,321282,6,0,P|203:78|141:66,1,127.50000243187
370,163,321645,1,0,0:0:0:0:
38,61,321827,1,0,0:0:0:0:
303,284,322009,1,0,0:0:0:0:
110,10,322191,1,0,0:0:0:0:
202,365,322373,1,0,0:0:0:0:
453,52,322736,6,0,P|417:137|352:173,1,127.50000243187
106,268,323100,1,0,0:0:0:0:
255,7,323282,2,0,L|266:142,1,127.50000243187
290,353,323645,1,0,0:0:0:0:
56,192,323827,2,0,P|123:116|177:106,1,127.50000243187
164,371,324191,6,0,L|151:231,1,127.50000243187
134,39,324555,1,0,0:0:0:0:
324,271,324736,1,0,0:0:0:0:
14,221,324918,1,0,0:0:0:0:
382,164,325100,1,0,0:0:0:0:
20,117,325282,1,0,0:0:0:0:
336,36,325464,1,0,0:0:0:0:
208,24,325645,6,0,P|223:102|292:156,1,127.50000243187
427,259,326009,1,0,0:0:0:0:
280,29,326191,1,0,0:0:0:0:
283,374,326373,1,0,0:0:0:0:
443,42,326555,1,0,0:0:0:0:
0,0,326736,1,0,0:0:0:0:
512,384,326918,1,0,0:0:0:0:
256,192,327827,12,0,335827,0:0:0:0:
63,28,334918,5,0,0:0:0:0:
139,48,335009,1,0,0:0:0:0:
215,61,335100,1,0,0:0:0:0:
290,81,335191,1,0,0:0:0:0:
366,92,335282,1,0,0:0:0:0:
435,118,335373,1,0,0:0:0:0:
484,184,335464,1,0,0:0:0:0:
465,256,335555,1,0,0:0:0:0:
406,292,335645,1,0,0:0:0:0:
331,280,335736,1,0,0:0:0:0:
289,211,335827,1,0,0:0:0:0:
