osu file format v14

[General]
AudioFilename: Kimi no Shira nai Monogatari -TV Edit-.mp3
AudioLeadIn: 0
PreviewTime: 54554
Countdown: 0
SampleSet: Soft
StackLeniency: 0.4
Mode: 0
LetterboxInBreaks: 0
WidescreenStoryboard: 0

[Editor]
DistanceSpacing: 1.2
BeatDivisor: 4
GridSize: 4
TimelineZoom: 2.3

[Metadata]
Title:Kimi no Shiranai Monogatari -TV Edit-
TitleUnicode:君の知らない物語 -TV Edit-
Artist:supercell
ArtistUnicode:supercell
Creator:Neoskylove
Version:Insane
Source:化物語
Tags:Bakemonogatari Ryo Nagi Yanagi The Story You Don't Know Today Is A Beautiful Day
BeatmapID:1324910
BeatmapSetID:627110

[Difficulty]
HPDrainRate:6
CircleSize:4
OverallDifficulty:8
ApproachRate:8.3
SliderMultiplier:1
SliderTickRate:1

[Events]
//Background and Video events
Video,-220,"Kimi no Shiranai Monogatari.flv"
0,0,"BG.jpg",0,0
//Break Periods
//Storyboard Layer 0 (Background)
//Storyboard Layer 1 (Fail)
//Storyboard Layer 2 (Pass)
//Storyboard Layer 3 (Foreground)
//Storyboard Sound Samples

[TimingPoints]
1100,363.636363636364,4,2,1,70,1,0
1100,-62.5,4,2,1,70,0,0
18554,-71.4285714285714,4,2,0,40,0,0
30190,-62.5,4,2,2,60,0,0
41827,-62.5,4,2,0,35,0,0
43281,-62.5,4,2,0,60,0,0
44736,-71.4285714285714,4,2,0,50,0,0
50554,-62.5,4,2,0,50,0,0
56372,-62.5,4,2,1,75,0,1
67645,-62.5,4,2,1,75,0,0
68009,-62.5,4,2,1,75,0,1
73827,-71.4285714285714,4,2,1,75,0,1
79645,-62.5,4,2,1,40,0,1
81100,-62.5,4,2,1,70,0,1
84918,-111.111111111111,4,2,1,50,0,1
85463,-62.5,4,2,0,75,0,0
86190,-62.5,4,2,0,50,0,0
86918,-62.5,4,2,0,30,0,0
87645,-62.5,4,2,0,10,0,0
88372,-62.5,4,2,0,5,0,0

[Colours]
Combo1 : 0,234,0
Combo2 : 205,222,1
Combo3 : 1,226,187
Combo4 : 255,119,119
SliderTrackOverride : 0,0,30
SliderBorder : 250,250,120

[HitObjects]
141,222,1100,6,0,P|130:183|138:145,1,80,6|0,0:0|0:0,0:0:0:0:
210,262,1463,2,0,P|220:300|211:339,1,80,8|0,0:0|0:0,0:0:0:0:
210,181,1827,1,2,0:0:0:0:
280,221,2009,1,0,0:0:0:0:
350,101,2191,1,8,0:0:0:0:
280,141,2373,1,0,0:0:0:0:
350,260,2554,6,0,P|388:250|417:223,1,80,2|0,0:0|0:0,0:0:0:0:
280,221,2918,2,0,P|270:259|278:298,1,80,8|0,0:0|0:0,0:0:0:0:
350,181,3281,1,2,0:0:0:0:
350,101,3463,1,0,0:0:0:0:
280,221,3645,1,8,0:0:0:0:
350,260,3827,1,0,0:0:0:0:
209,261,4009,6,0,P|171:250|142:223,1,80,2|0,0:0|0:0,0:0:0:0:
209,103,4372,2,0,P|218:141|209:180,1,80,8|0,0:0|0:0,0:0:0:0:
71,184,4736,1,2,0:0:0:0:
138,141,4918,1,0,0:0:0:0:
74,265,5100,1,8,0:0:0:0:
141,222,5282,1,0,0:0:0:0:
76,345,5463,6,0,P|129:367|181:342,1,120,6|2,0:0|1:2,0:0:0:0:
205,309,5827,2,0,L|205:269,2,40,8|0|0,1:2|1:0|1:0,0:0:0:0:
296,341,6190,2,0,P|334:350|372:340,1,80,6|0,0:0|1:0,0:0:0:0:
401,311,6463,1,0,1:0:0:0:
401,311,6554,2,0,L|398:231,1,80,8|0,1:2|0:0,0:0:0:0:
434,80,6918,6,0,L|437:160,1,80,6|0,0:0|0:0,0:0:0:0:
316,227,7281,2,0,P|328:190|354:161,1,80,8|0,0:0|0:0,0:0:0:0:
479,230,7645,1,2,0:0:0:0:
398,231,7827,1,0,0:0:0:0:
277,302,8009,1,8,0:0:0:0:
358,301,8191,1,0,0:0:0:0:
235,233,8372,6,0,P|208:261|196:299,1,80,2|0,0:0|0:0,0:0:0:0:
274,162,8736,2,0,P|263:124|236:95,1,80,8|0,0:0|0:0,0:0:0:0:
315,231,9100,1,0,1:0:0:0:
318,234,9190,1,0,1:0:0:0:
321,237,9281,1,0,1:0:0:0:
194,164,9463,2,0,L|154:163,2,40,8|8|4,0:3|0:3|0:3,0:0:0:0:
354,160,9827,6,0,L|434:159,1,80,6|0,0:0|0:0,0:0:0:0:
474,156,10100,1,8,0:0:0:0:
474,156,10190,1,8,0:0:0:0:
304,95,10372,2,0,P|273:166|315:231,1,160,6|8,1:2|0:0,0:0:0:0:
354,160,10918,1,8,0:0:0:0:
356,299,11100,6,0,L|357:379,1,80,6|0,1:2|0:0,0:0:0:0:
394,227,11463,2,0,L|433:227,2,40,0|0|8,1:0|1:0|1:2,0:0:0:0:
234,234,11827,2,0,L|154:237,1,80,12|0,0:0|0:0,0:0:0:0:
356,299,12190,1,12,1:2:0:0:
82,200,12736,6,0,P|74:239|85:277,1,80,6|0,0:0|0:0,0:0:0:0:
148,155,13100,2,0,P|155:116|145:77,1,80,8|0,0:0|0:0,0:0:0:0:
154,237,13463,2,0,L|234:234,1,80,2|0,0:0|0:0,0:0:0:0:
356,168,13827,2,0,L|275:165,1,80,8|0,0:0|0:0,0:0:0:0:
272,304,14190,6,0,L|352:301,1,80,4|0,0:0|0:0,0:0:0:0:
399,236,14554,1,10,0:0:0:0:
275,165,14736,2,0,L|356:168,1,80,4|0,0:0|0:0,0:0:0:0:
399,236,15099,1,2,0:0:0:0:
470,113,15281,2,0,L|467:193,1,80,12|0,0:2|0:0,0:0:0:0:
392,96,15645,6,0,L|394:15,1,80,6|0,0:0|0:0,0:0:0:0:
275,165,16010,2,0,L|355:167,1,80,8|0,0:0|0:0,0:0:0:0:
252,88,16372,1,2,0:0:0:0:
197,147,16554,1,0,0:0:0:0:
229,11,16736,1,8,0:0:0:0:
116,128,16918,6,0,P|138:202|210:226,1,160,4|0,0:0|1:0,0:0:0:0:
252,88,17463,1,0,1:0:0:0:
197,147,17645,1,0,1:0:0:0:
350,193,17827,1,4,1:3:0:0:
327,117,18009,1,4,1:3:0:0:
210,227,18190,1,4,1:3:0:0:
288,245,18372,1,4,1:3:0:0:
197,147,18554,6,0,L|57:155,1,139.999995727539,2|0,0:0|0:0,0:0:0:0:
5,221,19100,1,0,0:0:0:0:
39,297,19281,2,0,P|104:279|161:316,1,139.999995727539,2|0,0:0|0:0,0:0:0:0:
224,372,19827,1,0,0:0:0:0:
305,350,20009,6,0,P|361:312|427:330,1,139.999995727539,2|0,0:0|0:0,0:0:0:0:
491,276,20554,2,0,P|480:206|480:136,1,139.999995727539,2|0,0:0|0:0,0:0:0:0:
450,58,21100,2,0,P|417:71|382:75,1,69.9999978637696,0|0,0:0|0:0,0:0:0:0:
303,48,21463,6,0,P|270:35|235:31,2,69.9999978637696,2|0|0,0:0|0:0|0:0,0:0:0:0:
170,151,22190,2,0,P|136:156|104:169,2,69.9999978637696,2|0|0,0:0|0:0|0:0,0:0:0:0:
311,244,22918,6,0,P|245:228|193:272,1,139.999995727539,2|0,0:0|0:0,0:0:0:0:
231,345,23463,2,0,P|300:339|370:345,1,139.999995727539,2|0,0:0|0:0,0:0:0:0:
455,350,24009,2,0,P|444:316|444:281,1,69.9999978637696
462,200,24372,6,0,P|396:188|370:127,1,139.999995727539,2|0,0:0|0:0,0:0:0:0:
420,57,24918,1,0,0:0:0:0:
420,57,25100,2,0,L|280:48,1,139.999995727539,2|0,0:0|0:0,0:0:0:0:
126,115,25827,6,0,L|134:254,1,139.999995727539,2|0,0:0|0:0,0:0:0:0:
73,312,26372,1,0,0:0:0:0:
73,312,26554,2,0,P|134:340|196:311,1,139.999995727539,2|0,0:0|0:0,0:0:0:0:
359,269,27281,6,0,L|371:337,2,69.9999978637696,2|0|0,0:0|0:0|0:0,0:0:0:0:
365,100,28009,2,0,L|433:87,2,69.9999978637696,2|0|0,0:0|0:0|0:0,0:0:0:0:
196,94,28736,2,0,L|183:25,2,69.9999978637696,2|0|0,0:0|0:0|0:0,0:0:0:0:
190,263,29464,2,0,L|121:275,2,69.9999978637696,2|0|0,0:0|0:0|0:0,0:0:0:0:
359,268,30190,6,0,P|359:192|295:149,1,160,14|8,0:0|0:0,0:0:0:0:
288,230,30736,1,0,0:0:0:0:
431,307,30918,2,0,P|470:308|510:304,1,80,10|0,0:0|0:0,0:0:0:0:
362,350,31281,2,0,P|322:348|282:352,1,80,8|0,0:0|0:0,0:0:0:0:
128,252,31645,5,10,0:0:0:0:
208,241,31827,1,0,0:0:0:0:
288,230,32009,1,8,0:0:0:0:
170,146,32190,2,0,B|121:145|121:145|100:199|128:252,1,160,2|0,0:0|0:0,0:0:0:0:
177,315,32736,1,8,0:0:0:0:
257,304,32918,1,0,0:0:0:0:
128,252,33100,6,0,L|48:263,1,80,10|0,0:0|0:0,0:0:0:0:
177,315,33463,2,0,L|257:304,1,80,8|0,0:0|0:0,0:0:0:0:
351,182,33827,1,10,0:0:0:0:
288,230,34009,1,0,0:0:0:0:
336,293,34190,1,8,0:0:0:0:
399,245,34372,1,0,0:0:0:0:
277,151,34554,5,10,0:0:0:0:
351,182,34736,1,0,0:0:0:0:
340,102,34918,1,8,0:0:0:0:
288,230,35100,2,0,B|241:243|208:226|208:226|172:207|132:217,1,160,2|0,0:0|0:0,0:0:0:0:
82,280,35645,1,8,0:0:0:0:
112,355,35827,1,0,0:0:0:0:
132,217,36009,6,0,B|134:177|134:177|123:138,1,80,10|0,0:0|0:0,0:0:0:0:
44,127,36372,2,0,B|42:167|42:167|52:205,1,80,8|0,0:0|0:0,0:0:0:0:
82,280,36736,1,10,0:0:0:0:
132,217,36918,1,0,0:0:0:0:
195,267,37100,1,8,0:0:0:0:
145,330,37281,1,0,0:0:0:0:
207,188,37463,6,0,P|243:203|267:234,1,80,10|0,0:0|0:0,0:0:0:0:
322,293,37827,2,0,P|346:261|382:246,1,80,8|0,0:0|0:0,0:0:0:0:
447,294,38190,1,10,0:0:0:0:
457,214,38372,1,0,0:0:0:0:
392,166,38554,1,8,0:0:0:0:
402,86,38737,1,0,0:0:0:0:
248,107,38918,6,0,L|327:118,1,80,10|0,0:0|0:0,0:0:0:0:
337,38,39281,2,0,L|257:27,1,80,8|0,0:0|0:0,0:0:0:0:
183,60,39645,1,10,0:0:0:0:
117,107,39827,1,0,0:0:0:0:
142,184,40009,1,8,0:0:0:0:
223,184,40190,1,0,0:0:0:0:
327,118,40372,6,0,L|248:107,1,80,10|0,0:0|0:0,0:0:0:0:
223,184,40736,2,0,L|302:194,1,80,8|0,0:0|0:0,0:0:0:0:
381,177,41100,1,10,0:0:0:0:
356,253,41281,1,0,0:0:0:0:
435,236,41463,2,0,P|457:204|460:164,1,80,8|0,0:0|0:0,0:0:0:0:
327,118,41827,5,4,0:3:0:0:
381,177,42009,1,4,0:3:0:0:
278,271,42190,1,4,0:3:0:0:
302,194,42372,1,4,0:3:0:0:
333,331,42554,1,4,0:3:0:0:
199,289,42736,1,4,0:3:0:0:
356,253,42918,1,4,0:3:0:0:
254,348,43100,1,4,0:3:0:0:
302,194,43282,5,4,0:3:0:0:
199,289,43463,1,4,0:3:0:0:
333,331,43645,1,4,0:3:0:0:
224,211,43827,1,4,0:3:0:0:
254,348,44009,1,4,1:3:0:0:
121,306,44190,1,4,1:3:0:0:
278,271,44372,1,4,1:3:0:0:
175,366,44554,1,4,1:3:0:0:
145,229,44736,6,0,L|137:89,1,139.999995727539,4|2,0:0|0:0,0:0:0:0:
203,37,45281,1,0,0:0:0:0:
269,86,45463,2,0,P|336:100|393:62,1,139.999995727539,0|0,1:0|0:0,0:0:0:0:
470,211,46190,6,0,P|435:208|402:221,1,69.9999978637696,4|0,0:3|1:0,0:0:0:0:
335,272,46554,2,0,L|195:264,2,139.999995727539,4|4|0,0:3|0:3|1:0,0:0:0:0:
373,346,47463,1,0,0:0:0:0:
376,345,47554,1,0,0:0:0:0:
379,344,47645,6,0,P|417:287|401:220,1,139.999995727539,4|2,0:3|0:0,0:0:0:0:
350,154,48190,1,0,0:0:0:0:
282,205,48372,2,0,L|142:197,1,139.999995727539,0|4,1:0|0:3,0:0:0:0:
110,31,49100,6,0,L|114:101,1,69.9999978637696,4|0,0:3|1:3,0:0:0:0:
198,100,49463,2,0,P|247:113|295:93,1,104.999996795654,4|0,0:3|0:0,0:0:0:0:
330,69,49827,1,8,0:3:0:0:
375,139,50009,1,8,0:3:0:0:
420,209,50190,1,12,0:3:0:0:
420,209,50554,6,0,L|442:285,1,80,4|0,1:2|0:0,0:0:0:0:
361,282,50918,2,0,L|285:304,1,80,0|0,1:0|0:0,0:0:0:0:
288,223,51281,2,0,L|266:147,1,80,0|0,1:0|0:0,0:0:0:0:
347,150,51645,2,0,L|423:128,1,80,0|0,1:0|0:0,0:0:0:0:
361,282,52009,6,0,L|285:304,1,80,4|0,1:2|0:0,0:0:0:0:
288,223,52372,2,0,L|212:245,1,80,0|0,1:0|0:0,0:0:0:0:
215,164,52736,2,0,L|139:186,1,80,0|0,1:0|0:0,0:0:0:0:
142,105,53100,2,0,L|66:127,1,80,0|0,1:0|0:0,0:0:0:0:
134,267,53463,5,4,0:3:0:0:
138,186,53645,1,4,0:3:0:0:
210,296,53827,1,4,0:3:0:0:
217,165,54009,1,4,1:3:0:0:
217,165,54100,1,4,1:3:0:0:
217,165,54190,1,4,1:3:0:0:
261,232,54372,1,8,0:3:0:0:
254,94,54554,1,4,0:3:0:0:
341,227,54736,1,4,0:3:0:0:
138,186,54918,5,4,0:0:0:0:
341,227,56372,5,6,0:0:0:0:
397,170,56554,1,0,0:0:0:0:
419,247,56736,2,0,L|414:326,1,80,8|0,0:0|0:0,0:0:0:0:
341,227,57100,1,2,0:0:0:0:
264,208,57281,1,0,0:0:0:0:
318,149,57463,2,0,P|328:111|316:74,1,80,8|0,0:0|0:0,0:0:0:0:
165,14,57827,5,2,0:0:0:0:
188,91,58009,1,0,0:0:0:0:
244,32,58190,1,8,0:0:0:0:
107,74,58372,2,0,P|58:133|76:208,1,160,2|2,0:0|0:0,0:0:0:0:
102,283,58918,2,0,L|99:362,1,80,8|0,0:0|0:0,0:0:0:0:
77,208,59281,5,2,0:0:0:0:
156,223,59463,1,0,0:0:0:0:
235,238,59645,2,0,L|232:317,1,80,8|0,0:0|0:0,0:0:0:0:
208,162,60009,1,2,0:0:0:0:
287,147,60191,1,0,0:0:0:0:
366,132,60373,2,0,L|363:52,1,80,8|0,0:0|0:0,0:0:0:0:
339,207,60736,5,2,0:0:0:0:
418,192,60918,1,0,0:0:0:0:
391,267,61100,1,8,0:0:0:0:
287,147,61281,2,0,L|207:150,1,80,2|0,0:0|0:0,0:0:0:0:
339,207,61645,1,6,0:0:0:0:
234,297,61827,2,0,L|154:300,1,80,12|0,0:0|0:0,0:0:0:0:
207,149,62190,5,2,0:0:0:0:
145,200,62372,1,0,0:0:0:0:
94,138,62554,2,0,L|91:58,1,80,8|0,0:0|0:0,0:0:0:0:
207,149,62918,1,2,0:0:0:0:
269,98,63100,1,0,0:0:0:0:
320,160,63281,2,0,L|322:239,1,80,8|0,0:0|0:0,0:0:0:0:
349,85,63645,5,2,0:0:0:0:
429,72,63827,1,0,0:0:0:0:
400,147,64009,2,0,L|402:226,1,80,8|0,0:0|0:0,0:0:0:0:
436,352,64372,1,6,0:0:0:0:
483,231,64554,1,0,0:0:0:0:
373,301,64736,1,12,0:0:0:0:
503,308,64918,1,0,0:0:0:0:
322,239,65100,5,6,0:0:0:0:
373,301,65281,1,0,0:0:0:0:
294,315,65463,2,0,L|214:308,1,80,8|0,0:0|0:0,0:0:0:0:
81,269,65827,1,6,0:0:0:0:
137,327,66008,1,0,0:0:0:0:
158,250,66190,2,0,L|164:170,1,80,8|0,0:0|0:0,0:0:0:0:
112,38,66554,5,6,0:0:0:0:
177,90,66736,1,0,0:0:0:0:
254,59,66918,2,0,L|333:65,1,80,8|0,0:0|0:0,0:0:0:0:
411,82,67281,5,8,0:3:0:0:
428,105,67371,1,8,0:3:0:0:
435,134,67462,1,8,0:3:0:0:
429,164,67553,1,8,0:3:0:0:
412,188,67645,1,4,0:3:0:0:
402,205,67735,1,4,0:3:0:0:
397,224,67826,1,4,0:3:0:0:
398,244,67917,1,4,0:3:0:0:
405,263,68008,5,6,0:0:0:0:
438,335,68190,1,0,0:0:0:0:
366,368,68372,2,0,L|288:350,1,80,8|0,0:0|0:0,0:0:0:0:
155,303,68736,1,2,0:0:0:0:
235,288,68918,1,0,0:0:0:0:
262,211,69100,2,0,L|282:133,1,80,8|0,0:0|0:0,0:0:0:0:
183,227,69463,5,2,0:0:0:0:
235,288,69645,1,0,0:0:0:0:
155,303,69827,1,8,0:0:0:0:
288,350,70009,2,0,L|366:368,1,80,2|0,0:0|0:0,0:0:0:0:
440,338,70372,1,2,0:0:0:0:
376,287,70554,2,0,P|379:248|401:215,1,80,8|0,0:0|0:0,0:0:0:0:
499,118,70918,5,2,0:0:0:0:
478,195,71099,1,0,0:0:0:0:
421,137,71281,2,0,P|421:98|440:63,1,80,8|0,0:0|0:0,0:0:0:0:
401,215,71645,1,2,0:0:0:0:
345,158,71827,1,0,0:0:0:0:
288,214,72009,1,8,0:0:0:0:
344,271,72190,1,0,0:0:0:0:
267,136,72372,6,0,P|233:155|212:189,1,80,2|0,0:0|0:0,0:0:0:0:
288,214,72736,1,8,0:0:0:0:
325,81,72918,2,0,L|345:3,1,80,0|2,0:0|0:0,0:0:0:0:
345,158,73282,1,4,0:0:0:0:
249,60,73463,2,0,B|209:49|209:49|172:61,1,80,12|0,0:0|0:0,0:0:0:0:
118,120,73827,5,4,0:3:0:0:
118,120,74009,2,0,P|121:189|118:259,1,139.999995727539,4|0,0:3|0:0,0:0:0:0:
57,319,74554,2,0,P|125:305|183:340,1,139.999995727539,0|0,1:0|0:0,0:0:0:0:
342,285,75281,5,4,0:3:0:0:
342,285,75463,2,0,B|353:243|339:216|339:216|321:178|336:148,1,139.999995727539,4|0,0:3|0:0,0:0:0:0:
415,121,76009,2,0,P|369:72|301:73,1,139.999995727539,0|0,1:0|0:0,0:0:0:0:
136,112,76736,5,4,0:3:0:0:
136,112,76918,2,0,L|149:263,1,139.999995727539,4|0,0:3|0:0,0:0:0:0:
113,327,77463,2,0,P|180:328|227:279,1,139.999995727539,0|0,1:0|0:0,0:0:0:0:
285,121,78190,5,4,0:3:0:0:
285,121,78372,2,0,P|352:119|399:168,1,139.999995727539,4|0,0:3|0:0,0:0:0:0:
434,244,78918,2,0,P|366:245|319:196,1,139.999995727539,0|0,1:0|0:0,0:0:0:0:
483,176,79463,1,0,0:0:0:0:
483,176,79554,1,0,0:0:0:0:
483,176,79645,5,4,0:0:0:0:
483,176,80009,1,4,0:3:0:0:
448,100,80190,1,4,0:3:0:0:
422,232,80372,1,4,0:3:0:0:
367,110,80554,1,4,0:3:0:0:
351,192,80736,1,4,0:3:0:0:
287,137,80918,1,4,0:3:0:0:
336,275,81100,5,4,0:3:0:0:
367,110,81281,1,4,0:3:0:0:
272,220,81463,1,4,0:3:0:0:
213,98,81645,1,4,0:3:0:0:
190,232,81827,1,4,0:3:0:0:
287,137,82009,1,4,0:3:0:0:
242,298,82190,1,4,0:3:0:0:
153,156,82372,1,4,0:3:0:0:
143,303,82554,5,12,0:0:0:0:
69,151,82736,1,4,0:3:0:0:
59,298,82918,1,4,0:3:0:0:
190,232,83100,5,12,0:0:0:0:
97,374,83281,1,4,0:3:0:0:
106,227,83463,1,4,0:3:0:0:
242,298,83645,5,12,0:0:0:0:
287,137,83827,1,4,0:3:0:0:
336,275,84009,5,4,0:0:0:0:
190,232,84190,1,2,0:0:0:0:
225,379,84372,1,2,0:0:0:0:
351,192,84554,1,4,0:0:0:0:
351,192,84918,6,0,L|441:201,1,89.9999972534181,4|0,0:0|0:0,0:0:0:0:
272,220,85462,5,4,0:0:0:0:
256,192,85554,12,0,88372,0:0:0:0:
