osu file format v14

[General]
AudioFilename: Kimi no Shira nai Monogatari -TV Edit-.mp3
AudioLeadIn: 0
PreviewTime: 54554
Countdown: 0
SampleSet: Soft
StackLeniency: 0.4
Mode: 0
LetterboxInBreaks: 0
WidescreenStoryboard: 0

[Editor]
DistanceSpacing: 1.2
BeatDivisor: 4
GridSize: 4
TimelineZoom: 2.3

[Metadata]
Title:Kimi no Shiranai Monogatari -TV Edit-
TitleUnicode:君の知らない物語 -TV Edit-
Artist:supercell
ArtistUnicode:supercell
Creator:Neoskylove
Version:Hard
Source:化物語
Tags:Bakemonogatari Ryo Nagi Yanagi The Story You Don't Know Today Is A Beautiful Day
BeatmapID:1322249
BeatmapSetID:627110

[Difficulty]
HPDrainRate:5
CircleSize:4
OverallDifficulty:6
ApproachRate:7
SliderMultiplier:1
SliderTickRate:1

[Events]
//Background and Video events
Video,-220,"Kimi no Shiranai Monogatari.flv"
0,0,"BG.jpg",0,0
//Break Periods
//Storyboard Layer 0 (Background)
//Storyboard Layer 1 (Fail)
//Storyboard Layer 2 (Pass)
//Storyboard Layer 3 (Foreground)
//Storyboard Sound Samples

[TimingPoints]
1100,363.636363636364,4,2,1,70,1,0
1100,-71.4285714285714,4,2,1,70,0,0
18554,-83.3333333333333,4,2,0,40,0,0
30190,-71.4285714285714,4,2,2,60,0,0
41827,-71.4285714285714,4,2,0,35,0,0
43281,-71.4285714285714,4,2,0,60,0,0
44736,-71.4285714285714,4,2,0,50,0,0
56372,-71.4285714285714,4,2,1,75,0,1
67645,-71.4285714285714,4,2,1,75,0,0
68009,-71.4285714285714,4,2,1,75,0,1
73827,-83.3333333333333,4,2,1,75,0,1
79645,-71.4285714285714,4,2,1,40,0,1
81100,-71.4285714285714,4,2,1,70,0,1
84918,-100,4,2,1,50,0,1
85463,-71.4285714285714,4,2,0,75,0,0
86190,-71.4285714285714,4,2,0,50,0,0
86918,-71.4285714285714,4,2,0,30,0,0
87645,-71.4285714285714,4,2,0,10,0,0
88372,-71.4285714285714,4,2,0,5,0,0

[Colours]
Combo1 : 0,234,0
Combo2 : 205,222,1
Combo3 : 1,226,187
Combo4 : 255,119,119
SliderTrackOverride : 0,0,30
SliderBorder : 250,250,120

[HitObjects]
119,288,1100,6,0,P|181:258|244:282,1,139.999995727539,6|8,0:0|0:0,0:0:0:0:
309,336,1645,1,0,0:0:0:0:
362,271,1827,2,0,P|370:237|361:204,1,69.9999978637696,2|0,0:0|0:0,0:0:0:0:
289,160,2190,2,0,P|279:126|287:92,1,69.9999978637696,8|0,0:0|0:0,0:0:0:0:
353,39,2554,6,0,B|315:59|315:59|220:38,1,139.999995727539,2|8,0:0|0:0,0:0:0:0:
141,69,3100,1,0,0:0:0:0:
170,147,3281,2,0,P|179:181|171:215,1,69.9999978637696,2|0,0:0|0:0,0:0:0:0:
126,286,3645,2,0,P|117:319|125:353,1,69.9999978637696,8|0,0:0|0:0,0:0:0:0:
204,380,4009,6,0,P|273:369|342:363,1,139.999995727539,2|8,0:0|0:0,0:0:0:0:
389,293,4554,1,0,0:0:0:0:
328,235,4736,2,0,P|294:244|261:235,1,69.9999978637696,2|0,0:0|0:0,0:0:0:0:
261,148,5100,2,0,P|294:139|328:149,1,69.9999978637696,8|0,0:0|0:0,0:0:0:0:
396,195,5463,6,0,P|375:242|388:292,1,104.999996795654,6|2,0:0|1:2,0:0:0:0:
413,327,5827,2,0,L|447:326,2,34.9999989318848,8|0|0,1:2|1:0|1:0,0:0:0:0:
334,355,6190,2,0,P|300:363|267:353,1,69.9999978637696,6|0,0:0|1:0,0:0:0:0:
231,331,6463,1,0,1:0:0:0:
231,331,6554,2,0,P|197:320|164:328,1,69.9999978637696,8|0,1:2|0:0,0:0:0:0:
65,377,6918,6,0,P|72:307|77:237,1,139.999995727539,6|8,0:0|0:0,0:0:0:0:
59,155,7463,1,0,0:0:0:0:
139,179,7645,2,0,P|174:183|209:178,1,69.9999978637696,2|0,0:0|0:0,0:0:0:0:
283,137,8009,2,0,P|286:102|281:67,1,69.9999978637696,8|0,0:0|0:0,0:0:0:0:
358,33,8372,6,0,P|371:102|360:170,1,139.999995727539,2|8,0:0|0:0,0:0:0:0:
291,220,8918,1,0,0:0:0:0:
316,300,9100,2,0,L|304:333,2,34.9999989318848,0|0|0,1:0|1:0|1:0,0:0:0:0:
386,346,9463,2,0,L|374:379,2,34.9999989318848,8|8|4,0:3|0:3|0:3,0:0:0:0:
471,347,9827,6,0,P|462:296|464:244,1,104.999996795654,4|8,0:0|0:0,0:0:0:0:
477,204,10190,1,8,0:0:0:0:
416,144,10372,2,0,P|351:163|298:121,1,139.999995727539,4|0,1:2|0:0,0:0:0:0:
256,48,10918,1,8,0:0:0:0:
213,121,11100,6,0,P|160:163|95:144,1,139.999995727539,4|0,1:2|1:0,0:0:0:0:
63,118,11554,1,0,1:0:0:0:
63,118,11645,1,8,1:2:0:0:
27,194,11827,2,0,L|32:263,1,69.9999978637696,12|0,0:0|0:0,0:0:0:0:
73,374,12190,1,12,1:2:0:0:
250,195,12736,6,0,P|312:169|373:197,2,139.999995727539,6|8|2,0:0|0:0|0:0,0:0:0:0:
311,253,13645,1,0,0:0:0:0:
389,281,13827,2,0,P|422:267|446:242,1,69.9999978637696,8|0,0:0|0:0,0:0:0:0:
426,120,14190,6,0,B|376:113|376:113|353:145|374:198,1,139.999995727539,4|10,0:0|0:0,0:0:0:0:
311,253,14736,2,0,P|249:223|186:249,1,139.999995727539,4|2,0:0|0:0,0:0:0:0:
184,333,15281,2,0,P|219:327|247:306,1,69.9999978637696,12|0,0:2|0:0,0:0:0:0:
186,249,15645,6,0,L|46:253,2,139.999995727539,6|8|2,0:0|0:0|0:0,0:0:0:0:
246,306,16554,1,0,0:0:0:0:
246,306,16736,1,8,0:0:0:0:
227,181,16918,6,0,L|366:176,1,139.999995727539,4|0,0:0|1:0,0:0:0:0:
460,240,17463,2,0,P|426:245|393:256,1,69.9999978637696,0|0,1:0|1:0,0:0:0:0:
381,367,17827,2,0,P|359:340|334:317,1,69.9999978637696,4|4,1:3|1:3,0:0:0:0:
229,362,18190,2,0,P|240:329|248:295,1,69.9999978637696,4|4,1:3|1:3,0:0:0:0:
123,224,18554,6,0,P|127:284|147:341,1,119.999996337891,2|0,0:0|0:0,0:0:0:0:
29,221,19281,2,0,P|48:164|52:104,1,119.999996337891,2|0,0:0|0:0,0:0:0:0:
119,52,19827,1,0,0:0:0:0:
183,105,20009,2,0,P|240:111|284:72,1,119.999996337891,2|0,0:0|0:0,0:0:0:0:
367,85,20554,2,0,P|360:142|399:186,1,119.999996337891,2|0,0:0|0:0,0:0:0:0:
483,179,21100,2,0,L|475:238,1,59.9999981689454,0|0,0:0|0:0,0:0:0:0:
462,320,21463,6,0,P|404:321|365:364,1,119.999996337891,2|0,0:0|0:0,0:0:0:0:
197,364,22190,2,0,P|157:320|99:320,1,119.999996337891,2|0,0:0|0:0,0:0:0:0:
60,156,22918,2,0,B|92:164|118:148|118:148|142:135|177:144,1,119.999996337891,2|0,0:0|0:0,0:0:0:0:
249,184,23463,2,0,P|307:188|353:152,1,119.999996337891,2|0,0:0|0:0,0:0:0:0:
410,90,24009,2,0,P|430:113|438:142,1,59.9999981689454,0|0,0:0|0:0,0:0:0:0:
412,221,24372,6,0,P|409:280|412:340,1,119.999996337891,2|0,0:0|0:0,0:0:0:0:
248,303,25100,2,0,P|250:243|248:183,1,119.999996337891,2|0,0:0|0:0,0:0:0:0:
339,41,25827,2,0,P|336:100|339:160,1,119.999996337891,2|0,0:0|0:0,0:0:0:0:
173,133,26554,2,0,P|175:73|172:13,1,119.999996337891,2|0,0:0|0:0,0:0:0:0:
87,158,27281,6,0,P|84:217|86:277,2,119.999996337891,2|0|2,0:0|0:0|0:0,0:0:0:0:
251,193,28372,2,0,P|280:202|310:201,1,59.9999981689454
370,142,28736,2,0,P|345:195|364:250,1,119.999996337891,2|0,0:0|0:0,0:0:0:0:
428,304,29281,1,0,0:0:0:0:
506,335,29463,2,0,P|512:305|505:276,2,59.9999981689454,2|0|0,0:0|0:0|0:0,0:0:0:0:
329,244,30190,6,0,P|294:241|259:243,1,69.9999978637696,14|0,0:0|0:0,0:0:0:0:
190,291,30554,1,8,0:0:0:0:
190,291,30736,1,0,0:0:0:0:
115,253,30918,2,0,P|105:286|111:320,1,69.9999978637696,10|0,0:0|0:0,0:0:0:0:
186,358,31281,2,0,P|195:324|189:290,1,69.9999978637696,8|0,0:0|0:0,0:0:0:0:
184,206,31645,5,10,0:0:0:0:
115,253,31827,1,0,0:0:0:0:
108,169,32009,1,8,0:0:0:0:
184,206,32190,2,0,P|251:209|300:161,1,139.999995727539,2|0,0:0|0:0,0:0:0:0:
269,81,32736,2,0,P|239:100|222:129,1,69.9999978637696,8|0,0:0|0:0,0:0:0:0:
300,160,33100,6,0,P|335:158|370:157,1,69.9999978637696,10|0,0:0|0:0,0:0:0:0:
437,209,33463,1,8,0:0:0:0:
437,209,33645,1,0,0:0:0:0:
369,259,33827,2,0,P|334:258|299:256,1,69.9999978637696,10|0,0:0|0:0,0:0:0:0:
230,209,34191,2,0,P|195:209|160:211,1,69.9999978637696,8|0,0:0|0:0,0:0:0:0:
76,218,34554,5,10,0:0:0:0:
83,302,34736,1,0,0:0:0:0:
167,295,34918,1,8,0:0:0:0:
160,211,35100,2,0,L|154:71,1,139.999995727539,2|0,0:0|0:0,0:0:0:0:
219,17,35645,1,8,0:0:0:0:
219,17,35827,1,0,0:0:0:0:
278,74,36009,6,0,P|346:84|399:42,1,139.999995727539,10|8,0:0|0:0,0:0:0:0:
481,20,36554,1,0,0:0:0:0:
460,102,36736,2,0,P|454:172|462:242,1,139.999995727539,10|8,0:0|0:0,0:0:0:0:
317,325,37463,6,0,P|263:282|196:292,1,139.999995727539,10|8,0:0|0:0,0:0:0:0:
134,350,38009,1,0,0:0:0:0:
65,301,38190,2,0,B|53:268|67:234|67:234|80:200|71:163,1,139.999995727539,10|8,0:0|0:0,0:0:0:0:
240,153,38918,6,0,B|287:175|287:175|373:159,1,139.999995727539,10|8,0:0|0:0,0:0:0:0:
424,92,39463,1,0,0:0:0:0:
362,35,39645,2,0,P|340:99|373:159,1,139.999995727539,10|8,0:0|0:0,0:0:0:0:
423,320,40372,6,0,P|358:298|298:331,1,139.999995727539,10|8,0:0|0:0,0:0:0:0:
256,258,40918,1,0,0:0:0:0:
213,331,41100,2,0,P|153:298|89:320,1,139.999995727539,10|8,0:0|0:0,0:0:0:0:
57,153,41827,6,0,P|90:166|124:164,1,69.9999978637696,4|4,0:3|0:3,0:0:0:0:
195,211,42190,2,0,P|207:178|205:144,1,69.9999978637696,4|4,0:3|0:3,0:0:0:0:
252,73,42554,2,0,P|219:60|185:62,1,69.9999978637696,4|4,0:3|0:3,0:0:0:0:
114,16,42918,2,0,P|101:48|103:82,1,69.9999978637696,4|4,0:3|0:3,0:0:0:0:
205,144,43281,5,4,0:3:0:0:
205,144,43463,1,4,0:3:0:0:
252,73,43645,1,4,0:3:0:0:
252,73,43827,1,4,0:3:0:0:
289,149,44009,1,4,1:3:0:0:
372,137,44190,1,4,1:3:0:0:
387,55,44372,1,4,1:3:0:0:
312,15,44554,1,4,1:3:0:0:
372,137,44736,6,0,L|388:275,1,139.999995727539,4|2,0:0|0:0,0:0:0:0:
331,337,45281,1,0,0:0:0:0:
276,273,45463,2,0,P|209:256|147:287,1,139.999995727539,0|0,1:0|0:0,0:0:0:0:
147,286,46190,6,0,P|148:251|146:216,1,69.9999978637696,4|0,0:3|1:0,0:0:0:0:
83,159,46554,2,0,L|222:166,2,139.999995727539,4|4|0,0:3|0:3|1:0,0:0:0:0:
119,83,47463,1,0,0:0:0:0:
119,83,47554,1,0,0:0:0:0:
119,83,47645,6,0,L|258:90,1,139.999995727539,4|2,0:3|0:0,0:0:0:0:
337,61,48190,1,0,0:0:0:0:
402,114,48372,2,0,B|411:151|402:185|402:185|393:217|403:252,1,139.999995727539,0|4,1:0|0:3,0:0:0:0:
403,252,49100,6,0,P|368:249|333:251,1,69.9999978637696,4|0,0:3|1:3,0:0:0:0:
260,292,49463,2,0,P|225:293|190:290,1,69.9999978637696,4|0,0:3|0:0,0:0:0:0:
111,260,49827,1,8,0:3:0:0:
133,179,50009,1,8,0:3:0:0:
163,100,50190,1,12,0:3:0:0:
163,100,50554,6,0,P|192:120|211:149,1,69.9999978637696,4|0,1:2|0:0,0:0:0:0:
290,180,50918,2,0,P|270:208|241:227,1,69.9999978637696,0|0,1:0|0:0,0:0:0:0:
211,306,51281,2,0,P|182:286|163:257,1,69.9999978637696,0|0,1:0|0:0,0:0:0:0:
84,226,51645,2,0,P|103:197|132:178,1,69.9999978637696,0|0,1:0|0:0,0:0:0:0:
241,227,52009,6,0,L|303:259,1,69.9999978637696,4|0,1:2|0:0,0:0:0:0:
367,205,52372,2,0,L|304:172,1,69.9999978637696,0|0,1:0|0:0,0:0:0:0:
382,287,52736,2,0,L|444:319,1,69.9999978637696,0|0,1:0|0:0,0:0:0:0:
508,265,53100,2,0,L|445:232,1,69.9999978637696,0|0,1:0|0:0,0:0:0:0:
303,259,53463,5,4,0:3:0:0:
318,341,53645,1,4,0:3:0:0:
244,380,53827,1,4,0:3:0:0:
183,322,54009,2,0,L|149:331,2,34.9999989318848,4|4|4,1:3|1:3|1:3,0:0:0:0:
220,247,54372,1,8,0:3:0:0:
303,259,54554,2,0,L|370:240,1,69.9999978637696,4|4,0:3|0:3,0:0:0:0:
318,341,54918,5,4,0:0:0:0:
361,218,56372,5,6,0:0:0:0:
361,218,56554,1,0,0:0:0:0:
298,162,56736,2,0,P|264:151|232:162,1,69.9999978637696,8|0,0:0|0:0,0:0:0:0:
182,230,57100,1,2,0:0:0:0:
182,230,57281,1,0,0:0:0:0:
113,181,57463,2,0,L|104:108,1,69.9999978637696,8|0,0:0|0:0,0:0:0:0:
182,230,57827,6,0,P|123:265|58:245,1,139.999995727539,2|8,0:0|0:0,0:0:0:0:
112,181,58372,2,0,P|171:145|236:165,1,139.999995727539,2|2,0:0|0:0,0:0:0:0:
300,223,58918,2,0,L|293:292,1,69.9999978637696,8|0,0:0|0:0,0:0:0:0:
316,140,59281,5,2,0:0:0:0:
316,140,59463,1,0,0:0:0:0:
379,196,59645,2,0,P|396:165|400:130,1,69.9999978637696,8|0,0:0|0:0,0:0:0:0:
350,62,60009,1,2,0:0:0:0:
350,62,60190,1,0,0:0:0:0:
269,89,60372,2,0,P|287:118|315:139,1,69.9999978637696,8|0,0:0|0:0,0:0:0:0:
287,6,60736,6,0,L|147:14,1,139.999995727539,2|8,0:0|0:0,0:0:0:0:
114,91,61281,2,0,L|183:86,1,69.9999978637696,2|0,0:0|0:0,0:0:0:0:
269,89,61645,1,6,0:0:0:0:
231,227,61827,2,0,P|218:195|224:161,1,69.9999978637696,12|0,0:0|0:0,0:0:0:0:
341,134,62190,5,2,0:0:0:0:
341,134,62372,1,0,0:0:0:0:
412,177,62554,2,0,P|416:211|417:246,1,69.9999978637696,8|0,0:0|0:0,0:0:0:0:
346,293,62918,1,2,0:0:0:0:
346,293,63100,1,0,0:0:0:0:
422,329,63281,2,0,P|456:334|489:345,1,69.9999978637696,8|0,0:0|0:0,0:0:0:0:
417,246,63645,5,2,0:0:0:0:
417,246,63827,1,0,0:0:0:0:
346,293,64009,1,8,0:0:0:0:
341,209,64190,1,0,0:0:0:0:
276,339,64372,2,0,P|245:356|211:359,1,69.9999978637696,6|0,0:0|0:0,0:0:0:0:
270,256,64736,2,0,P|240:238|221:209,1,69.9999978637696,12|0,0:0|0:0,0:0:0:0:
341,209,65100,5,6,0:0:0:0:
417,246,65281,1,0,0:0:0:0:
411,161,65463,2,0,P|385:136|353:125,1,69.9999978637696,8|0,0:0|0:0,0:0:0:0:
239,175,65827,1,6,0:0:0:0:
271,97,66009,1,0,0:0:0:0:
220,31,66190,2,0,P|185:30|150:33,1,69.9999978637696,8|0,0:0|0:0,0:0:0:0:
158,151,66554,5,6,0:0:0:0:
178,232,66736,1,0,0:0:0:0:
198,313,66918,2,0,L|267:314,1,69.9999978637696,8|0,0:0|0:0,0:0:0:0:
352,317,67281,2,0,L|354:282,3,34.9999989318848,8|8|8|8,0:3|0:3|0:3|0:3,0:0:0:0:
338,243,67645,2,0,L|340:208,3,34.9999989318848,4|4|4|4,0:3|0:3|0:3|0:3,0:0:0:0:
324,169,68009,5,6,0:0:0:0:
324,169,68190,1,0,0:0:0:0:
357,91,68372,2,0,P|324:83|290:90,1,69.9999978637696,8|0,0:0|0:0,0:0:0:0:
240,159,68736,1,2,0:0:0:0:
240,159,68918,1,0,0:0:0:0:
189,90,69100,2,0,P|155:82|121:91,1,69.9999978637696,8|0,0:0|0:0,0:0:0:0:
156,236,69463,6,0,P|163:202|154:168,1,69.9999978637696,2|0,0:0|0:0,0:0:0:0:
77,202,69826,1,8,0:0:0:0:
88,288,70009,2,0,L|228:288,1,139.999995727539,2|2,0:0|0:0,0:0:0:0:
305,254,70554,2,0,P|314:288|307:322,1,69.9999978637696,8|0,0:0|0:0,0:0:0:0:
238,204,70918,5,2,0:0:0:0:
238,204,71100,1,0,0:0:0:0:
316,171,71281,2,0,P|349:179|374:203,1,69.9999978637696,8|0,0:0|0:0,0:0:0:0:
305,254,71645,1,2,0:0:0:0:
305,254,71827,1,0,0:0:0:0:
228,287,72009,1,8,0:0:0:0:
161,237,72190,1,0,0:0:0:0:
229,166,72372,6,0,P|232:131|226:97,1,69.9999978637696,2|0,0:0|0:0,0:0:0:0:
208,14,72736,1,8,0:0:0:0:
287,39,72918,2,0,P|322:41|357:42,1,69.9999978637696,0|2,0:0|0:0,0:0:0:0:
439,22,73281,1,4,0:0:0:0:
333,123,73463,2,0,P|334:157|336:192,1,69.9999978637696,12|0,0:0|0:0,0:0:0:0:
402,243,73827,6,0,P|344:238|299:275,2,119.999996337891,4|0|0,0:3|0:0|1:0,0:0:0:0:
278,356,74918,2,0,P|248:362|221:351,1,59.9999981689454,0|0,0:0|0:0,0:0:0:0:
188,274,75281,5,4,0:3:0:0:
188,274,75463,2,0,B|156:257|156:257|73:270,1,119.999996337891,4|0,0:3|0:0,0:0:0:0:
31,196,76009,2,0,L|149:176,1,119.999996337891,0|0,1:0|0:0,0:0:0:0:
228,146,76554,1,0,0:0:0:0:
160,91,76736,6,0,P|104:75|51:101,2,119.999996337891,4|0|0,0:3|0:0|1:0,0:0:0:0:
295,201,77827,2,0,P|325:201|354:192,1,59.9999981689454,0|0,0:0|0:0,0:0:0:0:
411,130,78190,5,4,0:3:0:0:
410,130,78372,2,0,P|393:185|423:235,1,119.999996337891,4|0,0:3|0:0,0:0:0:0:
387,311,78918,2,0,P|337:281|281:298,1,119.999996337891,0|0,1:0|0:0,0:0:0:0:
219,355,79463,1,0,0:0:0:0:
219,355,79554,1,0,0:0:0:0:
219,355,79645,5,4,0:0:0:0:
164,196,80009,2,0,L|143:129,1,69.9999978637696,4|4,0:3|0:3,0:0:0:0:
227,140,80372,2,0,L|274:88,1,69.9999978637696,4|4,0:3|0:3,0:0:0:0:
306,166,80736,2,0,L|374:181,1,69.9999978637696,4|4,0:3|0:3,0:0:0:0:
322,247,81100,5,4,0:3:0:0:
352,324,81281,1,4,0:3:0:0:
288,376,81463,1,4,0:3:0:0:
218,331,81645,1,4,0:3:0:0:
239,251,81827,1,4,0:3:0:0:
169,206,82009,1,4,0:3:0:0:
105,258,82190,1,4,0:3:0:0:
135,335,82372,1,4,0:3:0:0:
169,206,82554,6,0,P|141:184|107:175,1,69.9999978637696,12|4,0:0|0:3,0:0:0:0:
105,258,82918,1,4,0:3:0:0:
239,251,83100,2,0,P|250:218|249:183,1,69.9999978637696,12|4,0:0|0:3,0:0:0:0:
169,206,83464,1,4,0:3:0:0:
218,332,83645,2,0,P|252:333|285:320,1,69.9999978637696,12|4,0:0|0:3,0:0:0:0:
360,211,84009,6,0,L|359:281,2,69.9999978637696,4|2|2,0:0|0:0|0:0,0:0:0:0:
331,132,84554,1,4,0:0:0:0:
331,132,84918,6,0,P|283:122|243:149,1,100,4|0,0:0|0:0,0:0:0:0:
239,251,85463,5,4,0:0:0:0:
256,192,85554,12,0,88372,0:0:0:0:
