osu file format v14

[General]
AudioFilename: Kimi no Shira nai Monogatari -TV Edit-.mp3
AudioLeadIn: 0
PreviewTime: 54554
Countdown: 0
SampleSet: Soft
StackLeniency: 0.4
Mode: 0
LetterboxInBreaks: 0
WidescreenStoryboard: 0

[Editor]
DistanceSpacing: 1
BeatDivisor: 2
GridSize: 4
TimelineZoom: 2.3

[Metadata]
Title:Kimi no Shiranai Monogatari -TV Edit-
TitleUnicode:君の知らない物語 -TV Edit-
Artist:supercell
ArtistUnicode:supercell
Creator:Neoskylove
Version:Easy
Source:化物語
Tags:Bakemonogatari Ryo Nagi Yanagi The Story You Don't Know Today Is A Beautiful Day
BeatmapID:1324188
BeatmapSetID:627110

[Difficulty]
HPDrainRate:2
CircleSize:3
OverallDifficulty:2
ApproachRate:3
SliderMultiplier:1
SliderTickRate:1

[Events]
//Background and Video events
Video,-220,"Kimi no Shiranai Monogatari.flv"
0,0,"BG.jpg",0,0
//Break Periods
//Storyboard Layer 0 (Background)
//Storyboard Layer 1 (Fail)
//Storyboard Layer 2 (Pass)
//Storyboard Layer 3 (Foreground)
//Storyboard Sound Samples

[TimingPoints]
1100,363.636363636364,4,2,1,70,1,0
1100,-111.111111111111,4,2,1,70,0,0
18554,-111.111111111111,4,2,0,40,0,0
30190,-111.111111111111,4,2,2,60,0,0
41827,-111.111111111111,4,2,0,35,0,0
43281,-111.111111111111,4,2,0,60,0,0
44736,-111.111111111111,4,2,0,50,0,0
56372,-111.111111111111,4,2,1,75,0,1
67645,-111.111111111111,4,2,1,75,0,0
68009,-111.111111111111,4,2,1,75,0,1
73827,-111.111111111111,4,2,1,75,0,1
79645,-111.111111111111,4,2,1,40,0,1
81100,-111.111111111111,4,2,1,70,0,1
84918,-111.111111111111,4,2,1,75,0,1
85463,-111.111111111111,4,2,1,75,0,0
86190,-111.111111111111,4,2,0,50,0,0
86918,-111.111111111111,4,2,0,30,0,0
87645,-111.111111111111,4,2,0,10,0,0
88372,-111.111111111111,4,2,0,5,0,0

[Colours]
Combo1 : 0,234,0
Combo2 : 205,222,1
Combo3 : 1,226,187
Combo4 : 255,119,119
SliderTrackOverride : 0,0,30
SliderBorder : 250,250,120

[HitObjects]
171,226,1100,6,0,P|248:184|330:215,1,179.999994506836,6|2,0:0|0:0,0:0:0:0:
392,279,2190,1,8,0:0:0:0:
453,342,2554,2,0,L|442:162,1,179.999994506836,2|2,0:0|0:0,0:0:0:0:
393,86,3645,1,8,0:0:0:0:
316,135,4009,6,0,B|267:155|230:135|230:135|185:111|142:133,1,179.999994506836,2|2,0:0|0:0,0:0:0:0:
88,205,5100,1,8,0:0:0:0:
120,288,5463,2,0,P|76:293|35:277,2,89.9999972534181,6|8|6,0:0|1:2|0:0,0:0:0:0:
176,218,6554,1,8,1:2:0:0:
264,231,6918,6,0,L|443:225,1,179.999994506836,6|2,0:0|0:0,0:0:0:0:
503,157,8009,1,8,0:0:0:0:
472,71,8372,2,0,L|382:73,1,89.9999972534181,2|8,0:0|0:0,0:0:0:0:
316,136,9100,2,0,L|226:138,1,89.9999972534181,0|8,1:0|0:3,0:0:0:0:
153,85,9827,6,0,P|176:146|155:209,1,134.999995880127,4|4,0:0|1:2,0:0:0:0:
99,279,10736,1,0,0:0:0:0:
169,334,11100,2,0,B|304:345|304:345|344:326,1,179.999994506836,4|12,1:2|0:0,0:0:0:0:
288,256,12190,1,12,1:2:0:0:
422,246,12736,6,0,L|414:66,1,179.999994506836,6|2,0:0|0:0,0:0:0:0:
331,32,13827,1,8,0:0:0:0:
259,86,14190,2,0,P|194:94|144:51,2,134.999995880127,4|4|12,0:0|0:0|0:2,0:0:0:0:
268,175,15645,6,0,P|253:215|271:255,1,89.9999972534181,6|8,0:0|0:0,0:0:0:0:
339,314,16372,2,0,P|273:302|215:333,2,134.999995880127,2|4|0,0:0|0:0|1:0,0:0:0:0:
420,275,17827,2,0,B|406:233|406:233|421:189,1,89.9999972534181,4|4,1:3|1:3,0:0:0:0:
491,134,18554,6,0,P|411:100|340:149,1,179.999994506836,2|2,0:0|0:0,0:0:0:0:
299,228,19645,1,0,0:0:0:0:
219,186,20009,2,0,L|84:190,2,134.999995880127,2|2|0,0:0|0:0|0:0,0:0:0:0:
223,96,21463,6,0,P|297:141|298:228,1,179.999994506836,2|2,0:0|0:0,0:0:0:0:
255,307,22554,1,0,0:0:0:0:
335,350,22918,2,0,L|469:340,2,134.999995880127,2|2|0,0:0|0:0|0:0,0:0:0:0:
255,307,24372,6,0,B|213:290|168:308|168:308|126:322|80:296,1,179.999994506836,2|2,0:0|0:0,0:0:0:0:
178,144,25827,2,0,B|220:127|265:145|265:145|307:159|352:133,1,179.999994506836,2|2,0:0|0:0,0:0:0:0:
481,258,27281,6,0,P|491:301|482:344,2,89.9999972534181,2|0|2,0:0|0:0|0:0,0:0:0:0:
369,117,28736,2,0,P|412:106|455:115,2,89.9999972534181,2|0|2,0:0|0:0|0:0,0:0:0:0:
215,211,30190,6,0,P|171:221|128:212,1,89.9999972534181,14|8,0:0|0:0,0:0:0:0:
128,122,30918,2,0,P|171:111|214:120,1,89.9999972534181,10|8,0:0|0:0,0:0:0:0:
292,164,31645,2,0,P|335:173|379:163,2,89.9999972534181,10|8|8,0:0|0:0|0:0,0:0:0:0:
334,85,32736,1,8,0:0:0:0:
424,85,33100,6,0,P|456:117|470:160,1,89.9999972534181,10|8,0:0|0:0,0:0:0:0:
473,251,33827,2,0,P|460:293|431:327,1,89.9999972534181,10|8,0:0|0:0,0:0:0:0:
351,284,34554,2,0,P|363:241|392:207,2,89.9999972534181,10|8|8,0:0|0:0|0:0,0:0:0:0:
354,374,35645,1,8,0:0:0:0:
264,377,36009,6,0,L|84:365,1,179.999994506836,10|10,0:0|0:0,0:0:0:0:
57,279,37100,1,8,0:0:0:0:
84,193,37463,2,0,L|264:181,1,179.999994506836,10|10,0:0|0:0,0:0:0:0:
327,117,38554,1,8,0:0:0:0:
417,128,38918,6,0,P|386:47|302:28,1,179.999994506836,10|10,0:0|0:0,0:0:0:0:
240,94,40009,1,8,0:0:0:0:
176,27,40372,2,0,P|92:46|61:127,1,179.999994506836,10|10,0:0|0:0,0:0:0:0:
119,192,41463,1,8,0:0:0:0:
61,261,41827,6,0,P|100:280|145:278,1,89.9999972534181,4|4,0:3|0:3,0:0:0:0:
232,251,42554,2,0,P|276:248|316:268,1,89.9999972534181,4|4,0:3|0:3,0:0:0:0:
342,354,43281,2,0,P|297:356|258:337,2,89.9999972534181,4|4|4,0:3|0:3|1:3,0:0:0:0:
404,289,44372,1,4,1:3:0:0:
378,203,44736,6,0,B|366:68|366:68|390:30,1,179.999994506836,4|0,0:0|1:0,0:0:0:0:
476,58,45827,1,0,0:0:0:0:
495,146,46190,2,0,B|502:235,2,89.9999972534181,4|4|4,0:3|0:3|1:3,0:0:0:0:
409,118,47281,1,0,0:0:0:0:
348,185,47645,6,0,B|264:217|264:217|177:190,1,179.999994506836,4|0,0:3|1:0,0:0:0:0:
113,126,48736,1,4,0:3:0:0:
47,189,49100,2,0,P|25:151|24:106,2,89.9999972534181,4|4|8,0:3|0:3|0:3,0:0:0:0:
176,316,50554,6,0,B|215:335|262:313|262:313|286:349|341:353|341:353|363:311|415:311,1,269.999991760254,4|0,1:2|1:0,0:0:0:0:
498,346,52009,2,0,P|504:302|488:261,1,89.9999972534181,4|0,1:2|1:0,0:0:0:0:
439,188,52736,2,0,L|349:197,1,89.9999972534181,0|0,1:0|1:0,0:0:0:0:
314,114,53463,6,0,L|403:104,2,89.9999972534181,4|4|4,0:3|0:3|1:3,0:0:0:0:
256,183,54554,1,4,0:3:0:0:
198,114,54918,1,4,0:0:0:0:
197,114,56372,6,0,P|171:150|166:194,1,89.9999972534181,6|8,0:0|0:0,0:0:0:0:
225,263,57100,2,0,P|251:226|256:182,1,89.9999972534181,2|8,0:0|0:0,0:0:0:0:
285,97,57827,2,0,L|419:107,2,134.999995880127,2|2|8,0:0|0:0|0:0,0:0:0:0:
197,114,59281,6,0,B|155:132|155:132|111:123,1,89.9999972534181,2|8,0:0|0:0,0:0:0:0:
39,66,60009,2,0,P|20:105|24:150,1,89.9999972534181,2|8,0:0|0:0,0:0:0:0:
74,224,60736,2,0,L|57:358,2,134.999995880127,2|2|12,0:0|0:0|0:0,0:0:0:0:
162,238,62190,6,0,L|151:327,1,89.9999972534181,2|8,0:0|0:0,0:0:0:0:
229,371,62918,2,0,P|272:378|313:360,1,89.9999972534181,2|8,0:0|0:0,0:0:0:0:
337,274,63645,2,0,L|326:184,2,89.9999972534181,2|8|6,0:0|0:0|0:0,0:0:0:0:
400,337,64736,1,12,0:0:0:0:
463,274,65100,6,0,L|441:95,1,179.999994506836,6|6,0:0|0:0,0:0:0:0:
366,45,66190,1,8,0:0:0:0:
314,120,66554,2,0,B|265:137|227:121|227:121|183:103|139:120,1,179.999994506836,6|8,0:0|0:3,0:0:0:0:
84,192,67645,1,4,0:3:0:0:
138,263,68009,6,0,B|182:276|182:276|226:264,1,89.9999972534181,6|8,0:0|0:0,0:0:0:0:
289,200,68736,2,0,B|333:188|333:188|376:200,1,89.9999972534181,2|8,0:0|0:0,0:0:0:0:
444,256,69463,2,0,P|466:193|436:134,2,134.999995880127,2|2|8,0:0|0:0|0:0,0:0:0:0:
387,325,70918,6,0,L|297:324,1,89.9999972534181,2|8,0:0|0:0,0:0:0:0:
216,365,71645,2,0,P|205:321|218:279,1,89.9999972534181,2|8,0:0|0:0,0:0:0:0:
262,200,72372,2,0,L|127:198,2,134.999995880127,2|0|12,0:0|0:0|0:0,0:0:0:0:
325,135,73827,6,0,B|306:176|330:221|330:221|353:267|330:308,1,179.999994506836,4|0,0:3|1:0,0:0:0:0:
256,358,74918,1,0,0:0:0:0:
181,308,75281,2,0,B|159:267|182:221|182:221|206:176|187:135,1,179.999994506836,4|0,0:3|1:0,0:0:0:0:
110,88,76372,1,0,0:0:0:0:
32,39,76736,6,0,B|121:50|121:50|205:17,1,179.999994506836,4|0,0:3|1:0,0:0:0:0:
256,91,77827,1,0,0:0:0:0:
307,17,78190,2,0,B|391:50|391:50|480:39,1,179.999994506836,4|0,0:3|1:0,0:0:0:0:
473,128,79281,1,0,0:0:0:0:
465,217,79645,6,0,L|469:306,1,89.9999972534181,4|4,0:0|0:3,0:0:0:0:
382,331,80372,2,0,L|377:241,1,89.9999972534181,4|4,0:3|0:3,0:0:0:0:
289,265,81100,2,0,L|294:355,2,89.9999972534181,4|4|4,0:3|0:3|0:3,0:0:0:0:
312,178,82190,1,4,0:3:0:0:
223,155,82554,6,0,P|261:101|326:88,2,134.999995880127,12|12|12,0:0|0:0|0:0,0:0:0:0:
201,243,84009,2,0,L|67:223,1,134.999995880127,4|4,0:0|0:0,0:0:0:0:
36,308,84918,2,0,L|169:327,1,134.999995880127,4|4,0:0|0:0,0:0:0:0:
256,192,85645,12,0,88372,0:0:0:0:
