osu file format v14

[General]
AudioFilename: Kimi no Shira nai Monogatari -TV Edit-.mp3
AudioLeadIn: 0
PreviewTime: 54554
Countdown: 0
SampleSet: Soft
StackLeniency: 0.4
Mode: 0
LetterboxInBreaks: 0
WidescreenStoryboard: 0

[Editor]
DistanceSpacing: 1
BeatDivisor: 4
GridSize: 4
TimelineZoom: 2.3

[Metadata]
Title:Kimi no Shiranai Monogatari -TV Edit-
TitleUnicode:君の知らない物語 -TV Edit-
Artist:supercell
ArtistUnicode:supercell
Creator:Neoskylove
Version:Your story
Source:化物語
Tags:Bakemonogatari Ryo Nagi Yanagi The Story You Don't Know Today Is A Beautiful Day
BeatmapID:1321542
BeatmapSetID:627110

[Difficulty]
HPDrainRate:7
CircleSize:4
OverallDifficulty:8.5
ApproachRate:9
SliderMultiplier:1
SliderTickRate:1

[Events]
//Background and Video events
Video,-220,"Kimi no Shiranai Monogatari.flv"
0,0,"BG.jpg",0,0
//Break Periods
//Storyboard Layer 0 (Background)
//Storyboard Layer 1 (Fail)
//Storyboard Layer 2 (Pass)
//Storyboard Layer 3 (Foreground)
//Storyboard Sound Samples

[TimingPoints]
1100,363.636363636364,4,2,1,70,1,0
1100,-55.5555555555556,4,2,1,70,0,0
18554,-71.4285714285714,4,2,0,40,0,0
30190,-62.5,4,2,2,60,0,0
41827,-62.5,4,2,0,35,0,0
43281,-62.5,4,2,0,60,0,0
44736,-62.5,4,2,0,50,0,0
56372,-55.5555555555556,4,2,1,75,0,1
67645,-55.5555555555556,4,2,1,75,0,0
68009,-55.5555555555556,4,2,1,75,0,1
73827,-71.4285714285714,4,2,1,75,0,1
79645,-55.5555555555556,4,2,1,40,0,1
81100,-55.5555555555556,4,2,1,70,0,1
84918,-133.333333333333,4,2,1,50,0,1
85463,-55.5555555555556,4,2,0,75,0,0
86190,-55.5555555555556,4,2,0,50,0,0
86918,-55.5555555555556,4,2,0,30,0,0
87645,-55.5555555555556,4,2,0,10,0,0
88372,-55.5555555555556,4,2,0,5,0,0

[Colours]
Combo1 : 0,234,0
Combo2 : 205,222,1
Combo3 : 1,226,187
Combo4 : 255,119,119
SliderTrackOverride : 0,0,30
SliderBorder : 250,250,120

[HitObjects]
103,178,1100,6,0,P|96:134|111:93,1,89.9999972534181,6|0,0:0|0:0,0:0:0:0:
256,195,1463,2,0,P|263:239|248:281,1,89.9999972534181,8|0,0:0|0:0,0:0:0:0:
186,143,1827,1,2,0:0:0:0:
337,159,2009,1,0,0:0:0:0:
276,21,2190,1,8,0:0:0:0:
256,195,2372,1,0,0:0:0:0:
346,70,2554,6,0,P|388:83|416:117,1,89.9999972534181,2|0,0:0|0:0,0:0:0:0:
397,294,2918,2,0,P|354:280|326:246,1,89.9999972534181,8|0,0:0|0:0,0:0:0:0:
258,122,3281,1,2,0:0:0:0:
326,246,3463,1,0,0:0:0:0:
198,186,3645,1,8,0:0:0:0:
337,159,3827,1,0,0:0:0:0:
240,263,4009,6,0,P|198:274|155:263,1,89.9999972534181,2|0,0:0|0:0,0:0:0:0:
155,108,4372,2,0,P|197:96|240:107,1,89.9999972534181,8|0,0:0|0:0,0:0:0:0:
335,257,4736,1,2,0:0:0:0:
329,103,4918,1,0,0:0:0:0:
198,186,5100,1,8,0:0:0:0:
376,178,5281,1,0,0:0:0:0:
245,261,5463,6,0,P|272:321|332:347,1,134.999995880127,6|2,0:0|1:2,0:0:0:0:
377,337,5827,2,0,L|421:339,2,44.999998626709,8|0|0,1:2|1:0|1:0,0:0:0:0:
376,178,6190,1,6,0:0:0:0:
198,186,6372,1,0,1:0:0:0:
198,186,6463,1,0,1:0:0:0:
198,186,6554,2,0,L|108:189,1,89.9999972534181,8|0,1:2|0:0,0:0:0:0:
245,261,6918,6,0,L|334:257,1,89.9999972534181,6|0,0:0|0:0,0:0:0:0:
461,173,7281,2,0,P|418:164|376:177,1,89.9999972534181,8|0,0:0|0:0,0:0:0:0:
294,335,7645,1,2,0:0:0:0:
423,252,7827,1,0,0:0:0:0:
245,261,8009,1,8,0:0:0:0:
381,331,8190,1,0,0:0:0:0:
286,181,8372,6,0,P|244:169|201:182,1,89.9999972534181,2|0,0:0|0:0,0:0:0:0:
208,342,8736,2,0,P|252:350|293:335,1,89.9999972534181,8|0,0:0|0:0,0:0:0:0:
374,177,9100,1,0,1:0:0:0:
374,177,9190,1,0,1:0:0:0:
374,177,9281,1,0,1:0:0:0:
245,261,9463,1,8,0:3:0:0:
245,261,9553,1,8,0:3:0:0:
245,261,9644,1,4,0:3:0:0:
326,104,9827,5,4,0:0:0:0:
462,173,10009,1,0,0:0:0:0:
462,173,10100,1,8,0:0:0:0:
462,173,10190,1,8,0:0:0:0:
285,181,10372,2,0,L|195:186,1,89.9999972534181,6|0,1:2|0:0,0:0:0:0:
333,257,10736,1,8,0:0:0:0:
326,104,10918,1,8,0:0:0:0:
242,259,11100,6,0,L|153:265,1,89.9999972534181,6|0,1:2|0:0,0:0:0:0:
235,106,11463,1,0,1:2:0:0:
235,106,11554,1,0,1:0:0:0:
235,106,11645,1,8,1:2:0:0:
105,189,11827,2,0,P|74:220|63:263,1,89.9999972534181,12|0,0:0|0:0,0:0:0:0:
333,257,12190,1,12,1:2:0:0:
333,256,12736,6,0,P|347:215|338:171,1,89.9999972534181,6|0,0:0|0:0,0:0:0:0:
170,203,13100,2,0,P|211:217|255:208,1,89.9999972534181,8|0,0:0|0:0,0:0:0:0:
223,39,13463,2,0,P|208:80|217:124,1,89.9999972534181,2|0,0:0|0:0,0:0:0:0:
387,92,13827,2,0,P|345:77|301:86,1,89.9999972534181,8|0,0:0|0:0,0:0:0:0:
255,208,14190,5,4,0:0:0:0:
413,212,14372,1,0,0:0:0:0:
332,348,14554,1,10,0:0:0:0:
174,253,14736,5,4,0:0:0:0:
333,256,14918,1,0,0:0:0:0:
256,118,15100,1,2,0:0:0:0:
254,300,15281,5,12,0:2:0:0:
334,164,15463,1,0,0:0:0:0:
411,301,15645,6,0,P|454:291|487:261,1,89.9999972534181,6|0,0:0|0:0,0:0:0:0:
414,120,16009,1,8,0:0:0:0:
325,239,16190,1,0,0:0:0:0:
327,90,16372,1,2,0:0:0:0:
413,212,16554,1,0,0:0:0:0:
271,163,16736,1,8,0:0:0:0:
286,324,16918,6,0,P|245:339|200:334,1,89.9999972534181,4|0,0:0|0:0,0:0:0:0:
179,172,17281,1,0,1:0:0:0:
325,239,17463,1,0,1:0:0:0:
311,80,17645,1,0,1:0:0:0:
233,248,17827,1,4,1:3:0:0:
418,232,18009,1,4,1:3:0:0:
219,89,18190,1,4,1:3:0:0:
286,324,18372,1,4,1:3:0:0:
179,172,18554,6,0,L|109:172,2,69.9999978637696,2|0|0,0:0|0:0|0:0,0:0:0:0:
259,147,19100,2,0,L|293:85,2,69.9999978637696,0|2|0,0:0|0:0|0:0,0:0:0:0:
240,228,19645,2,0,L|275:288,1,69.9999978637696
355,264,20009,6,0,L|320:204,2,69.9999978637696,2|0|0,0:0|0:0|0:0,0:0:0:0:
334,345,20554,2,0,B|300:332|266:344|266:344|234:359|197:348,1,139.999995727539,2|0,0:0|0:0,0:0:0:0:
120,312,21100,1,0,0:0:0:0:
120,312,21281,1,0,0:0:0:0:
209,211,21463,6,0,P|175:205|141:212,1,69.9999978637696,2|0,0:0|0:0,0:0:0:0:
57,202,21827,2,0,P|62:167|55:133,1,69.9999978637696
66,49,22190,2,0,P|100:54|134:47,1,69.9999978637696,2|0,0:0|0:0,0:0:0:0:
219,58,22554,2,0,P|213:92|220:126,1,69.9999978637696
287,177,22918,6,0,L|361:179,2,69.9999978637696,2|0|0,0:0|0:0|0:0,0:0:0:0:
209,210,23463,2,0,P|192:277|229:334,1,139.999995727539,2|0,0:0|0:0,0:0:0:0:
277,263,24009,1,0,0:0:0:0:
277,263,24190,1,0,0:0:0:0:
141,157,24372,6,0,P|76:140|18:177,1,139.999995727539,2|0,0:0|0:0,0:0:0:0:
89,223,24918,1,0,0:0:0:0:
141,157,25100,2,0,L|132:17,1,139.999995727539,2|0,0:0|0:0,0:0:0:0:
292,69,25827,6,0,L|300:208,1,139.999995727539,2|0,0:0|0:0,0:0:0:0:
356,271,26372,1,0,0:0:0:0:
423,220,26554,2,0,P|364:187|300:208,1,139.999995727539,2|0,0:0|0:0,0:0:0:0:
149,282,27281,6,0,L|138:351,2,69.9999978637696,2|0|0,0:0|0:0|0:0,0:0:0:0:
166,199,27827,1,0,0:0:0:0:
83,182,28009,2,0,L|13:171,2,69.9999978637696,2|0|0,0:0|0:0|0:0,0:0:0:0:
166,199,28555,1,0,0:0:0:0:
183,116,28736,6,0,L|193:46,2,69.9999978637696,2|0|0,0:0|0:0|0:0,0:0:0:0:
166,199,29282,1,0,0:0:0:0:
249,216,29464,2,0,L|318:226,2,69.9999978637696,2|0|0,0:0|0:0|0:0,0:0:0:0:
166,199,30010,1,0,0:0:0:0:
295,302,30190,6,0,P|334:303|369:285,1,80,14|0,0:0|0:0,0:0:0:0:
344,153,30554,1,8,0:0:0:0:
318,226,30736,1,0,0:0:0:0:
421,140,30918,1,10,0:0:0:0:
371,79,31100,1,0,0:0:0:0:
389,213,31281,1,8,0:0:0:0:
467,201,31463,1,0,0:0:0:0:
344,153,31645,5,10,0:0:0:0:
369,285,31827,1,0,0:0:0:0:
421,140,32009,1,8,0:0:0:0:
317,226,32190,2,0,P|282:243|243:240,1,80,2|8,0:0|0:0,0:0:0:0:
213,107,32554,1,0,0:0:0:0:
267,166,32736,1,8,0:0:0:0:
292,90,32918,1,0,0:0:0:0:
188,183,33100,5,10,0:0:0:0:
149,60,33281,1,0,0:0:0:0:
109,183,33463,1,8,0:0:0:0:
213,107,33644,1,0,0:0:0:0:
85,107,33826,1,10,0:0:0:0:
148,251,34009,1,0,0:0:0:0:
30,183,34190,1,8,0:0:0:0:
109,320,34372,1,0,0:0:0:0:
188,183,34554,5,10,0:0:0:0:
216,292,34736,1,0,0:0:0:0:
148,251,34918,1,8,0:0:0:0:
256,224,35100,2,0,P|283:252|295:290,1,80,2|8,0:0|0:0,0:0:0:0:
179,362,35463,1,0,0:0:0:0:
216,292,35645,1,8,0:0:0:0:
258,359,35827,1,0,0:0:0:0:
147,251,36009,6,0,P|109:261|71:251,1,80,10|0,0:0|0:0,0:0:0:0:
67,114,36372,1,8,0:0:0:0:
109,182,36554,1,0,0:0:0:0:
211,66,36736,2,0,P|172:59|135:71,1,80,10|0,0:0|0:0,0:0:0:0:
257,133,37100,1,8,0:0:0:0:
290,60,37281,1,0,0:0:0:0:
177,140,37463,6,0,P|189:177|219:203,1,80,10|0,0:0|0:0,0:0:0:0:
337,129,37827,1,8,0:0:0:0:
257,133,38009,1,0,0:0:0:0:
381,197,38190,2,0,L|344:268,1,80,10|0,0:0|0:0,0:0:0:0:
219,203,38554,1,8,0:0:0:0:
263,270,38736,1,0,0:0:0:0:
137,207,38918,6,0,P|111:236|101:274,1,80,10|0,0:0|0:0,0:0:0:0:
226,343,39281,1,8,0:0:0:0:
182,274,39463,1,0,0:0:0:0:
300,197,39645,2,0,L|306:117,1,80,10|0,0:0|0:0,0:0:0:0:
183,54,40009,1,8,0:0:0:0:
226,121,40190,1,0,0:0:0:0:
104,73,40372,6,0,P|66:82|36:108,1,80,10|0,0:0|0:0,0:0:0:0:
177,184,40736,1,8,0:0:0:0:
226,121,40918,1,0,0:0:0:0:
101,155,41100,2,0,P|96:194|111:231,1,80,10|0,0:0|0:0,0:0:0:0:
251,217,41463,1,8,0:0:0:0:
177,184,41645,1,0,0:0:0:0:
259,298,41827,5,4,0:3:0:0:
317,170,42009,1,4,0:3:0:0:
186,265,42190,1,4,0:3:0:0:
334,331,42372,1,4,0:3:0:0:
243,137,42554,1,4,0:3:0:0:
456,155,42736,1,4,0:3:0:0:
251,217,42918,1,4,0:3:0:0:
299,8,43100,1,4,0:3:0:0:
325,250,43281,5,4,0:3:0:0:
102,151,43463,1,4,0:3:0:0:
317,170,43645,1,4,0:3:0:0:
193,346,43827,1,4,0:3:0:0:
243,137,44009,1,4,1:3:0:0:
398,284,44190,1,4,1:3:0:0:
186,265,44372,1,4,1:3:0:0:
308,89,44554,1,4,1:3:0:0:
258,298,44736,6,0,P|198:344|126:318,1,160,4|2,0:0|0:0,0:0:0:0:
186,265,45281,1,0,0:0:0:0:
292,226,45463,2,0,P|338:286|312:358,1,160,0|0,1:0|0:0,0:0:0:0:
219,192,46009,1,0,0:0:0:0:
219,192,46100,1,0,0:0:0:0:
219,191,46190,6,0,P|243:161|280:145,1,80,4|0,0:3|1:0,0:0:0:0:
186,265,46554,2,0,P|140:205|166:133,2,160,4|4|0,0:3|0:3|1:0,0:0:0:0:
224,80,47463,1,0,0:0:0:0:
224,80,47554,1,0,0:0:0:0:
224,80,47645,6,0,P|153:52|92:99,1,160,4|2,0:3|0:0,0:0:0:0:
166,132,48190,1,0,0:0:0:0:
276,138,48372,2,0,P|304:67|257:6,1,160,0|4,1:0|0:3,0:0:0:0:
218,190,48917,1,0,0:0:0:0:
218,190,49009,1,0,0:0:0:0:
218,190,49100,6,0,P|251:211|290:215,1,80,4|0,0:3|1:3,0:0:0:0:
165,132,49463,2,0,P|139:184|157:239,1,120,4|0,0:3|0:0,0:0:0:0:
189,265,49827,1,8,0:3:0:0:
276,138,50009,1,8,0:3:0:0:
342,276,50190,1,12,0:3:0:0:
342,276,50554,6,0,L|421:282,1,80,4|0,1:2|0:0,0:0:0:0:
330,195,50918,2,0,L|410:202,1,80,0|0,1:0|0:0,0:0:0:0:
318,114,51281,2,0,L|397:120,1,80,0|0,1:0|0:0,0:0:0:0:
305,32,51645,2,0,L|384:38,1,80,0|0,1:0|0:0,0:0:0:0:
330,195,52009,6,0,L|323:274,1,80,4|0,1:2|0:0,0:0:0:0:
249,207,52372,2,0,L|169:200,1,80,0|0,1:0|0:0,0:0:0:0:
237,126,52736,2,0,L|243:46,1,80,0|0,1:0|0:0,0:0:0:0:
318,114,53100,2,0,L|397:120,1,80,0|0,1:0|0:0,0:0:0:0:
169,200,53463,5,4,0:3:0:0:
392,195,53645,1,4,0:3:0:0:
209,67,53827,1,4,0:3:0:0:
282,279,54009,1,4,1:3:0:0:
282,279,54100,1,4,1:3:0:0:
282,279,54190,1,4,1:3:0:0:
347,65,54372,1,8,0:3:0:0:
202,272,54554,1,4,0:3:0:0:
392,195,54736,1,4,0:3:0:0:
150,121,54918,5,4,0:0:0:0:
150,121,56372,5,6,0:0:0:0:
223,247,56553,1,0,0:0:0:0:
237,102,56736,2,0,P|218:63|182:36,1,89.9999972534181,8|0,0:0|0:0,0:0:0:0:
141,210,57100,1,2,0:0:0:0:
284,181,57281,1,0,0:0:0:0:
161,312,57463,2,0,P|200:334|245:334,1,89.9999972534181,8|0,0:0|0:0,0:0:0:0:
284,181,57827,5,2,0:0:0:0:
223,247,58009,1,0,0:0:0:0:
372,201,58190,1,8,0:0:0:0:
257,94,58372,2,0,P|218:74|173:74,1,89.9999972534181,2|0,0:0|0:0,0:0:0:0:
53,154,58736,1,2,0:0:0:0:
197,161,58918,1,8,0:0:0:0:
85,70,59100,1,0,0:0:0:0:
123,210,59281,5,2,0:0:0:0:
173,74,59463,1,0,0:0:0:0:
202,250,59645,2,0,P|174:283|132:299,1,89.9999972534181,8|0,0:0|0:0,0:0:0:0:
197,161,60009,1,2,0:0:0:0:
283,290,60190,1,0,0:0:0:0:
352,152,60372,2,0,P|364:194|356:238,1,89.9999972534181,8|0,0:0|0:0,0:0:0:0:
271,111,60736,5,2,0:0:0:0:
202,250,60918,1,0,0:0:0:0:
116,120,61100,1,8,0:0:0:0:
47,260,61281,2,0,P|80:289|123:299,1,89.9999972534181,2|0,0:0|0:0,0:0:0:0:
277,199,61645,1,6,0:0:0:0:
209,341,61827,1,12,0:0:0:0:
120,210,62009,1,0,0:0:0:0:
283,290,62190,5,2,0:0:0:0:
271,109,62372,1,0,0:0:0:0:
360,240,62554,2,0,P|373:282|366:326,1,89.9999972534181,8|0,0:0|0:0,0:0:0:0:
202,250,62918,1,2,0:0:0:0:
352,149,63100,1,0,0:0:0:0:
190,70,63281,2,0,L|109:30,1,89.9999972534181,8|0,0:0|0:0,0:0:0:0:
120,210,63645,5,2,0:0:0:0:
271,109,63827,1,0,0:0:0:0:
201,250,64009,2,0,P|173:284|132:301,1,89.9999972534181,8|0,0:0|0:0,0:0:0:0:
197,161,64372,1,6,0:0:0:0:
288,273,64554,1,0,0:0:0:0:
280,129,64736,1,12,0:0:0:0:
201,250,64918,1,0,0:0:0:0:
337,199,65100,5,6,0:0:0:0:
328,353,65281,1,0,0:0:0:0:
425,203,65463,1,8,0:0:0:0:
288,273,65645,1,0,0:0:0:0:
386,125,65827,1,6,0:0:0:0:
377,279,66009,1,0,0:0:0:0:
248,194,66190,1,8,0:0:0:0:
239,348,66372,1,0,0:0:0:0:
337,199,66554,5,6,0:0:0:0:
199,267,66736,1,0,0:0:0:0:
377,279,66918,1,8,0:0:0:0:
299,119,67100,1,0,0:0:0:0:
198,267,67281,1,8,0:3:0:0:
166,275,67371,1,8,0:3:0:0:
133,271,67462,1,8,0:3:0:0:
103,255,67553,1,8,0:3:0:0:
82,229,67644,1,4,0:3:0:0:
72,197,67735,1,4,0:3:0:0:
75,164,67827,1,4,0:3:0:0:
90,134,67917,1,4,0:3:0:0:
116,112,68009,5,6,0:0:0:0:
247,186,68190,1,0,0:0:0:0:
245,35,68372,2,0,P|202:24|159:36,1,89.9999972534181,8|0,0:0|0:0,0:0:0:0:
290,111,68736,1,2,0:0:0:0:
291,261,68918,1,0,0:0:0:0:
376,110,69100,2,0,P|408:140|421:182,1,89.9999972534181,8|0,0:0|0:0,0:0:0:0:
248,336,69463,5,2,0:0:0:0:
334,186,69645,1,0,0:0:0:0:
366,304,69827,1,8,0:0:0:0:
215,217,70009,2,0,P|172:204|129:215,1,89.9999972534181,2|0,0:0|0:0,0:0:0:0:
291,261,70372,1,2,0:0:0:0:
258,142,70554,1,8,0:0:0:0:
214,304,70736,1,0,0:0:0:0:
334,186,70918,5,2,0:0:0:0:
215,217,71100,1,0,0:0:0:0:
366,304,71281,2,0,P|408:316|451:305,1,89.9999972534181,8|0,0:0|0:0,0:0:0:0:
334,186,71645,1,2,0:0:0:0:
206,243,71827,1,0,0:0:0:0:
276,121,72009,1,8,0:0:0:0:
291,261,72190,1,0,0:0:0:0:
196,157,72372,5,2,0:0:0:0:
216,329,72554,1,0,0:0:0:0:
127,209,72736,1,8,0:0:0:0:
275,191,72918,1,0,0:0:0:0:
137,295,73100,1,2,0:0:0:0:
265,106,73281,1,4,0:0:0:0:
285,277,73463,1,12,0:0:0:0:
117,123,73645,1,0,0:0:0:0:
343,139,73827,5,4,0:3:0:0:
343,139,74009,2,0,L|482:123,1,139.999995727539,4|0,0:3|0:0,0:0:0:0:
352,222,74554,2,0,P|288:201|260:139,1,139.999995727539,0|0,1:0|0:0,0:0:0:0:
343,139,75100,1,0,0:0:0:0:
362,306,75281,5,4,0:3:0:0:
362,306,75463,2,0,L|222:290,1,139.999995727539,4|0,0:3|0:0,0:0:0:0:
405,379,76009,2,0,P|444:323|431:257,1,139.999995727539,0|0,1:0|0:0,0:0:0:0:
352,222,76554,1,0,0:0:0:0:
222,290,76736,5,4,0:3:0:0:
222,290,76918,2,0,L|206:150,1,139.999995727539,4|0,0:3|0:0,0:0:0:0:
142,318,77463,2,0,L|127:179,1,139.999995727539,0|0,1:0|0:0,0:0:0:0:
142,97,78009,1,0,0:0:0:0:
271,204,78190,5,4,0:3:0:0:
270,203,78372,2,0,P|336:186|368:126,1,139.999995727539,4|0,0:3|0:0,0:0:0:0:
206,150,78918,2,0,L|222:290,1,139.999995727539,0|0,1:0|0:0,0:0:0:0:
285,121,79463,1,0,0:0:0:0:
285,121,79554,1,0,0:0:0:0:
285,121,79645,6,0,L|275:31,1,89.9999972534181,4|0,0:0|0:0,0:0:0:0:
212,174,80009,1,4,0:3:0:0:
367,157,80190,1,4,0:3:0:0:
203,85,80372,1,4,0:3:0:0:
294,211,80554,1,4,0:3:0:0:
130,138,80736,1,4,0:3:0:0:
149,317,80918,1,4,0:3:0:0:
285,121,81100,5,4,0:3:0:0:
386,336,81281,1,4,0:3:0:0:
222,264,81463,1,4,0:3:0:0:
367,157,81645,1,4,0:3:0:0:
232,354,81827,1,4,0:3:0:0:
451,194,82009,1,4,0:3:0:0:
203,85,82190,1,4,0:3:0:0:
305,301,82372,1,4,0:3:0:0:
358,66,82554,5,12,0:0:0:0:
222,264,82736,1,4,0:3:0:0:
118,47,82918,1,4,0:3:0:0:
367,157,83100,5,12,0:0:0:0:
127,139,83281,1,4,0:3:0:0:
232,356,83463,1,4,0:3:0:0:
285,121,83645,5,12,0:0:0:0:
149,317,83827,1,4,0:3:0:0:
377,247,84009,5,4,0:0:0:0:
203,85,84190,1,2,0:0:0:0:
222,264,84372,1,2,0:0:0:0:
442,104,84554,1,4,0:0:0:0:
442,104,84918,6,0,L|437:178,1,75.0000028610231,4|0,0:0|0:0,0:0:0:0:
358,66,85463,5,4,0:0:0:0:
256,192,85554,12,0,88372,0:0:0:0:
