osu file format v14

[General]
AudioFilename: Kimi no Shira nai Monogatari -TV Edit-.mp3
AudioLeadIn: 0
PreviewTime: 54554
Countdown: 0
SampleSet: Soft
StackLeniency: 0.4
Mode: 0
LetterboxInBreaks: 0
WidescreenStoryboard: 0

[Editor]
DistanceSpacing: 0.9
BeatDivisor: 2
GridSize: 4
TimelineZoom: 2.3

[Metadata]
Title:Kimi no Shiranai Monogatari -TV Edit-
TitleUnicode:君の知らない物語 -TV Edit-
Artist:supercell
ArtistUnicode:supercell
Creator:Neoskylove
Version:Normal
Source:化物語
Tags:Bakemonogatari Ryo Nagi Yanagi The Story You Don't Know Today Is A Beautiful Day
BeatmapID:1323313
BeatmapSetID:627110

[Difficulty]
HPDrainRate:4
CircleSize:3.3
OverallDifficulty:4
ApproachRate:5
SliderMultiplier:1
SliderTickRate:1

[Events]
//Background and Video events
Video,-220,"Kimi no Shiranai Monogatari.flv"
0,0,"BG.jpg",0,0
//Break Periods
//Storyboard Layer 0 (Background)
//Storyboard Layer 1 (Fail)
//Storyboard Layer 2 (Pass)
//Storyboard Layer 3 (Foreground)
//Storyboard Sound Samples

[TimingPoints]
1100,363.636363636364,4,2,1,70,1,0
1100,-90.9090909090909,4,2,1,70,0,0
18554,-90.9090909090909,4,2,0,40,0,0
30190,-90.9090909090909,4,2,2,60,0,0
41827,-90.9090909090909,4,2,0,35,0,0
43281,-90.9090909090909,4,2,0,60,0,0
44736,-90.9090909090909,4,2,0,50,0,0
56372,-90.9090909090909,4,2,1,75,0,1
67645,-90.9090909090909,4,2,1,75,0,0
68009,-90.9090909090909,4,2,1,75,0,1
73827,-90.9090909090909,4,2,1,75,0,1
79645,-90.9090909090909,4,2,1,40,0,1
81100,-90.9090909090909,4,2,1,70,0,1
84918,-90.9090909090909,4,2,1,50,0,1
85463,-90.9090909090909,4,2,0,75,0,0
86190,-90.9090909090909,4,2,0,50,0,0
86918,-90.9090909090909,4,2,0,30,0,0
87645,-90.9090909090909,4,2,0,10,0,0
88372,-90.9090909090909,4,2,0,5,0,0

[Colours]
Combo1 : 0,234,0
Combo2 : 205,222,1
Combo3 : 1,226,187
Combo4 : 255,119,119
SliderTrackOverride : 0,0,30
SliderBorder : 250,250,120

[HitObjects]
393,283,1100,6,0,P|346:254|292:255,1,110.000003356934,6|8,0:0|0:0,0:0:0:0:
219,322,1827,2,0,P|172:350|118:349,1,110.000003356934,2|8,0:0|0:0,0:0:0:0:
51,278,2554,2,0,L|47:168,2,110.000003356934,2|8|2,0:0|0:0|0:0,0:0:0:0:
118,350,3645,1,8,0:0:0:0:
147,255,4009,6,0,L|143:145,1,110.000003356934,2|8,0:0|0:0,0:0:0:0:
239,122,4736,2,0,L|243:232,1,110.000003356934,2|8,0:0|0:0,0:0:0:0:
325,280,5463,2,0,P|378:295|429:278,1,110.000003356934,6|8,0:0|1:2,0:0:0:0:
470,251,6009,1,8,1:2:0:0:
510,225,6190,2,0,L|506:115,1,110.000003356934,6|8,0:0|1:2,0:0:0:0:
424,60,6918,6,0,P|372:43|320:57,1,110.000003356934,6|8,0:0|0:0,0:0:0:0:
271,140,7645,2,0,P|218:154|167:137,1,110.000003356934,2|8,0:0|0:0,0:0:0:0:
118,53,8372,2,0,P|170:38|221:55,1,110.000003356934,2|8,0:0|0:0,0:0:0:0:
271,140,9100,2,0,L|271:194,2,55.0000016784668,0|0|8,1:0|1:0|0:3,0:0:0:0:
367,141,9827,6,0,L|368:250,1,110.000003356934,4|8,0:0|0:0,0:0:0:0:
369,300,10372,1,4,1:2:0:0:
282,348,10736,2,0,L|227:348,1,55.0000016784668,0|8,0:0|0:0,0:0:0:0:
177,348,11100,2,0,P|154:299|167:246,1,110.000003356934,4|0,1:2|1:0,0:0:0:0:
198,207,11645,1,8,1:2:0:0:
227,166,11827,2,0,L|117:162,1,110.000003356934,12|12,0:0|1:2,0:0:0:0:
40,35,12736,6,0,L|149:31,1,110.000003356934,6|8,0:0|0:0,0:0:0:0:
242,69,13463,2,0,L|351:65,1,110.000003356934,2|8,0:0|0:0,0:0:0:0:
446,94,14190,2,0,P|482:166|461:243,2,165.000005035401,4|4|12,0:0|0:0|0:2,0:0:0:0:
351,65,15645,2,0,L|242:69,1,110.000003356934,6|8,0:0|0:0,0:0:0:0:
163,130,16372,2,0,P|149:183|170:232,1,110.000003356934,2|8,0:0|0:0,0:0:0:0:
208,265,16918,5,4,0:0:0:0:
302,236,17281,2,0,P|305:263|302:290,2,55.0000016784668,0|0|0,1:0|1:0|1:0,0:0:0:0:
274,194,17827,2,0,P|270:166|274:139,1,55.0000016784668,4|4,1:3|1:3,0:0:0:0:
302,97,18190,2,0,P|305:69|301:42,1,55.0000016784668,4|4,1:3|1:3,0:0:0:0:
262,11,18554,6,0,L|152:14,1,110.000003356934,2|0,0:0|0:0,0:0:0:0:
108,102,19281,2,0,L|218:99,1,110.000003356934,2|0,0:0|0:0,0:0:0:0:
308,139,20009,2,0,L|472:134,2,165.000005035401,2|2|0,0:0|0:0|0:0,0:0:0:0:
229,197,21463,6,0,P|223:252|244:302,1,110.000003356934,2|0,0:0|0:0,0:0:0:0:
334,341,22191,2,0,P|339:286|318:236,1,110.000003356934,2|0,0:0|0:0,0:0:0:0:
229,197,22918,2,0,L|65:202,2,165.000005035401,2|2|0,0:0|0:0|0:0,0:0:0:0:
307,139,24372,6,0,P|358:118|411:129,1,110.000003356934,2|0,0:0|0:0,0:0:0:0:
366,218,25100,2,0,P|386:268|375:321,1,110.000003356934,2|0,0:0|0:0,0:0:0:0:
288,276,25827,2,0,P|237:296|184:285,1,110.000003356934,2|0,0:0|0:0,0:0:0:0:
229,197,26555,2,0,P|208:146|219:93,1,110.000003356934,2|0,0:0|0:0,0:0:0:0:
294,30,27281,6,0,B|233:59|189:35|189:35|135:9|81:30,1,220.000006713867,2|2,0:0|0:0,0:0:0:0:
69,128,28372,2,0,L|72:182,1,55.0000016784668
119,199,28736,2,0,L|125:308,1,110.000003356934
222,327,29463,2,0,L|215:217,1,110.000003356934,2|0,0:0|0:0,0:0:0:0:
281,143,30190,6,0,P|333:159|384:139,1,110.000003356934,14|8,0:0|0:0,0:0:0:0:
422,108,30736,1,0,0:0:0:0:
459,76,30918,2,0,L|459:21,2,55.0000016784668,10|0|8,0:0|0:0|0:0,0:0:0:0:
488,170,31645,2,0,L|488:280,1,110.000003356934,10|8,0:0|0:0,0:0:0:0:
503,326,32190,2,0,P|451:310|400:330,1,110.000003356934,2|0,0:0|0:0,0:0:0:0:
366,366,32736,1,8,0:0:0:0:
272,325,33100,6,0,B|250:275|250:275|273:224,1,110.000003356934,10|8,0:0|0:0,0:0:0:0:
294,180,33645,1,0,0:0:0:0:
314,134,33827,2,0,L|369:139,2,55.0000016784668,10|0|8,0:0|0:0|0:0,0:0:0:0:
241,66,34554,2,0,L|131:76,1,110.000003356934,10|8,0:0|0:0,0:0:0:0:
90,104,35100,2,0,P|76:156|92:208,1,110.000003356934,2|0,0:0|0:0,0:0:0:0:
130,239,35645,1,8,0:0:0:0:
213,186,36009,6,0,P|229:237|215:290,1,110.000003356934,10|8,0:0|0:0,0:0:0:0:
289,355,36736,2,0,P|340:338|393:352,1,110.000003356934,10|8,0:0|0:0,0:0:0:0:
458,279,37463,2,0,P|441:227|455:174,1,110.000003356934,10|8,0:0|0:0,0:0:0:0:
382,110,38190,2,0,P|330:126|277:112,1,110.000003356934,10|8,0:0|0:0,0:0:0:0:
192,61,38918,6,0,P|139:47|87:63,1,110.000003356934,10|8,0:0|0:0,0:0:0:0:
140,146,39645,2,0,P|126:198|142:250,1,110.000003356934,10|8,0:0|0:0,0:0:0:0:
225,197,40372,2,0,P|277:210|329:194,1,110.000003356934,10|8,0:0|0:0,0:0:0:0:
277,112,41099,2,0,P|290:59|274:7,1,110.000003356934,10|8,0:0|0:0,0:0:0:0:
192,61,41827,6,0,P|139:47|87:63,1,110.000003356934,4|4,0:3|0:3,0:0:0:0:
64,106,42372,1,4,0:3:0:0:
40,148,42554,2,0,L|37:203,2,55.0000016784668,4|4|4,0:3|0:3|0:3,0:0:0:0:
129,189,43281,2,0,L|126:244,1,55.0000016784668,4|4,0:3|0:3,0:0:0:0:
164,276,43645,2,0,L|219:279,1,55.0000016784668,4|4,0:3|0:3,0:0:0:0:
256,311,44009,2,0,L|311:308,1,55.0000016784668,4|4,1:3|1:3,0:0:0:0:
348,276,44372,2,0,L|403:279,1,55.0000016784668,4|4,1:3|1:3,0:0:0:0:
452,273,44736,6,0,P|439:325|457:377,2,110.000003356934,4|2|0,0:0|0:0|1:0,0:0:0:0:
509,192,45827,1,0,0:0:0:0:
452,111,46190,2,0,L|342:116,1,110.000003356934,4|4,0:3|0:3,0:0:0:0:
284,198,46918,2,0,L|174:192,1,110.000003356934,4|0,0:3|1:0,0:0:0:0:
87,144,47644,6,0,L|81:34,2,110.000003356934,4|2|0,0:3|0:0|1:0,0:0:0:0:
174,192,48736,1,4,0:3:0:0:
87,240,49100,2,0,L|81:349,1,110.000003356934,4|4,0:3|0:3,0:0:0:0:
180,346,49827,2,0,L|182:291,2,55.0000016784668,8|8|12,0:3|0:3|0:3,0:0:0:0:
276,323,50554,5,4,1:2:0:0:
374,333,50918,1,0,1:0:0:0:
415,243,51281,2,0,P|391:194|340:176,1,110.000003356934,0|0,1:0|1:0,0:0:0:0:
256,226,52008,1,4,1:2:0:0:
183,160,52372,1,0,1:0:0:0:
223,70,52736,1,0,1:0:0:0:
323,79,53100,1,0,1:0:0:0:
341,176,53463,6,0,L|340:231,1,55.0000016784668,4|4,0:3|0:3,0:0:0:0:
295,253,53827,2,0,L|296:307,1,55.0000016784668,4|4,0:3|1:3,0:0:0:0:
251,329,54190,2,0,L|250:384,2,55.0000016784668,4|8|4,1:3|0:3|0:3,0:0:0:0:
179,261,54918,1,4,0:0:0:0:
179,261,56372,6,0,B|163:208|163:208|180:157,1,110.000003356934,6|8,0:0|0:0,0:0:0:0:
266,106,57100,2,0,B|282:159|282:159|265:210,1,110.000003356934,2|8,0:0|0:0,0:0:0:0:
264,309,57827,2,0,P|317:297|371:306,1,110.000003356934,2|8,0:0|0:0,0:0:0:0:
412,334,58372,2,0,L|404:224,1,110.000003356934,2|2,0:0|0:0,0:0:0:0:
399,174,58918,1,8,0:0:0:0:
448,88,59281,6,0,P|395:72|344:89,1,110.000003356934,2|8,0:0|0:0,0:0:0:0:
260,144,60009,2,0,P|208:160|156:145,1,110.000003356934,2|8,0:0|0:0,0:0:0:0:
69,98,60736,2,0,L|70:207,1,110.000003356934,2|8,0:0|0:0,0:0:0:0:
96,250,61281,1,2,0:0:0:0:
121,292,61463,2,0,L|121:346,2,55.0000016784668,2|6|12,0:0|0:0|0:0,0:0:0:0:
191,221,62190,6,0,P|243:205|294:223,1,110.000003356934,2|8,0:0|0:0,0:0:0:0:
381,271,62918,2,0,L|384:161,1,110.000003356934,2|8,0:0|0:0,0:0:0:0:
322,84,63645,2,0,P|270:101|218:86,1,110.000003356934,2|8,0:0|0:0,0:0:0:0:
156,9,64372,1,6,0:0:0:0:
79,71,64736,1,12,0:0:0:0:
141,148,65100,6,0,L|136:257,1,110.000003356934,6|8,0:0|0:0,0:0:0:0:
171,292,65645,1,0,0:0:0:0:
204,325,65827,2,0,P|258:336|308:315,1,110.000003356934,6|8,0:0|0:0,0:0:0:0:
370,238,66554,2,0,L|365:128,1,110.000003356934,6|8,0:0|0:0,0:0:0:0:
340,84,67100,1,0,0:0:0:0:
314,39,67281,2,0,P|286:37|259:39,1,55.0000016784668,8|8,0:3|0:3,0:0:0:0:
219,68,67645,2,0,P|191:70|164:68,1,55.0000016784668,4|4,0:3|0:3,0:0:0:0:
119,47,68009,6,0,L|125:156,1,110.000003356934,6|8,0:0|0:0,0:0:0:0:
60,231,68736,2,0,L|66:340,1,110.000003356934,2|8,0:0|0:0,0:0:0:0:
165,340,69463,2,0,P|208:309|261:316,1,110.000003356934,2|8,0:0|0:0,0:0:0:0:
304,343,70009,2,0,L|413:336,1,110.000003356934,2|2,0:0|0:0,0:0:0:0:
463,330,70554,1,8,0:0:0:0:
422,239,70918,6,0,B|406:186|406:186|431:137,1,110.000003356934,2|8,0:0|0:0,0:0:0:0:
353,76,71645,2,0,B|300:92|300:92|251:66,1,110.000003356934,2|8,0:0|0:0,0:0:0:0:
204,50,72190,1,0,0:0:0:0:
156,32,72372,2,0,P|158:87|156:142,1,110.000003356934,2|8,0:0|0:0,0:0:0:0:
146,191,72918,1,0,0:0:0:0:
135,239,73100,2,0,L|80:239,2,55.0000016784668,2|4|12,0:0|0:0|0:0,0:0:0:0:
214,298,73827,6,0,B|266:286|318:321|318:321|365:351|424:330,1,220.000006713867,4|0,0:3|1:0,0:0:0:0:
477,247,74918,1,0,0:0:0:0:
414,168,75281,2,0,B|372:131|313:148|313:148|281:99|217:102,1,220.000006713867,4|0,0:3|1:0,0:0:0:0:
140,165,76372,1,0,0:0:0:0:
88,80,76736,6,0,L|95:299,1,220.000006713867,4|0,0:3|1:0,0:0:0:0:
181,348,77827,1,0,0:0:0:0:
255,280,78190,2,0,B|314:256|361:284|361:284|416:245|399:189,1,220.000006713867,4|0,0:3|1:0,0:0:0:0:
332,117,79281,1,0,0:0:0:0:
263,43,79645,6,0,L|153:49,1,110.000003356934,4|4,0:0|0:3,0:0:0:0:
122,88,80190,1,4,0:3:0:0:
90,126,80372,2,0,L|35:129,2,55.0000016784668,4|4|4,0:3|0:3|0:3,0:0:0:0:
141,211,81100,2,0,L|195:207,1,55.0000016784668,4|4,0:3|0:3,0:0:0:0:
236,235,81463,2,0,L|290:231,1,55.0000016784668,4|4,0:3|0:3,0:0:0:0:
331,259,81827,2,0,L|327:313,2,55.0000016784668,4|4|4,0:3|0:3|0:3,0:0:0:0:
396,185,82554,6,0,P|415:134|397:83,1,110.000003356934,12|4,0:0|0:3,0:0:0:0:
359,50,83100,2,0,L|249:56,1,110.000003356934,12|4,0:0|0:3,0:0:0:0:
211,89,83645,1,12,0:0:0:0:
128,33,84009,2,0,P|111:85|124:138,1,110.000003356934,4|2,0:0|0:0,0:0:0:0:
158,174,84554,1,4,0:0:0:0:
244,222,84918,2,0,L|250:331,1,110.000003356934,4|0,0:0|0:0,0:0:0:0:
213,365,85463,5,4,0:0:0:0:
256,192,85645,12,0,88372,0:0:0:0:
