osu file format v14

[General]
AudioFilename: audio.mp3
AudioLeadIn: 0
PreviewTime: 239594
Countdown: 0
SampleSet: Normal
StackLeniency: 0.7
Mode: 0
LetterboxInBreaks: 1
WidescreenStoryboard: 1

[Editor]
Bookmarks: 29837,41459,56004,67650,89457,102549,114186,128740,140368,140731,152004,169478,175277,202186,219640,240003,251650,257458,263276,274923,286559,298195,309832,315655,328048
DistanceSpacing: 2.5
BeatDivisor: 4
GridSize: 4
TimelineZoom: 2

[Metadata]
Title:Kimi no Shiranai Monogatari
TitleUnicode:Kimi no Shiranai Monogatari
Artist:supercell
ArtistUnicode:supercell
Creator:_Meep_
Version:Unwavering Soul
Source:化物語
Tags:ed ending Bakemonogatari shaft nagi yanagi ryo araragi senjougahara hanekawa sengoku kanbaru hachikuji shinobu tsukihi karen senjou gahara hitagi koyomi oshino nadeko tsubasa suruga mayoi
BeatmapID:1072096
BeatmapSetID:503828

[Difficulty]
HPDrainRate:5
CircleSize:4
OverallDifficulty:7.9
ApproachRate:9
SliderMultiplier:1.4
SliderTickRate:1

[Events]
//Background and Video events
0,0,"monogatari-series-senjougahara-hitagi-araragi-koyomi-araragi-karen-araragi-tsukihi-oshino-shinobu-hanekawa-tsubasa-hachikuji-mayoi-kanbaru-suruga.jpg",0,0
//Break Periods
2,202384,213222
//Storyboard Layer 0 (Background)
//Storyboard Layer 1 (Fail)
//Storyboard Layer 2 (Pass)
//Storyboard Layer 3 (Foreground)
//Storyboard Sound Samples

[TimingPoints]
764,363.636363636364,4,2,1,50,1,0
764,-133.333333333333,4,2,1,50,0,0
3480,363.636363636364,4,2,1,50,1,8
3661,363.636363636364,4,2,1,50,1,0
3661,-133.333333333333,4,2,1,50,0,0
9479,-133.333333333333,4,1,0,50,0,0
12388,-100,4,1,0,50,0,0
17466,363.636363636364,4,1,0,50,1,8
18180,363.636363636364,4,1,0,50,1,0
19651,363.636363636364,4,1,0,50,1,0
24023,363.636363636364,4,1,0,50,1,0
25474,363.636363636364,4,1,1,50,1,0
29837,-142.857142857143,4,2,1,50,0,0
32775,363.636363636364,4,2,1,50,1,0
32775,-142.857142857143,4,2,1,50,0,0
37109,363.636363636364,4,2,1,50,1,0
37109,-142.857142857143,4,2,1,50,0,0
38555,363.636363636364,4,2,1,50,1,0
38555,-142.857142857143,4,2,1,50,0,0
40028,363.636363636364,4,2,1,50,1,0
40028,-142.857142857143,4,2,1,50,0,0
41459,363.636363636364,4,1,0,50,1,0
51640,-200,4,2,1,50,0,0
56004,-133.333333333333,4,1,0,60,0,0
62198,363.636363636364,4,1,0,50,1,8
63277,363.636363636364,4,1,0,50,1,0
63288,-100,4,1,0,60,0,0
65812,363.636363636364,4,1,0,50,1,8
66175,-200,4,1,0,60,0,0
66198,363.636363636364,4,2,1,50,1,0
67650,363.636363636364,4,1,0,50,1,1
69094,363.636363636364,4,1,0,50,1,1
85094,-100,4,1,0,60,0,0
85821,-200,4,2,1,50,0,0
86548,-100,4,1,0,60,0,0
87275,-200,4,2,1,50,0,0
90730,-100,4,1,0,60,0,0
96741,363.636363636364,4,1,0,50,1,1
97124,363.636363636364,4,1,0,50,1,9
98186,363.636363636364,4,1,0,50,1,1
102549,-100,4,1,0,50,0,0
115645,363.636363636364,4,1,0,50,1,0
116740,363.636363636364,4,1,0,50,1,8
117103,363.636363636364,4,1,0,50,1,0
120004,363.636363636364,4,1,0,50,1,0
121102,363.636363636364,4,1,0,50,1,8
121465,363.636363636364,4,1,0,50,1,0
121824,363.636363636364,4,1,0,50,1,8
122556,363.636363636364,4,1,0,50,1,8
122919,363.636363636364,4,1,0,50,1,0
124377,363.636363636364,4,1,0,50,1,0
132914,363.636363636364,4,1,0,50,1,8
133095,363.636363636364,4,1,0,50,1,0
134560,363.636363636364,4,2,1,60,1,0
134560,-200,4,2,1,60,0,0
136024,363.636363636364,4,2,1,5,1,0
136024,-200,4,2,1,60,0,0
137459,363.636363636364,4,1,0,60,1,0
139459,-133.333333333333,4,1,0,60,0,0
140368,-100,4,1,0,60,0,1
157822,-133.333333333333,4,1,0,60,0,1
166731,-100,4,1,0,60,0,1
167640,-66.6666666666667,4,1,0,60,0,1
168004,-133.333333333333,4,1,0,60,0,1
169478,363.636363636364,4,1,0,60,1,0
169855,363.636363636364,4,1,0,60,1,8
170569,363.636363636364,4,1,0,60,1,8
171095,363.636363636364,4,1,0,60,1,8
171473,363.636363636364,4,1,0,60,1,8
172368,363.636363636364,4,1,0,60,1,0
175277,-133.333333333333,4,2,1,60,0,0
181095,-100,4,1,0,60,0,0
184024,363.636363636364,4,1,0,60,1,0
186197,363.636363636364,4,1,0,60,1,8
186924,363.636363636364,4,1,0,60,1,0
192549,363.636363636364,4,1,0,60,1,8
192730,363.636363636364,4,1,0,60,1,8
193811,363.636363636364,4,1,0,60,1,8
194174,363.636363636364,4,1,0,60,1,0
194913,363.636363636364,4,1,0,60,1,8
195640,363.636363636364,4,1,0,60,1,0
213822,363.636363636364,4,1,0,50,1,0
228367,-200,4,2,1,30,0,0
229488,363.636363636364,4,1,0,5,1,0
229488,-200,4,2,1,30,0,0
240003,363.636363636364,4,1,0,50,1,0
240003,-133.333333333333,4,2,1,50,0,0
245821,-200,4,2,1,30,0,0
247281,363.636363636364,4,2,1,50,1,0
247281,-133.333333333333,4,2,1,50,0,0
248756,363.636363636364,4,2,1,60,1,0
248756,-165.289256198347,4,2,1,60,0,0
250937,-165.289256198347,4,1,0,60,0,0
251650,363.636363636364,4,1,0,60,1,0
253095,363.636363636364,4,1,0,60,1,0
257458,-100,4,1,0,60,0,1
260367,-100,4,1,0,60,0,1
260913,-100,4,1,0,60,0,1
261458,-100,4,1,0,60,0,1
262004,-100,4,1,0,60,0,1
263276,-133.333333333333,4,2,1,60,0,0
264393,363.636363636364,4,2,1,60,1,8
264393,-133.333333333333,4,2,1,60,0,0
264756,363.636363636364,4,2,1,60,1,8
264756,-133.333333333333,4,2,1,60,0,0
265837,363.636363636364,4,2,1,60,1,8
265837,-133.333333333333,4,2,1,60,0,0
266200,363.636363636364,4,2,1,60,1,0
266200,-133.333333333333,4,2,1,60,0,0
269462,363.636363636364,4,2,1,60,1,8
269462,-133.333333333333,4,2,1,60,0,0
270552,363.636363636364,4,2,1,60,1,0
270552,-133.333333333333,4,2,1,60,0,0
272011,363.636363636364,4,2,1,60,1,0
272011,-133.333333333333,4,2,1,60,0,0
274923,363.636363636364,4,1,0,60,1,1
274923,-117.647058823529,4,1,0,60,0,1
286468,-117.647058823529,4,1,0,60,0,0
286559,-100,4,1,0,60,0,1
298104,-100,4,1,0,60,0,0
298195,-100,4,1,0,60,0,1
303650,-50,4,1,0,60,0,1
304013,-100,4,1,0,60,0,1
315468,-100,4,1,0,60,0,0
315655,363.636363636364,4,1,0,60,1,0
325836,-100,4,1,0,60,0,1
328048,363.636363636364,4,1,1,5,1,1
328048,-182.748538011696,4,1,1,60,0,1
328138,-182.748538011696,4,2,1,5,0,1
335030,363.636363636364,4,1,0,60,1,1
336014,-100,4,1,0,5,0,0

[Colours]
Combo1 : 255,192,0
Combo2 : 0,202,0
Combo3 : 18,124,255
Combo4 : 242,24,57

[HitObjects]
152,216,764,6,0,B|176:200|202:202,1,52.5000020027161
276,276,1127,1,0,0:0:0:0:
440,364,1309,2,0,L|336:349,1,105.000004005432
224,284,1854,2,0,L|275:275,1,52.5000020027161
344,132,2218,1,0,0:0:0:0:
384,204,2400,2,0,L|436:213,2,52.5000020027161
308,176,2945,1,0,0:0:0:0:
239,220,3127,2,0,P|214:227|188:229,1,52.5000020027161
88,204,3480,5,0,0:0:0:0:
124,336,3661,2,0,L|124:283,1,52.5000020027161
200,148,4024,1,0,0:0:0:0:
296,104,4206,1,0,0:0:0:0:
384,160,4388,2,0,L|384:212,1,52.5000020027161
412,320,4751,2,0,L|359:320,1,52.5000020027161
268,272,5115,1,0,0:0:0:0:
212,184,5297,1,0,0:0:0:0:
236,80,5479,1,0,0:0:0:0:
183,288,5661,2,0,P|133:300|84:284,2,105.000004005432
56,240,6570,6,0,L|40:360,1,105.000004005432
288,284,7297,6,0,B|320:276|320:276|360:252|360:252|400:244,1,105.000004005432
248,376,8024,6,0,P|204:344|196:280,1,105.000004005432
160,80,8751,6,0,P|208:96|272:64,1,105.000004005432
184,260,9479,5,0,0:0:0:0:
120,376,9661,1,0,0:0:0:0:
220,340,9842,1,0,0:0:0:0:
96,292,10024,1,0,0:0:0:0:
180,384,10206,5,0,0:0:0:0:
264,252,10388,1,0,0:0:0:0:
116,208,10570,1,0,0:0:0:0:
228,320,10751,1,0,0:0:0:0:
48,356,10933,5,0,0:0:0:0:
192,236,11115,1,0,0:0:0:0:
360,308,11296,1,0,0:0:0:0:
188,224,11478,1,0,0:0:0:0:
160,328,11661,1,0,0:0:0:0:
268,180,11842,1,0,0:0:0:0:
224,288,12024,1,0,0:0:0:0:
228,116,12206,1,0,0:0:0:0:
212,280,12388,6,0,L|132:280,1,70
254,212,12751,2,0,L|334:212,1,70
176,196,13115,2,0,P|148:166|136:126,1,70
296,272,13479,2,0,P|323:301|336:341,1,70
368,224,13842,5,0,0:0:0:0:
252,340,14024,1,0,0:0:0:0:
364,144,14206,1,0,0:0:0:0:
408,292,14388,1,0,0:0:0:0:
144,266,14570,2,0,L|144:178,1,70
294,122,14933,2,0,L|294:210,1,70
240,320,15297,5,0,0:0:0:0:
220,204,15479,1,0,0:0:0:0:
308,268,15661,1,0,0:0:0:0:
164,340,15842,1,0,0:0:0:0:
32,292,16024,2,0,L|108:284,1,70
248,188,16388,2,0,L|172:180,1,70
348,256,16751,6,0,P|372:216|364:148,1,105
352,132,17115,1,0,0:0:0:0:
323,111,17205,1,0,0:0:0:0:
289,107,17296,1,0,0:0:0:0:
455,163,17466,5,0,0:0:0:0:
465,196,17557,1,0,0:0:0:0:
464,231,17648,1,0,0:0:0:0:
452,264,17739,1,0,0:0:0:0:
432,292,17829,1,0,0:0:0:0:
336,312,18011,1,0,0:0:0:0:
308,236,18180,6,0,L|232:208,1,70
349,157,18543,2,0,L|424:184,1,70
272,133,18907,2,0,P|255:95|258:53,1,70
389,257,19271,2,0,P|404:293|402:335,1,70
272,133,19651,6,0,L|256:217,1,70
389,257,20014,2,0,L|373:173,1,70
288,288,20378,1,0,0:0:0:0:
254,294,20468,1,0,0:0:0:0:
225,313,20559,1,0,0:0:0:0:
196,331,20651,1,0,0:0:0:0:
196,296,20741,5,0,0:0:0:0:
196,261,20832,1,0,0:0:0:0:
196,226,20923,1,0,0:0:0:0:
196,191,21014,1,0,0:0:0:0:
196,159,21105,6,0,L|272:160,1,70
265,159,21378,1,0,0:0:0:0:
265,159,21469,1,0,0:0:0:0:
268,268,21651,2,0,B|336:224|395:283,1,140
395,283,22196,1,0,0:0:0:0:
192,356,22378,2,0,L|184:192,1,140
185,216,22832,1,0,0:0:0:0:
185,216,22923,1,0,0:0:0:0:
224,116,23105,6,0,L|136:112,1,70
396,256,23469,1,0,0:0:0:0:
396,248,24023,6,0,L|404:160,1,70
312,128,24386,2,0,L|320:216,1,70
232,244,24750,2,0,L|240:156,1,70
148,124,25113,2,0,L|156:212,1,70
220,88,25474,6,0,B|200:56|200:56|124:32,1,105
104,24,25837,1,0,0:0:0:0:
276,160,26019,1,0,0:0:0:0:
144,128,26201,2,0,L|60:100,1,70
272,168,26564,1,0,0:0:0:0:
280,316,26746,1,0,0:0:0:0:
276,160,26928,6,0,L|284:76,1,70
412,32,27292,1,0,0:0:0:0:
416,172,27474,1,0,0:0:0:0:
404,36,27655,6,0,L|312:28,1,70
468,104,28019,1,0,0:0:0:0:
496,184,28201,1,0,0:0:0:0:
496,328,28383,5,0,0:0:0:0:
412,316,28564,1,0,0:0:0:0:
340,268,28746,1,0,0:0:0:0:
304,192,28928,1,0,0:0:0:0:
332,356,29110,5,0,0:0:0:0:
384,196,29292,1,0,0:0:0:0:
272,280,29474,1,0,0:0:0:0:
400,288,29655,1,0,0:0:0:0:
456,200,29837,6,0,P|460:170|464:140,1,48.9999985046387
392,44,30201,1,0,0:0:0:0:
384,124,30383,1,0,0:0:0:0:
320,76,30564,2,0,B|264:64|220:104,1,97.9999970092774
292,160,31110,1,0,0:0:0:0:
212,176,31292,2,0,L|112:172,1,97.9999970092774
0,232,31837,2,0,B|52:236|52:236|92:248|92:248|160:252,1,146.999995513916
144,251,32564,1,0,0:0:0:0:
232,256,32775,6,0,L|292:248,1,48.9999985046387
400,208,33138,2,0,L|340:200,1,48.9999985046387
244,160,33502,2,0,P|208:148|184:148,2,48.9999985046387
417,124,34047,2,0,L|320:132,1,97.9999970092774
260,80,34593,1,0,0:0:0:0:
372,160,34775,2,0,B|376:272|376:272|356:320,1,146.999995513916
240,280,35502,1,0,0:0:0:0:
362,304,35684,6,0,L|474:316,1,97.9999970092774
372,160,36411,2,0,L|438:69,1,97.9999970092774
82,80,37109,2,0,L|140:160,1,97.9999970092774
52,314,37836,2,0,L|150:304,1,97.9999970092774
252,156,38555,5,0,0:0:0:0:
304,216,38736,1,0,0:0:0:0:
232,232,38918,1,0,0:0:0:0:
380,128,39282,2,0,L|316:148,2,48.9999985046387
124,112,40028,5,0,0:0:0:0:
176,172,40209,1,0,0:0:0:0:
104,188,40391,1,0,0:0:0:0:
284,344,40755,2,0,L|220:324,2,48.9999985046387
152,328,41459,6,0,L|124:236,1,70
188,172,41822,1,0,0:0:0:0:
248,256,42004,1,0,0:0:0:0:
292,160,42186,2,0,L|380:164,1,70
420,248,42549,2,0,L|332:252,1,70
392,348,42913,1,0,0:0:0:0:
288,336,43095,1,0,0:0:0:0:
350,251,43277,1,0,0:0:0:0:
244,240,43459,2,0,B|192:264|144:216|92:256,1,140
204,164,44004,2,0,L|208:260,1,70
164,328,44368,6,0,P|204:340|236:336,1,70
336,348,44731,2,0,L|324:264,1,70
356,176,45095,1,0,0:0:0:0:
420,260,45277,1,0,0:0:0:0:
444,156,45459,1,0,0:0:0:0:
368,84,45640,2,0,B|320:72|320:72|272:80|272:80|228:68,1,140
276,0,46186,1,0,0:0:0:0:
200,144,46368,2,0,B|256:160|256:160|296:200|276:256|276:256,1,140
208,312,46913,1,0,0:0:0:0:
308,344,47095,1,0,0:0:0:0:
388,276,47277,6,0,L|388:176,1,70
492,228,47640,2,0,L|492:128,1,70
492,52,48004,5,0,0:0:0:0:
408,112,48186,1,0,0:0:0:0:
320,56,48368,1,0,0:0:0:0:
232,112,48549,1,0,0:0:0:0:
56,196,48731,5,0,0:0:0:0:
144,140,48912,1,0,0:0:0:0:
316,136,49094,1,0,0:0:0:0:
232,196,49276,1,0,0:0:0:0:
228,288,49459,5,0,0:0:0:0:
316,232,49640,1,0,0:0:0:0:
144,228,49822,1,0,0:0:0:0:
404,288,50004,1,0,0:0:0:0:
404,288,50186,6,0,L|404:200,1,70
480,168,50549,2,0,B|444:104|364:132,1,105
364,128,50913,2,0,L|364:48,1,70
244,88,51277,2,0,P|172:84|132:100,1,105
116,112,51640,6,0,L|116:200,1,70
404,218,52368,2,0,L|404:148,1,70
376,48,52913,1,0,0:0:0:0:
320,116,53095,5,0,0:0:0:0:
320,220,53277,1,0,0:0:0:0:
232,164,53459,1,0,0:0:0:0:
376,168,53640,1,0,0:0:0:0:
252,96,53822,5,0,0:0:0:0:
248,232,54004,1,0,0:0:0:0:
344,72,54186,1,0,0:0:0:0:
344,260,54368,1,0,0:0:0:0:
424,112,54549,5,0,0:0:0:0:
272,312,54731,1,0,0:0:0:0:
464,196,54913,1,0,0:0:0:0:
184,288,55095,1,0,0:0:0:0:
412,268,55277,5,0,0:0:0:0:
132,216,55459,1,0,0:0:0:0:
96,296,55640,1,0,0:0:0:0:
388,192,55822,1,0,0:0:0:0:
208,232,56004,6,0,P|164:196|156:136,1,105.000004005432
240,20,56549,1,0,0:0:0:0:
240,152,56731,1,0,0:0:0:0:
240,152,56822,1,0,0:0:0:0:
240,152,56913,1,0,0:0:0:0:
292,88,57095,2,0,P|328:96|360:88,1,52.5000020027161
436,48,57459,1,0,0:0:0:0:
476,136,57640,1,0,0:0:0:0:
396,164,57822,2,0,P|392:208|412:276,2,105.000004005432
72,348,58913,6,0,P|122:333|174:337,2,105.000004005432
80,136,60004,1,0,0:0:0:0:
80,240,60186,1,0,0:0:0:0:
102,226,60276,1,0,0:0:0:0:
125,212,60368,2,0,L|191:215,1,52.5000020027161
244,276,60731,6,0,L|312:268,1,52.5000020027161
384,316,61004,1,0,0:0:0:0:
384,316,61095,2,0,P|392:288|392:256,1,52.5000020027161
400,80,61459,1,0,0:0:0:0:
460,172,61640,1,0,0:0:0:0:
312,4,61822,6,0,L|312:72,1,52.5000020027161
340,184,62198,2,0,L|340:112,1,70
224,8,62561,2,0,L|224:87,1,70
256,218,62925,2,0,L|256:138,1,70
88,84,63277,2,0,P|52:100|28:136,1,70
169,117,63640,2,0,P|205:101|229:65,1,70
24,200,64004,1,0,0:0:0:0:
152,40,64186,1,0,0:0:0:0:
104,160,64367,1,0,0:0:0:0:
84,8,64549,1,0,0:0:0:0:
96,236,64731,6,0,L|184:228,1,70
268,168,65095,1,0,0:0:0:0:
284,296,65277,1,0,0:0:0:0:
316,282,65367,1,0,0:0:0:0:
348,269,65458,2,0,L|424:284,1,70
240,236,65812,2,0,P|208:208|164:204,1,70
424,80,66175,1,0,0:0:0:0:
340,296,67650,6,0,P|304:304|248:296,1,70
196,184,68013,1,0,0:0:0:0:
156,316,68195,1,0,0:0:0:0:
264,224,68377,2,0,L|304:148,1,70
272,24,68740,1,0,0:0:0:0:
396,88,68922,1,0,0:0:0:0:
448,244,69094,6,0,P|404:252|368:248,1,70
256,184,69457,1,0,0:0:0:0:
240,324,69639,2,0,P|176:332|104:288,2,140
272,312,70457,1,0,0:0:0:0:
304,296,70548,6,0,L|370:317,1,70
304,120,70912,1,0,0:0:0:0:
384,304,71094,1,0,0:0:0:0:
205,182,71275,2,0,L|136:176,1,70
304,120,71638,1,0,0:0:0:0:
224,272,71821,1,0,0:0:0:0:
360,232,72003,6,0,P|408:200|424:112,1,140
376,32,72548,1,0,0:0:0:0:
304,120,72730,1,0,0:0:0:0:
432,312,72912,1,0,0:0:0:0:
304,120,73094,1,0,0:0:0:0:
420,200,73275,1,0,0:0:0:0:
344,248,73457,6,0,P|308:256|248:232,1,70
122,269,73821,2,0,P|122:304|136:336,1,70,0|0,3:0|3:0,3:0:0:0:
252,328,74184,2,0,P|220:312|198:285,1,70
73,199,74548,2,0,P|51:225|41:259,1,70,0|0,3:0|3:0,3:0:0:0:
156,176,74912,5,0,0:0:0:0:
60,332,75094,1,0,0:0:0:0:
220,216,75275,1,0,0:0:0:0:
124,372,75457,1,0,0:0:0:0:
96,120,75639,2,0,P|88:60|100:20,1,70
292,176,76003,2,0,P|300:236|288:276,1,70
288,328,76366,6,0,P|332:324|368:296,2,70
368,236,76912,1,0,0:0:0:0:
288,328,77094,2,0,P|244:324|196:348,2,70
432,328,77639,1,0,0:0:0:0:
196,244,77821,6,0,P|156:268|136:364,1,140
60,256,78366,1,0,0:0:0:0:
280,244,78548,2,0,L|296:200,3,35
428,172,78912,2,0,L|412:128,3,35
404,108,79275,6,0,P|364:84|324:80,1,70
204,56,79639,2,0,P|244:80|284:84,1,70
288,256,80003,1,0,0:0:0:0:
408,132,80184,1,0,0:0:0:0:
428,308,80366,1,0,0:0:0:0:
324,168,80548,1,0,0:0:0:0:
208,248,80730,6,0,P|184:212|196:120,1,140
312,176,81275,2,0,P|378:158|440:192,2,140
368,240,82184,6,0,L|376:316,1,70
504,384,82548,1,0,0:0:0:0:
439,188,82730,2,0,L|431:112,1,70
352,0,83094,1,0,0:0:0:0:
504,24,83275,2,0,P|470:32|436:28,1,70
400,156,83639,6,0,B|348:160|348:160|300:140|300:140|264:144,1,140
256,224,84184,2,0,B|292:220|292:220|368:256,1,105
380,268,84548,1,0,0:0:0:0:
148,240,84730,1,0,0:0:0:0:
148,240,84912,1,0,0:0:0:0:
148,240,85094,6,0,P|136:188|144:148,2,70
332,16,85821,6,0,L|252:8,1,70
456,220,86548,6,0,P|468:272|460:312,2,70
180,368,87275,2,0,L|260:376,1,70
328,328,87821,1,0,0:0:0:0:
420,348,88003,6,0,P|448:344|464:344,2,35
120,296,88730,2,0,P|104:264|96:220,1,70
208,220,89457,6,0,P|224:188|232:144,1,70
116,148,90184,2,0,P|100:116|92:72,1,70
92,82,90639,1,0,0:0:0:0:
92,82,90730,1,0,0:0:0:0:
252,84,90912,6,0,L|336:72,2,70
116,148,91457,2,0,L|32:136,2,70
352,68,92003,2,0,L|368:160,1,70
240,192,92366,5,0,0:0:0:0:
400,264,92548,1,0,0:0:0:0:
400,264,92730,1,0,0:0:0:0:
272,324,92912,1,0,0:0:0:0:
356,168,93275,1,0,0:0:0:0:
360,340,93457,2,0,P|424:360|456:348,1,70
423,187,93821,6,0,L|355:167,1,70
192,116,94184,1,0,0:0:0:0:
488,56,94366,6,0,L|419:72,1,70
192,116,94729,1,0,0:0:0:0:
351,87,94912,6,0,L|423:70,1,70
408,207,95275,1,0,0:0:0:0:
374,215,95366,1,0,0:0:0:0:
340,223,95457,1,0,0:0:0:0:
306,231,95548,1,0,0:0:0:0:
272,240,95638,1,0,0:0:0:0:
276,112,95821,6,0,L|260:40,1,70
408,207,96184,2,0,L|424:279,1,70
440,352,96548,1,0,0:0:0:0:
304,340,96741,6,0,L|216:368,1,70
180,260,97124,1,0,0:0:0:0:
112,340,97305,1,0,0:0:0:0:
68,244,97487,2,0,P|76:200|112:160,1,70
216,60,97851,2,0,P|208:104|172:144,1,70
168,208,98186,6,0,P|216:240|296:240,2,140
376,188,99276,6,0,L|384:268,1,70
428,336,99640,2,0,L|332:344,1,70
240,272,100004,2,0,L|336:280,1,70
384,256,100367,1,0,0:0:0:0:
460,264,100549,1,0,0:0:0:0:
508,328,100731,1,0,0:0:0:0:
358,341,100913,1,0,0:0:0:0:
424,188,101276,5,0,0:0:0:0:
358,341,101458,1,0,0:0:0:0:
300,100,101640,1,0,0:0:0:0:
366,253,101822,1,0,0:0:0:0:
420,16,102004,5,0,0:0:0:0:
354,169,102186,1,0,0:0:0:0:
352,176,102367,1,0,0:0:0:0:
424,8,102549,6,0,P|380:0|336:12,1,70
288,76,102913,2,0,P|244:84|200:72,1,70
132,16,103276,2,0,L|100:96,1,70
164,160,103640,2,0,L|196:240,1,70
112,268,104004,2,0,P|148:304|240:300,1,140
272,228,104549,2,0,P|312:208|400:236,2,140
330,287,105458,6,0,L|304:352,1,70
272,228,105822,2,0,L|298:163,1,70
372,112,106186,1,0,0:0:0:0:
448,160,106367,1,0,0:0:0:0:
452,304,106549,1,0,0:0:0:0:
388,256,106731,1,0,0:0:0:0:
372,182,106913,2,0,L|372:106,1,70
276,132,107276,1,0,0:0:0:0:
308,232,107458,2,0,P|268:248|168:232,2,140
96,342,108367,6,0,B|96:312|96:312|136:272|148:216,1,140
304,236,109095,6,0,B|320:224|320:224|332:300|236:308,1,140
288,152,109822,6,0,P|344:148|400:224,1,140
168,188,110549,6,0,L|128:52,1,140
128,53,111095,1,0,0:0:0:0:
256,104,111276,2,0,P|312:96|392:136,2,140
452,304,112367,2,0,P|396:312|316:272,2,140
452,304,113458,2,0,L|440:208,1,70
428,148,113822,1,0,0:0:0:0:
321,278,114004,1,0,0:0:0:0:
364,204,114186,6,0,L|280:192,1,70
176,248,114549,2,0,L|260:260,1,70
208,160,114913,2,0,L|124:172,1,70
340,296,115276,2,0,L|424:284,1,70
364,204,115640,1,0,0:0:0:0:
296,152,115826,1,0,0:0:0:0:
208,160,116008,1,0,0:0:0:0:
224,252,116190,2,0,P|184:252|155:237,2,70
280,320,116735,1,0,0:0:0:0:
192,332,116921,1,0,0:0:0:0:
156,237,117103,6,0,L|148:141,1,70
208,64,117466,1,0,0:0:0:0:
132,88,117648,1,0,0:0:0:0:
184,200,117830,2,0,L|284:192,1,70
116,308,118193,2,0,L|46:313,1,70
196,304,118557,1,0,0:0:0:0:
224,232,118739,1,0,0:0:0:0:
208,152,118921,1,0,0:0:0:0:
256,80,119103,6,0,P|304:72|388:108,2,140
412,124,120004,6,0,P|400:176|432:256,1,140
200,312,120731,6,0,B|192:264|192:264|196:216|196:216|189:173,1,140
72,112,121465,6,0,B|88:52|88:52|184:40,1,140
400,324,122187,6,0,P|408:288|368:320,1,105
344,328,122556,2,0,L|312:256,1,70
356,184,122919,6,0,L|276:176,1,70
280,84,123282,2,0,L|206:117,1,70
164,35,123646,2,0,L|117:100,1,70
39,50,124009,2,0,L|30:130,1,70
100,164,124377,6,0,L|180:172,1,70
176,264,124736,2,0,L|249:230,1,70
292,313,125100,2,0,L|338:247,1,70
417,298,125463,2,0,L|425:218,1,70
465,110,125831,6,0,L|396:104,2,70
239,235,126377,2,0,L|308:228,2,70
268,144,126922,1,0,0:0:0:0:
284,316,127104,1,0,0:0:0:0:
336,228,127286,5,0,0:0:0:0:
168,273,127468,1,0,0:0:0:0:
256,224,127649,1,0,0:0:0:0:
208,344,127831,1,0,0:0:0:0:
180,192,128013,5,0,0:0:0:0:
368,304,128195,1,0,0:0:0:0:
300,160,128377,1,0,0:0:0:0:
340,376,128558,1,0,0:0:0:0:
288,312,128740,6,0,P|256:284|160:284,1,140
88,356,129286,1,0,2:0:0:0:
70,332,129376,1,0,2:0:0:0:
56,308,129467,2,0,L|56:234,1,70,0|0,2:0|2:0,2:0:0:0:
136,192,129831,1,0,0:0:0:0:
220,164,130013,2,0,P|260:148|312:156,1,70
286,148,130286,1,0,0:0:0:0:
286,148,130377,1,0,0:0:0:0:
272,232,130558,2,0,P|280:296|344:356,2,140
356,96,131649,6,0,P|308:68|224:72,1,140
428,32,132195,1,0,0:0:0:0:
436,48,132286,1,0,0:0:0:0:
444,60,132377,2,0,L|460:144,1,70
400,192,132740,2,0,L|416:276,1,70
320,304,133004,1,0,0:0:0:0:
312,312,133095,6,0,L|325:243,1,70
320,160,133458,2,0,P|256:144|224:148,1,70
252,144,133731,1,0,0:0:0:0:
252,144,133822,1,0,0:0:0:0:
168,168,134004,1,0,0:0:0:0:
216,288,134185,2,0,P|232:252|224:208,1,70
448,240,134560,6,0,L|300:264,1,140
164,328,136024,6,0,P|116:316|96:296,1,70
168,216,136751,6,0,P|216:204|236:184,1,70
164,108,137296,1,0,0:0:0:0:
157,84,137386,1,0,0:0:0:0:
148,56,137477,6,0,P|190:48|230:60,1,70
352,100,137822,1,0,0:0:0:0:
272,156,138004,1,0,0:0:0:0:
308,20,138186,5,0,0:0:0:0:
352,180,138368,1,0,0:0:0:0:
384,24,138549,1,0,0:0:0:0:
196,140,138731,1,0,0:0:0:0:
424,140,138913,5,0,0:0:0:0:
292,232,139095,1,0,0:0:0:0:
276,84,139277,1,0,0:0:0:0:
384,224,139459,1,0,0:0:0:0:
368,56,139640,1,0,0:0:0:0:
208,224,139822,1,0,0:0:0:0:
288,32,140004,1,0,0:0:0:0:
288,272,140186,1,0,0:0:0:0:
352,104,140368,6,0,P|392:84|440:80,1,70
484,200,140731,2,0,P|444:180|396:176,1,70
416,316,141095,1,0,0:0:0:0:
372,240,141277,1,0,0:0:0:0:
500,284,141459,1,0,0:0:0:0:
328,312,141640,1,0,0:0:0:0:
340,164,141822,6,0,P|276:156|248:136,1,70
408,108,142186,1,0,0:0:0:0:
212,100,142368,2,0,P|233:165|217:233,2,140
168,252,143277,6,0,L|234:274,1,70
368,260,143640,2,0,L|276:228,1,70
368,168,144004,1,0,0:0:0:0:
436,212,144186,1,0,0:0:0:0:
404,332,144368,1,0,0:0:0:0:
236,280,144549,1,0,0:0:0:0:
292,156,144731,6,0,P|240:144|200:148,1,70
368,168,145095,1,0,0:0:0:0:
236,64,145277,2,0,P|188:68|148:164,2,140
248,224,146186,6,0,L|224:312,1,70
316,156,146549,1,0,0:0:0:0:
364,236,146731,1,0,0:0:0:0:
420,160,146913,2,0,L|516:152,1,70
364,80,147277,1,0,0:0:0:0:
316,156,147459,1,0,0:0:0:0:
456,192,147640,5,0,0:0:0:0:
316,156,147822,1,0,0:0:0:0:
316,156,148004,1,0,0:0:0:0:
412,296,148186,1,0,0:0:0:0:
424,276,148277,1,0,0:0:0:0:
434,258,148368,2,0,L|456:192,1,70
294,89,148731,2,0,L|316:156,1,70
384,324,149095,6,0,P|424:340|476:332,2,70
316,156,149640,1,0,0:0:0:0:
384,324,149822,2,0,P|344:308|292:316,2,70
244,328,150368,1,0,0:0:0:0:
364,280,150549,6,0,P|392:256|404:200,1,70
215,264,150913,2,0,L|247:336,1,70
320,169,151277,2,0,L|320:204,1,35
404,124,151459,2,0,L|400:172,1,35
480,100,151640,2,0,L|492:52,3,35
496,36,152004,6,0,L|424:40,1,70
250,165,152368,2,0,L|322:169,1,70
480,100,152731,1,0,0:0:0:0:
352,48,152913,1,0,0:0:0:0:
396,172,153095,1,0,0:0:0:0:
440,24,153277,1,0,0:0:0:0:
448,240,153459,2,0,P|404:256|320:212,1,140
252,284,154004,6,0,P|194:247|127:262,2,140
100,276,154913,2,0,L|108:176,1,70
144,72,155277,1,0,0:0:0:0:
240,176,155459,1,0,0:0:0:0:
248,36,155640,2,0,L|320:108,1,70
376,200,156004,1,0,0:0:0:0:
240,176,156186,1,0,0:0:0:0:
368,124,156368,6,0,P|416:104|512:160,1,140
420,248,156913,2,0,P|416:296|460:384,2,140
432,216,157822,6,0,L|216:224,1,210.000008010865
152,96,158913,2,0,L|144:168,1,52.5000020027161
144,184,159277,2,0,P|112:144|216:80,1,210.000008010865
211,76,160186,1,0,0:0:0:0:
325,96,160368,1,0,0:0:0:0:
416,88,160549,6,0,P|404:54|382:31,2,52.5000020027161
408,192,161095,2,0,P|416:232|432:256,1,52.5000020027161
464,312,161459,1,0,0:0:0:0:
464,312,161822,6,0,P|432:328|392:328,1,52.5000020027161
328,280,162186,2,0,P|280:264|208:280,1,105.000004005432
160,192,162731,1,0,0:0:0:0:
144,200,162822,1,0,0:0:0:0:
128,208,162913,2,0,P|88:208|56:192,1,52.5000020027161
208,168,163277,1,0,0:0:0:0:
112,96,163459,1,0,0:0:0:0:
44,272,163640,5,0,0:0:0:0:
172,256,163822,1,0,0:0:0:0:
0,344,164004,1,0,0:0:0:0:
104,224,164186,1,0,0:0:0:0:
80,344,164368,5,0,0:0:0:0:
80,344,164459,1,0,0:0:0:0:
80,344,164549,1,0,0:0:0:0:
12,204,164731,1,0,0:0:0:0:
160,336,164913,1,0,0:0:0:0:
168,176,165095,5,0,0:0:0:0:
224,252,165277,1,0,0:0:0:0:
216,92,165459,1,0,0:0:0:0:
144,252,165640,1,0,0:0:0:0:
264,168,165822,5,0,0:0:0:0:
264,168,165913,1,0,0:0:0:0:
264,168,166004,1,0,0:0:0:0:
244,328,166186,1,0,0:0:0:0:
312,240,166368,1,0,0:0:0:0:
92,192,166549,5,0,0:0:0:0:
264,168,166731,2,0,L|340:168,1,70
188,216,167095,5,0,0:0:0:0:
308,88,167277,2,0,L|384:88,1,70
448,220,167640,2,0,P|456:280|348:328,1,157.500006008148
356,336,168004,5,0,0:0:0:0:
331,328,168094,1,0,0:0:0:0:
310,312,168185,1,0,0:0:0:0:
295,291,168276,1,0,0:0:0:0:
288,265,168367,1,0,0:0:0:0:
476,312,168549,2,0,L|480:376,1,52.5000020027161
296,240,168913,2,0,L|296:172,1,52.5000020027161
296,112,169277,1,0,0:0:0:0:
176,200,169478,6,0,L|104:224,2,70
188,288,170036,2,0,L|260:312,2,70
340,200,170569,2,0,L|268:224,2,70
352,288,171095,2,0,L|424:312,2,70
424,224,171654,1,0,0:0:0:0:
272,300,171836,1,0,0:0:0:0:
276,132,172018,1,0,0:0:0:0:
307,235,172200,1,0,0:0:0:0:
329,261,172291,1,0,0:0:0:0:
352,288,172368,6,0,L|368:376,1,70
224,200,172731,1,0,0:0:0:0:
160,288,172913,2,0,L|144:376,1,70
356,164,173277,5,0,0:0:0:0:
356,300,173458,2,0,L|372:388,1,70
156,164,173822,1,0,0:0:0:0:
160,296,174004,2,0,L|144:384,1,70
256,224,174368,5,0,0:0:0:0:
256,124,174549,2,0,L|204:108,3,35
324,172,174913,2,0,L|376:156,3,35
436,288,175277,1,0,0:0:0:0:
104,256,178004,5,0,0:0:0:0:
192,128,178186,5,0,0:0:0:0:
424,160,178368,1,0,0:0:0:0:
340,124,180368,6,0,L|332:104,15,13.125000500679
324,76,181095,2,0,P|280:68|240:72,1,70
108,252,181640,1,0,0:0:0:0:
176,208,181822,2,0,P|220:200|260:204,1,70
132,112,182549,6,0,L|120:36,2,70
320,320,183277,2,0,L|156:332,1,140
388,208,184024,5,0,0:0:0:0:
388,208,184205,1,0,0:0:0:0:
440,276,184387,1,0,0:0:0:0:
440,276,184569,2,0,L|372:288,1,70
372,288,185296,1,0,0:0:0:0:
372,288,185660,1,0,0:0:0:0:
284,308,185842,1,0,0:0:0:0:
408,212,186197,6,0,L|352:200,3,35
408,124,186560,2,0,L|356:112,1,35
416,40,186742,2,0,L|468:52,2,35
416,40,187287,5,0,0:0:0:0:
348,64,187469,1,0,0:0:0:0:
280,40,187651,1,0,0:0:0:0:
216,68,187833,1,0,0:0:0:0:
188,132,188014,1,0,0:0:0:0:
216,196,188196,1,0,0:0:0:0:
264,144,188378,5,0,0:0:0:0:
240,76,188560,1,0,0:0:0:0:
264,152,188742,1,0,0:0:0:0:
316,104,188924,1,0,0:0:0:0:
380,80,189105,1,0,0:0:0:0:
396,148,189287,1,0,0:0:0:0:
440,96,189469,1,0,0:0:0:0:
404,224,189651,6,0,L|456:236,2,35
160,276,190196,2,0,P|144:228|152:184,1,70
276,156,190560,2,0,L|200:148,1,70
140,108,190924,1,0,0:0:0:0:
228,224,191105,1,0,0:0:0:0:
112,248,191287,2,0,P|72:272|48:304,2,70
184,304,191833,2,0,P|240:336|296:332,1,105
308,328,192196,1,0,0:0:0:0:
340,192,192378,1,0,0:0:0:0:
392,268,192549,1,0,0:0:0:0:
260,248,192730,6,0,L|216:160,2,70
140,136,193275,1,0,0:0:0:0:
84,196,193457,2,0,P|116:216|164:216,1,70
144,304,193811,2,0,P|181:298|218:267,1,70
280,164,194174,5,0,0:0:0:0:
288,244,194355,1,0,0:0:0:0:
144,136,194537,1,0,0:0:0:0:
132,56,194718,1,0,0:0:0:0:
304,88,194913,2,0,P|344:76|404:84,1,70
144,136,195276,2,0,P|104:148|60:144,1,70
48,240,195640,5,0,0:0:0:0:
136,232,195821,1,0,0:0:0:0:
220,192,196003,1,0,0:0:0:0:
332,316,196185,5,0,0:0:0:0:
344,232,196367,1,0,0:0:0:0:
264,264,196549,1,0,0:0:0:0:
412,176,196730,5,0,0:0:0:0:
388,384,196912,1,0,0:0:0:0:
464,308,197094,1,0,0:0:0:0:
336,152,197276,6,0,L|260:136,1,70
252,344,197640,1,0,0:0:0:0:
420,252,197822,2,0,L|496:236,1,70
392,324,198185,2,0,P|356:300|344:264,1,70
372,88,198549,5,0,0:0:0:0:
204,180,198730,1,0,0:0:0:0:
356,200,198912,1,0,0:0:0:0:
240,32,199094,5,0,0:0:0:0:
264,268,199276,1,0,0:0:0:0:
372,88,199458,1,0,0:0:0:0:
172,96,199640,5,0,0:0:0:0:
424,152,199821,1,0,0:0:0:0:
280,192,200003,1,0,0:0:0:0:
328,8,200185,5,0,0:0:0:0:
368,220,200367,1,0,0:0:0:0:
248,48,200549,1,0,0:0:0:0:
344,144,200730,5,0,0:0:0:0:
196,176,200912,1,0,0:0:0:0:
436,264,201094,1,0,0:0:0:0:
288,232,201276,5,0,0:0:0:0:
416,160,201458,1,0,3:0:0:0:
453,125,201549,1,0,3:0:0:0:
491,149,201640,1,0,3:0:0:0:
480,196,201730,1,0,3:0:0:0:
438,198,201821,2,0,B|425:240|425:240|440:316|440:316|424:364,1,140
136,192,213822,6,0,L|108:116,1,70
136,48,214185,1,0,0:0:0:0:
228,80,214367,2,0,L|289:27,1,70
363,30,214730,1,0,0:0:0:0:
436,76,214912,2,0,L|448:152,2,70
396,204,215458,2,0,P|440:228|484:228,1,70
356,128,215822,1,0,0:0:0:0:
469,299,216003,2,0,L|457:215,1,70
365,58,216367,2,0,L|353:142,1,70
396,204,216640,1,0,0:0:0:0:
396,204,216731,6,0,P|353:214|308:204,1,70
256,164,217094,1,0,0:0:0:0:
196,232,217276,2,0,P|171:195|165:149,1,70,0|0,3:0|3:0,3:0:0:0:
185,86,217639,1,0,3:0:0:0:
244,24,217822,2,0,P|208:4|160:8,2,70
165,170,218367,2,0,L|237:146,1,70
296,92,218731,1,0,0:0:0:0:
364,224,218912,2,0,L|392:148,1,70
376,20,219276,1,0,0:0:0:0:
52,112,219640,6,0,L|80:196,1,70
160,308,220003,1,0,0:0:0:0:
160,120,220185,2,0,L|160:240,1,105
160,264,220549,1,0,0:0:0:0:
192,180,220731,2,0,P|240:180|272:164,1,70
360,88,221094,5,0,0:0:0:0:
352,176,221276,1,0,0:0:0:0:
432,28,221458,1,0,0:0:0:0:
280,84,221640,2,0,P|220:72|160:88,1,105
144,92,222003,1,0,0:0:0:0:
304,124,222185,2,0,L|316:44,1,70
352,192,222549,6,0,B|316:224|256:196,1,70
240,112,222912,1,0,0:0:0:0:
140,196,223094,1,0,0:0:0:0:
84,132,223276,2,0,B|120:104|168:116,1,70
216,240,223639,1,0,0:0:0:0:
220,248,223822,1,0,0:0:0:0:
224,256,224003,6,0,L|308:256,1,70
404,208,224367,1,0,0:0:0:0:
464,272,224549,1,0,0:0:0:0:
404,344,224731,2,0,P|384:320|372:276,1,70
404,208,225094,2,0,P|424:184|436:140,1,70
440,56,225458,5,0,0:0:0:0:
352,136,225640,1,0,0:0:0:0:
328,24,225822,1,0,0:0:0:0:
132,112,226003,1,0,0:0:0:0:
224,240,226185,5,0,0:0:0:0:
284,92,226367,1,0,0:0:0:0:
144,200,226549,6,0,P|120:236|108:288,1,70
88,104,226912,1,0,0:0:0:0:
204,60,227094,1,0,0:0:0:0:
288,176,227276,6,0,L|368:164,1,70
336,320,227640,1,0,0:0:0:0:
456,84,227822,1,0,0:0:0:0:
460,264,228003,1,0,0:0:0:0:
208,192,228185,1,0,0:0:0:0:
388,92,228367,6,0,P|336:80|308:84,2,70
286,207,229488,2,0,P|309:181|340:164,2,70
368,248,230579,1,0,0:0:0:0:
64,184,230943,6,0,L|104:172,1,35
172,152,231306,2,0,P|204:148|248:160,2,70
100,296,232397,2,0,P|117:268|154:242,2,70
184,328,233306,1,0,0:0:0:0:
184,328,233397,1,0,0:0:0:0:
184,328,233488,1,0,0:0:0:0:
224,208,233670,1,0,0:0:0:0:
260,280,233852,1,0,0:0:0:0:
304,212,234215,6,0,P|340:220|376:212,2,70
332,68,235306,2,0,P|330:104|344:138,2,70
296,108,236397,6,0,L|248:112,1,35
412,88,236761,2,0,L|468:84,1,52.5
496,84,237125,1,0,0:0:0:0:
480,160,237488,1,0,0:0:0:0:
464,236,237852,1,0,0:0:0:0:
251,236,238215,1,0,0:0:0:0:
296,300,238579,1,0,0:0:0:0:
206,172,238943,1,0,0:0:0:0:
206,172,239306,6,0,L|198:216,1,35
180,320,239669,1,0,0:0:0:0:
168,108,240003,6,0,P|192:96|264:124,1,105.000004005432
96,320,240730,2,0,L|84:200,1,105.000004005432
85,215,241185,1,0,0:0:0:0:
85,215,241276,1,0,0:0:0:0:
112,32,241458,1,0,0:0:0:0:
117,121,241639,2,0,L|177:105,2,52.5000020027161
208,280,242185,1,0,0:0:0:0:
192,192,242367,1,0,0:0:0:0:
152,356,242548,1,0,0:0:0:0:
392,236,242912,6,0,P|360:228|336:208,1,52.5000020027161
396,100,243275,2,0,L|396:156,1,52.5000020027161
396,152,243639,1,0,0:0:0:0:
336,312,243821,1,0,0:0:0:0:
468,236,244003,1,0,0:0:0:0:
320,140,244184,5,0,0:0:0:0:
310,129,244274,1,0,0:0:0:0:
300,120,244365,2,0,L|240:120,1,52.5000020027161
132,220,244730,1,0,0:0:0:0:
268,120,244912,1,0,0:0:0:0:
286,120,245002,1,0,0:0:0:0:
300,120,245093,2,0,L|360:120,1,52.5000020027161
452,224,245457,1,0,0:0:0:0:
128,384,245821,6,0,B|142:355|171:355|171:355|185:326|185:326|171:297|171:297|200:283|185:268|200:254|200:254|200:225|214:211|214:211|228:196|240:188|240:188|240:192|256:172|256:172|272:192|272:188|272:188|286:196|300:211|300:211|315:225|315:254|315:254|329:268|315:283|344:297|344:297|329:326|329:326|344:355|344:355|373:355|387:384,1,560
256,192,248846,12,0,250574,0:0:0:0:
160,96,250937,5,0,0:0:0:0:
192,288,251119,1,0,0:0:0:0:
152,280,251650,6,0,L|172:192,1,70
232,124,252013,1,0,0:0:0:0:
276,212,252195,1,0,0:0:0:0:
316,88,252377,2,0,P|364:76|404:88,1,70
448,144,252740,1,0,0:0:0:0:
412,256,252922,1,0,0:0:0:0:
368,176,253095,2,0,P|352:132|360:24,1,140
444,216,253640,2,0,P|374:209|307:229,2,140
404,264,254458,1,0,0:0:0:0:
404,264,254549,6,0,L|416:340,1,70
308,228,254913,2,0,L|319:159,1,70
200,68,255276,2,0,L|212:144,1,70
76,72,255640,2,0,L|104:4,1,70
56,120,255913,1,0,0:0:0:0:
56,120,256004,2,0,P|76:152|172:176,1,140
84,196,256549,2,0,P|64:244|100:344,2,140
84,196,257367,1,0,0:0:0:0:
84,196,257458,5,0,0:0:0:0:
176,168,257640,1,0,0:0:0:0:
208,272,257822,2,0,L|204:332,3,35
296,296,258185,2,0,L|331:344,3,35
396,276,258549,2,0,L|454:290,3,35
432,192,258913,6,0,L|448:144,1,35
380,92,259095,2,0,L|364:140,1,35
280,120,259276,2,0,L|296:72,1,35
228,20,259458,2,0,L|212:68,1,35
183,120,259640,6,0,L|168:152,3,35
220,232,260004,2,8,L|187:245,3,35
160,260,260367,5,0,0:0:0:0:
340,144,260549,1,0,0:0:0:0:
340,144,260640,1,0,0:0:0:0:
340,144,260731,1,0,0:0:0:0:
96,200,260913,5,0,0:0:0:0:
468,200,261095,1,0,0:0:0:0:
468,200,261185,1,0,0:0:0:0:
468,200,261276,1,0,0:0:0:0:
160,124,261458,5,0,0:0:0:0:
340,240,261640,1,0,0:0:0:0:
340,240,261731,1,0,0:0:0:0:
340,240,261822,1,0,0:0:0:0:
248,32,262004,5,0,0:0:0:0:
248,360,262186,1,0,0:0:0:0:
248,360,262276,1,0,0:0:0:0:
248,360,262367,1,0,0:0:0:0:
248,360,262458,1,0,0:0:0:0:
248,360,262549,2,0,L|216:312,3,35
320,300,262913,2,0,L|352:252,3,35
360,244,263276,5,0,0:0:0:0:
456,132,263640,1,0,0:0:0:0:
360,244,264004,5,0,0:0:0:0:
408,188,264186,1,0,0:0:0:0:
456,132,264393,1,0,0:0:0:0:
292,88,264756,6,0,P|248:96|188:72,1,105.000004005432
240,128,265301,2,0,P|228:172|256:248,2,105.000004005432
324,176,266109,1,0,0:0:0:0:
324,176,266199,6,0,P|368:192|424:180,1,105.000004005432
364,376,266927,2,0,L|328:268,1,105.000004005432
92,192,267654,2,0,L|56:84,1,105.000004005432
168,224,268200,2,0,P|136:268|76:272,2,105.000004005432
256,128,269018,1,0,0:0:0:0:
256,128,269109,2,0,L|280:236,1,105.000004005432
284,248,270189,5,0,0:0:0:0:
288,264,270915,1,0,0:0:0:0:
292,276,271279,2,0,L|216:280,1,52.5000020027161
360,208,271642,2,0,L|436:204,1,52.5000020027161
380,100,272006,6,0,B|336:88|336:88|264:96,1,105.000004005432
204,184,272556,1,0,0:0:0:0:
204,184,272738,2,0,L|328:168,1,105.000004005432
152,108,273283,1,0,0:0:0:0:
152,108,273465,2,0,P|120:148|116:220,1,105.000004005432
111,199,274011,1,0,0:0:0:0:
136,296,274192,2,0,L|112:324,3,26.2500010013581
224,232,274556,2,0,L|230:268,3,26.2500010013581
252,136,274920,6,0,L|324:116,1,52.5000020027161
344,252,275286,1,0,0:0:0:0:
344,252,275468,2,0,P|308:220|272:216,1,59.5000011348725
312,63,275832,1,0,0:0:0:0:
312,63,276013,2,0,L|300:131,1,59.5000011348725
233,276,276377,2,0,P|285:248|361:260,1,119.000002269745
192,340,276923,2,0,L|208:196,2,119.000002269745
104,264,277741,1,0,0:0:0:0:
104,264,277832,6,0,P|76:224|72:192,1,59.5000011348725
296,164,278195,1,0,0:0:0:0:
312,168,278377,2,0,L|244:180,1,59.5000011348725
256,88,278741,1,0,0:0:0:0:
272,72,278923,2,0,B|300:52|300:52|348:44,1,59.5000011348725
392,240,279286,2,0,B|332:300|332:300|292:304,1,119.000002269745
420,160,279832,2,0,P|456:184|476:256,1,119.000002269745
276,212,280377,1,0,0:0:0:0:
392,240,280559,5,0,0:0:0:0:
392,240,280650,1,0,0:0:0:0:
392,240,280741,2,0,L|256:208,1,119.000002269745
172,320,281286,2,0,P|132:280|120:204,1,119.000002269745
160,84,281832,2,0,L|176:148,1,59.5000011348725
208,236,282195,2,0,L|244:360,1,119.000002269745
272,140,282741,2,0,L|308:264,1,119.000002269745
417,314,283286,2,0,L|389:242,1,59.5000011348725
336,200,283559,1,0,0:0:0:0:
336,200,283650,6,0,P|372:180|408:180,1,59.5000011348725
420,324,284013,1,0,0:0:0:0:
417,314,284195,2,0,L|396:252,1,59.5000011348725
356,352,284559,1,0,0:0:0:0:
344,360,284741,2,0,L|244:352,1,89.2500017023087
224,352,285104,2,0,P|196:320|200:248,1,119.000002269745
396,256,285650,2,0,L|524:216,1,119.000002269745
432,120,286195,1,0,0:0:0:0:
472,320,286377,1,0,0:0:0:0:
472,320,286468,1,0,0:0:0:0:
472,320,286559,5,0,0:0:0:0:
393,288,286741,1,0,0:0:0:0:
425,210,286922,1,0,0:0:0:0:
502,241,287104,1,0,0:0:0:0:
356,224,287286,5,0,0:0:0:0:
492,164,287468,1,0,0:0:0:0:
436,300,287650,1,0,0:0:0:0:
404,156,287832,1,0,0:0:0:0:
340,316,288013,5,0,0:0:0:0:
316,144,288195,1,0,0:0:0:0:
468,232,288377,1,0,0:0:0:0:
296,260,288559,1,0,0:0:0:0:
368,76,288741,5,0,0:0:0:0:
404,268,288923,1,0,0:0:0:0:
228,188,289104,1,0,0:0:0:0:
420,152,289286,1,0,0:0:0:0:
286,112,289468,5,0,0:0:0:0:
201,95,289650,1,0,0:0:0:0:
253,30,289832,1,0,0:0:0:0:
286,112,290013,1,0,0:0:0:0:
163,7,290195,5,0,0:0:0:0:
146,170,290377,1,0,0:0:0:0:
273,68,290559,1,0,0:0:0:0:
110,86,290741,1,0,0:0:0:0:
251,227,290923,5,0,0:0:0:0:
330,42,291104,1,0,0:0:0:0:
146,121,291286,1,0,0:0:0:0:
335,187,291468,1,0,0:0:0:0:
106,258,291650,5,0,0:0:0:0:
229,51,291832,1,0,0:0:0:0:
326,266,292013,1,0,0:0:0:0:
102,183,292195,1,0,0:0:0:0:
242,192,292377,5,0,0:0:0:0:
190,337,292559,1,0,0:0:0:0:
326,266,292741,1,0,0:0:0:0:
308,112,292923,1,0,0:0:0:0:
168,244,293104,5,0,0:0:0:0:
352,187,293286,1,0,0:0:0:0:
216,55,293468,1,0,0:0:0:0:
264,240,293650,1,0,0:0:0:0:
124,55,293832,5,0,0:0:0:0:
44,271,294013,1,0,0:0:0:0:
256,178,294195,1,0,0:0:0:0:
27,143,294377,1,0,0:0:0:0:
207,346,294559,5,0,0:0:0:0:
150,82,294741,1,0,0:0:0:0:
405,170,294923,1,0,0:0:0:0:
137,196,295104,1,0,0:0:0:0:
312,328,295286,5,0,0:0:0:0:
312,328,295377,1,0,0:0:0:0:
312,328,295468,1,0,0:0:0:0:
296,120,295650,1,0,0:0:0:0:
156,276,295832,5,0,0:0:0:0:
156,276,295923,1,0,0:0:0:0:
156,276,296014,1,0,0:0:0:0:
364,252,296195,1,0,0:0:0:0:
220,152,296377,5,0,0:0:0:0:
220,152,296468,1,0,0:0:0:0:
220,152,296559,1,0,0:0:0:0:
396,156,296741,1,0,0:0:0:0:
308,48,296923,5,0,0:0:0:0:
308,48,297013,1,0,0:0:0:0:
308,48,297104,1,0,0:0:0:0:
308,188,297286,1,0,0:0:0:0:
392,300,297468,5,0,0:0:0:0:
383,308,297558,1,0,0:0:0:0:
374,316,297649,1,0,0:0:0:0:
366,322,297740,5,0,0:0:0:0:
332,329,297831,1,0,0:0:0:0:
297,329,297922,1,0,0:0:0:0:
263,323,298013,1,0,0:0:0:0:
230,310,298104,1,0,0:0:0:0:
200,288,298195,6,0,L|200:208,1,70
256,148,298559,2,0,P|216:128|172:132,1,70
320,56,298923,1,0,0:0:0:0:
400,136,299104,1,0,0:0:0:0:
336,216,299286,2,0,P|372:240|412:240,1,70
256,148,299650,2,0,P|208:160|176:252,1,140
276,340,300195,2,0,L|440:320,2,140
336,228,301104,6,0,L|352:144,1,70
232,236,301468,2,0,L|168:276,1,70
264,136,301832,2,0,P|288:96|388:80,1,140
374,74,302286,1,0,0:0:0:0:
374,74,302377,1,0,0:0:0:0:
424,268,302559,5,0,0:0:0:0:
374,74,302923,2,0,L|290:66,1,70
416,268,303468,1,0,0:0:0:0:
290,81,303650,2,0,L|360:88,2,70
180,56,304013,6,0,P|132:64|104:96,2,70
256,192,304741,6,0,P|268:240|208:328,1,140
392,180,305468,5,0,0:0:0:0:
436,260,305650,2,0,L|340:268,1,70
112,232,306195,6,0,L|208:240,1,70
280,204,306559,1,0,0:0:0:0:
366,265,306741,1,0,0:0:0:0:
368,160,306923,2,0,L|344:72,2,70
464,308,307650,6,0,P|436:356|344:340,1,140
88,328,308377,6,0,B|88:248|88:248|120:192,1,140
300,116,308923,2,0,L|256:192,1,70
220,240,309286,1,0,0:0:0:0:
368,200,309468,1,0,0:0:0:0:
386,170,309558,1,0,0:0:0:0:
404,140,309649,1,0,0:0:0:0:
422,110,309740,1,0,0:0:0:0:
441,80,309831,5,0,0:0:0:0:
484,176,310013,1,0,0:0:0:0:
512,20,310195,1,0,0:0:0:0:
360,60,310377,1,0,0:0:0:0:
440,244,310559,5,0,0:0:0:0:
512,100,310741,1,0,0:0:0:0:
336,176,310923,1,0,0:0:0:0:
424,4,311104,1,0,0:0:0:0:
288,104,311286,5,0,0:0:0:0:
512,244,311468,1,0,0:0:0:0:
256,176,311650,1,0,0:0:0:0:
500,24,311832,1,0,0:0:0:0:
296,248,312013,5,0,0:0:0:0:
496,172,312195,1,0,0:0:0:0:
380,52,312377,1,0,0:0:0:0:
408,316,312559,1,0,0:0:0:0:
208,256,312741,6,0,L|124:252,2,70
372,128,313286,2,0,P|388:92|376:40,2,70
138,252,313832,2,0,L|66:248,1,70
416,344,314195,1,0,0:0:0:0:
148,128,315468,5,0,0:0:0:0:
148,128,315559,1,0,0:0:0:0:
148,128,315650,2,0,L|228:104,1,70
292,168,316018,2,0,L|212:192,1,70
292,92,316382,2,0,P|296:52|280:16,1,70
152,208,316745,2,0,P|148:248|164:284,1,70
356,264,317109,2,0,P|296:224|220:244,1,140
312,192,317655,2,0,P|295:141|360:52,1,140
428,40,318200,2,0,L|464:112,1,70
324,200,318564,5,0,0:0:0:0:
380,128,318745,1,0,0:0:0:0:
432,200,318927,1,0,0:0:0:0:
252,112,319109,2,0,P|208:104|168:112,1,70
120,36,319473,1,0,0:0:0:0:
72,200,319655,1,0,0:0:0:0:
232,208,319836,1,0,0:0:0:0:
256,80,320018,2,0,P|222:139|231:207,1,140
352,159,320564,2,0,P|299:203|231:206,1,140
163,217,321109,2,0,P|203:205|251:213,1,70
336,268,321473,5,0,0:0:0:0:
340,272,321836,1,0,0:0:0:0:
344,276,322200,1,0,0:0:0:0:
348,280,322564,1,0,0:0:0:0:
352,284,322927,2,0,L|360:212,1,70
448,312,323291,1,0,0:0:0:0:
440,188,323473,2,0,L|432:116,1,70
272,40,323836,1,0,0:0:0:0:
276,36,324018,2,0,L|268:108,1,70
52,336,324382,5,0,0:0:0:0:
120,352,324564,1,0,0:0:0:0:
204,348,324745,1,0,0:0:0:0:
296,356,324927,1,0,0:0:0:0:
392,328,325109,1,0,0:0:0:0:
408,224,325291,1,0,0:0:0:0:
400,112,325473,1,0,0:0:0:0:
292,60,325655,1,0,0:0:0:0:
184,124,325836,5,0,0:0:0:0:
212,260,326018,1,0,0:0:0:0:
356,160,326200,1,0,0:0:0:0:
148,188,326382,1,0,0:0:0:0:
380,272,326564,5,0,0:0:0:0:
216,48,326745,1,0,0:0:0:0:
128,352,326927,1,0,0:0:0:0:
468,272,327109,1,0,0:0:0:0:
432,232,328048,6,0,B|412:290|364:387|235:399|161:325|144:224|144:224|112:232|112:232|96:216|96:216|82:216|82:216|82:200|66:184|37:184|51:168|51:168|66:152|82:120|82:120|114:120|114:89|114:89|130:73|130:73|144:40|144:40|160:72|160:72|176:88|176:88|188:108|208:120|208:120|224:152|240:168|240:168|255:184|224:184|209:200|209:216|209:216|193:216|193:216|193:232|193:232|176:192|144:192|144:192|144:40|349:-21|432:160,1,1455.552022743
256,192,335030,12,0,336014,0:0:0:0:
