osu file format v14

[General]
AudioFilename: audio.mp3
AudioLeadIn: 0
PreviewTime: 65812
Countdown: 0
SampleSet: Soft
StackLeniency: 0.4
Mode: 0
LetterboxInBreaks: 0
WidescreenStoryboard: 0

[Editor]
Bookmarks: 12388,13479,13842,20923,24023,28564,29837,119012,219640,225458,250937,252377,295286
DistanceSpacing: 1
BeatDivisor: 4
GridSize: 32
TimelineZoom: 1.7

[Metadata]
Title:Kimi no Shiranai Monogatari
TitleUnicode:君の知らない物語
Artist:supercell
ArtistUnicode:supercell
Creator:Yukiyo
Version:Our Story in the Stars
Source:化物語
Tags:ed ending bakemonogatari shaft nagi yanagi ryo araragi senjougahara hanekawa sengoku kanbaru hachikuji shinobu tsukihi karen oshino senjou gahara hitagi koyomi
BeatmapID:1246395
BeatmapSetID:588765

[Difficulty]
HPDrainRate:6.1
CircleSize:4
OverallDifficulty:8.6
ApproachRate:9
SliderMultiplier:1.76
SliderTickRate:1

[Events]
//Background and Video events
0,0,"C1n2zAH.jpg",0,0
//Break Periods
//Storyboard Layer 0 (Background)
//Storyboard Layer 1 (Fail)
//Storyboard Layer 2 (Pass)
//Storyboard Layer 3 (Foreground)
//Storyboard Sound Samples

[TimingPoints]
764,363.636363636364,4,2,1,45,1,0
764,-125,4,2,1,45,0,0
3480,363.636363636364,4,2,1,45,1,8
3480,-125,4,2,1,45,0,8
3661,363.636363636364,4,2,1,45,1,0
3661,-125,4,2,1,45,0,0
6570,-133.333333333333,4,2,1,45,0,0
9479,-100,4,2,1,65,0,0
10206,-100,4,2,1,50,0,0
10388,-100,4,2,1,57,0,0
10570,-100,4,2,1,65,0,0
17466,363.636363636364,4,2,1,65,1,8
18180,363.636363636364,4,2,1,65,1,0
19651,363.636363636364,4,2,1,65,1,0
23196,-100,4,2,1,5,0,0
23469,-100,4,2,1,65,0,0
23560,-100,4,2,1,5,0,0
24023,363.636363636364,4,2,1,65,1,0
25474,363.636363636364,4,2,1,65,1,0
29837,-125,4,2,1,50,0,0
32775,363.636363636364,4,2,1,50,1,0
32775,-125,4,2,1,50,0,0
37109,363.636363636364,4,2,1,50,1,0
37109,-125,4,2,1,50,0,0
38555,363.636363636364,4,2,1,50,1,0
38555,-125,4,2,1,50,0,0
40028,363.636363636364,4,2,1,50,1,0
40028,-125,4,2,1,50,0,0
41459,363.636363636364,4,2,1,65,1,0
56277,-100,4,2,1,5,0,0
56368,-100,4,2,1,65,0,0
56640,-100,4,2,1,5,0,0
56731,-100,4,2,1,65,0,0
57004,-100,4,2,1,5,0,0
57095,-100,4,2,1,65,0,0
59186,-100,4,2,1,5,0,0
59277,-100,4,2,1,65,0,0
59549,-100,4,2,1,5,0,0
59640,-100,4,2,1,65,0,0
59913,-100,4,2,1,5,0,0
60004,-100,4,2,1,65,0,0
62198,363.636363636364,4,2,1,65,1,8
63277,363.636363636364,4,2,1,65,1,0
65812,363.636363636364,4,2,1,65,1,8
66198,363.636363636364,4,2,1,65,1,0
67650,363.636363636364,4,2,1,75,1,1
67650,-90.9090909090909,4,2,1,75,0,1
69094,363.636363636364,4,2,1,75,1,1
69094,-90.9090909090909,4,2,1,75,0,1
85094,-90.9090909090909,4,2,1,65,0,0
85275,-147.058823529412,4,2,1,65,0,0
90912,-100,4,2,1,65,0,1
92366,-100,4,2,1,75,0,1
93821,-100,4,2,1,85,0,1
95912,-100,4,2,1,5,0,1
96184,-100,4,2,1,75,0,1
96275,-100,4,2,1,5,0,1
96741,363.636363636364,4,2,1,65,1,0
97124,363.636363636364,4,2,1,65,1,8
98186,363.636363636364,4,2,1,65,1,0
115645,363.636363636364,4,2,1,65,1,0
116740,363.636363636364,4,2,1,65,1,8
117103,363.636363636364,4,2,1,65,1,0
120004,363.636363636364,4,2,1,65,1,0
121102,363.636363636364,4,2,1,65,1,8
121465,363.636363636364,4,2,1,65,1,0
121824,363.636363636364,4,2,1,65,1,8
122556,363.636363636364,4,2,1,65,1,8
122919,363.636363636364,4,2,1,65,1,0
124377,363.636363636364,4,2,1,65,1,0
126377,-100,4,2,1,55,0,0
127286,-100,4,2,1,65,0,0
129013,-100,4,2,1,5,0,0
129104,-100,4,2,1,65,0,0
129377,-100,4,2,1,5,0,0
129467,-100,4,2,1,65,0,0
129740,-100,4,2,1,5,0,0
129831,-100,4,2,1,65,0,0
131922,-100,4,2,1,5,0,0
132013,-100,4,2,1,65,0,0
132286,-100,4,2,1,5,0,0
132377,-100,4,2,1,65,0,0
132649,-100,4,2,1,5,0,0
132740,-100,4,2,1,65,0,0
132914,363.636363636364,4,2,1,65,1,8
133095,363.636363636364,4,2,1,65,1,0
134560,363.636363636364,4,2,1,65,1,0
134560,-200,4,2,1,65,0,0
136024,363.636363636364,4,2,1,65,1,0
136024,-200,4,2,1,65,0,0
137459,363.636363636364,4,2,1,65,1,0
140368,-90.9090909090909,4,2,1,75,0,1
157822,-147.058823529412,4,2,1,65,0,0
163640,-100,4,2,1,65,0,1
165095,-100,4,2,1,75,0,1
166549,-100,4,2,1,85,0,1
168640,-100,4,2,1,5,0,1
168913,-100,4,2,1,75,0,1
169004,-100,4,2,1,5,0,1
169478,363.636363636364,4,2,1,65,1,0
169855,363.636363636364,4,2,1,65,1,8
170569,363.636363636364,4,2,1,65,1,8
171095,363.636363636364,4,2,1,65,1,8
171473,363.636363636364,4,2,1,65,1,8
172368,363.636363636364,4,2,1,65,1,0
175277,-117.647058823529,4,2,1,60,0,0
184024,363.636363636364,4,2,1,60,1,0
184024,-117.647058823529,4,2,1,60,0,0
186197,363.636363636364,4,2,1,60,1,8
186924,363.636363636364,4,2,1,60,1,0
186924,-117.647058823529,4,2,1,60,0,0
192549,363.636363636364,4,2,1,60,1,8
192730,363.636363636364,4,2,1,60,1,8
193811,363.636363636364,4,2,1,60,1,8
194174,363.636363636364,4,2,1,70,1,0
194913,363.636363636364,4,2,1,70,1,8
195640,363.636363636364,4,2,1,60,1,0
197094,-100,4,2,1,72,0,0
200003,-100,4,2,1,83,0,0
202186,363.636363636364,4,2,1,70,1,0
210930,363.636363636364,4,2,1,70,1,0
212371,363.636363636364,4,2,1,70,1,0
213822,363.636363636364,4,2,1,70,1,0
225458,-100,4,2,1,80,0,0
226912,-100,4,2,1,90,0,0
228367,-133.333333333333,4,2,1,50,0,0
240003,-116.279069767442,4,2,1,60,0,0
245822,-133.333333333333,4,2,1,45,0,0
247281,363.636363636364,4,2,1,45,1,0
247281,-133.333333333333,4,2,1,45,0,0
248756,363.636363636364,4,2,2,30,1,0
248756,-366.666666666666,4,2,2,30,0,0
250937,-366.666666666666,4,2,1,60,0,0
251650,363.636363636364,4,2,1,65,1,0
253095,363.636363636364,4,2,1,65,1,0
257822,-100,4,2,1,55,0,0
258913,-100,4,2,1,65,0,0
260367,-100,4,2,1,75,0,1
263276,-125,4,2,1,60,0,0
264393,363.636363636364,4,2,1,60,1,8
264756,363.636363636364,4,2,1,60,1,8
265837,363.636363636364,4,2,1,60,1,8
266200,363.636363636364,4,2,1,60,1,0
266200,-125,4,2,1,60,0,0
269462,363.636363636364,4,2,1,60,1,8
270552,363.636363636364,4,2,1,60,1,0
270552,-125,4,2,1,60,0,0
272011,363.636363636364,4,2,1,60,1,0
272011,-125,4,2,1,60,0,0
274923,363.636363636364,4,2,1,70,1,0
286559,-100,4,2,1,60,0,1
288013,-100,4,2,1,70,0,1
290923,-100,4,2,1,80,0,1
292377,-100,4,2,1,90,0,1
295286,-100,4,2,1,95,0,1
298104,-100,4,2,1,95,0,0
298195,-90.9090909090909,4,2,1,75,0,1
304013,-133.333333333333,4,2,1,60,0,0
309832,-100,4,2,1,65,0,1
311332,-100,4,2,1,75,0,1
312741,-100,4,2,1,85,0,1
314195,-100,4,2,1,60,0,0
315655,363.636363636364,4,2,1,60,1,0
328048,363.636363636364,4,2,2,40,1,0
328048,-250,4,2,2,40,0,0
328138,-250,4,2,2,25,0,0
334957,-250,4,2,2,5,0,0
335030,363.636363636364,4,2,1,40,1,0
336014,363.636363636364,4,2,1,5,1,0

[Colours]
Combo1 : 128,255,255
Combo2 : 0,85,125
Combo3 : 26,129,255
Combo4 : 0,196,196

[HitObjects]
227,303,764,6,0,L|159:283,2,70.4,2|0|0,0:2|0:2|0:2,0:2:0:0:
78,291,1309,2,0,P|101:226|164:200,1,140.8,0|0,0:2|0:2,0:2:0:0:
239,231,1854,1,0,0:2:0:0:
239,231,2036,1,0,0:2:0:0:
304,273,2218,2,0,L|371:253,2,70.4,2|0|0,0:2|0:2|0:2,0:2:0:0:
447,282,2764,2,0,P|443:214|390:172,1,140.8,0|0,0:2|0:2,0:2:0:0:
41,262,3480,5,0,0:2:0:0:
110,302,3661,2,0,P|144:295|171:272,1,70.4,2|0,0:2|0:2,0:2:0:0:
112,227,4024,2,0,P|131:197|134:163,1,70.4,0|0,0:2|0:2,0:2:0:0:
60,173,4388,2,0,P|40:143|37:109,1,70.4,0|0,0:2|0:2,0:2:0:0:
54,38,4751,1,0,0:2:0:0:
110,91,4933,1,0,0:2:0:0:
130,21,5115,6,0,L|216:10,2,70.4,2|0|0,0:2|0:2|0:2,0:2:0:0:
219,143,5661,2,0,P|228:74|199:11,1,140.8,0|0,0:2|0:2,0:2:0:0:
143,240,6570,6,0,L|274:241,1,132.000005035401,2|0,0:2|0:2,0:2:0:0:
96,170,7297,2,0,P|61:225|74:288,1,132.000005035401,0|0,0:2|0:2,0:2:0:0:
217,122,8024,2,0,B|162:122|162:122|133:85|90:91,1,132.000005035401,2|0,0:2|0:2,0:2:0:0:
231,201,8751,2,0,P|285:167|296:104,1,132.000005035401,0|0,0:2|0:2,0:2:0:0:
173,34,9479,6,0,L|261:23,1,88,4|0,0:2|0:2,0:2:0:0:
383,115,9842,2,0,L|295:104,1,88,0|0,0:2|0:2,0:2:0:0:
462,82,10206,2,8,P|468:125|454:166,1,88,8|8,0:2|0:2,0:2:0:0:
215,141,10570,2,8,P|208:97|223:56,1,88,8|8,0:2|0:2,0:2:0:0:
334,180,10933,5,8,0:2:0:0:
155,202,11115,1,8,0:2:0:0:
295,104,11297,1,8,0:2:0:0:
299,261,11479,1,8,0:2:0:0:
70,230,11661,1,8,0:2:0:0:
215,141,11842,1,8,0:2:0:0:
132,287,12024,1,8,0:2:0:0:
49,151,12206,1,8,0:2:0:0:
211,259,12388,6,0,L|298:260,1,88,4|0,3:2|0:2,0:2:0:0:
426,182,12751,2,0,P|384:172|343:183,1,88,8|0,3:2|0:2,0:2:0:0:
342,338,13115,1,0,3:2:0:0:
385,261,13297,1,0,0:2:0:0:
294,109,13479,2,0,P|264:140|254:182,1,88,8|0,3:2|0:2,0:2:0:0:
428,338,13842,6,0,P|460:306|472:253,1,88,0|0,3:2|0:2,0:2:0:0:
428,97,14206,2,8,P|416:140|432:192,1,88,8|0,3:2|0:2,0:2:0:0:
502,140,14570,1,0,3:2:0:0:
446,14,14751,1,0,0:2:0:0:
282,52,14933,2,0,P|326:56|367:41,1,88,8|0,3:2|0:2,0:2:0:0:
120,37,15297,6,0,P|159:18|203:22,1,88,0|0,3:2|0:2,0:2:0:0:
127,184,15661,2,0,P|97:152|88:109,1,88,8|0,3:2|0:2,0:2:0:0:
217,185,16024,1,0,3:2:0:0:
172,260,16206,1,0,0:2:0:0:
178,107,16388,2,0,P|226:98|270:117,1,88,8|0,3:2|0:2,0:2:0:0:
371,329,16751,6,0,P|334:305|314:264,1,88,0|8,3:2|0:2,0:2:0:0:
311,244,17024,1,8,0:2:0:0:
314,222,17115,1,8,0:2:0:0:
322,201,17205,1,8,0:2:0:0:
335,184,17296,1,8,0:2:0:0:
511,246,17466,2,0,L|424:247,1,88,0|8,3:2|0:2,0:2:0:0:
400,246,17738,1,8,0:2:0:0:
400,246,17829,1,8,3:2:0:0:
353,339,18011,1,0,0:2:0:0:
234,191,18180,6,0,P|273:172|316:176,1,88,4|0,3:2|0:2,0:2:0:0:
217,360,18543,2,0,L|202:273,1,88,8|0,3:2|0:2,0:2:0:0:
371,289,18907,1,0,3:2:0:0:
303,345,19089,1,0,0:2:0:0:
113,282,19270,2,0,P|120:239|145:204,1,88,8|0,3:2|0:2,0:2:0:0:
398,160,19651,6,0,P|354:180|311:174,1,88,0|0,3:2|0:2,0:2:0:0:
183,123,20014,2,0,P|217:150|233:190,1,88,8|0,3:2|0:2,0:2:0:0:
270,344,20378,1,8,3:2:0:0:
270,344,20469,1,8,0:2:0:0:
270,344,20560,2,0,L|284:257,1,88,8|8,0:2|3:2,0:2:0:0:
187,375,20923,1,0,0:2:0:0:
353,313,21105,5,4,3:2:0:0:
214,202,21287,1,8,0:2:0:0:
214,202,21378,1,8,0:2:0:0:
214,202,21469,1,8,0:2:0:0:
380,139,21651,2,0,L|366:226,1,88,4|0,3:2|0:2,0:2:0:0:
200,288,22014,1,8,0:2:0:0:
296,170,22196,1,8,0:2:0:0:
434,308,22378,6,0,P|426:350|396:382,1,88,4|0,3:2|0:2,0:2:0:0:
380,139,22741,1,8,0:2:0:0:
380,139,22832,1,8,0:2:0:0:
380,139,22923,1,8,0:0:0:0:
179,210,23105,2,0,L|135:212,1,44,4|0,3:3|0:2,0:2:0:0:
193,30,23469,2,0,L|236:32,1,44,4|0,3:2|0:2,0:2:0:0:
193,30,24023,6,0,L|207:117,1,88,4|0,3:2|0:2,0:2:0:0:
368,175,24386,2,0,P|331:151|288:146,1,88,8|0,0:2|0:2,0:2:0:0:
237,289,24750,2,0,P|276:269|302:234,1,88,0|0,3:2|0:2,0:2:0:0:
206,116,25113,2,0,P|167:135|141:171,1,88,8|0,0:2|0:2,0:2:0:0:
196,362,25474,6,0,P|238:287|222:203,1,176,0|8,3:2|0:2,0:2:0:0:
35,176,26019,2,0,P|-7:251|9:335,1,176,0|0,0:2|0:2,0:2:0:0:
158,275,26564,2,0,L|71:261,1,88,8|0,0:2|0:2,0:2:0:0:
210,119,26928,6,0,P|227:159|221:202,1,88,0|0,3:2|0:2,0:2:0:0:
39,100,27292,2,0,L|126:86,1,88,8|0,0:2|0:2,0:2:0:0:
141,175,27655,1,0,3:2:0:0:
54,189,27837,1,0,0:2:0:0:
193,37,28019,1,8,0:2:0:0:
113,257,28201,1,4,0:2:0:0:
113,257,28564,5,8,0:2:0:0:
15,140,28746,1,8,3:2:0:0:
165,113,28928,1,8,0:2:0:0:
105,268,29110,1,8,3:2:0:0:
8,126,29292,1,8,0:2:0:0:
179,113,29474,1,8,3:2:0:0:
100,278,29655,1,8,0:2:0:0:
0,122,29837,6,0,P|4:75|35:37,1,70.4,2|0,0:2|0:2,0:2:0:0:
84,106,30201,2,0,P|120:75|168:70,1,70.4,0|0,0:2|0:2,0:2:0:0:
153,154,30564,2,0,P|185:143|210:118,1,70.4,2|0,0:2|0:2,0:2:0:0:
297,134,30928,2,0,P|293:87|262:49,1,70.4,0|0,0:2|0:2,0:2:0:0:
202,34,31292,6,0,L|133:73,2,70.4,2|0|0,0:2|0:2|0:2,0:2:0:0:
210,118,31837,2,0,L|279:157,1,70.4,2|0,0:2|0:2,0:2:0:0:
343,32,32201,2,0,L|274:71,1,70.4,2|0,0:2|0:2,0:2:0:0:
345,122,32564,1,2,0:2:0:0:
421,157,32775,6,0,L|435:236,1,70.4,2|0,0:2|0:2,0:2:0:0:
338,275,33138,2,0,L|351:206,1,70.4,0|0,0:2|0:2,0:2:0:0:
256,255,33502,2,0,L|270:334,1,70.4,2|0,0:2|0:2,0:2:0:0:
184,311,33865,1,0,0:2:0:0:
100,322,34047,6,0,P|118:256|180:226,1,140.8,2|0,0:2|0:2,0:2:0:0:
256,255,34593,1,0,0:2:0:0:
334,223,34775,2,0,P|395:192|413:126,1,140.8,2|0,0:2|0:2,0:2:0:0:
367,61,35320,1,0,0:2:0:0:
330,137,35502,1,0,0:2:0:0:
282,62,35684,6,0,P|257:88|276:211,1,140.8,2|0,0:2|0:2,0:2:0:0:
83,161,36411,2,0,P|106:135|120:102,1,70.4,2|0,0:2|0:2,0:2:0:0:
194,47,36775,2,0,P|162:34|137:10,1,70.4,0|0,0:2|0:2,0:2:0:0:
270,3,37109,6,0,P|282:49|222:132,1,140.8,2|0,0:2|0:2,0:2:0:0:
76,124,37836,2,0,P|84:157|79:192,1,70.4,2|0,0:2|0:2,0:2:0:0:
3,230,38199,2,0,P|-5:263|0:298,1,70.4,0|0,0:2|0:2,0:2:0:0:
177,349,38555,6,0,P|145:288|80:267,1,140.8,2|0,0:0|0:0,0:0:0:0:
229,191,39282,2,0,L|287:152,1,70.4,2|0,0:0|0:0,0:0:0:0:
296,72,39645,2,0,P|328:85|353:109,1,70.4,0|0,0:2|0:2,0:2:0:0:
437,321,40028,6,0,P|461:295|475:262,1,70.4,2|0,0:2|0:2,0:2:0:0:
352,190,40391,2,0,P|362:223|385:250,1,70.4,0|0,0:2|0:2,0:2:0:0:
509,182,40755,2,0,P|476:174|442:180,1,70.4,2|0,0:2|0:2,0:2:0:0:
305,277,41118,2,0,P|322:308|351:328,1,70.4,0|0,0:0|0:2,0:2:0:0:
440,180,41459,6,0,L|352:191,1,88,4|0,3:2|0:2,0:2:0:0:
235,104,41822,2,0,L|323:115,1,88,0|0,3:2|0:2,0:2:0:0:
269,185,42186,2,0,L|181:196,1,88,0|0,3:2|0:2,0:2:0:0:
63,109,42549,2,0,L|151:120,1,88,0|0,3:2|0:2,0:2:0:0:
134,266,42913,5,0,3:2:0:0:
96,189,43095,1,0,0:2:0:0:
218,271,43277,1,0,3:2:0:0:
86,336,43459,2,0,P|58:304|50:261,1,88,0|0,0:2|3:2,0:2:0:0:
150,119,43822,2,0,L|238:130,1,88,0|0,0:2|3:2,0:2:0:0:
324,139,44186,1,0,0:2:0:0:
373,62,44368,6,0,P|331:48|289:57,1,88,0|0,3:2|0:2,0:2:0:0:
271,210,44731,2,0,P|310:227|354:224,1,88,0|0,3:2|0:2,0:2:0:0:
237,129,45095,1,0,3:2:0:0:
217,280,45277,1,0,0:2:0:0:
354,224,45459,1,0,3:2:0:0:
183,199,45640,6,0,P|145:229|130:277,1,88,0|0,0:2|3:2,0:2:0:0:
159,355,46004,1,0,0:2:0:0:
306,298,46186,1,0,3:2:0:0:
172,111,46368,2,0,L|183:199,1,88,0|0,0:2|3:2,0:2:0:0:
271,210,46731,1,0,0:2:0:0:
270,34,46913,2,0,L|259:122,1,88,0|0,3:2|0:2,0:2:0:0:
111,179,47277,6,0,P|87:143|83:99,1,88,0|0,3:2|0:2,0:2:0:0:
259,121,47640,1,0,3:2:0:0:
172,111,47822,1,0,0:2:0:0:
311,50,48004,2,0,P|338:83|345:126,1,88,0|0,3:2|0:2,0:2:0:0:
244,265,48368,2,0,P|259:224|292:196,1,88,0|0,3:2|0:2,0:2:0:0:
417,269,48731,6,0,L|330:276,1,88,0|0,3:2|0:2,0:2:0:0:
454,189,49095,1,0,3:2:0:0:
466,341,49277,1,0,0:2:0:0:
329,276,49459,2,0,L|323:363,1,88,0|0,3:2|0:2,0:2:0:0:
234,194,49822,2,0,L|240:281,1,88,0|0,3:2|0:2,0:2:0:0:
313,56,50186,6,0,L|306:143,1,88,0|0,3:2|0:2,0:2:0:0:
161,243,50549,1,0,3:2:0:0:
226,107,50731,1,0,0:2:0:0:
313,229,50913,2,0,L|400:236,1,88,0|0,3:2|0:2,0:2:0:0:
155,158,51277,2,0,L|68:165,1,88,0|0,3:2|0:2,0:2:0:0:
171,331,51640,6,0,P|211:315|239:282,1,88,0|0,3:2|0:2,0:2:0:0:
226,107,52004,1,0,3:2:0:0:
233,194,52186,1,0,0:2:0:0:
301,71,52368,2,0,P|275:37|234:21,1,88,0|0,3:0|0:0,0:0:0:0:
148,160,52731,1,0,3:0:0:0:
239,281,52913,1,0,0:0:0:0:
386,181,53095,6,0,B|431:167|431:167|451:228|393:295,1,176,4|0,3:2|3:2,0:2:0:0:
240,282,53640,1,8,0:2:0:0:
306,144,53822,1,8,3:2:0:0:
314,232,54004,1,8,0:2:0:0:
225,107,54186,1,8,3:2:0:0:
234,194,54368,1,8,0:2:0:0:
298,56,54549,5,8,3:2:0:0:
234,194,54731,1,8,0:2:0:0:
146,70,54913,1,8,3:2:0:0:
161,243,55095,1,8,0:2:0:0:
225,107,55277,1,8,3:2:0:0:
240,282,55459,1,8,0:2:0:0:
154,158,55640,1,8,3:2:0:0:
90,295,55822,1,8,0:2:0:0:
233,194,56004,6,0,P|295:211|328:271,1,132,4|0,3:2|0:2,0:2:0:0:
275,318,56368,2,0,L|407:272,1,132,0|0,3:2|0:2,0:2:0:0:
492,280,56731,2,0,P|429:263|397:208,1,132,8|0,3:2|0:2,0:2:0:0:
430,128,57095,2,0,P|465:154|481:194,1,88,0|8,3:2|0:2,0:2:0:0:
284,194,57459,6,0,L|197:208,1,88,0|8,3:2|0:2,0:2:0:0:
152,145,57822,1,0,3:2:0:0:
240,280,58004,1,0,0:2:0:0:
314,111,58186,2,0,P|353:93|411:102,1,88,8|0,3:2|0:2,0:2:0:0:
327,267,58549,2,0,L|240:281,1,88,0|0,3:2|0:2,0:2:0:0:
369,184,58913,6,0,P|412:233|412:298,1,132,0|0,3:2|0:2,0:2:0:0:
354,352,59277,2,0,L|484:330,1,132,0|0,3:2|0:2,0:2:0:0:
327,267,59640,2,0,P|276:307|267:370,1,132,8|0,3:2|0:2,0:2:0:0:
182,344,60004,2,0,P|179:301|156:264,1,88,0|8,3:2|0:2,0:2:0:0:
137,250,60277,1,8,0:2:0:0:
117,239,60368,6,0,P|119:195|142:158,1,88,8|0,3:2|0:2,0:2:0:0:
211,103,60731,1,0,3:2:0:0:
47,37,60913,1,8,0:2:0:0:
47,37,61004,1,8,0:2:0:0:
47,37,61095,1,8,3:2:0:0:
59,124,61277,1,8,0:3:0:0:
180,25,61459,2,0,P|223:19|263:34,1,88,4|0,3:3|0:2,0:2:0:0:
278,166,61822,5,4,3:1:0:0:
278,166,62198,2,0,L|364:183,1,88,8|0,3:2|0:2,0:2:0:0:
307,245,62561,2,0,L|220:262,1,88,8|0,3:2|0:2,0:2:0:0:
116,171,62925,2,0,L|203:189,1,88,8|0,3:2|0:2,0:2:0:0:
236,335,63277,6,0,P|193:332|160:305,1,88,8|0,3:2|0:2,0:2:0:0:
116,373,63640,2,0,P|88:341|80:298,1,88,8|0,3:2|0:2,0:2:0:0:
7,199,64004,2,0,P|50:193|83:165,1,88,8|0,3:2|0:2,0:2:0:0:
126,233,64367,2,0,P|154:200|162:157,1,88,8|0,3:2|3:2,0:2:0:0:
129,3,64731,5,8,3:2:0:0:
18,118,64913,1,8,0:3:0:0:
190,73,65095,1,4,0:3:0:0:
126,233,65277,1,0,0:2:0:0:
126,233,65367,1,8,0:2:0:0:
126,233,65458,1,8,0:2:0:0:
100,84,65640,1,8,0:3:0:0:
265,129,65812,2,0,B|292:122|323:128|323:128|316:111|292:111,1,88,4|0,0:3|0:2,0:2:0:0:
24,213,66198,5,4,3:2:0:0:
87,166,67650,5,4,3:2:0:0:
128,249,67831,1,0,3:2:0:0:
134,90,68013,2,0,P|89:77|42:87,1,96.8000029541017,8|0,0:2|0:2,0:2:0:0:
189,163,68377,1,0,3:2:0:0:
40,244,68559,1,0,3:2:0:0:
209,246,68740,2,0,P|250:222|273:179,1,96.8000029541017,8|0,0:2|0:2,0:2:0:0:
456,31,69094,6,0,P|363:35|314:114,1,193.600005908203,0|8,3:2|0:2,0:2:0:0:
188,162,69639,2,0,P|277:185|296:275,1,193.600005908203,0|0,3:2|3:2,0:2:0:0:
139,309,70184,2,0,L|214:248,1,96.8000029541017,8|0,0:2|0:2,0:2:0:0:
342,342,70548,5,0,3:0:0:0:
234,335,70729,1,0,3:0:0:0:
414,292,70912,2,0,L|445:383,1,96.8000029541017,8|0,0:2|0:2,0:2:0:0:
336,255,71275,1,0,3:2:0:0:
379,125,71457,1,0,3:2:0:0:
499,236,71639,2,0,L|407:204,1,96.8000029541017,8|0,0:2|0:2,0:2:0:0:
295,82,72003,6,0,P|325:45|369:28,1,96.8000029541017,0|0,3:2|3:2,0:2:0:0:
468,139,72366,1,8,0:0:0:0:
336,255,72548,2,4,L|304:163,1,96.8000029541017,0|0,0:2|3:2,0:2:0:0:
214,37,72912,1,4,0:0:0:0:
157,192,73094,1,12,0:0:0:0:
144,97,73275,1,0,0:2:0:0:
295,84,73457,6,0,L|308:179,1,96.8000029541017,0|0,3:2|3:2,0:2:0:0:
315,364,73821,2,0,P|281:331|268:285,1,96.8000029541017,8|0,0:2|0:2,0:2:0:0:
380,199,74184,1,0,3:2:0:0:
403,352,74366,1,0,3:2:0:0:
268,285,74548,2,0,L|172:298,1,96.8000029541017,8|0,0:2|0:2,0:2:0:0:
259,201,74912,6,0,L|355:213,1,96.8000029541017,0|0,3:2|3:2,0:2:0:0:
421,119,75275,2,0,L|325:130,1,96.8000029541017,8|0,0:2|0:2,0:2:0:0:
494,166,75639,2,0,P|507:125|491:69,1,96.8000029541017,0|0,3:2|0:2,0:2:0:0:
186,160,76003,2,0,P|172:201|186:257,1,96.8000029541017,12|0,3:2|0:2,0:2:0:0:
439,294,76366,6,0,L|418:101,1,193.600005908203,4|8,3:2|0:2,0:2:0:0:
324,19,76912,1,0,0:2:0:0:
331,145,77094,2,0,P|407:199|493:166,1,193.600005908203,4|8,3:2|0:2,0:2:0:0:
410,20,77639,1,0,0:2:0:0:
270,85,77821,6,0,B|208:85|208:85|161:44|83:62,1,193.600005908203,4|8,3:2|0:2,0:2:0:0:
33,135,78366,1,0,0:2:0:0:
167,281,78548,1,8,3:2:0:0:
167,281,78639,1,8,0:2:0:0:
167,281,78730,1,8,0:2:0:0:
84,249,78912,1,8,0:2:0:0:
108,214,79002,1,8,0:2:0:0:
147,194,79093,1,8,0:3:0:0:
190,195,79184,1,4,0:3:0:0:
228,216,79275,6,0,P|275:219|317:196,1,96.8000029541017,4|0,3:2|3:2,0:2:0:0:
270,41,79639,2,0,L|258:138,1,96.8000029541017,8|0,0:2|0:2,0:2:0:0:
429,106,80003,2,0,P|385:102|337:126,1,96.8000029541017,0|0,3:2|3:2,0:2:0:0:
386,278,80366,2,0,L|398:182,1,96.8000029541017,8|0,0:2|0:2,0:2:0:0:
298,272,80730,6,0,P|334:349|435:353,1,193.600005908203,0|8,3:2|0:2,0:2:0:0:
484,148,81275,2,0,P|470:240|385:277,1,193.600005908203,0|0,3:2|3:2,0:2:0:0:
301,169,81821,2,0,L|398:182,1,96.8000029541017,8|0,0:2|0:2,0:2:0:0:
266,91,82184,6,0,P|231:117|216:176,1,96.8000029541017,0|0,3:2|3:2,0:2:0:0:
333,353,82548,2,0,P|369:323|385:278,1,96.8000029541017,8|0,0:2|0:2,0:2:0:0:
214,258,82912,1,0,3:2:0:0:
298,274,83093,1,0,3:2:0:0:
172,335,83275,2,0,P|138:302|128:256,1,96.8000029541017,8|0,0:2|0:2,0:2:0:0:
184,92,83639,6,0,L|280:103,1,96.8000029541017,0|0,3:2|3:2,0:2:0:0:
338,164,84003,1,8,0:2:0:0:
401,224,84184,2,0,L|496:211,1,96.8000029541017,0|0,3:2|3:2,0:2:0:0:
359,77,84548,1,4,0:0:0:0:
318,250,84730,1,12,0:0:0:0:
415,141,84912,1,0,3:2:0:0:
188,92,85094,5,0,3:2:0:0:
188,92,85275,2,0,P|130:78|76:101,1,119.680000730469,0|0,3:2|3:2,0:2:0:0:
132,283,85821,2,0,B|132:256|132:256|158:215|139:168,1,119.680000730469,8|0,0:2|0:2,0:2:0:0:
57,206,86366,1,0,0:2:0:0:
184,358,86548,5,0,3:2:0:0:
184,358,86730,2,0,B|231:352|231:352|260:357|260:357|324:347,1,119.680000730469,0|0,3:2|3:2,0:2:0:0:
418,206,87275,2,0,P|364:227|339:282,1,119.680000730469,8|0,0:2|0:2,0:2:0:0:
420,288,87821,1,0,0:2:0:0:
470,137,88003,5,4,3:2:0:0:
470,137,88184,2,0,P|470:78|429:36,1,119.680000730469,0|0,3:2|3:2,0:2:0:0:
287,109,88730,2,0,B|319:109|341:87|341:87|365:111|395:111,1,119.680000730469,8|0,0:2|0:2,0:2:0:0:
341,183,89275,1,0,0:2:0:0:
214,48,89457,5,0,3:2:0:0:
214,48,89639,2,0,L|72:62,1,119.680000730469,0|0,3:2|3:2,0:2:0:0:
19,216,90184,2,0,P|45:163|99:142,1,119.680000730469,8|0,0:2|0:2,0:2:0:0:
130,316,90730,1,8,0:2:0:0:
118,273,90821,1,8,0:2:0:0:
105,231,90912,5,12,3:2:0:0:
250,234,91093,1,8,0:2:0:0:
219,318,91276,1,8,3:2:0:0:
179,180,91457,1,8,0:2:0:0:
44,296,91639,1,8,3:2:0:0:
99,141,91821,1,8,0:2:0:0:
130,316,92003,1,8,3:2:0:0:
173,96,92184,1,8,0:2:0:0:
25,186,92366,5,8,3:2:0:0:
248,132,92548,1,8,0:2:0:0:
23,99,92730,1,8,3:2:0:0:
261,213,92912,1,8,0:2:0:0:
98,55,93094,1,8,3:2:0:0:
193,262,93275,1,8,0:2:0:0:
168,16,93457,1,8,3:2:0:0:
105,231,93639,1,8,0:2:0:0:
325,162,93821,6,0,P|341:202|336:245,1,88,12|0,0:2|3:2,0:2:0:0:
179,180,94184,1,0,3:2:0:0:
333,79,94366,2,0,P|373:95|400:129,1,88,12|0,0:2|3:2,0:2:0:0:
261,213,94730,1,0,3:2:0:0:
281,15,94912,2,0,P|321:-1|364:3,1,88,12|0,0:2|3:2,0:2:0:0:
409,209,95275,5,12,3:2:0:0:
249,92,95457,1,8,0:2:0:0:
268,299,95639,1,8,0:2:0:0:
400,129,95821,2,0,L|464:123,1,44,0|0,3:2|0:2,0:2:0:0:
261,213,96184,2,0,L|217:208,1,44,0|0,3:2|0:2,0:2:0:0:
344,330,96741,6,0,L|431:321,1,88,4|0,3:2|0:2,0:2:0:0:
510,241,97124,2,0,L|422:232,1,88,8|0,3:2|0:2,0:2:0:0:
298,161,97487,1,0,3:2:0:0:
335,242,97669,1,0,0:2:0:0:
477,156,97851,2,0,P|484:113|472:71,1,88,8|0,3:2|0:2,0:2:0:0:
262,53,98186,6,0,P|318:118|403:115,1,176,0|8,3:2|3:2,0:2:0:0:
277,308,98731,2,0,P|248:229|298:161,1,176,0|0,0:2|0:2,0:2:0:0:
117,123,99276,2,0,L|207:147,1,88,8|0,3:2|0:2,0:2:0:0:
79,42,99640,6,0,P|28:108|56:188,1,176,0|8,3:2|3:2,0:2:0:0:
142,209,100186,1,0,0:2:0:0:
177,59,100367,1,0,3:2:0:0:
117,123,100549,1,0,0:2:0:0:
296,141,100731,1,8,3:2:0:0:
56,188,100913,1,12,0:2:0:0:
56,188,101276,5,8,0:2:0:0:
209,170,101458,1,8,3:2:0:0:
148,311,101640,1,8,0:2:0:0:
49,173,101822,1,8,3:2:0:0:
225,171,102004,1,8,3:2:0:0:
138,322,102186,1,8,3:2:0:0:
43,156,102367,1,8,0:2:0:0:
206,247,102549,6,0,L|305:243,1,88,4|0,3:2|0:2,0:2:0:0:
383,158,102913,2,0,L|296:155,1,88,0|0,3:2|0:2,0:2:0:0:
457,205,103276,1,0,3:2:0:0:
380,246,103458,1,0,0:2:0:0:
389,70,103640,2,0,P|430:83|459:116,1,88,0|0,3:2|0:2,0:2:0:0:
461,299,104004,6,0,L|286:276,1,176,0|0,3:2|3:2,0:2:0:0:
154,240,104549,2,0,B|213:227|213:227|254:173|321:196,1,176,0|0,0:2|0:2,0:2:0:0:
185,317,105095,2,0,P|140:322|101:304,1,88,0|0,3:2|0:2,0:2:0:0:
64,138,105458,6,0,L|70:232,1,88,0|0,3:2|0:2,0:2:0:0:
154,76,105822,2,0,L|148:163,1,88,0|0,3:2|0:2,0:2:0:0:
235,11,106186,2,0,L|240:98,2,88,0|0|0,3:2|0:2|3:2,0:2:0:0:
319,138,106731,1,0,0:2:0:0:
244,186,106913,6,0,P|202:177|167:147,1,88,0|0,3:2|0:2,0:2:0:0:
235,11,107276,1,0,3:2:0:0:
312,53,107458,2,0,L|399:58,1,88,0|0,0:2|3:2,0:2:0:0:
481,140,107822,2,0,L|393:145,1,88,0|0,0:2|3:2,0:2:0:0:
307,140,108186,1,0,0:2:0:0:
298,286,108367,6,0,P|330:257|343:216,1,88,4|0,3:2|0:2,0:2:0:0:
222,138,108731,2,0,L|134:133,1,88,0|0,3:2|0:2,0:2:0:0:
262,213,109095,1,0,3:2:0:0:
307,140,109276,1,0,0:2:0:0:
173,208,109458,2,0,P|182:251|209:285,1,88,0|0,3:2|0:2,0:2:0:0:
393,144,109822,6,0,P|384:101|355:67,1,88,0|0,3:2|0:2,0:2:0:0:
222,138,110186,1,0,3:2:0:0:
307,140,110367,1,0,0:2:0:0:
176,59,110549,2,0,P|146:91|133:132,1,88,0|0,3:2|0:2,0:2:0:0:
125,281,110913,1,0,3:2:0:0:
85,203,111095,1,0,0:2:0:0:
212,285,111276,6,0,P|189:340|80:355,1,176,0|0,3:2|3:2,0:2:0:0:
171,206,111822,1,0,0:2:0:0:
258,218,112004,2,0,L|358:231,1,88,0|0,3:2|0:2,0:2:0:0:
224,136,112367,1,0,3:2:0:0:
125,281,112549,6,0,P|209:287|259:217,1,176,0|0,0:2|0:2,0:2:0:0:
136,124,113095,2,0,L|36:137,1,88,0|0,3:2|0:2,0:2:0:0:
235,48,113458,2,0,L|223:135,1,88,0|0,3:2|0:2,0:2:0:0:
322,36,113822,2,0,L|409:47,1,88,0|0,3:2|0:2,0:2:0:0:
339,228,114186,6,0,P|295:233|256:215,1,88,4|0,3:2|0:2,0:2:0:0:
393,158,114549,2,0,L|481:147,1,88,0|0,3:2|0:2,0:2:0:0:
321,64,114913,2,0,L|310:152,2,88,0|0|0,3:2|0:2|3:2,0:2:0:0:
240,98,115458,1,0,0:2:0:0:
159,132,115645,6,0,P|184:167|224:185,1,88,0|0,3:2|0:2,0:2:0:0:
171,45,116008,1,0,3:2:0:0:
86,82,116190,2,0,P|71:123|79:170,1,88,0|0,0:2|3:2,0:2:0:0:
217,269,116554,2,0,P|231:227|223:184,1,88,0|0,0:2|3:2,0:2:0:0:
148,220,116921,5,0,0:2:0:0:
208,356,117103,2,0,L|308:364,1,88,0|0,3:2|0:2,0:2:0:0:
389,268,117466,2,0,L|289:276,1,88,0|0,3:2|0:2,0:2:0:0:
426,188,117830,2,0,P|460:216|476:256,1,88,0|0,3:2|0:2,0:2:0:0:
443,337,118193,1,0,3:2:0:0:
338,195,118375,6,0,L|330:107,2,88,0|0|0,0:2|3:2|0:2,0:2:0:0:
301,275,118921,1,0,3:2:0:0:
207,355,119103,2,0,P|166:341|137:307,1,88,0|0,0:2|3:2,0:2:0:0:
209,181,119466,2,0,L|216:268,1,88,0|0,0:2|3:2,0:2:0:0:
129,143,119830,1,0,0:2:0:0:
303,85,120004,6,0,L|296:172,1,88,4|0,3:2|0:2,0:2:0:0:
230,35,120367,1,0,3:2:0:0:
382,47,120549,1,0,0:2:0:0:
222,121,120731,2,0,P|181:108|152:75,1,88,0|0,3:2|0:2,0:2:0:0:
311,0,121102,1,0,3:2:0:0:
295,172,121283,1,0,0:2:0:0:
454,94,121465,6,0,P|468:53|460:11,1,88,0|0,3:2|0:2,0:2:0:0:
379,137,121824,2,0,L|387:257,1,88,0|0,3:2|0:2,0:2:0:0:
308,354,122187,2,0,P|296:312|306:270,1,88,0|0,3:2|0:2,0:2:0:0:
463,263,122551,1,0,3:2:0:0:
389,310,122737,1,0,0:2:0:0:
230,223,122919,6,0,L|142:228,1,88,4|0,3:2|0:2,0:2:0:0:
5,158,123282,1,0,3:2:0:0:
54,231,123464,1,0,0:2:0:0:
184,148,123646,2,0,P|226:134|268:143,1,88,0|0,3:2|0:2,0:2:0:0:
274,292,124009,2,0,P|232:305|189:296,1,88,0|0,3:2|0:2,0:2:0:0:
93,153,124377,6,0,L|88:65,1,88,0|0,3:2|0:2,0:2:0:0:
142,227,124740,1,0,3:2:0:0:
220,69,124922,1,0,0:2:0:0:
316,217,125104,2,0,P|354:219|413:183,1,88,0|0,3:0|0:0,0:0:0:0:
307,64,125467,1,0,3:2:0:0:
229,224,125649,1,0,0:2:0:0:
132,74,125831,6,0,P|95:121|133:222,1,176,4|0,3:2|3:2,0:2:0:0:
274,143,126377,1,8,0:2:0:0:
188,300,126558,1,8,3:2:0:0:
181,148,126740,1,8,0:2:0:0:
236,376,126922,1,8,3:2:0:0:
229,224,127104,1,8,0:2:0:0:
101,307,127286,5,8,3:2:0:0:
275,293,127467,1,8,0:2:0:0:
142,227,127649,1,8,3:2:0:0:
236,376,127831,1,8,0:2:0:0:
317,213,128013,1,8,3:2:0:0:
188,300,128195,1,8,0:2:0:0:
328,369,128377,1,8,3:2:0:0:
229,224,128558,1,8,0:2:0:0:
362,286,128740,6,0,L|493:275,1,132,4|0,3:2|0:2,0:2:0:0:
512,195,129104,2,0,P|450:205|415:259,1,132,0|0,3:2|0:2,0:2:0:0:
337,125,129467,2,0,P|400:143|428:216,1,132,8|0,3:2|0:2,0:2:0:0:
345,207,129831,6,0,P|303:199|269:171,1,88,0|0,3:2|0:2,0:2:0:0:
387,52,130195,1,0,3:2:0:0:
428,198,130377,1,8,0:2:0:0:
257,90,130558,2,0,P|218:107|193:143,1,88,0|0,3:2|0:2,0:2:0:0:
212,314,130922,2,0,P|217:270|201:230,1,88,8|0,3:2|0:2,0:2:0:0:
58,245,131286,2,0,P|91:273|134:282,1,88,0|0,3:2|0:2,0:2:0:0:
241,158,131649,6,0,P|177:151|128:194,1,132,0|0,3:2|0:2,0:2:0:0:
275,233,132013,2,0,L|257:86,1,132,0|0,3:2|0:2,0:2:0:0:
177,65,132377,2,0,P|240:71|289:29,1,132,8|0,3:2|0:2,0:2:0:0:
217,0,132740,1,0,3:2:0:0:
119,137,132914,5,0,0:2:0:0:
119,137,133004,1,0,0:2:0:0:
119,137,133095,2,0,P|134:177|127:220,1,88,0|8,3:2|0:2,0:2:0:0:
12,358,133458,1,0,3:2:0:0:
46,186,133640,1,0,0:2:0:0:
46,186,133731,1,8,0:2:0:0:
46,186,133822,1,8,3:2:0:0:
183,298,134004,1,8,0:3:0:0:
29,272,134185,1,4,0:3:0:0:
119,137,134367,1,0,0:2:0:0:
99,328,134560,6,0,B|183:298|183:298|228:353|281:366|340:360,1,264,4|0,0:2|0:2,0:2:0:0:
400,171,136024,2,0,B|344:167|294:218|311:289|311:289|257:290|218:238|228:189,1,308,0|0,0:2|0:2,0:2:0:0:
38,118,137459,6,0,L|125:107,1,88,4|0,3:2|0:2,0:2:0:0:
226,202,137822,2,0,L|138:191,1,88,8|0,0:2|0:2,0:2:0:0:
277,131,138186,1,8,0:2:0:0:
260,282,138368,1,8,0:2:0:0:
138,191,138549,1,8,0:2:0:0:
313,212,138731,1,8,0:2:0:0:
168,277,138913,5,8,0:2:0:0:
104,109,139095,1,8,0:2:0:0:
313,212,139277,1,8,0:2:0:0:
211,360,139459,1,8,0:2:0:0:
277,131,139640,1,8,0:2:0:0:
400,222,139822,1,8,0:2:0:0:
168,277,140004,1,8,0:2:0:0:
237,51,140186,1,8,0:2:0:0:
260,282,140368,6,0,P|233:345|185:369,1,96.8000029541017,4|0,3:2|3:2,0:2:0:0:
71,273,140731,1,8,0:2:0:0:
116,358,140913,1,0,0:2:0:0:
214,192,141095,1,0,3:2:0:0:
168,277,141277,1,0,3:2:0:0:
164,110,141459,2,0,P|215:97|288:126,1,96.8000029541017,8|0,0:2|0:2,0:2:0:0:
202,368,141822,6,0,P|110:357|71:272,1,193.600005908203,0|8,3:2|0:2,0:2:0:0:
257,105,142368,2,0,L|269:305,1,193.600005908203,0|0,3:2|3:2,0:2:0:0:
71,272,142913,2,0,L|76:175,1,96.8000029541017,8|0,0:2|0:2,0:2:0:0:
157,35,143277,6,0,L|162:131,1,96.8000029541017,0|0,3:2|3:2,0:2:0:0:
331,215,143640,2,0,P|295:183|249:173,1,96.8000029541017,8|0,0:2|0:2,0:2:0:0:
334,304,144004,1,0,3:2:0:0:
409,165,144186,1,0,3:2:0:0:
255,263,144368,2,0,L|142:273,1,96.8000029541017,8|0,0:2|0:2,0:2:0:0:
0,208,144731,6,0,P|44:191|91:201,1,96.8000029541017,0|0,3:2|3:2,0:2:0:0:
255,263,145095,1,8,0:2:0:0:
105,352,145277,2,0,P|60:368|13:359,1,96.8000029541017,0|0,3:2|3:2,0:2:0:0:
197,189,145640,1,4,0:0:0:0:
199,351,145822,1,12,0:2:0:0:
54,282,146004,1,0,0:0:0:0:
129,123,146186,6,0,L|145:27,1,96.8000029541017,0|0,3:2|3:2,0:2:0:0:
293,174,146549,2,0,L|197:190,1,96.8000029541017,8|0,0:2|0:2,0:2:0:0:
324,81,146913,1,0,3:2:0:0:
352,246,147095,1,0,3:2:0:0:
228,96,147277,2,0,P|232:49|258:9,1,96.8000029541017,8|0,0:2|0:2,0:2:0:0:
443,228,147640,6,0,P|399:248|351:245,1,96.8000029541017,0|0,3:2|3:2,0:2:0:0:
99,203,148004,2,0,L|195:187,1,96.8000029541017,8|8,0:2|0:2,0:2:0:0:
218,183,148277,1,8,0:2:0:0:
242,183,148368,2,0,P|269:222|273:270,1,96.8000029541017,8|0,3:2|0:2,0:2:0:0:
13,187,148731,2,0,P|33:143|79:118,1,96.8000029541017,8|0,3:2|0:2,0:2:0:0:
130,383,149095,6,0,B|86:302|86:302|96:201,1,193.600005908203,4|8,3:2|0:2,0:2:0:0:
160,128,149640,1,0,0:2:0:0:
280,208,149822,2,0,B|215:208|215:208|192:225|140:240|97:201,1,193.600005908203,4|8,3:2|0:2,0:2:0:0:
256,128,150368,1,0,0:2:0:0:
269,371,150549,6,0,P|231:286|280:207,1,193.600005908203,4|8,3:2|0:2,0:2:0:0:
330,293,151095,1,0,0:2:0:0:
466,161,151277,1,8,3:2:0:0:
466,161,151368,1,8,0:2:0:0:
466,161,151459,1,8,0:2:0:0:
446,263,151640,1,8,0:2:0:0:
403,243,151730,1,8,0:2:0:0:
373,206,151821,1,8,0:3:0:0:
362,159,151913,1,4,0:3:0:0:
374,113,152004,6,0,P|386:66|374:20,1,96.8000029541017,4|0,3:2|3:2,0:2:0:0:
300,66,152368,1,8,0:0:0:0:
200,207,152549,1,8,0:0:0:0:
200,207,152640,1,8,0:0:0:0:
200,207,152731,1,0,3:0:0:0:
127,48,152913,1,0,0:0:0:0:
235,128,153095,2,0,P|272:157|287:204,1,96.8000029541017,8|0,0:2|0:2,0:2:0:0:
234,367,153459,6,0,P|174:296|200:207,1,193.600005908203,0|8,3:2|0:2,0:2:0:0:
391,166,154004,2,0,P|301:189|270:277,1,193.600005908203,0|0,3:2|3:2,0:2:0:0:
406,344,154549,2,0,P|398:297|367:262,1,96.8000029541017,8|0,0:2|0:2,0:2:0:0:
139,378,154913,6,0,L|243:367,1,96.8000029541017,0|0,3:2|3:2,0:2:0:0:
61,220,155277,2,0,P|21:245|0:288,1,96.8000029541017,8|0,0:2|0:2,0:2:0:0:
157,209,155640,1,0,3:2:0:0:
101,131,155822,1,0,3:2:0:0:
183,295,156004,2,0,P|223:269|244:226,1,96.8000029541017,8|0,0:2|0:2,0:2:0:0:
186,54,156368,6,0,P|187:101|214:141,1,96.8000029541017,0|0,3:2|3:2,0:2:0:0:
332,136,156731,1,8,0:2:0:0:
360,53,156913,2,0,P|313:49|271:72,1,96.8000029541017,0|0,3:2|3:2,0:2:0:0:
290,218,157277,1,4,0:0:0:0:
421,128,157459,1,12,0:2:0:0:
300,2,157640,1,0,0:0:0:0:
217,183,157822,5,4,3:2:0:0:
217,183,158004,2,0,P|212:249|258:303,1,119.680000730469,0|0,3:2|3:2,0:2:0:0:
424,231,158549,2,0,L|305:220,1,119.680000730469,8|0,0:2|0:2,0:2:0:0:
328,304,159095,1,0,0:2:0:0:
393,105,159277,5,0,3:2:0:0:
393,105,159459,2,0,P|363:55|289:38,1,119.680000730469,0|0,3:2|3:2,0:2:0:0:
188,135,160004,2,0,L|308:124,1,119.680000730469,8|0,0:2|0:2,0:2:0:0:
226,44,160549,1,0,0:2:0:0:
93,185,160731,5,4,3:2:0:0:
93,185,160913,2,0,B|91:222|91:222|62:267|94:323,1,119.680000730469,0|0,3:2|3:2,0:2:0:0:
259,310,161459,2,0,P|216:270|158:269,1,119.680000730469,8|0,0:2|0:2,0:2:0:0:
185,346,162004,1,0,0:2:0:0:
343,263,162186,5,0,3:2:0:0:
342,263,162368,2,0,P|366:209|350:152,1,119.680000730469,0|0,3:2|3:2,0:2:0:0:
213,152,162913,2,0,B|266:141|266:141|262:172|280:203,1,119.680000730469,8|0,0:2|0:2,0:2:0:0:
223,336,163459,1,8,0:2:0:0:
211,293,163549,1,8,0:2:0:0:
200,250,163640,5,12,3:2:0:0:
138,313,163822,1,8,0:2:0:0:
56,166,164004,1,8,3:2:0:0:
118,229,164186,1,8,0:2:0:0:
206,80,164368,1,8,3:2:0:0:
143,142,164550,1,8,0:2:0:0:
290,226,164731,1,8,3:2:0:0:
228,163,164913,1,8,0:2:0:0:
223,336,165095,5,8,3:2:0:0:
118,229,165277,1,8,0:2:0:0:
311,143,165459,1,8,3:2:0:0:
200,250,165640,1,8,0:2:0:0:
272,22,165822,1,8,3:2:0:0:
290,226,166004,1,8,0:2:0:0:
56,166,166186,1,8,3:2:0:0:
235,97,166368,1,8,0:2:0:0:
136,312,166549,6,0,L|21:326,1,88,12|0,0:2|3:2,0:2:0:0:
200,250,166913,1,0,3:2:0:0:
308,345,167095,2,0,L|221:335,1,88,12|0,0:2|3:2,0:2:0:0:
360,274,167459,1,0,3:2:0:0:
482,343,167640,2,0,L|394:353,1,88,12|0,0:2|3:2,0:2:0:0:
279,263,168004,5,8,3:2:0:0:
415,208,168186,1,8,3:2:0:0:
394,353,168368,1,8,0:2:0:0:
300,118,168549,2,0,L|256:114,1,44,0|0,3:2|0:2,0:2:0:0:
177,338,168913,2,0,L|220:334,1,44,0|0,3:2|0:2,0:2:0:0:
87,135,169478,6,0,L|-9:127,1,88,12|0,0:2|3:2,0:2:0:0:
136,62,169855,1,0,3:2:0:0:
146,221,170036,2,0,L|59:236,1,88,12|0,0:2|3:2,0:2:0:0:
174,137,170400,1,0,3:2:0:0:
205,289,170569,6,0,P|248:293|287:276,1,88,12|0,0:2|3:2,0:2:0:0:
338,204,170932,1,0,3:2:0:0:
174,137,171095,2,0,P|131:131|92:149,1,88,12|0,0:2|3:2,0:2:0:0:
42,223,171473,1,0,3:2:0:0:
206,59,171654,1,8,0:3:0:0:
228,207,171836,1,8,0:3:0:0:
118,71,172018,1,4,0:3:0:0:
146,221,172200,1,0,0:3:0:0:
278,141,172368,6,0,P|304:175|311:218,1,88,12|0,0:2|3:2,0:2:0:0:
262,291,172731,1,0,3:2:0:0:
265,58,172913,2,0,P|308:63|343:89,1,88,12|0,0:2|3:2,0:2:0:0:
228,207,173277,1,0,3:2:0:0:
384,160,173458,6,0,L|483:172,1,88,12|0,0:2|3:2,0:2:0:0:
428,77,173822,1,0,3:2:0:0:
322,224,174004,2,0,L|223:236,1,88,12|0,0:2|3:2,0:2:0:0:
292,138,174368,1,0,3:2:0:0:
416,247,174549,5,8,3:2:0:0:
432,266,174640,1,8,0:2:0:0:
448,286,174731,1,8,0:2:0:0:
465,305,174822,1,8,0:2:0:0:
481,323,174913,1,8,0:0:0:0:
448,322,175003,1,8,0:0:0:0:
415,321,175094,1,8,0:0:0:0:
382,320,175185,1,8,0:0:0:0:
349,319,175277,6,0,L|240:322,1,74.8000014266968,4|0,3:2|0:2,0:2:0:0:
164,246,175640,2,0,L|251:248,1,74.8000014266968,0|0,0:2|0:2,0:2:0:0:
313,144,176004,2,0,L|310:218,1,74.8000014266968,0|0,0:2|0:2,0:2:0:0:
145,165,176368,2,0,L|219:166,1,74.8000014266968,0|0,0:2|0:2,0:2:0:0:
294,63,176732,6,0,L|291:137,1,74.8000014266968,0|0,0:2|0:2,0:2:0:0:
215,85,177095,2,0,P|213:47|228:13,1,74.8000014266968,0|0,0:2|0:2,0:2:0:0:
360,14,177458,2,0,P|374:48|373:85,1,74.8000014266968,0|0,0:2|0:2,0:2:0:0:
290,137,177822,1,0,0:2:0:0:
351,237,178004,5,6,3:2:0:0:
450,134,178186,1,6,3:2:0:0:
493,311,178368,1,6,3:2:0:0:
351,237,178549,2,0,P|350:199|365:165,1,74.8000014266968,0|0,0:2|0:2,0:2:0:0:
503,228,178913,2,0,L|430:215,1,74.8000014266968,0|0,0:2|0:2,0:2:0:0:
398,364,179277,2,0,L|411:290,1,74.8000014266968,0|0,0:2|0:2,0:2:0:0:
317,240,179640,6,0,L|330:313,1,74.8000014266968,0|0,0:2|0:2,0:2:0:0:
198,373,180004,2,0,P|223:345|258:333,1,74.8000014266968,0|0,0:2|0:2,0:2:0:0:
228,186,180368,2,8,P|238:222|230:258,1,74.8000014266968,0|0,0:2|0:2,0:2:0:0:
102,301,180731,1,0,0:2:0:0:
156,225,180913,1,0,0:2:0:0:
258,333,181095,5,4,3:2:0:0:
258,333,181277,2,0,L|347:330,1,74.8000014266968,0|0,3:2|0:2,0:2:0:0:
397,280,181640,1,0,3:2:0:0:
373,201,181822,2,0,P|341:219|320:249,1,74.8000014266968,8|0,0:2|0:2,0:2:0:0:
420,360,182186,2,0,P|452:341|473:311,1,74.8000014266968,0|0,0:2|3:2,0:2:0:0:
464,156,182549,5,0,3:2:0:0:
464,156,182731,2,0,L|466:230,1,74.8000014266968,0|0,3:2|0:2,0:2:0:0:
381,162,183095,1,0,3:2:0:0:
412,83,183277,2,0,L|487:74,1,74.8000014266968,8|0,0:2|0:2,0:2:0:0:
352,27,183640,2,0,P|334:59|332:97,1,74.8000014266968,0|0,0:2|3:2,0:2:0:0:
220,102,184024,5,4,3:2:0:0:
220,102,184205,2,0,P|217:64|184:20,1,74.8000014266968,0|0,3:2|0:2,0:2:0:0:
118,13,184569,1,0,3:2:0:0:
68,109,184751,2,0,L|140:89,1,74.8000014266968,8|0,0:2|0:2,0:2:0:0:
146,234,185114,2,0,L|166:162,1,74.8000014266968,0|0,0:2|3:2,0:2:0:0:
251,308,185478,6,0,L|231:237,1,74.8000014266968,0|0,3:2|3:2,0:2:0:0:
333,145,185842,2,0,L|312:216,1,74.8000014266968,0|0,0:2|3:2,0:2:0:0:
246,152,186197,1,8,0:2:0:0:
285,76,186378,2,0,P|319:63|378:75,1,88,0|0,0:2|3:2,0:2:0:0:
393,285,186742,5,0,0:2:0:0:
393,285,186833,1,0,0:2:0:0:
393,285,186924,2,0,L|368:200,1,74.8000014266968,4|0,3:2|0:2,0:2:0:0:
229,243,187287,2,0,L|300:263,1,74.8000014266968,0|0,0:2|3:2,0:2:0:0:
192,316,187651,2,0,P|163:292|148:258,1,74.8000014266968,12|0,0:2|3:2,0:2:0:0:
99,169,188014,2,0,P|133:182|170:179,1,74.8000014266968,0|0,0:2|3:2,0:2:0:0:
173,32,188378,6,0,L|144:101,1,74.8000014266968,4|0,3:2|3:2,0:2:0:0:
300,100,188742,2,0,L|226:114,1,74.8000014266968,0|0,0:2|3:2,0:2:0:0:
292,17,189105,2,0,L|365:31,1,74.8000014266968,12|0,0:2|0:2,0:2:0:0:
395,184,189469,2,0,P|395:146|379:113,1,74.8000014266968,0|0,0:2|0:2,0:2:0:0:
233,144,189833,6,0,P|232:181|248:214,1,74.8000014266968,4|0,3:2|3:2,0:2:0:0:
392,279,190196,2,0,P|360:260|323:257,1,74.8000014266968,0|0,0:2|3:2,0:2:0:0:
174,307,190560,2,0,L|248:297,1,74.8000014266968,12|0,0:2|0:2,0:2:0:0:
163,226,190924,2,0,L|88:215,1,74.8000014266968,0|0,0:2|0:2,0:2:0:0:
238,140,191287,6,0,L|248:214,2,74.8000014266968,4|0|0,3:2|3:2|0:2,0:2:0:0:
163,68,191833,2,0,L|152:142,1,74.8000014266968,0|12,3:2|0:2,0:2:0:0:
246,52,192196,1,0,3:2:0:0:
314,99,192378,2,0,P|363:105|416:88,1,70.8000014266968,0|0,0:2|0:2,0:2:0:0:
503,0,192730,6,0,P|473:39|461:93,1,88,4|0,3:2|0:2,0:2:0:0:
471,256,193093,1,0,3:2:0:0:
449,160,193275,1,0,0:2:0:0:
393,316,193457,1,0,3:2:0:0:
285,189,193639,1,0,0:2:0:0:
375,221,193811,1,0,3:2:0:0:
267,95,193992,1,0,0:2:0:0:
211,251,194174,5,0,3:2:0:0:
363,121,194355,1,0,0:2:0:0:
303,286,194537,1,0,3:2:0:0:
190,151,194719,1,0,0:2:0:0:
129,316,194913,1,0,3:2:0:0:
16,180,195094,1,0,0:2:0:0:
112,220,195276,1,0,3:2:0:0:
169,51,195458,1,0,0:2:0:0:
285,189,195640,5,12,3:2:0:0:
98,119,195821,1,8,0:2:0:0:
267,95,196003,1,8,3:2:0:0:
211,251,196185,1,8,0:2:0:0:
16,180,196367,1,8,3:2:0:0:
190,151,196549,1,8,0:2:0:0:
232,351,196730,1,8,3:2:0:0:
112,220,196912,1,8,0:2:0:0:
267,95,197094,5,8,3:2:0:0:
211,251,197276,1,8,0:2:0:0:
0,75,197458,1,8,3:2:0:0:
190,151,197640,1,8,0:2:0:0:
34,281,197821,1,8,3:2:0:0:
173,66,198003,1,8,0:2:0:0:
285,189,198185,1,8,3:2:0:0:
98,119,198367,1,8,0:2:0:0:
363,121,198549,5,12,3:2:0:0:
393,316,198730,1,8,0:2:0:0:
267,95,198912,1,8,3:2:0:0:
512,99,199093,1,8,0:2:0:0:
211,251,199276,5,8,3:2:0:0:
173,66,199457,1,8,0:2:0:0:
303,286,199640,1,8,3:2:0:0:
59,308,199821,1,8,0:2:0:0:
267,95,200003,5,8,3:2:0:0:
231,380,200185,1,8,0:2:0:0:
0,167,200367,1,8,3:2:0:0:
285,189,200549,1,8,0:2:0:0:
26,384,200730,5,8,3:2:0:0:
190,151,200912,1,8,0:2:0:0:
393,316,201094,1,8,3:2:0:0:
103,328,201276,1,8,0:2:0:0:
363,121,201458,5,8,0:2:0:0:
400,142,201548,1,8,0:2:0:0:
429,175,201639,1,8,0:2:0:0:
445,216,201730,1,8,0:2:0:0:
447,260,201821,1,8,0:2:0:0:
434,302,201912,1,8,0:2:0:0:
408,337,202003,1,8,0:2:0:0:
372,362,202094,1,8,0:2:0:0:
328,371,202186,6,0,P|286:361|253:330,1,88,4|0,3:2|3:2,0:2:0:0:
311,205,202549,2,0,P|306:248|323:289,1,88,8|0,0:2|0:2,0:2:0:0:
461,275,202913,2,0,P|419:266|387:237,1,88,0|0,3:2|3:2,3:2:0:0:
444,109,203276,2,0,P|439:152|456:193,1,88,8|0,0:2|0:2,3:2:0:0:
509,33,203640,6,0,P|440:81|361:52,1,176,0|8,3:2|0:2,0:2:0:0:
305,172,204186,2,0,P|390:174|444:109,1,176,0|0,0:2|3:2,0:2:0:0:
349,259,204731,2,0,P|265:261|210:196,2,176,8|0|8,0:2|3:2|0:2,0:2:0:0:
233,110,205640,2,0,B|172:99|137:146|137:146|71:131,1,176,0|0,3:2|3:2,0:2:0:0:
127,309,206186,2,0,P|144:260|126:202,1,88,8|0,0:2|0:2,0:2:0:0:
62,258,206549,5,0,3:2:0:0:
200,352,206731,1,0,3:2:0:0:
213,186,206913,1,8,0:2:0:0:
127,310,207095,1,0,0:2:0:0:
286,228,207276,2,0,L|383:238,1,88,0|0,3:2|3:2,0:2:0:0:
287,342,207640,2,0,L|190:352,1,88,8|0,0:2|0:2,0:2:0:0:
137,142,208004,5,4,3:2:0:0:
213,186,208186,2,0,L|222:273,1,88,0|8,3:2|0:2,0:2:0:0:
52,345,208549,2,0,L|61:257,1,88,0|0,0:2|3:2,0:2:0:0:
235,87,208913,1,0,3:2:0:0:
222,273,209095,1,8,0:2:0:0:
68,169,209276,1,0,0:2:0:0:
149,214,209458,6,0,P|159:171|151:128,1,88,0|0,3:2|3:2,0:2:0:0:
100,80,209731,1,0,0:2:0:0:
100,80,209822,2,0,L|200:67,1,88,8|0,0:2|0:2,0:2:0:0:
353,148,210186,6,0,P|323:180|281:192,1,88,0|0,3:2|3:2,0:2:0:0:
283,110,210458,2,0,P|266:70|274:27,1,88,0|0,0:2|0:2,0:2:0:0:
346,61,210731,1,0,3:2:0:0:
326,264,210930,6,0,B|292:228|292:228|281:190,1,88,0|0,3:2|3:2,0:2:0:0:
503,316,211293,1,8,0:2:0:0:
481,319,211383,1,0,0:2:0:0:
459,323,211474,1,0,0:2:0:0:
437,327,211565,1,0,0:2:0:0:
416,331,211657,1,0,3:2:0:0:
394,334,211747,1,0,0:2:0:0:
372,338,211838,1,0,3:2:0:0:
351,342,211929,1,0,0:2:0:0:
328,347,212020,2,0,L|356:380,1,44,8|0,0:2|0:2,0:2:0:0:
262,289,212201,5,8,0:2:0:0:
220,278,212292,1,8,0:2:0:0:
176,278,212371,1,8,3:2:0:0:
9,370,212552,1,8,3:2:0:0:
13,113,212916,5,8,0:2:0:0:
56,116,213007,1,8,0:2:0:0:
97,132,213098,1,8,3:2:0:0:
220,278,213280,1,8,3:2:0:0:
304,52,213822,6,0,L|216:64,1,88,4|0,3:2|0:2,0:2:0:0:
130,79,214185,1,8,0:2:0:0:
178,224,214367,2,0,P|194:183|187:140,1,88,0|0,0:2|3:2,0:2:0:0:
105,174,214731,1,0,3:2:0:0:
171,312,214912,2,0,L|273:324,1,88,8|0,0:2|0:2,0:2:0:0:
336,280,215276,5,0,3:2:0:0:
492,315,215458,2,0,L|389:327,1,88,0|8,3:2|0:2,0:2:0:0:
254,236,215822,1,0,0:2:0:0:
336,364,216003,1,0,3:2:0:0:
417,237,216185,1,0,3:2:0:0:
336,280,216367,1,8,0:2:0:0:
335,108,216549,5,0,0:2:0:0:
335,108,216640,1,0,0:2:0:0:
335,108,216731,2,0,L|324:2,1,88,0|0,3:2|3:2,0:2:0:0:
263,159,217094,1,8,0:2:0:0:
410,146,217276,2,0,L|497:136,1,88,0|0,0:2|3:2,0:2:0:0:
338,197,217640,1,0,3:2:0:0:
183,178,217822,2,0,P|153:146|142:104,1,88,8|0,0:2|0:2,0:2:0:0:
181,25,218185,5,0,3:2:0:0:
262,185,218367,2,0,L|241:290,1,88,0|8,3:2|0:2,0:2:0:0:
120,142,218731,1,0,0:2:0:0:
314,121,218912,2,0,P|357:115|399:126,1,88,0|0,3:2|3:2,0:2:0:0:
369,313,219276,2,0,P|325:319|283:308,1,88,8|0,0:2|3:2,0:2:0:0:
481,198,219640,5,12,0:2:0:0:
460,303,219822,1,0,3:2:0:0:
374,237,220003,1,0,3:2:0:0:
491,215,220185,5,12,0:2:0:0:
406,310,220367,1,0,3:2:0:0:
356,190,220549,1,0,3:2:0:0:
498,234,220731,5,12,0:2:0:0:
358,279,220913,1,0,3:2:0:0:
442,64,221094,5,12,0:2:0:0:
377,177,221276,1,0,3:2:0:0:
301,70,221458,1,0,3:2:0:0:
448,78,221640,5,12,0:2:0:0:
319,153,221822,1,0,3:2:0:0:
306,6,222003,1,0,3:2:0:0:
455,96,222185,5,12,0:2:0:0:
277,97,222367,1,0,3:2:0:0:
387,258,222549,6,0,L|499:275,1,88,4|0,3:2|3:2,0:2:0:0:
343,181,222912,1,8,0:0:0:0:
266,334,223094,2,0,P|295:301|305:259,1,88,0|0,3:2|3:2,0:2:0:0:
206,111,223458,1,0,3:0:0:0:
132,263,223640,2,0,L|220:259,1,88,8|0,0:0|0:0,0:0:0:0:
387,258,224003,5,0,3:2:0:0:
258,179,224185,1,0,3:2:0:0:
266,334,224367,1,8,0:2:0:0:
343,181,224549,1,0,0:2:0:0:
206,111,224731,2,0,L|108:108,1,88,0|0,3:2|3:2,0:2:0:0:
410,238,225094,2,0,B|428:196|428:196|423:152,1,88,8|0,0:2|0:2,0:2:0:0:
266,19,225458,5,12,3:2:0:0:
206,111,225640,1,8,0:2:0:0:
320,111,225822,1,8,0:2:0:0:
146,15,226003,1,8,0:2:0:0:
263,210,226185,1,8,0:2:0:0:
374,12,226367,1,8,0:2:0:0:
206,111,226549,1,8,0:2:0:0:
376,208,226731,1,8,0:2:0:0:
266,19,226912,5,8,0:2:0:0:
195,272,227094,1,8,0:2:0:0:
110,103,227276,1,8,0:2:0:0:
283,302,227458,1,8,0:2:0:0:
419,120,227640,5,8,0:2:0:0:
212,368,227822,1,8,0:2:0:0:
164,13,228003,1,8,0:2:0:0:
349,243,228185,1,8,0:2:0:0:
161,218,228367,6,0,L|93:218,1,66.0000025177003,0|0,0:2|0:2,0:2:0:0:
62,145,228731,2,0,L|130:145,1,66.0000025177003,0|0,0:2|0:2,0:2:0:0:
206,143,229094,2,0,P|244:196|237:260,1,132.000005035401,2|0,0:2|0:2,0:2:0:0:
167,300,229640,1,0,0:2:0:0:
234,341,229822,6,0,P|266:335|293:317,1,66.0000025177003,0|0,0:2|0:2,0:2:0:0:
296,236,230185,2,0,P|264:242|237:260,1,66.0000025177003,0|0,0:2|0:2,0:2:0:0:
368,281,230549,2,0,B|378:233|378:233|353:153,1,132.000005035401,2|0,0:2|0:2,0:2:0:0:
275,166,231094,1,0,0:2:0:0:
195,153,231276,6,0,P|230:100|294:89,1,132.000005035401,0|0,0:2|0:2,0:2:0:0:
372,75,231822,1,0,0:2:0:0:
416,141,232003,2,0,P|385:153|353:153,1,66.0000025177003,2|0,0:2|0:2,0:2:0:0:
372,75,232367,2,0,P|402:62|435:63,1,66.0000025177003,0|0,0:2|0:2,0:2:0:0:
492,119,232731,6,0,L|489:192,1,66.0000025177003,0|0,0:2|0:2,0:2:0:0:
413,207,233094,2,0,L|416:134,1,66.0000025177003,0|0,0:2|0:2,0:2:0:0:
337,75,233458,2,0,L|339:140,1,66.0000025177003,2|0,0:2|0:2,0:2:0:0:
263,118,233821,2,0,L|260:52,1,66.0000025177003,0|0,0:2|0:2,0:2:0:0:
196,160,234185,6,0,L|350:155,1,132.000005035401,0|0,0:2|0:2,0:2:0:0:
395,198,234731,1,0,0:2:0:0:
438,263,234912,2,0,P|375:273|325:234,1,132.000005035401,2|0,0:2|0:2,0:2:0:0:
257,192,235458,1,0,0:2:0:0:
185,226,235640,6,0,L|109:234,1,66.0000025177003,0|0,0:2|0:2,0:2:0:0:
57,149,236003,2,0,L|122:155,1,66.0000025177003,0|0,0:2|0:2,0:2:0:0:
196,127,236367,2,0,P|180:99|153:81,1,66.0000025177003,2|0,0:2|0:2,0:2:0:0:
122,155,236731,2,0,P|138:183|165:201,1,66.0000025177003,0|0,0:2|0:2,0:2:0:0:
371,200,237094,6,0,B|303:175|303:175|245:191,1,132.000005035401,0|0,0:2|0:2,0:2:0:0:
219,266,237640,2,0,L|238:329,2,66.0000025177003,0|2|0,0:2|0:2|0:2,0:2:0:0:
103,219,238185,2,0,P|147:202|181:204,1,66.0000025177003,0|0,0:2|0:2,0:2:0:0:
71,298,238549,6,8,P|34:268|19:237,1,66.0000025177003,0|0,0:2|0:2,0:2:0:0:
63,118,238912,2,0,L|75:199,1,66.0000025177003,0|0,0:2|0:2,0:2:0:0:
152,28,239276,2,0,L|140:109,1,66.0000025177003,2|0,0:2|0:2,0:2:0:0:
231,184,239640,2,0,L|221:118,1,66.0000025177003,0|0,0:2|0:2,0:2:0:0:
301,28,240003,6,0,B|364:27|364:27|458:84,1,151.36000230957,4|0,3:2|3:2,0:2:0:0:
311,278,240731,2,0,L|322:203,1,75.6800011547852,8|0,3:2|0:2,0:2:0:0:
339,113,241094,1,0,3:3:0:0:
471,259,241276,1,8,0:2:0:0:
471,259,241367,1,8,0:2:0:0:
471,259,241458,2,0,L|379:266,1,75.6800011547852,8|8,3:2|0:2,0:2:0:0:
248,327,241822,6,0,L|323:332,1,75.6800011547852,4|0,3:2|0:2,0:2:0:0:
201,250,242185,1,8,3:2:0:0:
181,383,242367,1,8,0:2:0:0:
120,252,242549,2,0,P|126:215|150:185,1,75.6800011547852,4|8,3:2|0:2,0:2:0:0:
236,135,242822,1,8,0:2:0:0:
243,149,242912,6,0,L|229:243,1,75.6800011547852,8|0,3:2|0:2,0:2:0:0:
195,310,243276,1,4,3:2:0:0:
26,127,243640,2,0,L|123:121,1,75.6800011547852,8|0,3:2|0:2,0:2:0:0:
170,80,244003,1,0,3:2:0:0:
314,53,244185,1,8,0:2:0:0:
314,53,244276,1,8,0:2:0:0:
314,53,244367,6,0,L|238:48,1,75.6800011547852,8|8,3:2|0:2,0:2:0:0:
352,132,244731,1,4,3:2:0:0:
389,19,244912,1,8,0:2:0:0:
389,19,245003,1,8,0:2:0:0:
389,19,245094,1,8,3:2:0:0:
427,98,245276,5,8,0:3:0:0:
416,185,245458,1,4,0:3:0:0:
331,210,245640,1,4,3:3:0:0:
272,147,245822,6,0,L|140:152,1,132.000005035401,0|6,3:2|0:2,0:2:0:0:
70,309,246549,2,0,L|135:306,1,66.0000025177003,0|0,0:2|0:2,0:2:0:0:
173,228,246912,2,0,L|107:230,1,66.0000025177003,0|0,0:2|0:2,0:2:0:0:
84,221,247185,1,0,0:2:0:0:
56,207,247281,6,0,P|39:142|73:77,1,132.000005035401,0|6,0:2|0:2,0:2:0:0:
263,127,248008,2,0,P|233:141|200:143,1,66.0000025177003,0|0,0:2|0:2,0:2:0:0:
215,65,248371,2,0,P|244:51|277:49,1,66.0000025177003,0|0,0:2|0:2,0:2:0:0:
387,266,248756,6,0,B|428:166|337:104|337:104|347:136|334:166|323:177,1,264.000010070801,0|0,0:2|0:2,0:2:0:0:
95,268,250937,5,4,3:2:0:0:
263,127,251119,1,4,3:2:0:0:
121,342,251650,6,0,P|78:345|38:323,1,88,4|0,3:2|0:2,0:2:0:0:
159,183,252013,2,0,L|176:289,1,88,0|0,3:2|0:2,0:2:0:0:
73,181,252377,2,0,L|86:94,1,88,0|0,3:2|0:2,0:2:0:0:
254,63,252740,2,0,L|240:149,1,88,0|0,3:2|0:2,0:2:0:0:
166,25,253095,6,0,L|341:12,1,176,0|0,3:2|3:2,0:2:0:0:
507,118,253640,2,0,L|331:105,1,176,0|0,0:2|3:2,0:2:0:0:
427,24,254185,1,0,3:2:0:0:
349,202,254367,1,8,0:2:0:0:
349,202,254458,1,8,0:2:0:0:
349,202,254549,6,0,B|294:195|294:195|244:157,1,88,12|0,3:2|0:2,0:2:0:0:
495,146,254913,2,0,B|516:197|516:197|508:259,1,88,0|0,3:2|0:2,0:2:0:0:
335,367,255276,2,0,B|313:315|313:315|321:253,1,88,0|0,3:2|0:2,0:2:0:0:
418,157,255640,2,0,B|440:209|440:209|432:271,1,88,0|0,3:2|0:2,0:2:0:0:
224,283,256004,6,0,P|264:209|348:200,1,176,0|0,3:2|3:2,0:2:0:0:
339,33,256549,2,0,B|282:78|282:78|276:181,1,176,0|0,0:2|3:2,0:2:0:0:
188,124,257095,1,0,3:2:0:0:
371,133,257276,1,8,0:2:0:0:
371,133,257367,1,8,0:2:0:0:
371,133,257458,1,12,3:2:0:0:
241,27,257822,5,8,0:2:0:0:
215,57,257913,1,8,0:2:0:0:
187,85,258004,1,8,0:2:0:0:
151,103,258095,1,8,0:2:0:0:
113,114,258185,1,8,0:2:0:0:
75,119,258276,1,8,0:2:0:0:
37,106,258367,1,8,0:2:0:0:
20,70,258458,1,8,0:2:0:0:
37,34,258549,1,8,0:2:0:0:
73,18,258640,1,8,0:2:0:0:
109,34,258731,1,8,0:2:0:0:
119,72,258822,1,8,0:2:0:0:
110,110,258913,5,8,0:2:0:0:
95,151,259004,1,8,0:2:0:0:
82,193,259095,1,8,0:2:0:0:
82,236,259185,1,8,0:2:0:0:
97,277,259276,1,8,0:2:0:0:
128,307,259367,1,8,0:2:0:0:
170,319,259458,1,8,0:2:0:0:
212,307,259549,1,8,0:2:0:0:
246,279,259640,2,8,L|262:229,3,44,8|8|8|8,0:2|0:2|0:2|0:2,0:2:0:0:
206,142,260004,2,8,L|190:92,3,44,8|8|8|8,0:2|0:2|0:2|0:2,0:2:0:0:
275,9,260367,5,4,3:2:0:0:
177,234,260549,1,8,0:2:0:0:
177,234,260640,1,8,0:2:0:0:
177,234,260731,1,8,0:2:0:0:
69,39,260913,5,4,3:2:0:0:
290,99,261095,1,8,0:2:0:0:
290,99,261185,1,8,0:2:0:0:
290,99,261276,1,8,0:2:0:0:
86,228,261458,5,4,3:2:0:0:
153,22,261640,1,8,0:2:0:0:
153,22,261731,1,8,0:2:0:0:
153,22,261822,1,8,0:2:0:0:
273,184,262004,5,4,3:2:0:0:
48,154,262185,1,8,0:2:0:0:
48,154,262276,1,8,0:2:0:0:
48,154,262367,1,8,0:2:0:0:
190,117,262549,5,8,0:0:0:0:
233,114,262639,1,8,0:0:0:0:
271,92,262730,1,8,0:0:0:0:
296,56,262821,1,8,0:0:0:0:
310,26,262913,5,8,0:0:0:0:
303,69,263003,1,8,0:0:0:0:
305,113,263094,1,8,0:0:0:0:
315,156,263185,1,8,0:0:0:0:
334,195,263276,6,0,P|375:207|416:197,1,70.4,12|0,0:0|0:0,0:0:0:0:
460,139,263640,1,0,3:2:0:0:
473,124,264393,5,2,3:2:0:0:
285,144,264756,1,2,0:2:0:0:
488,106,265119,5,2,3:2:0:0:
286,126,265301,1,2,0:2:0:0:
285,109,265665,5,2,0:2:0:0:
460,139,265837,1,0,3:2:0:0:
346,275,266018,1,2,0:2:0:0:
217,167,266200,6,0,P|183:157|148:159,1,70.4,0|0,0:2|0:2,0:2:0:0:
62,184,266563,1,0,3:2:0:0:
53,199,267290,5,2,3:2:0:0:
111,366,267654,1,2,0:2:0:0:
50,216,268018,5,2,3:2:0:0:
123,350,268200,1,2,0:2:0:0:
137,332,268563,5,2,0:2:0:0:
42,238,268745,1,0,3:2:0:0:
170,202,268927,1,2,0:2:0:0:
259,353,269109,6,0,B|296:359|296:359|328:352,1,70.4,4|0,0:2|0:2,0:2:0:0:
413,291,269462,1,0,3:2:0:0:
425,279,270189,1,0,3:2:0:0:
439,269,270915,1,0,3:2:0:0:
458,252,271279,2,0,L|429:171,1,70.4,2|0,0:2|0:2,0:2:0:0:
292,98,271642,2,0,L|323:185,1,70.4,2|0,3:2|0:2,0:2:0:0:
283,274,272011,6,0,P|250:266|216:275,1,70.4,6|0,0:2|0:2,0:2:0:0:
254,346,272374,1,0,3:2:0:0:
126,267,272738,1,2,0:2:0:0:
269,360,273101,5,0,3:2:0:0:
135,255,273283,1,2,0:0:0:0:
298,195,273465,6,0,B|291:267,1,70.4,6|0,0:2|0:2,0:2:0:0:
377,375,273829,2,0,P|373:340|357:309,1,70.4,2|2,3:2|0:0,0:0:0:0:
387,237,274192,2,0,P|418:251|453:252,1,70.4,2|0,0:0|0:0,0:0:0:0:
505,191,274556,2,0,P|473:176|438:175,1,70.4,2|2,0:0|0:0,0:0:0:0:
404,83,274923,6,0,P|371:110|328:116,1,88,8|0,3:3|0:2,0:2:0:0:
253,74,275286,1,0,3:2:0:0:
451,0,275468,2,0,L|437:194,1,176,8|0,0:3|0:2,0:2:0:0:
269,209,276013,2,0,L|385:179,1,88,8|0,3:2|0:2,0:2:0:0:
476,306,276377,6,0,P|435:290|407:257,1,88,8|0,3:3|0:2,0:2:0:0:
438,175,276741,1,8,3:2:0:0:
321,264,276923,2,0,P|327:221|354:187,1,88,8|8,0:3|0:3,0:2:0:0:
438,175,277286,1,8,0:3:0:0:
361,342,277468,2,0,L|257:344,1,88,12|0,3:3|0:2,0:2:0:0:
145,251,277832,6,0,B|195:248|195:248|229:263,1,88,8|0,3:3|0:2,0:2:0:0:
110,334,278195,1,0,3:2:0:0:
12,182,278377,2,0,L|187:171,1,176,8|0,0:3|0:2,0:2:0:0:
311,18,278923,2,0,L|223:23,1,88,8|0,3:2|0:2,0:2:0:0:
73,99,279286,6,0,L|160:93,1,88,8|0,0:3|0:2,0:2:0:0:
223,23,279650,1,0,3:2:0:0:
187,171,279832,1,8,0:3:0:0:
160,93,280013,1,8,0:3:0:0:
131,234,280195,1,8,0:3:0:0:
271,192,280377,1,4,3:3:0:0:
94,157,280559,1,8,0:2:0:0:
94,157,280650,1,8,0:2:0:0:
93,157,280741,6,8,P|60:184|46:225,1,88,8|0,3:3|0:2,0:2:0:0:
82,306,281104,1,0,3:2:0:0:
285,201,281286,2,0,P|201:185|131:234,1,176,8|0,0:3|0:2,0:2:0:0:
336,282,281832,2,0,L|438:250,1,88,8|0,3:2|0:2,0:2:0:0:
430,87,282195,6,0,B|404:130|404:130|401:167,1,88,8|0,3:3|0:2,0:2:0:0:
490,157,282559,1,0,3:2:0:0:
350,46,282741,2,0,L|232:59,1,88,8|0,0:3|0:2,0:2:0:0:
159,197,283104,1,4,0:3:0:0:
279,138,283286,1,4,3:3:0:0:
168,64,283468,1,0,0:2:0:0:
259,228,283650,6,0,P|302:227|340:206,1,88,8|0,3:3|0:2,0:2:0:0:
371,123,284013,1,0,3:2:0:0:
428,357,284195,2,0,P|452:274|427:192,1,176,8|0,0:3|0:2,0:2:0:0:
305,56,284741,2,0,P|282:93|278:137,1,88,8|0,3:2|0:2,0:2:0:0:
459,95,285104,6,8,P|433:54|394:32,1,88,8|0,3:3|0:2,0:2:0:0:
278,137,285468,1,0,3:2:0:0:
394,268,285650,2,0,L|480:250,1,88,8|0,0:3|3:2,0:2:0:0:
336,203,286013,1,4,0:3:0:0:
365,352,286195,1,8,3:2:0:0:
508,167,286377,1,8,0:2:0:0:
508,167,286468,1,8,0:2:0:0:
508,167,286559,5,12,3:2:0:0:
336,203,286741,1,8,0:2:0:0:
390,36,286923,1,8,3:2:0:0:
425,185,287104,1,8,0:2:0:0:
220,77,287286,1,8,3:2:0:0:
364,120,287468,1,8,0:2:0:0:
305,286,287650,1,8,3:2:0:0:
307,55,287832,1,8,0:2:0:0:
399,271,288013,5,8,3:2:0:0:
162,144,288195,1,8,0:0:0:0:
364,120,288377,1,8,3:2:0:0:
220,300,288559,1,8,0:2:0:0:
278,137,288741,1,8,3:2:0:0:
136,276,288923,1,8,0:2:0:0:
220,77,289105,1,8,3:2:0:0:
305,286,289286,1,8,0:2:0:0:
79,201,289468,5,8,3:2:0:0:
278,137,289650,1,8,0:0:0:0:
277,367,289832,1,8,3:2:0:0:
162,144,290013,1,8,0:2:0:0:
152,366,290195,1,8,3:2:0:0:
336,203,290377,1,8,0:2:0:0:
79,125,290559,1,8,3:2:0:0:
220,300,290741,1,8,0:2:0:0:
364,120,290923,6,8,P|375:81|365:18,1,88,8|8,3:2|0:2,0:2:0:0:
245,210,291286,1,8,3:2:0:0:
408,323,291468,2,8,L|527:335,1,88,8|8,0:2|3:2,0:2:0:0:
290,71,291832,2,8,L|171:83,1,88,8|8,0:2|3:2,0:2:0:0:
136,276,292195,1,8,0:2:0:0:
364,120,292377,5,12,3:2:0:0:
129,1,292559,1,8,0:2:0:0:
336,203,292741,1,8,3:2:0:0:
490,21,292923,1,8,0:2:0:0:
278,137,293104,1,8,3:2:0:0:
365,354,293286,1,8,0:2:0:0:
302,58,293468,1,8,3:2:0:0:
78,261,293650,1,8,0:2:0:0:
354,281,293832,6,8,P|392:262|415:225,1,88,8|8,3:2|0:2,0:2:0:0:
383,34,294195,1,8,3:2:0:0:
252,219,294377,2,8,L|239:306,1,88,8|8,0:2|3:2,0:2:0:0:
31,180,294741,2,8,L|18:92,1,88,8|8,0:2|3:2,0:2:0:0:
278,137,295104,1,8,0:2:0:0:
119,328,295286,5,12,0:2:0:0:
119,328,295377,1,8,0:2:0:0:
119,328,295468,1,8,3:2:0:0:
220,77,295650,1,0,3:2:0:0:
386,289,295832,5,12,0:2:0:0:
386,289,295923,1,8,0:2:0:0:
386,289,296013,1,8,3:2:0:0:
69,245,296195,1,0,3:2:0:0:
288,13,296377,5,12,0:2:0:0:
288,13,296468,1,8,0:2:0:0:
288,13,296559,1,8,3:2:0:0:
342,361,296741,1,4,3:2:0:0:
34,168,296923,5,8,0:2:0:0:
34,168,297013,1,8,0:2:0:0:
34,168,297104,1,12,3:2:0:0:
376,24,297286,1,4,3:2:0:0:
122,319,297468,1,12,0:0:0:0:
135,290,297558,1,0,0:0:0:0:
137,259,297649,1,8,0:0:0:0:
136,226,297741,1,8,0:0:0:0:
127,194,297832,1,12,0:0:0:0:
118,166,297923,1,8,0:0:0:0:
119,133,298013,1,8,0:0:0:0:
129,102,298104,1,8,0:0:0:0:
153,77,298195,6,0,P|197:59|244:67,1,96.8000029541017,4|0,3:2|3:2,0:2:0:0:
214,274,298559,1,8,0:2:0:0:
58,122,298741,1,0,0:2:0:0:
58,122,298832,1,0,0:2:0:0:
58,122,298923,2,0,L|45:15,1,96.8000029541017,0|0,3:2|3:2,0:2:0:0:
191,142,299286,2,0,L|179:238,1,96.8000029541017,8|0,0:2|0:2,0:2:0:0:
3,188,299650,6,0,L|190:141,1,193.600005908203,0|8,3:2|0:2,0:2:0:0:
354,20,300195,2,0,P|278:73|285:165,1,193.600005908203,0|0,3:2|3:2,0:2:0:0:
452,146,300741,2,0,L|362:113,1,96.8000029541017,8|0,0:2|0:2,0:2:0:0:
367,311,301104,6,0,B|419:321|419:321|461:308,1,96.8000029541017,0|0,3:2|3:2,0:2:0:0:
285,165,301468,2,0,B|233:155|233:155|190:167,1,96.8000029541017,8|0,0:2|0:2,0:2:0:0:
184,323,301832,1,0,3:2:0:0:
238,241,302013,1,0,3:2:0:0:
127,116,302195,2,0,P|108:163|119:208,1,96.8000029541017,8|0,0:2|0:2,0:2:0:0:
357,204,302559,6,0,P|366:157|348:113,1,96.8000029541017,0|0,3:2|3:2,0:2:0:0:
263,68,302923,1,8,0:2:0:0:
318,289,303104,2,0,L|443:300,1,96.8000029541017,0|0,0:2|3:2,0:2:0:0:
435,91,303468,1,4,0:0:0:0:
357,204,303650,1,12,0:0:0:0:
263,68,303832,1,0,0:2:0:0:
50,103,304013,5,0,3:2:0:0:
50,102,304195,2,0,P|104:69|165:87,1,132.000005035401,0|0,3:2|3:2,0:2:0:0:
136,277,304741,2,0,L|115:147,1,132.000005035401,8|0,0:2|0:2,0:2:0:0:
49,244,305286,1,0,0:2:0:0:
204,336,305468,5,0,3:2:0:0:
204,336,305650,2,0,B|270:334|270:334|343:307,1,132.000005035401,0|0,3:2|3:2,0:2:0:0:
277,117,306195,2,0,B|254:178|254:178|252:244,1,132.000005035401,8|0,0:2|0:2,0:2:0:0:
337,225,306741,1,0,0:2:0:0:
194,81,306923,5,4,3:2:0:0:
194,81,307104,2,0,L|141:221,1,132.000005035401,0|0,3:2|3:2,0:2:0:0:
303,29,307650,2,0,P|238:34|194:81,1,132.000005035401,8|0,0:2|0:2,0:2:0:0:
277,117,308195,1,0,0:2:0:0:
462,67,308377,5,0,3:2:0:0:
462,67,308559,2,0,L|484:204,1,132.000005035401,0|0,3:2|3:2,0:2:0:0:
322,185,309104,2,0,B|370:140|370:140|435:139,1,132.000005035401,12|0,0:2|0:2,0:2:0:0:
365,318,309650,1,8,0:2:0:0:
371,286,309741,1,8,0:2:0:0:
377,254,309832,5,8,3:2:0:0:
322,185,310013,1,8,0:2:0:0:
280,262,310195,1,8,3:2:0:0:
412,172,310377,1,8,0:2:0:0:
268,102,310559,1,8,3:2:0:0:
377,254,310741,1,8,0:2:0:0:
361,75,310923,1,8,3:2:0:0:
227,187,311104,1,8,0:2:0:0:
447,94,311286,5,8,3:2:0:0:
280,262,311468,1,8,0:2:0:0:
462,241,311650,1,8,3:2:0:0:
268,102,311832,1,8,0:2:0:0:
336,327,312013,1,8,3:2:0:0:
412,172,312195,1,8,0:2:0:0:
181,105,312377,1,8,3:2:0:0:
280,262,312559,1,8,0:2:0:0:
498,158,312741,6,0,L|512:71,1,88,12|0,0:2|3:2,0:2:0:0:
462,241,313104,1,0,3:2:0:0:
426,111,313286,2,0,L|395:28,1,88,12|0,0:2|3:2,0:2:0:0:
396,187,313650,1,0,3:2:0:0:
324,76,313832,2,0,L|256:19,1,88,12|0,0:2|3:2,0:2:0:0:
49,220,314195,5,8,3:2:0:0:
54,76,315655,6,0,P|23:107|6:147,1,88,4|0,3:2|0:2,0:2:0:0:
134,233,316018,2,0,P|164:201|181:161,1,88,8|0,3:2|0:2,0:2:0:0:
94,149,316382,1,0,3:2:0:0:
168,315,316564,1,0,0:2:0:0:
269,170,316745,2,0,L|160:159,1,88,8|0,3:2|0:2,0:2:0:0:
247,349,317109,6,0,L|422:331,1,176,0|8,3:2|3:2,0:2:0:0:
345,164,317655,2,0,P|303:238|328:319,1,176,0|0,0:2|3:2,0:2:0:0:
418,128,318200,2,0,P|391:95|346:83,1,88,8|0,3:2|0:2,0:2:0:0:
160,160,318564,6,0,B|208:171|208:171|245:161,1,88,0|0,3:2|0:2,0:2:0:0:
110,70,318927,2,0,B|62:59|62:59|24:68,1,88,8|0,3:2|0:2,0:2:0:0:
117,230,319291,1,0,3:2:0:0:
70,145,319473,1,0,0:2:0:0:
83,307,319655,2,0,P|127:315|176:291,1,88,8|0,3:2|0:2,0:2:0:0:
346,177,320018,6,0,P|263:159|200:217,1,176,0|8,3:2|3:2,0:2:0:0:
407,257,320564,2,0,L|384:82,1,176,0|0,0:2|3:2,0:2:0:0:
289,250,321109,2,0,L|300:337,1,88,8|0,3:2|0:2,0:2:0:0:
511,143,321473,6,0,L|423:154,1,88,0|0,3:2|0:2,0:2:0:0:
387,342,321836,1,8,3:2:0:0:
512,242,322018,1,0,0:2:0:0:
313,175,322200,2,0,P|269:174|229:198,1,88,0|0,3:2|0:2,0:2:0:0:
215,359,322564,1,8,3:2:0:0:
103,191,322745,1,0,0:2:0:0:
289,250,322927,6,0,L|488:250,1,176,0|8,3:2|3:2,0:2:0:0:
296,43,323473,2,0,P|240:108|231:194,1,176,0|0,0:2|3:2,0:2:0:0:
491,146,324018,2,0,L|381:140,1,88,8|0,3:2|0:2,0:2:0:0:
208,47,324382,6,0,L|318:41,1,88,0|0,3:2|0:2,0:2:0:0:
222,279,324745,2,0,P|183:258|158:222,1,88,8|0,3:2|0:2,3:2:0:0:
365,92,325109,1,8,3:2:0:0:
304,290,325291,1,8,0:2:0:0:
163,138,325473,1,8,3:2:0:0:
281,175,325655,1,12,0:2:0:0:
109,307,325836,5,12,3:2:0:0:
258,70,326018,1,8,0:2:0:0:
373,222,326200,1,8,3:2:0:0:
195,244,326382,1,8,0:2:0:0:
365,92,326564,1,8,3:2:0:0:
422,338,326745,5,8,0:2:0:0:
87,204,326927,1,8,3:2:0:0:
283,39,327109,1,8,0:2:0:0:
436,305,328048,6,0,B|443:323|440:350|440:350|474:310|486:240|447:186|447:186|378:211|354:277|358:323|358:323|325:283|271:265|208:281|208:281|228:196|228:196|317:192|317:192|242:143|242:143|266:59|266:59|197:114|197:114|123:65|123:65|155:148|155:148|87:204|87:204|169:202|169:202,1,1337.6,6|0,0:0|0:0,0:0:0:0:
256,192,335030,12,0,336014,0:0:0:0:
