osu file format v14

[General]
AudioFilename: audio.mp3
AudioLeadIn: 0
PreviewTime: 54816
Countdown: 0
SampleSet: Normal
StackLeniency: 0.7
Mode: 1
LetterboxInBreaks: 0
WidescreenStoryboard: 0

[Editor]
Bookmarks: 1453,13089,18907,30543,45089,50907,56725,62543,68362,74180,79998,85725
DistanceSpacing: 1.4
BeatDivisor: 4
GridSize: 32
TimelineZoom: 2.7

[Metadata]
Title:Kimi no Shiranai Monogatari (TV Size)
TitleUnicode:君の知らない物語 (TV Size)
Artist:supercell
ArtistUnicode:supercell
Creator:Slyme
Version:Oni
Source:化物語
Tags:bakemonogatari ed ending 1 senjougahara hitagi japanese pop anime jpop j-pop mari_0hara mari 0hara female vocals vocalist linkff001 yumerios ryo
BeatmapID:4376447
BeatmapSetID:2088071

[Difficulty]
HPDrainRate:6
CircleSize:5
OverallDifficulty:5.5
ApproachRate:5
SliderMultiplier:1.4
SliderTickRate:1

[Events]
//Background and Video events
0,0,"Konachan.com - 233619 sample (1) (1).jpg",0,90
Video,490,"output (1).mp4"
//Break Periods
//Storyboard Layer 0 (Background)
//Storyboard Layer 1 (Fail)
//Storyboard Layer 2 (Pass)
//Storyboard Layer 3 (Foreground)
//Storyboard Layer 4 (Overlay)
//Storyboard Sound Samples

[TimingPoints]
1453,363.636363636364,4,1,0,90,1,0
1453,-100,4,1,0,90,0,0
1614,-100,4,1,0,80,0,0
7251,-100,4,1,0,90,0,0
7432,-100,4,1,0,80,0,0
10160,-100,4,1,0,90,0,0
10341,-100,4,1,0,80,0,0
10705,-100,4,1,0,90,0,0
10886,-100,4,1,0,80,0,0
11433,-100,4,1,0,90,0,0
11614,-100,4,1,0,80,0,0
12160,-100,4,1,0,90,0,0
13069,-100,4,1,0,90,0,0
13250,-100,4,1,0,80,0,0
17251,-100,4,1,0,90,0,0
17432,-100,4,1,0,80,0,0
17614,-100,4,1,0,82,0,0
17796,-100,4,1,0,84,0,0
17887,-100,4,1,0,85,0,0
17978,-100,4,1,0,86,0,0
18160,-100,4,1,0,87,0,0
18251,-100,4,1,0,87,0,0
18342,-100,4,1,0,88,0,0
18433,-100,4,1,0,88,0,0
18523,-100,4,1,0,89,0,0
18705,-100,4,1,0,90,0,0
18887,-100,4,1,0,60,0,0
30523,-100,4,1,0,90,0,0
30705,-100,4,1,0,70,0,0
42160,-100,4,1,0,90,0,0
42523,-100,4,1,0,80,0,0
42705,-100,4,1,0,82,0,0
42887,-100,4,1,0,83,0,0
42978,-100,4,1,0,84,0,0
43069,-100,4,1,0,85,0,0
43251,-100,4,1,0,87,0,0
43433,-100,4,1,0,88,0,0
43614,-100,4,1,0,90,0,0
43705,-100,4,1,0,89,0,0
43796,-100,4,1,0,88,0,0
43887,-100,4,1,0,87,0,0
43978,-100,4,1,0,87,0,0
44160,-100,4,1,0,85,0,0
44342,-100,4,1,0,83,0,0
44433,-100,4,1,0,82,0,0
44523,-100,4,1,0,82,0,0
44614,-100,4,1,0,81,0,0
44705,-100,4,1,0,80,0,0
45069,-100,4,1,0,90,0,0
45433,-100,4,1,0,70,0,0
50069,-100,4,1,0,70,0,0
50160,-100,4,1,0,69,0,0
50342,-100,4,1,0,66,0,0
50523,-100,4,1,0,63,0,0
50705,-100,4,1,0,60,0,0
50887,-100,4,1,0,80,0,0
51251,-100,4,1,0,70,0,0
51433,-100,4,1,0,71,0,0
51614,-100,4,1,0,71,0,0
51705,-100,4,1,0,72,0,0
51796,-100,4,1,0,72,0,0
51978,-100,4,1,0,73,0,0
52160,-100,4,1,0,74,0,0
52342,-100,4,1,0,74,0,0
52433,-100,4,1,0,75,0,0
52523,-100,4,1,0,75,0,0
52705,-100,4,1,0,76,0,0
52887,-100,4,1,0,76,0,0
53069,-100,4,1,0,77,0,0
53160,-100,4,1,0,78,0,0
53251,-100,4,1,0,78,0,0
53342,-100,4,1,0,78,0,0
53433,-100,4,1,0,79,0,0
53614,-100,4,1,0,79,0,0
53796,-100,4,1,0,80,0,0
55251,-100,4,1,0,90,0,0
55433,-100,4,1,0,70,0,0
56725,-100,4,1,0,90,0,1
56887,-100,4,1,0,90,0,1
61978,-100,4,1,0,90,0,1
62523,-100,4,1,0,90,0,1
62705,-100,4,1,0,90,0,1
65433,-100,4,1,0,90,0,1
65796,-100,4,1,0,90,0,1
67614,-100,4,1,0,90,0,1
67705,-100,4,1,0,89,0,1
67796,-100,4,1,0,87,0,1
67887,-100,4,1,0,86,0,1
67978,-100,4,1,0,84,0,1
68069,-100,4,1,0,83,0,1
68160,-100,4,1,0,81,0,1
68251,-100,4,1,0,80,0,1
68342,-100,4,1,0,90,0,1
68705,-100,4,1,0,90,0,1
73634,-100,4,1,0,90,0,1
74180,-100,4,1,0,90,0,0
74342,-100,4,1,0,80,0,0
77069,-100,4,1,0,90,0,0
77271,-100,4,1,0,80,0,0
79978,-100,4,1,0,90,0,0
80342,-100,4,1,0,80,0,0
80523,-100,4,1,0,81,0,0
80705,-100,4,1,0,81,0,0
80796,-100,4,1,0,82,0,0
80887,-100,4,1,0,82,0,0
81069,-100,4,1,0,83,0,0
81251,-100,4,1,0,84,0,0
81433,-100,4,1,0,84,0,0
81614,-100,4,1,0,85,0,0
81796,-100,4,1,0,86,0,0
81887,-100,4,1,0,86,0,0
81978,-100,4,1,0,86,0,0
82069,-100,4,1,0,87,0,0
82160,-100,4,1,0,87,0,0
82342,-100,4,1,0,88,0,0
82433,-100,4,1,0,88,0,0
82523,-100,4,1,0,89,0,0
82614,-100,4,1,0,89,0,0
82705,-100,4,1,0,89,0,0
82796,-100,4,1,0,90,0,0
82907,-100,4,1,0,90,0,1
83069,-100,4,1,0,90,0,1
83433,-100,4,1,0,90,0,1
83614,-100,4,1,0,90,0,1
83978,-100,4,1,0,90,0,1
84160,-100,4,1,0,90,0,1
85251,-100,4,1,0,90,0,1
85543,-100,4,1,0,90,0,1
85816,-100,4,1,0,90,0,0

[HitObjects]
256,192,1453,5,12,0:0:0:0:
256,192,1634,1,0,0:0:0:0:
64,64,1817,1,0,0:0:0:0:
64,64,1908,1,0,0:0:0:0:
448,64,1998,1,8,0:0:0:0:
256,192,2180,1,8,0:0:0:0:
256,192,2362,1,0,0:0:0:0:
256,192,2543,1,8,0:0:0:0:
256,192,2634,1,8,0:0:0:0:
256,192,2725,1,0,0:0:0:0:
256,192,2907,1,8,0:0:0:0:
256,192,3089,1,0,0:0:0:0:
256,192,3271,1,8,0:0:0:0:
256,192,3362,1,0,0:0:0:0:
256,192,3453,1,8,0:0:0:0:
256,192,3634,1,0,0:0:0:0:
64,64,3817,1,0,0:0:0:0:
448,64,3998,1,8,0:0:0:0:
256,192,4362,1,8,0:0:0:0:
256,192,4543,1,0,0:0:0:0:
256,192,4725,1,8,0:0:0:0:
256,192,4816,1,8,0:0:0:0:
256,192,4907,1,0,0:0:0:0:
256,192,5089,1,8,0:0:0:0:
256,192,5271,1,0,0:0:0:0:
256,192,5452,1,8,0:0:0:0:
256,192,5543,1,8,0:0:0:0:
256,192,5634,1,0,0:0:0:0:
256,192,5816,1,8,0:0:0:0:
256,192,5998,1,0,0:0:0:0:
64,64,6089,1,0,0:0:0:0:
256,192,6180,1,8,0:0:0:0:
448,64,6271,1,8,0:0:0:0:
64,64,6362,1,0,0:0:0:0:
256,192,6543,1,0,0:0:0:0:
256,192,6725,1,8,0:0:0:0:
256,192,6816,1,0,0:0:0:0:
256,192,6907,1,8,0:0:0:0:
256,192,7271,1,12,0:0:0:0:
256,192,7452,1,0,0:0:0:0:
256,192,7634,1,8,0:0:0:0:
256,192,7725,1,0,0:0:0:0:
256,192,7816,1,8,0:0:0:0:
256,192,7998,1,0,0:0:0:0:
256,192,8180,1,8,0:0:0:0:
256,192,8361,1,0,0:0:0:0:
256,192,8452,1,8,0:0:0:0:
256,192,8543,1,0,0:0:0:0:
256,192,8725,1,8,0:0:0:0:
256,192,8907,1,0,0:0:0:0:
256,192,9089,1,8,0:0:0:0:
256,192,9180,1,8,0:0:0:0:
64,64,9271,1,0,0:0:0:0:
256,192,9453,1,8,0:0:0:0:
256,192,9543,1,8,0:0:0:0:
256,192,9634,1,0,0:0:0:0:
256,192,9725,1,0,0:0:0:0:
256,192,9816,1,8,0:0:0:0:
256,192,10180,1,4,0:0:0:0:
256,192,10362,1,8,0:0:0:0:
448,64,10453,1,8,0:0:0:0:
448,64,10544,1,8,0:0:0:0:
64,320,10726,1,4,0:0:0:0:
256,192,11089,1,8,0:0:0:0:
64,64,11271,1,0,0:0:0:0:
256,192,11453,1,12,0:0:0:0:
256,192,11816,1,0,0:0:0:0:
256,192,11998,1,8,0:0:0:0:
256,192,12180,1,4,0:0:0:0:
256,192,12543,1,12,0:0:0:0:
256,192,13089,1,4,0:0:0:0:
256,192,13271,1,8,0:0:0:0:
256,192,13453,1,0,0:0:0:0:
256,192,13543,1,0,0:0:0:0:
256,192,13634,1,8,0:0:0:0:
256,192,13816,1,0,0:0:0:0:
256,192,13998,1,8,0:0:0:0:
448,64,14180,1,8,0:0:0:0:
64,64,14271,1,0,0:0:0:0:
448,64,14362,1,8,0:0:0:0:
64,64,14544,1,0,0:0:0:0:
448,64,14725,1,8,0:0:0:0:
256,192,14907,1,0,0:0:0:0:
256,192,15089,1,8,0:0:0:0:
256,192,15180,1,8,0:0:0:0:
256,192,15271,1,0,0:0:0:0:
256,192,15453,1,8,0:0:0:0:
256,192,15634,1,0,0:0:0:0:
448,64,15998,1,8,0:0:0:0:
256,192,16180,1,0,0:0:0:0:
256,192,16362,1,8,0:0:0:0:
256,192,16453,1,0,0:0:0:0:
256,192,16543,1,8,0:0:0:0:
256,192,16725,1,0,0:0:0:0:
64,64,16907,1,0,0:0:0:0:
256,192,17089,1,8,0:0:0:0:
256,192,17271,1,4,0:0:0:0:
256,192,17634,1,8,0:0:0:0:
256,192,17816,1,8,0:0:0:0:
256,192,17998,1,8,0:0:0:0:
256,192,18180,1,8,0:0:0:0:
256,192,18362,1,8,0:0:0:0:
256,192,18543,1,8,0:0:0:0:
448,64,18725,1,8,0:0:0:0:
256,192,18907,1,0,0:0:0:0:
64,64,19271,1,0,0:0:0:0:
256,192,19453,1,8,0:0:0:0:
256,192,19634,1,0,0:0:0:0:
256,192,19998,1,8,0:0:0:0:
256,192,20180,1,8,0:0:0:0:
256,192,20362,1,0,0:0:0:0:
256,192,20725,1,8,0:0:0:0:
256,192,20907,1,0,0:0:0:0:
256,192,21271,1,8,0:0:0:0:
256,192,21634,1,0,0:0:0:0:
256,192,21816,1,8,0:0:0:0:
256,192,22180,1,8,0:0:0:0:
256,192,22362,1,8,0:0:0:0:
256,192,22543,1,0,0:0:0:0:
256,192,22907,1,0,0:0:0:0:
256,192,23089,1,0,0:0:0:0:
256,192,23271,1,8,0:0:0:0:
256,192,23634,1,0,0:0:0:0:
256,192,23816,1,8,0:0:0:0:
256,192,24180,1,0,0:0:0:0:
64,64,24726,1,0,0:0:0:0:
256,192,25089,1,8,0:0:0:0:
256,192,25271,1,8,0:0:0:0:
256,192,25453,1,0,0:0:0:0:
256,192,25816,1,0,0:0:0:0:
256,192,25998,1,0,0:0:0:0:
256,192,26180,1,8,0:0:0:0:
256,192,26543,1,0,0:0:0:0:
256,192,26725,1,8,0:0:0:0:
256,192,26907,1,0,0:0:0:0:
256,192,27271,1,8,0:0:0:0:
256,192,27453,1,0,0:0:0:0:
256,192,27634,1,8,0:0:0:0:
256,192,27998,1,0,0:0:0:0:
256,192,28180,1,8,0:0:0:0:
256,192,28362,1,0,0:0:0:0:
256,192,28543,1,8,0:0:0:0:
256,192,28725,1,8,0:0:0:0:
256,192,28907,1,8,0:0:0:0:
256,192,29089,1,0,0:0:0:0:
256,192,29453,1,8,0:0:0:0:
256,192,29634,1,0,0:0:0:0:
256,192,29816,1,8,0:0:0:0:
256,192,30180,1,0,0:0:0:0:
256,192,30543,1,12,0:0:0:0:
256,192,30907,1,8,0:0:0:0:
256,192,31089,1,8,0:0:0:0:
256,192,31271,1,8,0:0:0:0:
256,192,31453,1,0,0:0:0:0:
256,192,31634,1,8,0:0:0:0:
64,64,31816,1,0,0:0:0:0:
256,192,31998,1,8,0:0:0:0:
256,192,32180,1,8,0:0:0:0:
256,192,32362,1,0,0:0:0:0:
256,192,32543,1,8,0:0:0:0:
256,192,32634,1,8,0:0:0:0:
256,192,32725,1,0,0:0:0:0:
256,192,32907,1,8,0:0:0:0:
256,192,33271,1,8,0:0:0:0:
256,192,33453,1,0,0:0:0:0:
256,192,33635,1,8,0:0:0:0:
256,192,33816,1,8,0:0:0:0:
256,192,33999,1,0,0:0:0:0:
256,192,34181,1,8,0:0:0:0:
256,192,34362,1,0,0:0:0:0:
256,192,34544,1,0,0:0:0:0:
448,64,34725,1,8,0:0:0:0:
256,192,34908,1,8,0:0:0:0:
256,192,35090,1,0,0:0:0:0:
256,192,35271,1,8,0:0:0:0:
256,192,35453,1,8,0:0:0:0:
256,192,35543,1,8,0:0:0:0:
256,192,35635,1,0,0:0:0:0:
256,192,35816,1,8,0:0:0:0:
256,192,36362,1,8,0:0:0:0:
256,192,36543,1,0,0:0:0:0:
256,192,36725,1,8,0:0:0:0:
256,192,36907,1,0,0:0:0:0:
256,192,37089,1,0,0:0:0:0:
256,192,37180,1,0,0:0:0:0:
256,192,37271,1,8,0:0:0:0:
256,192,37453,1,0,0:0:0:0:
64,64,37635,1,0,0:0:0:0:
448,64,37817,1,8,0:0:0:0:
448,64,37998,1,8,0:0:0:0:
256,192,38180,1,0,0:0:0:0:
256,192,38362,1,8,0:0:0:0:
448,64,38544,1,8,0:0:0:0:
448,64,38635,1,8,0:0:0:0:
64,64,38726,1,0,0:0:0:0:
448,64,38908,1,8,0:0:0:0:
256,192,39271,1,8,0:0:0:0:
256,192,39453,1,0,0:0:0:0:
256,192,39634,1,8,0:0:0:0:
256,192,39816,1,0,0:0:0:0:
256,192,39998,1,0,0:0:0:0:
256,192,40089,1,0,0:0:0:0:
256,192,40180,1,8,0:0:0:0:
256,192,40362,1,8,0:0:0:0:
256,192,40543,1,0,0:0:0:0:
256,192,40725,1,8,0:0:0:0:
64,64,40907,1,0,0:0:0:0:
256,192,41089,1,8,0:0:0:0:
256,192,41271,1,8,0:0:0:0:
256,192,41453,1,0,0:0:0:0:
256,192,41634,1,0,0:0:0:0:
256,192,41725,1,0,0:0:0:0:
256,192,41816,1,8,0:0:0:0:
256,192,41998,1,8,0:0:0:0:
256,192,42180,1,4,0:0:0:0:
256,192,42543,1,8,0:0:0:0:
256,192,42725,1,8,0:0:0:0:
256,192,42907,1,0,0:0:0:0:
256,192,43089,1,0,0:0:0:0:
256,192,43271,1,8,0:0:0:0:
256,192,43453,1,0,0:0:0:0:
256,192,43634,1,8,0:0:0:0:
256,192,43725,1,8,0:0:0:0:
256,192,43816,1,0,0:0:0:0:
256,192,43998,1,8,0:0:0:0:
256,192,44180,1,0,0:0:0:0:
256,192,44362,1,8,0:0:0:0:
256,192,44453,1,8,0:0:0:0:
256,192,44543,1,8,0:0:0:0:
256,192,44634,1,8,0:0:0:0:
256,192,44725,1,0,0:0:0:0:
64,64,44908,1,0,0:0:0:0:
256,192,45089,1,12,0:0:0:0:
256,192,45453,1,0,0:0:0:0:
256,192,45634,1,8,0:0:0:0:
256,192,45816,1,0,0:0:0:0:
256,192,46180,1,8,0:0:0:0:
64,64,46362,1,0,0:0:0:0:
256,192,46453,1,0,0:0:0:0:
256,192,46543,1,0,0:0:0:0:
448,64,46726,1,8,0:0:0:0:
256,192,46907,1,0,0:0:0:0:
256,192,47271,1,8,0:0:0:0:
256,192,47453,1,8,0:0:0:0:
256,192,47634,1,0,0:0:0:0:
448,64,47816,1,8,0:0:0:0:
448,64,47907,1,8,0:0:0:0:
256,192,47998,1,8,0:0:0:0:
256,192,48180,1,0,0:0:0:0:
256,192,48362,1,8,0:0:0:0:
256,192,48725,1,8,0:0:0:0:
256,192,48907,1,0,0:0:0:0:
256,192,49089,1,8,0:0:0:0:
256,192,49271,1,0,0:0:0:0:
256,192,49362,1,0,0:0:0:0:
448,64,49453,1,0,0:0:0:0:
256,192,49634,1,8,0:0:0:0:
256,192,49816,1,0,0:0:0:0:
256,192,49998,1,8,0:0:0:0:
256,192,50089,1,8,0:0:0:0:
256,192,50180,1,8,0:0:0:0:
64,64,50362,1,0,0:0:0:0:
256,192,50543,1,0,0:0:0:0:
256,192,50907,1,12,0:0:0:0:
256,192,51271,1,8,0:0:0:0:
256,192,51453,1,0,0:0:0:0:
256,192,51634,1,8,0:0:0:0:
256,192,51816,1,0,0:0:0:0:
256,192,51998,1,8,0:0:0:0:
256,192,52180,1,0,0:0:0:0:
448,64,52362,1,0,0:0:0:0:
256,192,52453,1,0,0:0:0:0:
256,192,52543,1,8,0:0:0:0:
256,192,52725,1,8,0:0:0:0:
256,192,52907,1,0,0:0:0:0:
256,192,53089,1,8,0:0:0:0:
256,192,53180,1,8,0:0:0:0:
256,192,53271,1,0,0:0:0:0:
256,192,53453,1,8,0:0:0:0:
256,192,53816,1,0,0:0:0:0:
256,192,53907,1,0,0:0:0:0:
256,192,53998,1,0,0:0:0:0:
256,192,54180,1,8,0:0:0:0:
256,192,54453,1,0,0:0:0:0:
256,192,54543,1,0,0:0:0:0:
256,192,54725,1,8,0:0:0:0:
256,192,54907,1,0,0:0:0:0:
256,192,55089,1,8,0:0:0:0:
256,192,55271,1,4,0:0:0:0:
256,192,56725,1,12,0:0:0:0:
256,192,56907,1,0,0:0:0:0:
256,192,57089,1,8,0:0:0:0:
256,192,57180,1,8,0:0:0:0:
256,192,57271,1,0,0:0:0:0:
256,192,57453,1,8,0:0:0:0:
64,64,57634,1,0,0:0:0:0:
448,64,57816,1,8,0:0:0:0:
448,64,57907,1,8,0:0:0:0:
64,64,57998,1,0,0:0:0:0:
64,64,58089,1,0,0:0:0:0:
448,64,58180,1,8,0:0:0:0:
448,64,58362,1,8,0:0:0:0:
256,192,58543,1,0,0:0:0:0:
256,192,58634,1,8,0:0:0:0:
256,192,58725,1,0,0:0:0:0:
256,192,58907,1,8,0:0:0:0:
256,192,59089,1,0,0:0:0:0:
256,192,59271,1,8,0:0:0:0:
256,192,59634,1,8,0:0:0:0:
256,192,59816,1,0,0:0:0:0:
256,192,59998,1,8,0:0:0:0:
256,192,60089,1,8,0:0:0:0:
256,192,60180,1,0,0:0:0:0:
256,192,60362,1,8,0:0:0:0:
64,64,60543,1,0,0:0:0:0:
256,192,60725,1,8,0:0:0:0:
256,192,60816,1,8,0:0:0:0:
256,192,60907,1,0,0:0:0:0:
256,192,60998,1,0,0:0:0:0:
256,192,61089,1,8,0:0:0:0:
256,192,61271,1,0,0:0:0:0:
256,192,61453,1,8,0:0:0:0:
256,192,61543,1,0,0:0:0:0:
256,192,61634,1,8,0:0:0:0:
256,192,61816,1,8,0:0:0:0:
256,192,61998,1,4,0:0:0:0:
256,192,62180,1,4,0:0:0:0:
256,192,62543,1,12,0:0:0:0:
256,192,62725,1,0,0:0:0:0:
256,192,62907,1,8,0:0:0:0:
256,192,62998,1,8,0:0:0:0:
256,192,63089,1,0,0:0:0:0:
256,192,63271,1,8,0:0:0:0:
256,192,63453,1,0,0:0:0:0:
256,192,63543,1,0,0:0:0:0:
256,192,63634,1,8,0:0:0:0:
448,64,63816,1,8,0:0:0:0:
256,192,63998,1,0,0:0:0:0:
256,192,64180,1,8,0:0:0:0:
256,192,64271,1,0,0:0:0:0:
256,192,64362,1,8,0:0:0:0:
256,192,64543,1,0,0:0:0:0:
256,192,64725,1,8,0:0:0:0:
256,192,64816,1,8,0:0:0:0:
256,192,64907,1,0,0:0:0:0:
256,192,64998,1,0,0:0:0:0:
256,192,65089,1,8,0:0:0:0:
448,64,65271,1,8,0:0:0:0:
256,192,65453,1,4,0:0:0:0:
256,192,65816,1,8,0:0:0:0:
256,192,65998,1,0,0:0:0:0:
256,192,66089,1,0,0:0:0:0:
256,192,66180,1,8,0:0:0:0:
256,192,66543,1,8,0:0:0:0:
256,192,66725,1,0,0:0:0:0:
256,192,66816,1,0,0:0:0:0:
256,192,66907,1,8,0:0:0:0:
256,192,67271,1,0,0:0:0:0:
256,192,67453,1,8,0:0:0:0:
256,192,67634,1,8,0:0:0:0:
256,192,67725,1,8,0:0:0:0:
256,192,67816,1,0,0:0:0:0:
64,64,67908,1,0,0:0:0:0:
448,64,67998,1,8,0:0:0:0:
256,192,68180,1,8,0:0:0:0:
256,192,68362,1,4,0:0:0:0:
256,192,68726,1,8,0:0:0:0:
256,192,68817,1,0,0:0:0:0:
256,192,68908,1,8,0:0:0:0:
256,192,69090,1,8,0:0:0:0:
64,64,69271,1,0,0:0:0:0:
256,192,69453,1,8,0:0:0:0:
256,192,69544,1,8,0:0:0:0:
256,192,69635,1,0,0:0:0:0:
64,64,69725,1,0,0:0:0:0:
256,192,69817,1,8,0:0:0:0:
256,192,69999,1,8,0:0:0:0:
256,192,70180,1,0,0:0:0:0:
256,192,70271,1,8,0:0:0:0:
256,192,70362,1,0,0:0:0:0:
256,192,70544,1,8,0:0:0:0:
256,192,70726,1,0,0:0:0:0:
256,192,70908,1,8,0:0:0:0:
256,192,71271,1,8,0:0:0:0:
64,64,71453,1,0,0:0:0:0:
256,192,71635,1,8,0:0:0:0:
256,192,71726,1,8,0:0:0:0:
256,192,71817,1,0,0:0:0:0:
256,192,71999,1,8,0:0:0:0:
64,64,72180,1,0,0:0:0:0:
256,192,72362,1,8,0:0:0:0:
448,64,72453,1,8,0:0:0:0:
64,64,72544,1,0,0:0:0:0:
256,192,72635,1,0,0:0:0:0:
256,192,72726,1,8,0:0:0:0:
64,64,72908,1,0,0:0:0:0:
448,64,73089,1,8,0:0:0:0:
448,64,73180,1,0,0:0:0:0:
448,64,73271,1,8,0:0:0:0:
256,192,73453,1,8,0:0:0:0:
256,192,73635,1,4,0:0:0:0:
256,192,73817,1,4,0:0:0:0:
256,192,74180,1,12,0:0:0:0:
256,192,74362,1,0,0:0:0:0:
256,192,74725,1,0,0:0:0:0:
256,192,74907,1,8,0:0:0:0:
256,192,75271,1,0,0:0:0:0:
256,192,75453,1,0,0:0:0:0:
256,192,75634,1,8,0:0:0:0:
256,192,75816,1,0,0:0:0:0:
256,192,76180,1,0,0:0:0:0:
256,192,76362,1,8,0:0:0:0:
256,192,76725,1,8,0:0:0:0:
256,192,76907,1,0,0:0:0:0:
256,192,76998,1,0,0:0:0:0:
256,192,77089,1,8,0:0:0:0:
256,192,77271,1,0,0:0:0:0:
256,192,77634,1,0,0:0:0:0:
256,192,77816,1,8,0:0:0:0:
256,192,78180,1,0,0:0:0:0:
256,192,78362,1,8,0:0:0:0:
256,192,78543,1,0,0:0:0:0:
256,192,78725,1,0,0:0:0:0:
256,192,79089,1,0,0:0:0:0:
256,192,79271,1,8,0:0:0:0:
256,192,79634,1,8,0:0:0:0:
256,192,79816,1,8,0:0:0:0:
448,64,79908,1,8,0:0:0:0:
64,64,79998,1,0,0:0:0:0:
256,192,80362,1,0,0:0:0:0:
256,192,80543,1,0,0:0:0:0:
256,192,80725,1,8,0:0:0:0:
448,64,80817,1,8,0:0:0:0:
256,192,80907,1,0,0:0:0:0:
256,192,81089,1,8,0:0:0:0:
256,192,81271,1,0,0:0:0:0:
256,192,81453,1,8,0:0:0:0:
256,192,81634,1,8,0:0:0:0:
256,192,81816,1,0,0:0:0:0:
256,192,81907,1,0,0:0:0:0:
256,192,81998,1,8,0:0:0:0:
256,192,82180,1,0,0:0:0:0:
256,192,82362,1,8,0:0:0:0:
256,192,82453,1,8,0:0:0:0:
256,192,82543,1,0,0:0:0:0:
64,64,82726,1,0,0:0:0:0:
256,192,82907,1,12,0:0:0:0:
256,192,83271,1,0,0:0:0:0:
256,192,83453,1,12,0:0:0:0:
256,192,83816,1,0,0:0:0:0:
256,192,83998,1,12,0:0:0:0:
256,192,84362,1,4,0:0:0:0:
256,192,84543,1,4,0:0:0:0:
256,192,84725,1,12,0:0:0:0:
256,192,84907,1,4,0:0:0:0:
256,192,85271,1,12,0:0:0:0:
256,192,85816,1,4,0:0:0:0:
