osu file format v14

[General]
AudioFilename: audio.mp3
AudioLeadIn: 0
PreviewTime: 54816
Countdown: 0
SampleSet: Normal
StackLeniency: 0.7
Mode: 1
LetterboxInBreaks: 0
WidescreenStoryboard: 0

[Editor]
Bookmarks: 1453,13089,18907,30543,45089,50907,56725,62543,68362,74180,79998,85725
DistanceSpacing: 1.4
BeatDivisor: 4
GridSize: 32
TimelineZoom: 2.7

[Metadata]
Title:Kimi no Shiranai Monogatari (TV Size)
TitleUnicode:君の知らない物語 (TV Size)
Artist:supercell
ArtistUnicode:supercell
Creator:Slyme
Version:Muzukashii
Source:化物語
Tags:bakemonogatari ed ending 1 senjougahara hitagi japanese pop anime jpop j-pop mari_0hara mari 0hara female vocals vocalist linkff001 yumerios ryo
BeatmapID:4376458
BeatmapSetID:2088071

[Difficulty]
HPDrainRate:6.5
CircleSize:5
OverallDifficulty:5
ApproachRate:5
SliderMultiplier:1.4
SliderTickRate:1

[Events]
//Background and Video events
0,0,"Konachan.com - 233619 sample (1) (1).jpg",0,90
Video,490,"output (1).mp4"
//Break Periods
//Storyboard Layer 0 (Background)
//Storyboard Layer 1 (Fail)
//Storyboard Layer 2 (Pass)
//Storyboard Layer 3 (Foreground)
//Storyboard Layer 4 (Overlay)
//Storyboard Sound Samples

[TimingPoints]
1453,363.636363636364,4,1,0,90,1,0
1453,-100,4,1,0,90,0,0
1614,-100,4,1,0,80,0,0
7251,-100,4,1,0,90,0,0
7432,-100,4,1,0,80,0,0
10160,-100,4,1,0,90,0,0
10341,-100,4,1,0,80,0,0
10705,-100,4,1,0,90,0,0
10886,-100,4,1,0,80,0,0
11433,-100,4,1,0,90,0,0
11614,-100,4,1,0,80,0,0
12160,-100,4,1,0,90,0,0
13069,-100,4,1,0,90,0,0
13250,-100,4,1,0,80,0,0
17251,-100,4,1,0,90,0,0
17432,-100,4,1,0,80,0,0
17614,-100,4,1,0,82,0,0
17796,-100,4,1,0,84,0,0
17887,-100,4,1,0,85,0,0
17978,-100,4,1,0,86,0,0
18160,-100,4,1,0,87,0,0
18251,-100,4,1,0,87,0,0
18342,-100,4,1,0,88,0,0
18433,-100,4,1,0,88,0,0
18523,-100,4,1,0,89,0,0
18705,-100,4,1,0,90,0,0
18887,-100,4,1,0,60,0,0
30523,-100,4,1,0,90,0,0
30705,-100,4,1,0,70,0,0
42160,-100,4,1,0,90,0,0
42523,-100,4,1,0,80,0,0
42705,-100,4,1,0,82,0,0
42887,-100,4,1,0,83,0,0
42978,-100,4,1,0,84,0,0
43069,-100,4,1,0,85,0,0
43251,-100,4,1,0,87,0,0
43433,-100,4,1,0,88,0,0
43614,-100,4,1,0,90,0,0
43705,-100,4,1,0,89,0,0
43796,-100,4,1,0,88,0,0
43887,-100,4,1,0,87,0,0
43978,-100,4,1,0,87,0,0
44160,-100,4,1,0,85,0,0
44342,-100,4,1,0,83,0,0
44433,-100,4,1,0,82,0,0
44523,-100,4,1,0,82,0,0
44614,-100,4,1,0,81,0,0
44705,-100,4,1,0,80,0,0
45069,-100,4,1,0,90,0,0
45433,-100,4,1,0,70,0,0
50069,-100,4,1,0,70,0,0
50160,-100,4,1,0,69,0,0
50342,-100,4,1,0,66,0,0
50523,-100,4,1,0,63,0,0
50705,-100,4,1,0,60,0,0
50887,-100,4,1,0,80,0,0
51251,-100,4,1,0,70,0,0
51433,-100,4,1,0,71,0,0
51614,-100,4,1,0,71,0,0
51705,-100,4,1,0,72,0,0
51796,-100,4,1,0,72,0,0
51978,-100,4,1,0,73,0,0
52160,-100,4,1,0,74,0,0
52342,-100,4,1,0,74,0,0
52433,-100,4,1,0,75,0,0
52523,-100,4,1,0,75,0,0
52705,-100,4,1,0,76,0,0
52887,-100,4,1,0,76,0,0
53069,-100,4,1,0,77,0,0
53160,-100,4,1,0,78,0,0
53251,-100,4,1,0,78,0,0
53342,-100,4,1,0,78,0,0
53433,-100,4,1,0,79,0,0
53614,-100,4,1,0,79,0,0
53796,-100,4,1,0,80,0,0
55251,-100,4,1,0,90,0,0
55433,-100,4,1,0,70,0,0
56725,-100,4,1,0,90,0,1
56887,-100,4,1,0,90,0,1
61978,-100,4,1,0,90,0,1
62523,-100,4,1,0,90,0,1
62705,-100,4,1,0,90,0,1
65433,-100,4,1,0,90,0,1
65796,-100,4,1,0,90,0,1
67614,-100,4,1,0,90,0,1
67705,-100,4,1,0,89,0,1
67796,-100,4,1,0,87,0,1
67887,-100,4,1,0,86,0,1
67978,-100,4,1,0,84,0,1
68069,-100,4,1,0,83,0,1
68160,-100,4,1,0,81,0,1
68251,-100,4,1,0,80,0,1
68342,-100,4,1,0,90,0,1
68705,-100,4,1,0,90,0,1
73634,-100,4,1,0,90,0,1
74180,-100,4,1,0,90,0,0
74342,-100,4,1,0,80,0,0
77069,-100,4,1,0,90,0,0
77271,-100,4,1,0,80,0,0
79978,-100,4,1,0,90,0,0
80342,-100,4,1,0,80,0,0
80523,-100,4,1,0,81,0,0
80705,-100,4,1,0,81,0,0
80796,-100,4,1,0,82,0,0
80887,-100,4,1,0,82,0,0
81069,-100,4,1,0,83,0,0
81251,-100,4,1,0,84,0,0
81433,-100,4,1,0,84,0,0
81614,-100,4,1,0,85,0,0
81796,-100,4,1,0,86,0,0
81887,-100,4,1,0,86,0,0
81978,-100,4,1,0,86,0,0
82069,-100,4,1,0,87,0,0
82160,-100,4,1,0,87,0,0
82342,-100,4,1,0,88,0,0
82433,-100,4,1,0,88,0,0
82523,-100,4,1,0,89,0,0
82614,-100,4,1,0,89,0,0
82705,-100,4,1,0,89,0,0
82796,-100,4,1,0,90,0,0
82907,-100,4,1,0,90,0,1
83069,-100,4,1,0,90,0,1
83433,-100,4,1,0,90,0,1
83614,-100,4,1,0,90,0,1
83978,-100,4,1,0,90,0,1
84160,-100,4,1,0,90,0,1
85251,-100,4,1,0,90,0,1
85543,-100,4,1,0,90,0,1
85816,-100,4,1,0,90,0,0

[HitObjects]
256,192,1453,5,12,0:0:0:0:
64,64,1817,1,0,0:0:0:0:
64,64,1998,1,0,0:0:0:0:
256,192,2180,1,8,0:0:0:0:
256,192,2362,1,0,0:0:0:0:
256,192,2543,1,8,0:0:0:0:
256,192,2725,1,8,0:0:0:0:
256,192,2907,1,0,0:0:0:0:
256,192,3271,1,8,0:0:0:0:
256,192,3453,1,8,0:0:0:0:
256,192,3634,1,0,0:0:0:0:
64,64,3817,1,0,0:0:0:0:
448,64,3998,1,8,0:0:0:0:
448,64,4179,1,0,0:0:0:0:
256,192,4362,1,8,0:0:0:0:
64,64,4726,1,0,0:0:0:0:
256,192,4907,1,0,0:0:0:0:
256,192,5089,1,8,0:0:0:0:
256,192,5271,1,0,0:0:0:0:
256,192,5452,1,8,0:0:0:0:
256,192,5634,1,8,0:0:0:0:
256,192,5816,1,0,0:0:0:0:
256,192,6180,1,8,0:0:0:0:
256,192,6271,1,8,0:0:0:0:
448,64,6362,1,8,0:0:0:0:
256,192,6543,1,0,0:0:0:0:
256,192,6725,1,8,0:0:0:0:
256,192,6816,1,8,0:0:0:0:
256,192,6907,1,8,0:0:0:0:
256,192,7271,1,12,0:0:0:0:
64,64,7635,1,0,0:0:0:0:
64,64,7817,1,0,0:0:0:0:
448,64,7998,1,8,0:0:0:0:
256,192,8180,1,0,0:0:0:0:
256,192,8362,1,8,0:0:0:0:
256,192,8725,1,0,0:0:0:0:
448,64,8907,1,0,0:0:0:0:
64,64,9089,1,8,0:0:0:0:
64,64,9271,1,8,0:0:0:0:
256,192,9453,1,0,0:0:0:0:
256,192,9634,1,8,0:0:0:0:
256,192,9725,1,8,0:0:0:0:
64,64,9817,1,8,0:0:0:0:
256,192,9998,1,0,0:0:0:0:
256,192,10180,1,12,0:0:0:0:
64,320,10726,1,12,0:0:0:0:
256,192,11089,1,0,0:0:0:0:
64,64,11271,1,0,0:0:0:0:
256,192,11453,1,12,0:0:0:0:
256,192,11816,1,0,0:0:0:0:
256,192,11998,1,8,0:0:0:0:
256,192,12180,1,4,0:0:0:0:
256,192,12543,1,12,0:0:0:0:
256,192,13089,1,4,0:0:0:0:
448,64,13453,1,8,0:0:0:0:
448,64,13634,1,8,0:0:0:0:
256,192,13816,1,0,0:0:0:0:
256,192,13998,1,8,0:0:0:0:
448,64,14180,1,8,0:0:0:0:
448,64,14362,1,0,0:0:0:0:
64,64,14544,1,8,0:0:0:0:
256,192,14907,1,0,0:0:0:0:
256,192,15089,1,8,0:0:0:0:
64,64,15271,1,0,0:0:0:0:
448,64,15453,1,8,0:0:0:0:
256,192,15634,1,0,0:0:0:0:
448,64,15998,1,8,0:0:0:0:
256,192,16180,1,0,0:0:0:0:
256,192,16362,1,8,0:0:0:0:
256,192,16543,1,8,0:0:0:0:
256,192,17089,1,8,0:0:0:0:
256,192,17271,1,4,0:0:0:0:
256,192,17634,1,8,0:0:0:0:
256,192,17816,1,8,0:0:0:0:
256,192,17998,1,8,0:0:0:0:
256,192,18180,1,0,0:0:0:0:
448,64,18362,1,8,0:0:0:0:
64,64,18543,1,0,0:0:0:0:
256,192,18907,1,8,0:0:0:0:
64,64,19271,1,8,0:0:0:0:
256,192,19453,1,0,0:0:0:0:
256,192,19634,1,8,0:0:0:0:
256,192,19998,1,8,0:0:0:0:
256,192,20362,1,0,0:0:0:0:
256,192,20907,1,0,0:0:0:0:
448,64,21271,1,8,0:0:0:0:
256,192,21816,1,8,0:0:0:0:
256,192,22180,1,0,0:0:0:0:
64,64,22362,1,8,0:0:0:0:
256,192,22543,1,0,0:0:0:0:
256,192,22907,1,8,0:0:0:0:
256,192,23271,1,0,0:0:0:0:
256,192,23453,1,8,0:0:0:0:
256,192,23816,1,8,0:0:0:0:
256,192,24180,1,0,0:0:0:0:
64,64,24726,1,0,0:0:0:0:
256,192,25089,1,8,0:0:0:0:
256,192,25271,1,8,0:0:0:0:
256,192,25453,1,0,0:0:0:0:
256,192,25816,1,0,0:0:0:0:
256,192,25998,1,0,0:0:0:0:
256,192,26180,1,8,0:0:0:0:
256,192,26543,1,0,0:0:0:0:
256,192,26725,1,8,0:0:0:0:
256,192,26907,1,0,0:0:0:0:
256,192,27271,1,8,0:0:0:0:
256,192,27453,1,0,0:0:0:0:
256,192,27634,1,8,0:0:0:0:
256,192,27998,1,0,0:0:0:0:
256,192,28180,1,8,0:0:0:0:
256,192,28543,1,8,0:0:0:0:
256,192,28725,1,8,0:0:0:0:
256,192,28907,1,8,0:0:0:0:
256,192,29089,1,0,0:0:0:0:
256,192,29453,1,8,0:0:0:0:
64,64,29816,1,0,0:0:0:0:
64,64,30180,1,0,0:0:0:0:
256,192,30543,1,12,0:0:0:0:
256,192,30907,1,8,0:0:0:0:
256,192,31089,1,8,0:0:0:0:
256,192,31271,1,8,0:0:0:0:
256,192,31453,1,0,0:0:0:0:
256,192,31634,1,8,0:0:0:0:
256,192,31998,1,8,0:0:0:0:
256,192,32180,1,8,0:0:0:0:
256,192,32362,1,0,0:0:0:0:
256,192,32543,1,8,0:0:0:0:
256,192,32725,1,0,0:0:0:0:
256,192,32907,1,8,0:0:0:0:
256,192,33271,1,8,0:0:0:0:
256,192,33453,1,0,0:0:0:0:
256,192,33635,1,8,0:0:0:0:
256,192,33817,1,0,0:0:0:0:
256,192,33999,1,0,0:0:0:0:
256,192,34181,1,8,0:0:0:0:
256,192,34362,1,0,0:0:0:0:
256,192,34544,1,0,0:0:0:0:
256,192,34908,1,8,0:0:0:0:
256,192,35090,1,0,0:0:0:0:
256,192,35271,1,8,0:0:0:0:
448,64,35453,1,8,0:0:0:0:
64,64,35634,1,0,0:0:0:0:
448,64,35816,1,8,0:0:0:0:
256,192,36362,1,8,0:0:0:0:
256,192,36725,1,8,0:0:0:0:
256,192,36907,1,0,0:0:0:0:
256,192,37089,1,0,0:0:0:0:
256,192,37453,1,0,0:0:0:0:
64,64,37635,1,0,0:0:0:0:
448,64,37817,1,8,0:0:0:0:
256,192,38180,1,0,0:0:0:0:
256,192,38362,1,8,0:0:0:0:
448,64,38544,1,8,0:0:0:0:
64,64,38726,1,0,0:0:0:0:
448,64,38908,1,8,0:0:0:0:
256,192,39271,1,8,0:0:0:0:
256,192,39453,1,0,0:0:0:0:
256,192,39634,1,8,0:0:0:0:
256,192,39998,1,0,0:0:0:0:
256,192,40180,1,8,0:0:0:0:
256,192,40362,1,8,0:0:0:0:
256,192,40543,1,0,0:0:0:0:
256,192,40725,1,8,0:0:0:0:
256,192,41089,1,8,0:0:0:0:
64,64,41453,1,0,0:0:0:0:
256,192,41816,1,8,0:0:0:0:
256,192,42180,1,4,0:0:0:0:
256,192,42543,1,8,0:0:0:0:
256,192,42725,1,8,0:0:0:0:
256,192,42907,1,0,0:0:0:0:
256,192,43089,1,0,0:0:0:0:
256,192,43271,1,8,0:0:0:0:
256,192,43634,1,8,0:0:0:0:
256,192,43725,1,8,0:0:0:0:
448,64,43817,1,8,0:0:0:0:
64,64,43998,1,0,0:0:0:0:
448,64,44180,1,8,0:0:0:0:
64,64,44362,1,0,0:0:0:0:
64,64,44453,1,0,0:0:0:0:
64,64,44544,1,0,0:0:0:0:
448,64,44726,1,8,0:0:0:0:
64,64,44908,1,0,0:0:0:0:
256,192,45089,1,12,0:0:0:0:
256,192,45453,1,0,0:0:0:0:
256,192,45634,1,8,0:0:0:0:
256,192,45816,1,0,0:0:0:0:
256,192,46180,1,8,0:0:0:0:
256,192,46543,1,8,0:0:0:0:
448,64,46726,1,8,0:0:0:0:
256,192,46907,1,0,0:0:0:0:
256,192,47271,1,8,0:0:0:0:
256,192,47634,1,8,0:0:0:0:
256,192,47998,1,0,0:0:0:0:
256,192,48180,1,0,0:0:0:0:
256,192,48362,1,8,0:0:0:0:
256,192,48725,1,8,0:0:0:0:
256,192,48907,1,0,0:0:0:0:
256,192,49089,1,8,0:0:0:0:
448,64,49453,1,8,0:0:0:0:
256,192,49634,1,8,0:0:0:0:
256,192,49816,1,0,0:0:0:0:
448,64,50180,1,8,0:0:0:0:
64,64,50362,1,0,0:0:0:0:
256,192,50907,1,12,0:0:0:0:
256,192,51271,1,8,0:0:0:0:
256,192,51453,1,0,0:0:0:0:
256,192,51634,1,8,0:0:0:0:
448,64,51817,1,8,0:0:0:0:
256,192,51998,1,0,0:0:0:0:
448,64,52362,1,8,0:0:0:0:
256,192,52725,1,8,0:0:0:0:
256,192,52907,1,0,0:0:0:0:
256,192,53089,1,8,0:0:0:0:
448,64,53271,1,8,0:0:0:0:
64,64,53453,1,0,0:0:0:0:
256,192,53816,1,0,0:0:0:0:
256,192,53998,1,0,0:0:0:0:
256,192,54180,1,8,0:0:0:0:
256,192,54543,1,0,0:0:0:0:
256,192,54725,1,8,0:0:0:0:
256,192,54907,1,0,0:0:0:0:
256,192,55089,1,8,0:0:0:0:
256,192,55271,1,4,0:0:0:0:
256,192,56725,1,12,0:0:0:0:
256,192,56907,1,0,0:0:0:0:
256,192,57089,1,8,0:0:0:0:
448,64,57271,1,8,0:0:0:0:
64,64,57453,1,0,0:0:0:0:
256,192,57816,1,0,0:0:0:0:
256,192,57998,1,8,0:0:0:0:
256,192,58180,1,0,0:0:0:0:
256,192,58362,1,8,0:0:0:0:
64,64,58544,1,0,0:0:0:0:
64,64,58635,1,0,0:0:0:0:
64,64,58726,1,0,0:0:0:0:
256,192,58907,1,8,0:0:0:0:
256,192,59089,1,0,0:0:0:0:
256,192,59271,1,8,0:0:0:0:
256,192,59634,1,8,0:0:0:0:
256,192,59816,1,0,0:0:0:0:
256,192,59998,1,8,0:0:0:0:
448,64,60180,1,8,0:0:0:0:
64,64,60362,1,0,0:0:0:0:
256,192,60725,1,8,0:0:0:0:
256,192,60907,1,0,0:0:0:0:
256,192,61089,1,8,0:0:0:0:
256,192,61271,1,0,0:0:0:0:
256,192,61453,1,8,0:0:0:0:
448,64,61544,1,8,0:0:0:0:
256,192,61634,1,8,0:0:0:0:
256,192,61998,1,4,0:0:0:0:
256,192,62180,1,4,0:0:0:0:
256,192,62543,1,12,0:0:0:0:
256,192,62725,1,0,0:0:0:0:
448,64,62908,1,8,0:0:0:0:
448,64,62998,1,8,0:0:0:0:
256,192,63089,1,8,0:0:0:0:
256,192,63271,1,0,0:0:0:0:
256,192,63453,1,8,0:0:0:0:
256,192,63634,1,0,0:0:0:0:
256,192,63998,1,0,0:0:0:0:
256,192,64180,1,8,0:0:0:0:
256,192,64362,1,8,0:0:0:0:
64,64,64726,1,0,0:0:0:0:
256,192,65089,1,8,0:0:0:0:
256,192,65453,1,4,0:0:0:0:
256,192,65816,1,0,0:0:0:0:
256,192,65998,1,8,0:0:0:0:
448,64,66089,1,8,0:0:0:0:
448,64,66180,1,8,0:0:0:0:
256,192,66543,1,8,0:0:0:0:
256,192,66725,1,0,0:0:0:0:
64,64,66817,1,0,0:0:0:0:
64,64,66908,1,0,0:0:0:0:
256,192,67271,1,0,0:0:0:0:
256,192,67453,1,8,0:0:0:0:
64,64,67635,1,0,0:0:0:0:
256,192,68362,1,4,0:0:0:0:
256,192,68726,1,8,0:0:0:0:
256,192,68908,1,8,0:0:0:0:
64,64,69089,1,0,0:0:0:0:
256,192,69453,1,8,0:0:0:0:
256,192,69635,1,0,0:0:0:0:
256,192,69817,1,8,0:0:0:0:
256,192,69999,1,8,0:0:0:0:
256,192,70180,1,0,0:0:0:0:
64,64,70271,1,0,0:0:0:0:
256,192,70362,1,0,0:0:0:0:
256,192,70544,1,8,0:0:0:0:
256,192,70726,1,0,0:0:0:0:
256,192,70908,1,8,0:0:0:0:
256,192,71271,1,8,0:0:0:0:
64,64,71453,1,0,0:0:0:0:
256,192,71635,1,8,0:0:0:0:
448,64,71817,1,8,0:0:0:0:
64,64,71998,1,0,0:0:0:0:
256,192,72362,1,8,0:0:0:0:
64,64,72544,1,0,0:0:0:0:
256,192,72726,1,8,0:0:0:0:
64,64,72908,1,0,0:0:0:0:
448,64,73089,1,8,0:0:0:0:
448,64,73180,1,8,0:0:0:0:
448,64,73271,1,8,0:0:0:0:
256,192,73635,1,4,0:0:0:0:
256,192,73817,1,4,0:0:0:0:
256,192,74180,1,12,0:0:0:0:
256,192,74362,1,0,0:0:0:0:
256,192,74907,1,8,0:0:0:0:
256,192,75271,1,0,0:0:0:0:
256,192,75634,1,8,0:0:0:0:
256,192,75816,1,0,0:0:0:0:
256,192,76180,1,8,0:0:0:0:
256,192,76362,1,8,0:0:0:0:
256,192,76725,1,0,0:0:0:0:
256,192,77089,1,8,0:0:0:0:
256,192,77271,1,0,0:0:0:0:
256,192,77634,1,0,0:0:0:0:
256,192,77816,1,8,0:0:0:0:
256,192,78180,1,0,0:0:0:0:
256,192,78362,1,8,0:0:0:0:
256,192,78543,1,0,0:0:0:0:
256,192,78725,1,0,0:0:0:0:
64,64,79089,1,0,0:0:0:0:
256,192,79271,1,8,0:0:0:0:
256,192,79634,1,8,0:0:0:0:
64,64,79817,1,0,0:0:0:0:
64,64,79908,1,0,0:0:0:0:
64,64,79998,1,0,0:0:0:0:
256,192,80362,1,0,0:0:0:0:
256,192,80543,1,0,0:0:0:0:
256,192,80725,1,8,0:0:0:0:
256,192,80907,1,0,0:0:0:0:
256,192,81089,1,8,0:0:0:0:
256,192,81453,1,8,0:0:0:0:
64,64,81635,1,0,0:0:0:0:
448,64,81817,1,8,0:0:0:0:
448,64,81908,1,8,0:0:0:0:
448,64,81998,1,8,0:0:0:0:
448,64,82180,1,8,0:0:0:0:
64,64,82362,1,0,0:0:0:0:
64,64,82453,1,0,0:0:0:0:
256,192,82543,1,0,0:0:0:0:
64,64,82726,1,0,0:0:0:0:
256,192,82907,1,12,0:0:0:0:
256,192,83271,1,0,0:0:0:0:
256,192,83453,1,12,0:0:0:0:
256,192,83816,1,0,0:0:0:0:
256,192,83998,1,12,0:0:0:0:
256,192,84362,1,4,0:0:0:0:
256,192,84543,1,4,0:0:0:0:
256,192,84725,1,12,0:0:0:0:
256,192,84907,1,4,0:0:0:0:
256,192,85271,1,12,0:0:0:0:
256,192,85816,1,4,0:0:0:0:
