osu file format v14

[General]
AudioFilename: audio.mp3
AudioLeadIn: 0
PreviewTime: 54554
Countdown: 0
SampleSet: None
StackLeniency: 1
Mode: 1
LetterboxInBreaks: 0
WidescreenStoryboard: 1

[Editor]
DistanceSpacing: 1.3
BeatDivisor: 2
GridSize: 32
TimelineZoom: 1.8

[Metadata]
Title:Kimi no Shiranai Monogatari (TV Size)
TitleUnicode:Kimi no Shiranai Monogatari (TV Size)
Artist:supercell
ArtistUnicode:supercell
Creator:Axer
Version:Futsuu
Source:化物語
Tags:クラリス クララ Clara カレン Karen Yanaginagi やなぎなぎ ed Ending Bakemonogatari Shaft Nagi Yanagi Ryo Araragi Senjougahara Tsubasa Hanekawa Sengoku Kanbaru Hachikuji Shinobu Tsukihi Oshino Senjou Gahara Hitagi Koyomi 暦物語 Koyomimonogatari
BeatmapID:2241390
BeatmapSetID:1070784

[Difficulty]
HPDrainRate:7
CircleSize:2
OverallDifficulty:4
ApproachRate:10
SliderMultiplier:1.4
SliderTickRate:1

[Events]
//Background and Video events
0,0,"__senjougahara_hitagi_monogatari_and_1_more_drawn_by_madyy__52f6f26bed7e3290cc5047e566df552a.jpg",0,100
//Break Periods
2,18572,29740
//Storyboard Layer 0 (Background)
//Storyboard Layer 1 (Fail)
//Storyboard Layer 2 (Pass)
//Storyboard Layer 3 (Foreground)
//Storyboard Layer 4 (Overlay)
//Storyboard Sound Samples

[TimingPoints]
1100,363.636363636364,4,1,0,70,1,0
1100,-125,4,1,0,70,0,0
56372,-111.111111111111,4,1,0,80,0,1
79645,-111.111111111111,4,1,0,80,0,0

[HitObjects]
256,192,1100,5,12,0:0:0:0:
256,192,1463,1,0,0:0:0:0:
256,192,1827,1,8,0:0:0:0:
256,192,2190,1,0,0:0:0:0:
256,192,2372,1,0,0:0:0:0:
256,192,2554,1,8,0:0:0:0:
256,192,2918,1,0,0:0:0:0:
256,192,3281,1,8,0:0:0:0:
256,192,3645,1,0,0:0:0:0:
256,192,3827,1,0,0:0:0:0:
256,192,4009,1,8,0:0:0:0:
256,192,4372,1,0,0:0:0:0:
256,192,4736,1,8,0:0:0:0:
256,192,5100,1,0,0:0:0:0:
256,192,5281,1,0,0:0:0:0:
256,192,5463,1,8,0:0:0:0:
256,192,5736,1,8,0:0:0:0:
256,192,5827,1,0,0:0:0:0:
256,192,6009,1,8,0:0:0:0:
256,192,6372,1,8,0:0:0:0:
256,192,6554,1,0,0:0:0:0:
256,192,6918,1,12,0:0:0:0:
256,192,7281,1,0,0:0:0:0:
256,192,7645,1,8,0:0:0:0:
256,192,8009,1,0,0:0:0:0:
256,192,8190,1,0,0:0:0:0:
256,192,8372,1,8,0:0:0:0:
256,192,8736,1,0,0:0:0:0:
256,192,9100,1,8,0:0:0:0:
256,192,9190,1,8,0:0:0:0:
256,192,9281,1,8,0:0:0:0:
256,192,9463,1,0,0:0:0:0:
256,192,9827,1,12,0:0:0:0:
256,192,10009,1,0,0:0:0:0:
256,192,10190,1,0,0:0:0:0:
256,192,10372,1,12,0:0:0:0:
256,192,10736,1,0,0:0:0:0:
256,192,10918,1,8,0:0:0:0:
256,192,11100,1,12,0:0:0:0:
256,192,11463,1,0,0:0:0:0:
256,192,11645,1,8,0:0:0:0:
256,192,11827,1,12,0:0:0:0:
256,192,12190,1,4,0:0:0:0:
256,192,12736,1,12,0:0:0:0:
256,192,13100,1,8,0:0:0:0:
256,192,13463,1,0,0:0:0:0:
256,192,13827,1,8,0:0:0:0:
256,192,14009,1,0,0:0:0:0:
256,192,14190,1,8,0:0:0:0:
256,192,14554,1,0,0:0:0:0:
256,192,14736,1,8,0:0:0:0:
256,192,15100,1,0,0:0:0:0:
256,192,15281,1,8,0:0:0:0:
256,192,15645,1,8,0:0:0:0:
256,192,16009,1,8,0:0:0:0:
256,192,16190,1,0,0:0:0:0:
256,192,16372,1,8,0:0:0:0:
256,192,16736,1,0,0:0:0:0:
256,192,16918,1,12,0:0:0:0:
256,192,17281,1,0,0:0:0:0:
256,192,17463,1,0,0:0:0:0:
256,192,17645,1,0,0:0:0:0:
256,192,17827,1,0,0:0:0:0:
256,192,18009,1,0,0:0:0:0:
256,192,18190,1,0,0:0:0:0:
256,192,18372,1,8,0:0:0:0:
256,192,30190,5,12,0:0:0:0:
256,192,30554,1,0,0:0:0:0:
256,192,30736,1,0,0:0:0:0:
256,192,30918,1,8,0:0:0:0:
256,192,31281,1,0,0:0:0:0:
256,192,31645,1,8,0:0:0:0:
256,192,32009,1,0,0:0:0:0:
256,192,32190,1,8,0:0:0:0:
256,192,32554,1,8,0:0:0:0:
256,192,32918,1,0,0:0:0:0:
256,192,33100,1,8,0:0:0:0:
256,192,33281,1,8,0:0:0:0:
256,192,33463,1,0,0:0:0:0:
256,192,33827,1,8,0:0:0:0:
256,192,34190,1,8,0:0:0:0:
256,192,34372,1,0,0:0:0:0:
256,192,34554,1,8,0:0:0:0:
256,192,34918,1,0,0:0:0:0:
256,192,35100,1,8,0:0:0:0:
256,192,35463,1,8,0:0:0:0:
256,192,36009,1,8,0:0:0:0:
256,192,36372,1,0,0:0:0:0:
256,192,36554,1,0,0:0:0:0:
256,192,36736,1,8,0:0:0:0:
256,192,37100,1,0,0:0:0:0:
256,192,37463,1,8,0:0:0:0:
256,192,37827,1,0,0:0:0:0:
256,192,38009,1,0,0:0:0:0:
256,192,38190,1,8,0:0:0:0:
256,192,38554,1,0,0:0:0:0:
256,192,38918,1,8,0:0:0:0:
256,192,39281,1,8,0:0:0:0:
256,192,39645,1,8,0:0:0:0:
256,192,40009,1,0,0:0:0:0:
256,192,40372,1,8,0:0:0:0:
256,192,40736,1,8,0:0:0:0:
256,192,41100,1,8,0:0:0:0:
256,192,41281,1,8,0:0:0:0:
256,192,41463,1,0,0:0:0:0:
256,192,41645,1,0,0:0:0:0:
256,192,41827,1,12,0:0:0:0:
256,192,42190,1,8,0:0:0:0:
256,192,42372,1,8,0:0:0:0:
256,192,42554,1,0,0:0:0:0:
256,192,42918,1,0,0:0:0:0:
256,192,43100,1,0,0:0:0:0:
256,192,43281,1,8,0:0:0:0:
256,192,43645,1,8,0:0:0:0:
256,192,43827,1,8,0:0:0:0:
256,192,44009,1,8,0:0:0:0:
256,192,44190,1,8,0:0:0:0:
256,192,44372,1,0,0:0:0:0:
256,192,44554,1,0,0:0:0:0:
256,192,44736,1,12,0:0:0:0:
256,192,45100,1,0,0:0:0:0:
256,192,45463,1,8,0:0:0:0:
256,192,45827,1,0,0:0:0:0:
256,192,46009,1,8,0:0:0:0:
256,192,46190,1,0,0:0:0:0:
256,192,46372,1,8,0:0:0:0:
256,192,46554,1,0,0:0:0:0:
256,192,46918,1,8,0:0:0:0:
256,192,47281,1,0,0:0:0:0:
256,192,47463,1,0,0:0:0:0:
256,192,47645,1,8,0:0:0:0:
256,192,48009,1,0,0:0:0:0:
256,192,48372,1,8,0:0:0:0:
256,192,48736,1,0,0:0:0:0:
256,192,49009,1,8,0:0:0:0:
256,192,49100,1,0,0:0:0:0:
256,192,49281,1,8,0:0:0:0:
256,192,49463,1,0,0:0:0:0:
256,192,49736,1,8,0:0:0:0:
256,192,49827,1,8,0:0:0:0:
256,192,50009,1,0,0:0:0:0:
256,192,50190,1,0,0:0:0:0:
256,192,50554,1,12,0:0:0:0:
256,192,50918,1,8,0:0:0:0:
256,192,51100,1,0,0:0:0:0:
256,192,51281,1,8,0:0:0:0:
256,192,51645,1,8,0:0:0:0:
256,192,52009,1,8,0:0:0:0:
256,192,52372,1,8,0:0:0:0:
256,192,52554,1,0,0:0:0:0:
256,192,52736,1,8,0:0:0:0:
256,192,53100,1,8,0:0:0:0:
256,192,53463,1,8,0:0:0:0:
256,192,53645,1,0,0:0:0:0:
256,192,53827,1,0,0:0:0:0:
256,192,54009,1,0,0:0:0:0:
256,192,54190,1,8,0:0:0:0:
256,192,54554,1,8,0:0:0:0:
256,192,54736,1,0,0:0:0:0:
256,192,54918,1,12,0:0:0:0:
256,192,55100,12,0,56190,0:0:0:0:
256,192,56372,5,12,0:0:0:0:
256,192,56554,1,0,0:0:0:0:
256,192,56736,1,8,0:0:0:0:
256,192,57100,1,0,0:0:0:0:
256,192,57463,1,8,0:0:0:0:
256,192,57827,1,0,0:0:0:0:
256,192,58190,1,8,0:0:0:0:
256,192,58372,1,0,0:0:0:0:
256,192,58736,1,0,0:0:0:0:
256,192,58918,1,8,0:0:0:0:
256,192,59281,1,0,0:0:0:0:
256,192,59645,1,8,0:0:0:0:
256,192,60009,1,0,0:0:0:0:
256,192,60190,1,0,0:0:0:0:
256,192,60372,1,8,0:0:0:0:
256,192,60736,1,0,0:0:0:0:
256,192,61100,1,8,0:0:0:0:
256,192,61281,1,0,0:0:0:0:
256,192,61645,1,12,0:0:0:0:
256,192,61827,1,12,0:0:0:0:
256,192,62190,1,12,0:0:0:0:
256,192,62372,1,0,0:0:0:0:
256,192,62554,1,8,0:0:0:0:
256,192,62918,1,0,0:0:0:0:
256,192,63281,1,8,0:0:0:0:
256,192,63645,1,0,0:0:0:0:
256,192,64009,1,8,0:0:0:0:
256,192,64372,1,0,0:0:0:0:
256,192,64554,1,0,0:0:0:0:
256,192,64736,1,12,0:0:0:0:
256,192,65100,1,12,0:0:0:0:
256,192,65463,1,0,0:0:0:0:
256,192,65827,1,12,0:0:0:0:
256,192,66190,1,0,0:0:0:0:
256,192,66554,1,12,0:0:0:0:
256,192,66918,1,8,0:0:0:0:
256,192,67281,1,0,0:0:0:0:
256,192,67463,1,8,0:0:0:0:
256,192,67645,1,8,0:0:0:0:
256,192,67827,1,8,0:0:0:0:
256,192,68009,1,4,0:0:0:0:
256,192,68373,1,8,0:0:0:0:
256,192,68737,1,0,0:0:0:0:
256,192,68918,1,0,0:0:0:0:
256,192,69100,1,8,0:0:0:0:
256,192,69464,1,0,0:0:0:0:
256,192,69827,1,8,0:0:0:0:
256,192,70009,1,0,0:0:0:0:
256,192,70373,1,0,0:0:0:0:
256,192,70555,1,8,0:0:0:0:
256,192,70918,1,0,0:0:0:0:
256,192,71282,1,8,0:0:0:0:
256,192,71646,1,0,0:0:0:0:
256,192,71827,1,0,0:0:0:0:
256,192,72009,1,8,0:0:0:0:
256,192,72373,1,0,0:0:0:0:
256,192,72737,1,8,0:0:0:0:
256,192,72918,1,0,0:0:0:0:
256,192,73282,1,12,0:0:0:0:
256,192,73464,1,12,0:0:0:0:
256,192,73827,1,4,0:0:0:0:
256,192,74009,1,8,0:0:0:0:
256,192,74190,1,0,0:0:0:0:
256,192,74554,1,8,0:0:0:0:
256,192,74918,1,0,0:0:0:0:
256,192,75281,1,0,0:0:0:0:
256,192,75645,1,0,0:0:0:0:
256,192,75827,1,0,0:0:0:0:
256,192,76009,1,8,0:0:0:0:
256,192,76190,1,0,0:0:0:0:
256,192,76736,1,12,0:0:0:0:
256,192,77100,1,0,0:0:0:0:
256,192,77463,1,8,0:0:0:0:
256,192,77827,1,0,0:0:0:0:
256,192,78190,1,8,0:0:0:0:
256,192,78554,1,0,0:0:0:0:
256,192,78736,1,0,0:0:0:0:
256,192,78918,1,8,0:0:0:0:
256,192,79281,1,8,0:0:0:0:
256,192,79463,1,8,0:0:0:0:
256,192,79645,1,4,0:0:0:0:
256,192,80009,1,8,0:0:0:0:
256,192,80372,1,8,0:0:0:0:
256,192,80736,1,8,0:0:0:0:
256,192,81100,1,8,0:0:0:0:
256,192,81281,1,8,0:0:0:0:
256,192,81463,1,0,0:0:0:0:
256,192,81827,1,8,0:0:0:0:
256,192,82009,1,8,0:0:0:0:
256,192,82190,1,0,0:0:0:0:
256,192,82554,1,12,0:0:0:0:
256,192,82918,1,0,0:0:0:0:
256,192,83100,1,12,0:0:0:0:
256,192,83463,1,0,0:0:0:0:
256,192,83645,1,12,0:0:0:0:
256,192,84009,1,12,0:0:0:0:
256,192,84190,1,12,0:0:0:0:
256,192,84372,1,0,0:0:0:0:
256,192,84554,1,8,0:0:0:0:
256,192,84918,1,8,0:0:0:0:
256,192,85463,1,12,0:0:0:0:
