osu file format v14

[General]
AudioFilename: audio.mp3
AudioLeadIn: 0
PreviewTime: 134300
Countdown: 1
SampleSet: Normal
StackLeniency: 0.7
Mode: 3
LetterboxInBreaks: 0
SpecialStyle: 0
WidescreenStoryboard: 0

[Editor]
DistanceSpacing: 1
BeatDivisor: 8
GridSize: 4
TimelineZoom: 1

[Metadata]
Title:Kimi no Shiranai Monogatari
TitleUnicode:Kimi no Shiranai Monogatari
Artist:supercell
ArtistUnicode:supercell
Creator:Atreevete
Version:Drum + Piano
Source:Bakemonogatari
Tags:ed ending bakemonogatari
BeatmapID:1643916
BeatmapSetID:782937

[Difficulty]
HPDrainRate:8
CircleSize:9
OverallDifficulty:8
ApproachRate:5
SliderMultiplier:1.4
SliderTickRate:1

[Events]
//Background and Video events
0,0,"cropped-1366-768-683907.jpg",0,0
//Break Periods
2,328273,334191
//Storyboard Layer 0 (Background)
//Storyboard Layer 1 (Fail)
//Storyboard Layer 2 (Pass)
//Storyboard Layer 3 (Foreground)
//Storyboard Sound Samples
Sample,102573,0,"crash2.wav",40
Sample,102573,0,"kick.wav",40
Sample,102936,0,"kick.wav",60
Sample,103300,0,"kick.wav",60
Sample,103664,0,"kick.wav",60
Sample,104027,0,"kick.wav",60
Sample,104391,0,"kick.wav",60
Sample,104755,0,"kick.wav",60
Sample,105118,0,"kick.wav",60
Sample,105482,0,"kick.wav",60
Sample,105845,0,"kick.wav",60
Sample,106209,0,"kick.wav",60
Sample,106573,0,"kick.wav",60
Sample,106936,0,"kick.wav",60
Sample,107300,0,"kick.wav",60
Sample,107664,0,"kick.wav",60
Sample,108027,0,"kick.wav",60
Sample,108391,0,"crash2.wav",20
Sample,108391,0,"kick.wav",70
Sample,108755,0,"kick.wav",60
Sample,109118,0,"kick.wav",60
Sample,109482,0,"kick.wav",60
Sample,109845,0,"kick.wav",60
Sample,110209,0,"kick.wav",60
Sample,110573,0,"kick.wav",60
Sample,110936,0,"kick.wav",60
Sample,111300,0,"kick.wav",60
Sample,111664,0,"kick.wav",60
Sample,112027,0,"kick.wav",60
Sample,112391,0,"kick.wav",60
Sample,112755,0,"kick.wav",60
Sample,113118,0,"kick.wav",60
Sample,113482,0,"kick.wav",60
Sample,113845,0,"kick.wav",60
Sample,202209,0,"kick.wav",60
Sample,202209,0,"crash2.wav",70
Sample,202573,0,"snare.wav",60
Sample,202936,0,"kick.wav",60
Sample,203118,0,"kick.wav",60
Sample,203300,0,"snare.wav",60
Sample,203664,0,"kick.wav",60
Sample,203845,0,"kick.wav",60
Sample,204027,0,"snare.wav",60
Sample,204391,0,"kick.wav",60
Sample,204573,0,"kick.wav",60
Sample,204755,0,"snare.wav",60
Sample,205118,0,"kick.wav",60
Sample,205300,0,"kick.wav",60
Sample,205482,0,"snare.wav",60
Sample,205845,0,"kick.wav",60
Sample,206027,0,"kick.wav",60
Sample,206209,0,"snare.wav",60
Sample,206573,0,"kick.wav",60
Sample,206755,0,"kick.wav",60
Sample,206936,0,"snare.wav",60
Sample,207300,0,"kick.wav",60
Sample,207482,0,"kick.wav",60
Sample,207664,0,"snare.wav",60
Sample,208027,0,"kick.wav",20
Sample,208027,0,"crash2.wav",20
Sample,208209,0,"kick.wav",60
Sample,208391,0,"snare.wav",60
Sample,208755,0,"kick.wav",60
Sample,208936,0,"kick.wav",60
Sample,209118,0,"snare.wav",60
Sample,209482,0,"kick.wav",60
Sample,209664,0,"kick.wav",60
Sample,209845,0,"snare.wav",60
Sample,210209,0,"kick.wav",60
Sample,210391,0,"kick.wav",60
Sample,210573,0,"snare.wav",60
Sample,210936,0,"kick.wav",60
Sample,211118,0,"kick.wav",60
Sample,211300,0,"snare.wav",60
Sample,211664,0,"kick.wav",60
Sample,211845,0,"kick.wav",60
Sample,212027,0,"snare.wav",60
Sample,212391,0,"kick.wav",40
Sample,212391,0,"snare.wav",40
Sample,212391,0,"Hat + Ambience 37.wav",40
Sample,212573,0,"kick.wav",40
Sample,212573,0,"snare.wav",40
Sample,212573,0,"Hat + Ambience 37.wav",40
Sample,212936,0,"snare.wav",40
Sample,213027,0,"snare.wav",40
Sample,213118,0,"Hat + Ambience 37.wav",40
Sample,213118,0,"kick.wav",40
Sample,213300,0,"Hat + Ambience 37.wav",40
Sample,213300,0,"kick.wav",40
Sample,213845,0,"kick.wav",40
Sample,213845,0,"crash2.wav",40
Sample,214209,0,"snare.wav",60
Sample,214573,0,"kick.wav",60
Sample,214755,0,"kick.wav",60
Sample,214936,0,"snare.wav",60
Sample,215300,0,"kick.wav",60
Sample,215482,0,"kick.wav",60
Sample,215664,0,"snare.wav",60
Sample,216027,0,"kick.wav",60
Sample,216209,0,"kick.wav",60
Sample,216391,0,"snare.wav",60
Sample,216573,0,"Tomv2 3.wav",60
Sample,216664,0,"Tomv2 1.wav",60
Sample,216755,0,"kick.wav",60
Sample,216936,0,"kick.wav",60
Sample,217118,0,"snare.wav",60
Sample,217482,0,"kick.wav",60
Sample,217664,0,"kick.wav",60
Sample,217845,0,"snare.wav",60
Sample,218209,0,"kick.wav",60
Sample,218391,0,"kick.wav",60
Sample,218573,0,"snare.wav",60
Sample,218936,0,"kick.wav",60
Sample,219118,0,"kick.wav",60
Sample,219300,0,"snare.wav",60
Sample,280391,0,"kick.wav",70
Sample,321482,0,"IntChina.wav",40

[TimingPoints]
755,363.636363636364,4,1,0,100,1,0
67664,-100,4,1,0,100,0,1
85118,-100,4,1,0,100,0,0
137482,-100,4,1,0,100,0,1
163664,-100,4,1,0,100,0,0
201482,-100,4,1,0,100,0,1
228209,-100,4,1,0,100,0,0
298209,-100,4,1,0,100,0,1
315664,-100,4,1,0,100,0,0

[HitObjects]
256,192,755,5,0,0:0:0:10:P1.wav
142,192,936,1,0,0:0:0:10:P2.wav
369,192,1118,1,0,0:0:0:10:P3.wav
142,192,1300,1,0,0:0:0:10:P2.wav
426,192,1482,1,0,0:0:0:10:P4.wav
142,192,1664,1,0,0:0:0:10:P2.wav
256,192,1845,1,0,0:0:0:10:P1.wav
142,192,2027,1,0,0:0:0:10:P2.wav
369,192,2209,1,0,0:0:0:10:P3.wav
142,192,2391,1,0,0:0:0:10:P2.wav
426,192,2573,1,0,0:0:0:10:P4.wav
142,192,2755,1,0,0:0:0:10:P2.wav
256,192,2936,1,0,0:0:0:10:P1.wav
142,192,3118,1,0,0:0:0:10:P2.wav
369,192,3300,1,0,0:0:0:10:P3.wav
142,192,3482,1,0,0:0:0:10:P2.wav
256,192,3664,1,0,0:0:0:10:P1.wav
142,192,3845,1,0,0:0:0:10:P2.wav
369,192,4027,1,0,0:0:0:10:P3.wav
142,192,4209,1,0,0:0:0:10:P2.wav
426,192,4391,1,0,0:0:0:10:P4.wav
142,192,4573,1,0,0:0:0:10:P2.wav
256,192,4755,1,0,0:0:0:10:P1.wav
142,192,4936,1,0,0:0:0:10:P2.wav
369,192,5118,1,0,0:0:0:10:P3.wav
142,192,5300,1,0,0:0:0:10:P2.wav
426,192,5482,1,0,0:0:0:10:P4.wav
142,192,5664,1,0,0:0:0:10:P2.wav
256,192,5845,1,0,0:0:0:10:P1.wav
142,192,6027,1,0,0:0:0:10:P2.wav
369,192,6209,1,0,0:0:0:10:P3.wav
142,192,6391,1,0,0:0:0:10:P2.wav
256,192,6573,1,0,0:0:0:10:P1.wav
142,192,6755,1,0,0:0:0:10:P2.wav
369,192,6936,1,0,0:0:0:10:P3.wav
142,192,7118,1,0,0:0:0:10:P2.wav
426,192,7300,1,0,0:0:0:10:P4.wav
142,192,7482,1,0,0:0:0:10:P2.wav
256,192,7664,1,0,0:0:0:10:P1.wav
142,192,7845,1,0,0:0:0:10:P2.wav
369,192,8027,1,0,0:0:0:10:P3.wav
142,192,8209,1,0,0:0:0:10:P2.wav
426,192,8391,5,0,0:0:0:10:P4.wav
142,192,8573,1,0,0:0:0:10:P2.wav
256,192,8755,1,0,0:0:0:10:P1.wav
142,192,8936,1,0,0:0:0:10:P2.wav
369,192,9118,1,0,0:0:0:10:P3.wav
142,192,9300,1,0,0:0:0:10:P2.wav
256,192,9482,5,0,0:0:0:70:kick.wav
483,192,9482,1,0,0:0:0:50:crash2.wav
28,192,9482,1,0,0:0:0:50:crash2.wav
199,192,9845,1,0,0:0:0:10:snare.wav
483,192,9845,1,0,0:0:0:10:Tomv2 3.wav
199,192,10027,1,0,0:0:0:20:snare.wav
483,192,10027,1,0,0:0:0:20:Tomv2 3.wav
199,192,10209,1,0,0:0:0:30:snare.wav
483,192,10209,1,0,0:0:0:30:Tomv2 3.wav
199,192,10391,1,0,0:0:0:40:snare.wav
483,192,10391,1,0,0:0:0:40:Tomv2 3.wav
199,192,10573,1,0,0:0:0:50:snare.wav
483,192,10573,1,0,0:0:0:50:Tomv2 3.wav
199,192,10755,1,0,0:0:0:60:snare.wav
483,192,10755,1,0,0:0:0:60:Tomv2 3.wav
199,192,10936,1,0,0:0:0:70:snare.wav
483,192,10936,1,0,0:0:0:70:Tomv2 3.wav
199,192,11118,1,0,0:0:0:70:snare.wav
483,192,11118,1,0,0:0:0:70:Tomv2 3.wav
199,192,11300,1,0,0:0:0:70:snare.wav
483,192,11300,1,0,0:0:0:70:Tomv2 3.wav
199,192,11482,1,0,0:0:0:70:snare.wav
483,192,11482,1,0,0:0:0:70:Tomv2 3.wav
199,192,11664,1,0,0:0:0:70:snare.wav
483,192,11664,1,0,0:0:0:70:Tomv2 3.wav
199,192,11845,1,0,0:0:0:70:snare.wav
483,192,11845,1,0,0:0:0:70:Tomv2 3.wav
199,192,12027,1,0,0:0:0:70:snare.wav
483,192,12027,1,0,0:0:0:70:Tomv2 3.wav
199,192,12209,1,0,0:0:0:70:snare.wav
483,192,12209,1,0,0:0:0:70:Tomv2 3.wav
256,192,12391,5,0,0:0:0:70:kick.wav
483,192,12391,1,0,0:0:0:50:crash2.wav
28,192,12391,1,0,0:0:0:50:crash2.wav
256,192,12755,5,0,0:0:0:70:kick.wav
199,192,12755,1,0,0:0:0:70:snare.wav
369,192,12755,1,0,0:0:0:70:hat closed.wav
369,192,12936,1,0,0:0:0:70:hat open.wav
256,192,13118,5,0,0:0:0:70:kick.wav
369,192,13118,1,0,0:0:0:70:hat closed.wav
369,192,13300,1,0,0:0:0:70:hat open.wav
256,192,13482,5,0,0:0:0:70:kick.wav
199,192,13482,1,0,0:0:0:70:snare.wav
369,192,13482,1,0,0:0:0:70:hat closed.wav
369,192,13664,1,0,0:0:0:70:hat open.wav
256,192,13845,5,0,0:0:0:70:kick.wav
369,192,13845,1,0,0:0:0:70:hat closed.wav
369,192,14027,1,0,0:0:0:70:hat open.wav
256,192,14209,5,0,0:0:0:70:kick.wav
199,192,14209,1,0,0:0:0:70:snare.wav
369,192,14209,1,0,0:0:0:70:hat closed.wav
369,192,14391,1,0,0:0:0:70:hat open.wav
256,192,14573,5,0,0:0:0:70:kick.wav
369,192,14573,1,0,0:0:0:70:hat closed.wav
369,192,14755,1,0,0:0:0:70:hat open.wav
256,192,14936,5,0,0:0:0:70:kick.wav
199,192,14936,1,0,0:0:0:70:snare.wav
369,192,14936,1,0,0:0:0:70:hat closed.wav
369,192,15118,1,0,0:0:0:70:hat open.wav
256,192,15300,5,0,0:0:0:70:kick.wav
369,192,15300,1,0,0:0:0:70:hat closed.wav
369,192,15482,1,0,0:0:0:70:hat open.wav
256,192,15664,5,0,0:0:0:70:kick.wav
199,192,15664,1,0,0:0:0:70:snare.wav
369,192,15664,1,0,0:0:0:70:hat closed.wav
369,192,15845,1,0,0:0:0:70:hat open.wav
256,192,16027,5,0,0:0:0:70:kick.wav
369,192,16027,1,0,0:0:0:70:hat closed.wav
369,192,16209,1,0,0:0:0:70:hat open.wav
256,192,16391,5,0,0:0:0:70:kick.wav
199,192,16391,1,0,0:0:0:70:snare.wav
369,192,16391,1,0,0:0:0:70:hat closed.wav
369,192,16573,1,0,0:0:0:70:hat open.wav
256,192,16755,5,0,0:0:0:70:kick.wav
369,192,16755,1,0,0:0:0:70:hat closed.wav
369,192,16936,1,0,0:0:0:70:hat open.wav
256,192,17118,5,0,0:0:0:70:kick.wav
199,192,17118,1,0,0:0:0:70:Doubleasdnas.wav
199,192,17300,1,0,0:0:0:70:snare.wav
256,192,17482,5,0,0:0:0:70:kick.wav
369,192,17482,1,0,0:0:0:70:hat closed.wav
369,192,17664,1,0,0:0:0:70:hat open.wav
256,192,17845,5,0,0:0:0:70:kick.wav
369,192,17845,1,0,0:0:0:70:hat closed.wav
199,192,17845,1,0,0:0:0:70:snare.wav
256,192,18209,5,0,0:0:0:70:kick.wav
483,192,18209,1,0,0:0:0:50:crash2.wav
28,192,18209,1,0,0:0:0:50:crash2.wav
369,192,18391,1,0,0:0:0:70:hat open.wav
256,192,18573,5,0,0:0:0:70:kick.wav
369,192,18573,1,0,0:0:0:70:hat closed.wav
199,192,18573,1,0,0:0:0:70:snare.wav
369,192,18755,1,0,0:0:0:70:hat open.wav
256,192,18936,5,0,0:0:0:70:kick.wav
369,192,18936,1,0,0:0:0:70:hat closed.wav
369,192,19118,1,0,0:0:0:70:hat open.wav
256,192,19300,5,0,0:0:0:70:kick.wav
369,192,19300,1,0,0:0:0:70:hat closed.wav
199,192,19300,1,0,0:0:0:70:snare.wav
369,192,19482,1,0,0:0:0:70:hat open.wav
256,192,19664,5,0,0:0:0:70:kick.wav
369,192,19664,1,0,0:0:0:70:hat closed.wav
369,192,19845,1,0,0:0:0:70:hat open.wav
256,192,20027,5,0,0:0:0:70:kick.wav
369,192,20027,1,0,0:0:0:70:hat closed.wav
199,192,20027,1,0,0:0:0:70:snare.wav
369,192,20209,1,0,0:0:0:70:hat open.wav
256,192,20391,5,0,0:0:0:70:kick.wav
369,192,20391,1,0,0:0:0:70:hat closed.wav
312,192,20482,1,0,0:0:0:70:snare.wav
199,192,20573,1,0,0:0:0:70:snare.wav
312,192,20664,1,0,0:0:0:70:snare.wav
199,192,20755,1,0,0:0:0:70:snare.wav
369,192,20845,1,0,0:0:0:70:Tomv2 1.wav
85,192,20936,1,0,0:0:0:70:Tomv v2 2.wav
426,192,21027,1,0,0:0:0:70:Tomv v2 2.wav
256,192,21118,5,0,0:0:0:70:kick.wav
28,192,21118,1,0,0:0:0:70:crash2.wav
199,192,21300,1,0,0:0:0:70:snare.wav
312,192,21391,1,0,0:0:0:70:snare.wav
256,192,21664,5,0,0:0:0:70:kick.wav
28,192,21664,1,0,0:0:0:70:crash2.wav
312,192,22027,1,0,0:0:0:70:snare.wav
199,192,22027,1,0,0:0:0:70:Tomv2 3.wav
312,192,22209,1,0,0:0:0:70:snare.wav
199,192,22209,1,0,0:0:0:70:Tomv2 3.wav
256,192,22391,5,0,0:0:0:70:kick.wav
28,192,22391,1,0,0:0:0:70:crash2.wav
256,192,22755,5,0,0:0:0:70:kick.wav
312,192,22845,5,0,0:0:0:70:kick.wav
199,192,22936,1,0,0:0:0:70:snare.wav
256,192,23118,5,0,0:0:0:70:kick.wav
312,192,23118,1,0,0:0:0:70:Hat + Ambience 37.wav
256,192,23482,5,0,0:0:0:70:kick.wav
312,192,23482,1,0,0:0:0:70:Hat + Ambience 37.wav
256,192,24027,5,0,0:0:0:70:kick.wav
28,192,24027,1,0,0:0:0:70:crash2.wav
369,192,24209,1,0,0:0:0:70:hat open.wav
256,192,24391,5,0,0:0:0:70:kick.wav
369,192,24391,1,0,0:0:0:70:hat closed.wav
199,192,24391,1,0,0:0:0:70:snare.wav
369,192,24573,1,0,0:0:0:70:hat open.wav
256,192,24755,5,0,0:0:0:70:kick.wav
369,192,24755,1,0,0:0:0:70:hat closed.wav
369,192,24936,1,0,0:0:0:70:hat open.wav
256,192,25118,5,0,0:0:0:70:kick.wav
369,192,25118,1,0,0:0:0:70:hat closed.wav
199,192,25118,1,0,0:0:0:70:snare.wav
369,192,25300,1,0,0:0:0:70:hat open.wav
256,192,25482,5,0,0:0:0:70:kick.wav
369,192,25482,1,0,0:0:0:70:hat closed.wav
369,192,25664,1,0,0:0:0:70:hat open.wav
256,192,25845,5,0,0:0:0:70:kick.wav
369,192,25845,1,0,0:0:0:70:hat closed.wav
199,192,25845,1,0,0:0:0:70:snare.wav
369,192,26027,1,0,0:0:0:70:hat open.wav
256,192,26209,5,0,0:0:0:70:kick.wav
369,192,26209,1,0,0:0:0:70:hat closed.wav
369,192,26391,1,0,0:0:0:70:hat open.wav
256,192,26573,5,0,0:0:0:70:kick.wav
369,192,26573,1,0,0:0:0:70:hat closed.wav
199,192,26573,1,0,0:0:0:70:snare.wav
369,192,26755,1,0,0:0:0:70:hat open.wav
256,192,26936,5,0,0:0:0:70:kick.wav
369,192,26936,1,0,0:0:0:70:hat closed.wav
369,192,27118,1,0,0:0:0:70:hat open.wav
256,192,27300,5,0,0:0:0:70:kick.wav
369,192,27300,1,0,0:0:0:70:hat closed.wav
199,192,27300,1,0,0:0:0:70:snare.wav
369,192,27482,1,0,0:0:0:70:hat open.wav
256,192,27664,5,0,0:0:0:70:kick.wav
369,192,27664,1,0,0:0:0:70:hat closed.wav
369,192,27845,1,0,0:0:0:70:hat open.wav
256,192,28027,5,0,0:0:0:70:kick.wav
369,192,28027,1,0,0:0:0:70:hat closed.wav
199,192,28027,1,0,0:0:0:70:snare.wav
483,192,28209,1,0,0:0:0:50:crash2.wav
199,192,28209,1,0,0:0:0:70:snare.wav
28,192,28209,1,0,0:0:0:50:crash2.wav
483,192,28573,1,0,0:0:0:10:Tomv2 3.wav
199,192,28573,1,0,0:0:0:10:snare.wav
199,192,28755,1,0,0:0:0:20:snare.wav
483,192,28755,1,0,0:0:0:20:Tomv2 3.wav
483,192,28936,1,0,0:0:0:30:Tomv2 3.wav
199,192,28936,1,0,0:0:0:30:snare.wav
199,192,29118,1,0,0:0:0:40:snare.wav
483,192,29118,1,0,0:0:0:40:Tomv2 3.wav
199,192,29300,1,0,0:0:0:50:snare.wav
483,192,29300,1,0,0:0:0:50:Tomv2 3.wav
199,192,29482,1,0,0:0:0:60:snare.wav
483,192,29482,1,0,0:0:0:60:Tomv2 3.wav
256,192,29664,5,0,0:0:0:70:kick.wav
312,192,29664,1,0,0:0:0:70:Hat + Ambience 37.wav
85,192,29845,1,0,0:0:0:30:X-A4.wav
256,192,30027,1,0,0:0:0:30:X-E5.wav
426,192,30209,1,0,0:0:0:30:X-A5.wav
256,192,30391,1,0,0:0:0:30:X-E5.wav
85,192,30573,1,0,0:0:0:30:X-A4.wav
256,192,30755,1,0,0:0:0:30:X-E5.wav
426,192,30936,1,0,0:0:0:30:X-A5.wav
256,192,31118,1,0,0:0:0:30:X-E5.wav
28,192,31300,1,0,0:0:0:30:X-E4.wav
199,192,31482,1,0,0:0:0:30:X-B4.wav
483,192,31664,1,0,0:0:0:30:X-E5.wav
199,192,31845,1,0,0:0:0:30:X-B4.wav
28,192,32027,1,0,0:0:0:30:X-E4.wav
199,192,32209,1,0,0:0:0:30:X-B4.wav
483,192,32391,1,0,0:0:0:30:X-E5.wav
199,192,32573,1,0,0:0:0:30:X-B4.wav
28,192,32755,1,0,0:0:0:30:X-D4.wav
312,192,32936,1,0,0:0:0:30:X-A4.wav
426,192,33118,1,0,0:0:0:30:X-D5.wav
312,192,33300,1,0,0:0:0:30:X-A4.wav
28,192,33482,1,0,0:0:0:30:X-D4.wav
312,192,33664,1,0,0:0:0:30:X-A4.wav
426,192,33845,1,0,0:0:0:30:X-D5.wav
312,192,34027,1,0,0:0:0:30:X-A4.wav
85,192,34209,1,0,0:0:0:30:X-A4.wav
256,192,34391,1,0,0:0:0:30:X-E5.wav
426,192,34573,1,0,0:0:0:30:X-A5.wav
256,192,34755,1,0,0:0:0:30:X-E5.wav
85,192,34936,1,0,0:0:0:30:X-A4.wav
256,192,35118,1,0,0:0:0:30:X-E5.wav
426,192,35300,1,0,0:0:0:30:X-A5.wav
256,192,35482,1,0,0:0:0:30:X-E5.wav
426,192,35664,1,0,0:0:0:30:X-F#4.wav
369,192,35845,1,0,0:0:0:30:X-C#5.wav
28,192,36027,1,0,0:0:0:30:X-A5.wav
369,192,36209,1,0,0:0:0:30:X-C#5.wav
142,192,36391,1,0,0:0:0:30:X-F#5.wav
369,192,36573,1,0,0:0:0:30:X-C#5.wav
28,192,36755,1,0,0:0:0:30:X-A5.wav
369,192,36936,1,0,0:0:0:30:X-C#5.wav
483,192,37118,1,0,0:0:0:30:X-B4.wav
312,192,37300,1,0,0:0:0:30:X-F#5.wav
28,192,37482,1,0,0:0:0:30:X-D#6.wav
312,192,37664,1,0,0:0:0:30:X-F#5.wav
85,192,37845,1,0,0:0:0:30:X-B5.wav
312,192,38027,1,0,0:0:0:30:X-F#5.wav
28,192,38209,1,0,0:0:0:30:X-D#6.wav
312,192,38391,1,0,0:0:0:30:X-F#5.wav
483,192,38573,1,0,0:0:0:30:X-D4.wav
256,192,38755,1,0,0:0:0:30:X-A4.wav
28,192,38936,1,0,0:0:0:30:X-F#5.wav
256,192,39118,1,0,0:0:0:30:X-A4.wav
142,192,39300,1,0,0:0:0:30:X-D5.wav
256,192,39482,1,0,0:0:0:30:X-A4.wav
85,192,39664,1,0,0:0:0:30:X-E5.wav
256,192,39845,1,0,0:0:0:30:X-A4.wav
426,192,40027,1,0,0:0:0:30:X-E4.wav
312,192,40209,1,0,0:0:0:30:X-B4.wav
28,192,40391,1,0,0:0:0:30:X-G#5.wav
312,192,40573,1,0,0:0:0:30:X-B4.wav
142,192,40755,1,0,0:0:0:30:X-E5.wav
312,192,40936,1,0,0:0:0:30:X-B4.wav
85,192,41118,1,0,0:0:0:30:X-F#5.wav
312,192,41300,1,0,0:0:0:30:X-B4.wav
256,192,41482,5,0,0:0:0:70:kick.wav
28,192,41482,1,0,0:0:0:70:crash2.wav
256,192,41845,1,0,0:0:0:70:kick.wav
369,192,41845,1,0,0:0:0:70:hat open.wav
256,192,42209,1,0,0:0:0:70:kick.wav
256,192,42573,1,0,0:0:0:70:kick.wav
369,192,42573,1,0,0:0:0:70:hat open.wav
256,192,42936,1,0,0:0:0:70:kick.wav
369,192,42936,1,0,0:0:0:70:hat open.wav
256,192,43300,1,0,0:0:0:70:kick.wav
369,192,43300,1,0,0:0:0:70:hat open.wav
256,192,43664,1,0,0:0:0:70:kick.wav
369,192,43664,1,0,0:0:0:70:hat open.wav
256,192,44027,1,0,0:0:0:70:kick.wav
369,192,44027,1,0,0:0:0:70:hat open.wav
256,192,44391,1,0,0:0:0:70:kick.wav
369,192,44391,1,0,0:0:0:70:hat open.wav
256,192,44755,1,0,0:0:0:70:kick.wav
369,192,44755,1,0,0:0:0:70:hat open.wav
256,192,45118,1,0,0:0:0:70:kick.wav
369,192,45118,1,0,0:0:0:70:hat open.wav
256,192,45482,1,0,0:0:0:70:kick.wav
369,192,45482,1,0,0:0:0:70:hat open.wav
369,192,45845,1,0,0:0:0:70:hat open.wav
256,192,45845,1,0,0:0:0:70:kick.wav
256,192,46209,1,0,0:0:0:70:kick.wav
369,192,46209,1,0,0:0:0:70:hat open.wav
256,192,46573,1,0,0:0:0:70:kick.wav
369,192,46573,1,0,0:0:0:70:hat open.wav
256,192,46936,1,0,0:0:0:70:kick.wav
369,192,46936,1,0,0:0:0:70:hat open.wav
256,192,47300,1,0,0:0:0:70:kick.wav
369,192,47300,1,0,0:0:0:70:hat open.wav
256,192,47664,1,0,0:0:0:70:kick.wav
369,192,47664,1,0,0:0:0:70:hat open.wav
256,192,48027,1,0,0:0:0:70:kick.wav
369,192,48027,1,0,0:0:0:70:hat open.wav
256,192,48391,1,0,0:0:0:70:kick.wav
369,192,48391,1,0,0:0:0:70:hat open.wav
256,192,48755,1,0,0:0:0:70:kick.wav
369,192,48755,1,0,0:0:0:70:hat open.wav
256,192,49118,1,0,0:0:0:70:kick.wav
369,192,49118,1,0,0:0:0:70:hat open.wav
256,192,49482,1,0,0:0:0:70:kick.wav
369,192,49482,1,0,0:0:0:70:hat open.wav
256,192,49845,1,0,0:0:0:70:kick.wav
369,192,49845,1,0,0:0:0:70:hat open.wav
256,192,50209,1,0,0:0:0:70:kick.wav
369,192,50209,1,0,0:0:0:70:hat open.wav
256,192,50573,1,0,0:0:0:70:kick.wav
369,192,50573,1,0,0:0:0:70:hat open.wav
256,192,50936,1,0,0:0:0:70:kick.wav
369,192,50936,1,0,0:0:0:70:hat open.wav
256,192,51300,1,0,0:0:0:70:kick.wav
369,192,51300,1,0,0:0:0:70:hat open.wav
256,192,51664,1,0,0:0:0:70:kick.wav
369,192,51664,1,0,0:0:0:70:hat open.wav
256,192,52027,1,0,0:0:0:70:kick.wav
369,192,52027,1,0,0:0:0:70:hat open.wav
256,192,52391,1,0,0:0:0:70:kick.wav
369,192,52391,1,0,0:0:0:70:hat open.wav
256,192,52755,1,0,0:0:0:70:kick.wav
369,192,52755,1,0,0:0:0:70:hat open.wav
256,192,53118,1,0,0:0:0:70:kick.wav
483,192,53118,1,0,0:0:0:50:crash2.wav
28,192,53118,1,0,0:0:0:50:crash2.wav
199,192,53482,1,0,0:0:0:10:snare.wav
483,192,53482,1,0,0:0:0:10:Tomv2 3.wav
483,192,53664,1,0,0:0:0:20:Tomv2 3.wav
199,192,53664,1,0,0:0:0:20:snare.wav
199,192,53845,1,0,0:0:0:30:snare.wav
483,192,53845,1,0,0:0:0:30:Tomv2 3.wav
483,192,54027,1,0,0:0:0:40:Tomv2 3.wav
199,192,54027,1,0,0:0:0:40:snare.wav
483,192,54209,1,0,0:0:0:50:Tomv2 3.wav
199,192,54209,1,0,0:0:0:50:snare.wav
483,192,54391,1,0,0:0:0:60:Tomv2 3.wav
199,192,54391,1,0,0:0:0:60:snare.wav
199,192,54573,1,0,0:0:0:70:snare.wav
483,192,54573,1,0,0:0:0:70:Tomv2 3.wav
483,192,54755,1,0,0:0:0:70:Tomv2 3.wav
199,192,54755,1,0,0:0:0:70:snare.wav
199,192,54936,1,0,0:0:0:70:snare.wav
483,192,54936,1,0,0:0:0:70:Tomv2 3.wav
483,192,55118,1,0,0:0:0:70:Tomv2 3.wav
199,192,55118,1,0,0:0:0:70:snare.wav
199,192,55300,1,0,0:0:0:70:snare.wav
483,192,55300,1,0,0:0:0:70:Tomv2 3.wav
483,192,55482,1,0,0:0:0:70:Tomv2 3.wav
199,192,55482,1,0,0:0:0:70:snare.wav
199,192,55664,1,0,0:0:0:70:snare.wav
483,192,55664,1,0,0:0:0:70:Tomv2 3.wav
483,192,55845,1,0,0:0:0:70:Tomv2 3.wav
199,192,55845,1,0,0:0:0:70:snare.wav
199,192,56027,1,0,0:0:0:70:snare.wav
28,192,56027,1,0,0:0:0:70:crash2.wav
256,192,56027,1,0,0:0:0:70:kick.wav
256,192,56391,1,0,0:0:0:70:kick.wav
369,192,56391,1,0,0:0:0:70:hat open.wav
199,192,56755,1,0,0:0:0:70:snare.wav
312,192,56755,1,0,0:0:0:70:hat closed.wav
256,192,57118,1,0,0:0:0:70:kick.wav
312,192,57118,1,0,0:0:0:70:hat closed.wav
199,192,57300,1,0,0:0:0:70:DoubleSnare.wav
312,192,57482,1,0,0:0:0:70:hat closed.wav
199,192,57664,1,0,0:0:0:70:snare.wav
369,192,57845,1,0,0:0:0:70:hat open.wav
256,192,57845,1,0,0:0:0:70:kick.wav
312,192,58209,1,0,0:0:0:70:hat closed.wav
199,192,58209,1,0,0:0:0:70:snare.wav
312,192,58573,1,0,0:0:0:70:hat closed.wav
256,192,58573,1,0,0:0:0:70:kick.wav
142,192,58755,1,0,0:0:0:70:hat closed.wav
369,192,58845,1,0,0:0:0:70:hat closed.wav
256,192,58936,1,0,0:0:0:70:kick.wav
142,192,58936,1,0,0:0:0:70:hat closed.wav
256,192,59300,1,0,0:0:0:70:kick.wav
369,192,59300,1,0,0:0:0:70:hat open.wav
199,192,59664,1,0,0:0:0:70:snare.wav
312,192,59664,1,0,0:0:0:70:hat closed.wav
256,192,60027,1,0,0:0:0:70:kick.wav
312,192,60027,1,0,0:0:0:70:hat closed.wav
199,192,60209,1,0,0:0:0:70:DoubleSnare.wav
312,192,60391,1,0,0:0:0:70:hat closed.wav
199,192,60573,1,0,0:0:0:70:snare.wav
256,192,60755,1,0,0:0:0:70:kick.wav
369,192,60755,1,0,0:0:0:70:hat open.wav
199,192,61118,1,0,0:0:0:70:snare.wav
142,192,61300,1,0,0:0:0:70:Tomv v2 2.wav
85,192,61482,1,0,0:0:0:70:Tomv2 3.wav
28,192,61845,1,0,0:0:0:70:crash2.wav
256,192,61845,1,0,0:0:0:70:kick.wav
199,192,62209,1,0,0:0:0:70:snare.wav
369,192,62209,1,0,0:0:0:70:hat open.wav
256,192,62209,1,0,0:0:0:70:kick.wav
199,192,62573,1,0,0:0:0:70:snare.wav
369,192,62573,1,0,0:0:0:70:hat open.wav
256,192,62573,1,0,0:0:0:70:kick.wav
199,192,62936,1,0,0:0:0:70:snare.wav
369,192,62936,1,0,0:0:0:70:hat open.wav
256,192,62936,1,0,0:0:0:70:kick.wav
199,192,63300,1,0,0:0:0:70:snare.wav
369,192,63300,1,0,0:0:0:70:hat open.wav
256,192,63300,1,0,0:0:0:70:kick.wav
199,192,63664,1,0,0:0:0:70:snare.wav
369,192,63664,1,0,0:0:0:70:hat open.wav
256,192,63664,1,0,0:0:0:70:kick.wav
199,192,64027,1,0,0:0:0:70:snare.wav
369,192,64027,1,0,0:0:0:70:hat open.wav
256,192,64027,1,0,0:0:0:70:kick.wav
199,192,64391,1,0,0:0:0:70:snare.wav
369,192,64391,1,0,0:0:0:70:hat open.wav
256,192,64391,1,0,0:0:0:70:kick.wav
199,192,64755,1,0,0:0:0:70:Tomv2 1.wav
256,192,64755,1,0,0:0:0:70:kick.wav
142,192,64936,1,0,0:0:0:70:Tomv v2 2.wav
256,192,65118,1,0,0:0:0:70:kick.wav
199,192,65391,1,0,0:0:0:70:snare.wav
256,192,65482,1,0,0:0:0:70:kick.wav
312,192,65482,1,0,0:0:0:70:snare.wav
199,192,65664,1,0,0:0:0:70:Tomv2 1.wav
256,192,65845,1,0,0:0:0:70:kick.wav
369,192,65845,1,0,0:0:0:70:Tomv v2 2.wav
256,192,66209,1,0,0:0:0:70:kick.wav
369,192,66209,1,0,0:0:0:70:hat open.wav
256,192,67664,1,0,0:0:0:70:kick.wav
28,192,67664,1,0,0:0:0:70:crash2.wav
256,192,67845,1,0,0:0:0:70:kick.wav
199,192,68027,1,0,0:0:0:70:snare.wav
369,192,68027,1,0,0:0:0:70:hat open.wav
256,192,68391,1,0,0:0:0:70:kick.wav
369,192,68391,1,0,0:0:0:70:hat open.wav
256,192,68573,1,0,0:0:0:70:kick.wav
199,192,68755,1,0,0:0:0:70:snare.wav
369,192,68755,1,0,0:0:0:70:hat open.wav
256,192,69118,1,0,0:0:0:70:kick.wav
369,192,69118,1,0,0:0:0:70:hat open.wav
256,192,69300,1,0,0:0:0:70:kick.wav
199,192,69482,1,0,0:0:0:70:snare.wav
369,192,69482,1,0,0:0:0:70:hat open.wav
256,192,69664,1,0,0:0:0:70:kick.wav
369,192,69845,1,0,0:0:0:70:hat open.wav
256,192,70027,1,0,0:0:0:70:kick.wav
199,192,70209,1,0,0:0:0:70:snare.wav
369,192,70209,1,0,0:0:0:70:hat open.wav
256,192,70573,1,0,0:0:0:70:kick.wav
369,192,70573,1,0,0:0:0:70:hat open.wav
256,192,70755,1,0,0:0:0:70:kick.wav
199,192,70936,1,0,0:0:0:70:snare.wav
369,192,70936,1,0,0:0:0:70:hat open.wav
256,192,71300,1,0,0:0:0:70:kick.wav
369,192,71300,1,0,0:0:0:70:hat open.wav
256,192,71482,1,0,0:0:0:70:kick.wav
199,192,71664,1,0,0:0:0:70:snare.wav
369,192,71664,1,0,0:0:0:70:hat open.wav
256,192,72027,1,0,0:0:0:70:kick.wav
369,192,72027,1,0,0:0:0:70:hat open.wav
256,192,72209,1,0,0:0:0:70:kick.wav
199,192,72391,1,0,0:0:0:70:snare.wav
369,192,72391,1,0,0:0:0:70:hat open.wav
256,192,72755,1,0,0:0:0:70:kick.wav
369,192,72755,1,0,0:0:0:70:hat open.wav
199,192,72936,1,0,0:0:0:70:snare.wav
28,192,72936,1,0,0:0:0:70:crash2.wav
199,192,73118,1,0,0:0:0:70:snare.wav
28,192,73118,1,0,0:0:0:70:crash2.wav
256,192,73482,1,0,0:0:0:70:kick.wav
28,192,73482,1,0,0:0:0:70:crash2.wav
256,192,73664,1,0,0:0:0:70:kick.wav
199,192,73845,1,0,0:0:0:70:snare.wav
369,192,73845,1,0,0:0:0:70:hat open.wav
256,192,74209,1,0,0:0:0:70:kick.wav
369,192,74209,1,0,0:0:0:70:hat open.wav
256,192,74391,1,0,0:0:0:70:kick.wav
199,192,74573,1,0,0:0:0:70:snare.wav
369,192,74573,1,0,0:0:0:70:hat open.wav
256,192,74936,1,0,0:0:0:70:kick.wav
369,192,74936,1,0,0:0:0:70:hat open.wav
256,192,75118,1,0,0:0:0:70:kick.wav
199,192,75300,1,0,0:0:0:70:snare.wav
369,192,75300,1,0,0:0:0:70:hat open.wav
256,192,75664,1,0,0:0:0:70:kick.wav
369,192,75664,1,0,0:0:0:70:hat open.wav
256,192,76027,1,0,0:0:0:70:kick.wav
28,192,76027,1,0,0:0:0:70:crash2.wav
256,192,76391,1,0,0:0:0:70:kick.wav
28,192,76391,1,0,0:0:0:70:crash2.wav
256,192,76573,1,0,0:0:0:70:kick.wav
199,192,76755,1,0,0:0:0:70:snare.wav
369,192,76755,1,0,0:0:0:70:hat open.wav
199,192,77027,1,0,0:0:0:70:snare.wav
256,192,77118,1,0,0:0:0:70:kick.wav
28,192,77118,1,0,0:0:0:70:crash2.wav
256,192,77300,1,0,0:0:0:70:kick.wav
199,192,77482,1,0,0:0:0:70:snare.wav
369,192,77482,1,0,0:0:0:70:hat open.wav
199,192,77755,1,0,0:0:0:70:snare.wav
256,192,77845,1,0,0:0:0:70:kick.wav
28,192,77845,1,0,0:0:0:70:crash2.wav
256,192,78027,1,0,0:0:0:70:kick.wav
199,192,78209,1,0,0:0:0:70:snare.wav
369,192,78209,1,0,0:0:0:70:hat open.wav
199,192,78573,1,0,0:0:0:70:snare.wav
312,192,78664,1,0,0:0:0:70:snare.wav
199,192,78755,1,0,0:0:0:70:snare.wav
369,192,78845,1,0,0:0:0:70:Tomv2 1.wav
85,192,78936,1,0,0:0:0:70:Tomv v2 2.wav
426,192,79027,1,0,0:0:0:70:Tomv v2 2.wav
28,192,79118,1,0,0:0:0:70:Tomv2 3.wav
483,192,79209,1,0,0:0:0:70:Tomv2 3.wav
256,192,79300,1,0,0:0:0:70:kick.wav
28,192,79300,1,0,0:0:0:70:crash2.wav
256,192,79482,1,0,0:0:0:70:kick.wav
199,192,79664,1,0,0:0:0:70:snare.wav
369,192,79664,1,0,0:0:0:70:hat open.wav
256,192,80027,1,0,0:0:0:70:kick.wav
369,192,80027,1,0,0:0:0:70:hat open.wav
256,192,80209,1,0,0:0:0:70:kick.wav
199,192,80391,1,0,0:0:0:70:snare.wav
369,192,80391,1,0,0:0:0:70:hat open.wav
256,192,80755,1,0,0:0:0:70:kick.wav
369,192,80755,1,0,0:0:0:70:hat open.wav
256,192,80936,1,0,0:0:0:70:kick.wav
199,192,81118,1,0,0:0:0:70:snare.wav
369,192,81118,1,0,0:0:0:70:hat open.wav
256,192,81300,1,0,0:0:0:70:kick.wav
369,192,81482,1,0,0:0:0:70:hat open.wav
256,192,81664,1,0,0:0:0:70:kick.wav
199,192,81845,1,0,0:0:0:70:snare.wav
369,192,81845,1,0,0:0:0:70:hat open.wav
256,192,82209,1,0,0:0:0:70:kick.wav
369,192,82209,1,0,0:0:0:70:hat open.wav
256,192,82391,1,0,0:0:0:70:kick.wav
199,192,82573,1,0,0:0:0:70:snare.wav
369,192,82573,1,0,0:0:0:70:hat open.wav
256,192,82936,1,0,0:0:0:70:kick.wav
369,192,82936,1,0,0:0:0:70:hat open.wav
256,192,83118,1,0,0:0:0:70:kick.wav
199,192,83300,1,0,0:0:0:70:snare.wav
369,192,83300,1,0,0:0:0:70:hat open.wav
256,192,83664,1,0,0:0:0:70:kick.wav
369,192,83664,1,0,0:0:0:70:hat open.wav
256,192,83845,1,0,0:0:0:70:kick.wav
199,192,84027,1,0,0:0:0:70:snare.wav
369,192,84027,1,0,0:0:0:70:hat open.wav
256,192,84209,1,0,0:0:0:70:kick.wav
256,192,84391,1,0,0:0:0:70:kick.wav
369,192,84391,1,0,0:0:0:70:hat open.wav
199,192,84573,1,0,0:0:0:70:snare.wav
28,192,84573,1,0,0:0:0:70:crash2.wav
199,192,84755,1,0,0:0:0:70:snare.wav
28,192,84755,1,0,0:0:0:70:crash2.wav
256,192,85118,1,0,0:0:0:70:kick.wav
28,192,85118,1,0,0:0:0:70:crash2.wav
256,192,85300,1,0,0:0:0:70:kick.wav
369,192,85482,1,0,0:0:0:70:hat open.wav
256,192,85664,1,0,0:0:0:70:kick.wav
199,192,85845,1,0,0:0:0:70:snare.wav
369,192,85845,1,0,0:0:0:70:hat open.wav
369,192,86209,1,0,0:0:0:70:hat open.wav
256,192,86573,1,0,0:0:0:70:kick.wav
369,192,86573,1,0,0:0:0:70:hat open.wav
256,192,86755,1,0,0:0:0:70:kick.wav
369,192,86936,1,0,0:0:0:70:hat open.wav
256,192,87118,1,0,0:0:0:70:kick.wav
199,192,87300,1,0,0:0:0:70:snare.wav
369,192,87300,1,0,0:0:0:70:hat open.wav
256,192,87482,1,0,0:0:0:70:kick.wav
369,192,87664,1,0,0:0:0:70:hat open.wav
256,192,88027,1,0,0:0:0:70:kick.wav
28,192,88027,1,0,0:0:0:70:crash2.wav
256,192,88209,1,0,0:0:0:70:kick.wav
369,192,88391,1,0,0:0:0:70:hat open.wav
256,192,88573,1,0,0:0:0:70:kick.wav
199,192,88755,1,0,0:0:0:70:snare.wav
369,192,88755,1,0,0:0:0:70:hat open.wav
369,192,89118,1,0,0:0:0:70:hat open.wav
256,192,89482,1,0,0:0:0:70:kick.wav
369,192,89482,1,0,0:0:0:70:hat open.wav
256,192,89664,1,0,0:0:0:70:kick.wav
369,192,89845,1,0,0:0:0:70:hat open.wav
256,192,90027,1,0,0:0:0:70:kick.wav
199,192,90209,1,0,0:0:0:70:snare.wav
369,192,90209,1,0,0:0:0:70:hat open.wav
256,192,90391,1,0,0:0:0:70:kick.wav
199,192,90573,1,0,0:0:0:70:snare.wav
369,192,90573,1,0,0:0:0:70:hat open.wav
312,192,90755,1,0,0:0:0:70:snare.wav
199,192,90845,1,0,0:0:0:70:snare.wav
256,192,90936,1,0,0:0:0:70:kick.wav
28,192,90936,1,0,0:0:0:70:crash2.wav
483,192,91300,1,0,0:0:0:10:Tomv2 3.wav
199,192,91300,1,0,0:0:0:10:snare.wav
199,192,91482,1,0,0:0:0:20:snare.wav
483,192,91482,1,0,0:0:0:20:Tomv2 3.wav
483,192,91664,1,0,0:0:0:30:Tomv2 3.wav
199,192,91664,1,0,0:0:0:30:snare.wav
199,192,91845,1,0,0:0:0:40:snare.wav
483,192,91845,1,0,0:0:0:40:Tomv2 3.wav
199,192,92027,1,0,0:0:0:50:snare.wav
483,192,92027,1,0,0:0:0:50:Tomv2 3.wav
199,192,92209,1,0,0:0:0:60:snare.wav
483,192,92209,1,0,0:0:0:60:Tomv2 3.wav
483,192,92391,1,0,0:0:0:70:Tomv2 3.wav
199,192,92391,1,0,0:0:0:70:snare.wav
483,192,92573,1,0,0:0:0:70:Tomv2 3.wav
199,192,92573,1,0,0:0:0:70:snare.wav
199,192,92755,1,0,0:0:0:70:snare.wav
483,192,92755,1,0,0:0:0:70:Tomv2 3.wav
199,192,92936,1,0,0:0:0:70:snare.wav
483,192,92936,1,0,0:0:0:70:Tomv2 3.wav
199,192,93118,1,0,0:0:0:70:snare.wav
483,192,93118,1,0,0:0:0:70:Tomv2 3.wav
199,192,93300,1,0,0:0:0:70:snare.wav
483,192,93300,1,0,0:0:0:70:Tomv2 3.wav
199,192,93482,1,0,0:0:0:70:snare.wav
483,192,93482,1,0,0:0:0:70:Tomv2 3.wav
199,192,93664,1,0,0:0:0:70:snare.wav
483,192,93664,1,0,0:0:0:70:Tomv2 3.wav
199,192,93845,1,0,0:0:0:70:snare.wav
28,192,93845,1,0,0:0:0:70:crash2.wav
256,192,94027,1,0,0:0:0:70:kick.wav
256,192,94209,1,0,0:0:0:70:kick.wav
28,192,94391,1,0,0:0:0:70:crash2.wav
199,192,94391,1,0,0:0:0:70:snare.wav
256,192,94573,1,0,0:0:0:70:kick.wav
256,192,94755,1,0,0:0:0:70:kick.wav
28,192,94936,1,0,0:0:0:70:crash2.wav
199,192,94936,1,0,0:0:0:70:snare.wav
256,192,95118,1,0,0:0:0:70:kick.wav
199,192,95300,1,0,0:0:0:70:snare.wav
28,192,95300,1,0,0:0:0:70:crash2.wav
199,192,95482,1,0,0:0:0:70:snare.wav
483,192,95482,1,0,0:0:0:70:Tomv2 3.wav
199,192,95664,1,0,0:0:0:70:snare.wav
483,192,95664,1,0,0:0:0:70:Tomv2 3.wav
256,192,95845,1,0,0:0:0:70:kick.wav
312,192,95845,1,0,0:0:0:70:Hat + Ambience 37.wav
256,192,96209,1,0,0:0:0:70:kick.wav
312,192,96209,1,0,0:0:0:70:Hat + Ambience 37.wav
28,192,96755,1,0,0:0:0:70:crash2.wav
256,192,96755,1,0,0:0:0:70:kick.wav
369,192,96936,1,0,0:0:0:70:hat open.wav
256,192,97118,5,0,0:0:0:70:kick.wav
369,192,97118,1,0,0:0:0:70:hat closed.wav
199,192,97118,1,0,0:0:0:70:snare.wav
369,192,97300,1,0,0:0:0:70:hat open.wav
256,192,97482,5,0,0:0:0:70:kick.wav
369,192,97482,1,0,0:0:0:70:hat closed.wav
369,192,97664,1,0,0:0:0:70:hat open.wav
256,192,97845,5,0,0:0:0:70:kick.wav
199,192,97845,1,0,0:0:0:70:snare.wav
369,192,97845,1,0,0:0:0:70:hat closed.wav
369,192,98027,1,0,0:0:0:70:hat open.wav
256,192,98209,5,0,0:0:0:70:kick.wav
369,192,98209,1,0,0:0:0:70:hat closed.wav
369,192,98391,1,0,0:0:0:70:hat open.wav
256,192,98573,5,0,0:0:0:70:kick.wav
199,192,98573,1,0,0:0:0:70:snare.wav
369,192,98573,1,0,0:0:0:70:hat closed.wav
369,192,98755,1,0,0:0:0:70:hat open.wav
256,192,98936,5,0,0:0:0:70:kick.wav
369,192,98936,1,0,0:0:0:70:hat closed.wav
369,192,99118,1,0,0:0:0:70:hat open.wav
256,192,99300,5,0,0:0:0:70:kick.wav
369,192,99300,1,0,0:0:0:70:hat closed.wav
199,192,99300,1,0,0:0:0:70:snare.wav
369,192,99482,1,0,0:0:0:70:hat open.wav
256,192,99664,5,0,0:0:0:70:kick.wav
369,192,99664,1,0,0:0:0:70:hat closed.wav
369,192,99845,1,0,0:0:0:70:hat open.wav
256,192,100027,5,0,0:0:0:70:kick.wav
369,192,100027,1,0,0:0:0:70:hat closed.wav
199,192,100027,1,0,0:0:0:70:snare.wav
369,192,100209,1,0,0:0:0:70:hat open.wav
256,192,100391,5,0,0:0:0:70:kick.wav
369,192,100391,1,0,0:0:0:70:hat closed.wav
369,192,100573,1,0,0:0:0:70:hat open.wav
256,192,100755,5,0,0:0:0:70:kick.wav
199,192,100755,1,0,0:0:0:70:snare.wav
369,192,100755,1,0,0:0:0:70:hat closed.wav
199,192,100936,1,0,0:0:0:70:snare.wav
28,192,100936,1,0,0:0:0:70:crash2.wav
483,192,101300,1,0,0:0:0:70:Tomv2 3.wav
199,192,101300,1,0,0:0:0:70:snare.wav
483,192,101482,1,0,0:0:0:70:Tomv2 3.wav
199,192,101482,1,0,0:0:0:70:snare.wav
483,192,101664,1,0,0:0:0:70:Tomv2 3.wav
199,192,101664,1,0,0:0:0:70:snare.wav
199,192,101845,1,0,0:0:0:70:snare.wav
483,192,101845,1,0,0:0:0:70:Tomv2 3.wav
483,192,102027,1,0,0:0:0:70:Tomv2 3.wav
199,192,102027,1,0,0:0:0:70:snare.wav
199,192,102209,1,0,0:0:0:70:snare.wav
483,192,102209,1,0,0:0:0:70:Tomv2 3.wav
199,192,102391,1,0,0:0:0:70:snare.wav
483,192,102391,1,0,0:0:0:70:Tomv2 3.wav
85,192,102573,1,0,0:0:0:50:X-A4.wav
256,192,102755,1,0,0:0:0:50:X-E5.wav
426,192,102936,1,0,0:0:0:50:X-A5.wav
256,192,103118,1,0,0:0:0:50:X-E5.wav
85,192,103300,1,0,0:0:0:50:X-A4.wav
256,192,103482,1,0,0:0:0:50:X-E5.wav
426,192,103664,1,0,0:0:0:50:X-A5.wav
256,192,103845,1,0,0:0:0:50:X-E5.wav
28,192,104027,1,0,0:0:0:50:X-E4.wav
199,192,104209,1,0,0:0:0:50:X-B4.wav
483,192,104391,1,0,0:0:0:50:X-E5.wav
199,192,104573,1,0,0:0:0:50:X-B4.wav
28,192,104755,1,0,0:0:0:50:X-E4.wav
199,192,104936,1,0,0:0:0:50:X-B4.wav
483,192,105118,1,0,0:0:0:50:X-E5.wav
199,192,105300,1,0,0:0:0:50:X-B4.wav
28,192,105482,1,0,0:0:0:50:X-D4.wav
312,192,105664,1,0,0:0:0:50:X-A4.wav
426,192,105845,1,0,0:0:0:50:X-D5.wav
312,192,106027,1,0,0:0:0:50:X-A4.wav
28,192,106209,1,0,0:0:0:50:X-D4.wav
312,192,106391,1,0,0:0:0:50:X-A4.wav
426,192,106573,1,0,0:0:0:50:X-D5.wav
312,192,106755,1,0,0:0:0:50:X-A4.wav
85,192,106936,1,0,0:0:0:50:X-A4.wav
256,192,107118,1,0,0:0:0:50:X-E5.wav
426,192,107300,1,0,0:0:0:50:X-A5.wav
256,192,107482,1,0,0:0:0:50:X-E5.wav
85,192,107664,1,0,0:0:0:50:X-A4.wav
256,192,107845,1,0,0:0:0:50:X-E5.wav
426,192,108027,1,0,0:0:0:50:X-A5.wav
256,192,108209,1,0,0:0:0:50:X-E5.wav
426,192,108391,1,0,0:0:0:50:X-F#4.wav
369,192,108573,1,0,0:0:0:50:X-C#5.wav
28,192,108755,1,0,0:0:0:50:X-A5.wav
369,192,108936,1,0,0:0:0:50:X-C#5.wav
142,192,109118,1,0,0:0:0:50:X-F#5.wav
369,192,109300,1,0,0:0:0:50:X-C#5.wav
28,192,109482,1,0,0:0:0:50:X-A5.wav
369,192,109664,1,0,0:0:0:50:X-C#5.wav
483,192,109845,1,0,0:0:0:50:X-B4.wav
312,192,110027,1,0,0:0:0:50:X-F#5.wav
28,192,110209,1,0,0:0:0:50:X-D#6.wav
312,192,110391,1,0,0:0:0:50:X-F#5.wav
85,192,110573,1,0,0:0:0:50:X-B5.wav
312,192,110755,1,0,0:0:0:50:X-F#5.wav
28,192,110936,1,0,0:0:0:50:X-D#6.wav
312,192,111118,1,0,0:0:0:50:X-F#5.wav
483,192,111300,1,0,0:0:0:50:X-D4.wav
256,192,111482,1,0,0:0:0:50:X-A4.wav
28,192,111664,1,0,0:0:0:50:X-F#5.wav
256,192,111845,1,0,0:0:0:50:X-A4.wav
142,192,112027,1,0,0:0:0:50:X-D5.wav
256,192,112209,1,0,0:0:0:50:X-A4.wav
85,192,112391,1,0,0:0:0:50:X-E5.wav
256,192,112573,1,0,0:0:0:50:X-A4.wav
426,192,112755,1,0,0:0:0:50:X-E4.wav
312,192,112936,1,0,0:0:0:50:X-B4.wav
28,192,113118,1,0,0:0:0:50:X-G#5.wav
312,192,113300,1,0,0:0:0:50:X-B4.wav
142,192,113482,1,0,0:0:0:50:X-E5.wav
312,192,113664,1,0,0:0:0:50:X-B4.wav
85,192,113845,1,0,0:0:0:50:X-F#5.wav
312,192,114027,1,0,0:0:0:50:X-B4.wav
256,192,114209,5,0,0:0:0:70:kick.wav
28,192,114209,1,0,0:0:0:70:crash2.wav
369,192,114391,1,0,0:0:0:70:hat open.wav
256,192,114573,5,0,0:0:0:70:kick.wav
369,192,114573,1,0,0:0:0:70:hat closed.wav
369,192,114755,1,0,0:0:0:70:hat open.wav
256,192,114936,5,0,0:0:0:70:kick.wav
369,192,114936,1,0,0:0:0:70:hat closed.wav
369,192,115118,1,0,0:0:0:70:hat open.wav
256,192,115300,5,0,0:0:0:70:kick.wav
369,192,115300,1,0,0:0:0:70:hat closed.wav
369,192,115482,1,0,0:0:0:70:hat open.wav
256,192,115664,5,0,0:0:0:70:kick.wav
369,192,115664,1,0,0:0:0:70:hat closed.wav
369,192,115845,1,0,0:0:0:70:hat open.wav
256,192,116027,5,0,0:0:0:70:kick.wav
369,192,116027,1,0,0:0:0:70:hat closed.wav
369,192,116209,1,0,0:0:0:70:hat open.wav
256,192,116391,5,0,0:0:0:70:kick.wav
369,192,116391,1,0,0:0:0:70:hat closed.wav
369,192,116573,1,0,0:0:0:70:hat open.wav
256,192,116755,5,0,0:0:0:70:kick.wav
369,192,116755,1,0,0:0:0:70:hat closed.wav
369,192,116936,1,0,0:0:0:70:hat open.wav
256,192,117118,5,0,0:0:0:70:kick.wav
369,192,117118,1,0,0:0:0:70:hat closed.wav
369,192,117300,1,0,0:0:0:70:hat open.wav
256,192,117482,5,0,0:0:0:70:kick.wav
369,192,117482,1,0,0:0:0:70:hat closed.wav
369,192,117664,1,0,0:0:0:70:hat open.wav
256,192,117845,5,0,0:0:0:70:kick.wav
369,192,117845,1,0,0:0:0:70:hat closed.wav
369,192,118027,1,0,0:0:0:70:hat open.wav
256,192,118209,5,0,0:0:0:70:kick.wav
369,192,118209,1,0,0:0:0:70:hat closed.wav
369,192,118391,1,0,0:0:0:70:hat open.wav
256,192,118573,5,0,0:0:0:70:kick.wav
369,192,118573,1,0,0:0:0:70:hat closed.wav
369,192,118755,1,0,0:0:0:70:hat open.wav
256,192,118936,5,0,0:0:0:70:kick.wav
369,192,118936,1,0,0:0:0:70:hat closed.wav
369,192,119118,1,0,0:0:0:70:hat open.wav
256,192,119300,5,0,0:0:0:70:kick.wav
369,192,119300,1,0,0:0:0:70:hat closed.wav
369,192,119482,1,0,0:0:0:70:hat open.wav
256,192,119664,5,0,0:0:0:70:kick.wav
369,192,119664,1,0,0:0:0:70:hat closed.wav
369,192,119845,1,0,0:0:0:70:hat open.wav
256,192,120027,5,0,0:0:0:70:kick.wav
28,192,120027,1,0,0:0:0:70:crash2.wav
256,192,120391,5,0,0:0:0:70:kick.wav
369,192,120391,1,0,0:0:0:70:hat closed.wav
369,192,120573,1,0,0:0:0:70:hat open.wav
256,192,120755,5,0,0:0:0:70:kick.wav
369,192,120755,1,0,0:0:0:70:hat closed.wav
369,192,120936,1,0,0:0:0:70:hat open.wav
256,192,121118,5,0,0:0:0:70:kick.wav
369,192,121118,1,0,0:0:0:70:hat closed.wav
369,192,121300,1,0,0:0:0:70:hat open.wav
256,192,121482,5,0,0:0:0:70:kick.wav
369,192,121482,1,0,0:0:0:70:hat closed.wav
369,192,121664,1,0,0:0:0:70:hat open.wav
256,192,121845,5,0,0:0:0:70:kick.wav
369,192,121845,1,0,0:0:0:70:hat closed.wav
369,192,122027,1,0,0:0:0:70:hat open.wav
256,192,122209,5,0,0:0:0:70:kick.wav
369,192,122209,1,0,0:0:0:70:hat closed.wav
369,192,122391,1,0,0:0:0:70:hat open.wav
256,192,122573,5,0,0:0:0:70:kick.wav
369,192,122573,1,0,0:0:0:70:hat closed.wav
369,192,122755,1,0,0:0:0:70:hat open.wav
256,192,122936,5,0,0:0:0:70:kick.wav
28,192,122936,1,0,0:0:0:70:crash2.wav
256,192,123300,5,0,0:0:0:70:kick.wav
369,192,123300,1,0,0:0:0:70:hat closed.wav
369,192,123482,1,0,0:0:0:70:hat open.wav
256,192,123664,5,0,0:0:0:70:kick.wav
369,192,123664,1,0,0:0:0:70:hat closed.wav
369,192,123845,1,0,0:0:0:70:hat open.wav
256,192,124027,5,0,0:0:0:70:kick.wav
369,192,124027,1,0,0:0:0:70:hat closed.wav
369,192,124209,1,0,0:0:0:70:hat open.wav
256,192,124391,5,0,0:0:0:70:kick.wav
369,192,124391,1,0,0:0:0:70:hat closed.wav
369,192,124573,1,0,0:0:0:70:hat open.wav
256,192,124755,5,0,0:0:0:70:kick.wav
369,192,124755,1,0,0:0:0:70:hat closed.wav
369,192,124936,1,0,0:0:0:70:hat open.wav
256,192,125118,5,0,0:0:0:70:kick.wav
369,192,125118,1,0,0:0:0:70:hat closed.wav
369,192,125300,1,0,0:0:0:70:hat open.wav
256,192,125482,5,0,0:0:0:70:kick.wav
369,192,125482,1,0,0:0:0:70:hat closed.wav
369,192,125664,1,0,0:0:0:70:hat open.wav
256,192,125845,5,0,0:0:0:70:kick.wav
28,192,125845,1,0,0:0:0:70:crash2.wav
199,192,126209,1,0,0:0:0:10:snare.wav
483,192,126209,1,0,0:0:0:10:Tomv2 3.wav
199,192,126391,1,0,0:0:0:20:snare.wav
483,192,126391,1,0,0:0:0:20:Tomv2 3.wav
199,192,126573,1,0,0:0:0:30:snare.wav
483,192,126573,1,0,0:0:0:30:Tomv2 3.wav
483,192,126755,1,0,0:0:0:40:Tomv2 3.wav
199,192,126755,1,0,0:0:0:40:snare.wav
483,192,126936,1,0,0:0:0:50:Tomv2 3.wav
199,192,126936,1,0,0:0:0:50:snare.wav
199,192,127118,1,0,0:0:0:60:snare.wav
483,192,127118,1,0,0:0:0:60:Tomv2 3.wav
483,192,127300,1,0,0:0:0:70:Tomv2 3.wav
199,192,127300,1,0,0:0:0:70:snare.wav
199,192,127482,1,0,0:0:0:70:snare.wav
483,192,127482,1,0,0:0:0:70:Tomv2 3.wav
483,192,127664,1,0,0:0:0:70:Tomv2 3.wav
199,192,127664,1,0,0:0:0:70:snare.wav
199,192,127845,1,0,0:0:0:70:snare.wav
483,192,127845,1,0,0:0:0:70:Tomv2 3.wav
483,192,128027,1,0,0:0:0:70:Tomv2 3.wav
199,192,128027,1,0,0:0:0:70:snare.wav
199,192,128209,1,0,0:0:0:70:snare.wav
483,192,128209,1,0,0:0:0:70:Tomv2 3.wav
199,192,128391,1,0,0:0:0:70:snare.wav
483,192,128391,1,0,0:0:0:70:Tomv2 3.wav
199,192,128573,1,0,0:0:0:70:snare.wav
483,192,128573,1,0,0:0:0:70:Tomv2 3.wav
256,192,128755,5,0,0:0:0:70:kick.wav
28,192,128755,1,0,0:0:0:70:crash2.wav
256,192,129118,5,0,0:0:0:70:kick.wav
369,192,129118,1,0,0:0:0:70:hat open.wav
199,192,129482,1,0,0:0:0:70:snare.wav
312,192,129482,1,0,0:0:0:70:hat closed.wav
256,192,129845,5,0,0:0:0:70:kick.wav
312,192,129845,1,0,0:0:0:70:hat closed.wav
199,192,130027,1,0,0:0:0:70:DoubleSnare.wav
312,192,130209,1,0,0:0:0:70:hat closed.wav
199,192,130391,1,0,0:0:0:70:snare.wav
256,192,130573,5,0,0:0:0:70:kick.wav
369,192,130573,1,0,0:0:0:70:hat open.wav
199,192,130936,1,0,0:0:0:70:snare.wav
312,192,130936,1,0,0:0:0:70:hat closed.wav
256,192,131300,5,0,0:0:0:70:kick.wav
142,192,131300,1,0,0:0:0:70:hat closed.wav
142,192,131482,1,0,0:0:0:70:hat closed.wav
369,192,131573,1,0,0:0:0:70:hat closed.wav
256,192,131664,5,0,0:0:0:70:kick.wav
142,192,131664,1,0,0:0:0:70:hat closed.wav
256,192,132027,5,0,0:0:0:70:kick.wav
369,192,132027,1,0,0:0:0:70:hat open.wav
199,192,132391,1,0,0:0:0:70:snare.wav
312,192,132391,1,0,0:0:0:70:hat closed.wav
256,192,132755,5,0,0:0:0:70:kick.wav
312,192,132755,1,0,0:0:0:70:hat closed.wav
199,192,132936,1,0,0:0:0:70:snare.wav
256,192,133118,5,0,0:0:0:70:kick.wav
312,192,133118,1,0,0:0:0:70:hat closed.wav
199,192,133300,1,0,0:0:0:70:snare.wav
256,192,133482,5,0,0:0:0:70:kick.wav
369,192,133482,1,0,0:0:0:70:hat open.wav
199,192,133845,1,0,0:0:0:70:snare.wav
142,192,134027,1,0,0:0:0:70:Tomv2 1.wav
85,192,134209,1,0,0:0:0:70:Tomv v2 2.wav
256,192,134573,5,0,0:0:0:70:kick.wav
28,192,134573,1,0,0:0:0:70:crash2.wav
256,192,137482,5,0,0:0:0:70:kick.wav
28,192,137482,1,0,0:0:0:70:crash2.wav
199,192,137845,1,0,0:0:0:10:snare.wav
483,192,137845,1,0,0:0:0:10:Tomv2 3.wav
483,192,138027,1,0,0:0:0:20:Tomv2 3.wav
199,192,138027,1,0,0:0:0:20:snare.wav
483,192,138209,1,0,0:0:0:30:Tomv2 3.wav
199,192,138209,1,0,0:0:0:30:snare.wav
199,192,138391,1,0,0:0:0:40:snare.wav
483,192,138391,1,0,0:0:0:40:Tomv2 3.wav
483,192,138573,1,0,0:0:0:50:Tomv2 3.wav
199,192,138573,1,0,0:0:0:50:snare.wav
199,192,138755,1,0,0:0:0:60:snare.wav
483,192,138755,1,0,0:0:0:60:Tomv2 3.wav
483,192,138936,1,0,0:0:0:70:Tomv2 3.wav
199,192,138936,1,0,0:0:0:70:snare.wav
483,192,139118,1,0,0:0:0:70:Tomv2 3.wav
199,192,139118,1,0,0:0:0:70:snare.wav
483,192,139300,1,0,0:0:0:70:Tomv2 3.wav
199,192,139300,1,0,0:0:0:70:snare.wav
199,192,139482,1,0,0:0:0:70:snare.wav
483,192,139482,1,0,0:0:0:70:Tomv2 3.wav
199,192,139664,1,0,0:0:0:70:snare.wav
483,192,139664,1,0,0:0:0:70:Tomv2 3.wav
483,192,139845,1,0,0:0:0:70:Tomv2 3.wav
199,192,139845,1,0,0:0:0:70:snare.wav
199,192,140027,1,0,0:0:0:70:snare.wav
483,192,140027,1,0,0:0:0:70:Tomv2 3.wav
483,192,140209,1,0,0:0:0:70:Tomv2 3.wav
199,192,140209,1,0,0:0:0:70:snare.wav
256,192,140391,5,0,0:0:0:70:kick.wav
28,192,140391,1,0,0:0:0:70:crash2.wav
256,192,140573,1,0,0:0:0:70:kick.wav
199,192,140755,1,0,0:0:0:70:snare.wav
369,192,140755,1,0,0:0:0:70:hat open.wav
256,192,141118,1,0,0:0:0:70:kick.wav
369,192,141118,1,0,0:0:0:70:hat open.wav
256,192,141300,1,0,0:0:0:70:kick.wav
199,192,141482,1,0,0:0:0:70:snare.wav
369,192,141482,1,0,0:0:0:70:hat open.wav
256,192,141845,1,0,0:0:0:70:kick.wav
369,192,141845,1,0,0:0:0:70:hat open.wav
256,192,142027,1,0,0:0:0:70:kick.wav
199,192,142209,1,0,0:0:0:70:snare.wav
369,192,142209,1,0,0:0:0:70:hat open.wav
256,192,142391,1,0,0:0:0:70:kick.wav
369,192,142573,1,0,0:0:0:70:hat open.wav
256,192,142755,1,0,0:0:0:70:kick.wav
199,192,142936,1,0,0:0:0:70:snare.wav
369,192,142936,1,0,0:0:0:70:hat open.wav
256,192,143300,1,0,0:0:0:70:kick.wav
369,192,143300,1,0,0:0:0:70:hat open.wav
256,192,143482,1,0,0:0:0:70:kick.wav
199,192,143664,1,0,0:0:0:70:snare.wav
369,192,143664,1,0,0:0:0:70:hat open.wav
256,192,144027,1,0,0:0:0:70:kick.wav
369,192,144027,1,0,0:0:0:70:hat open.wav
256,192,144209,1,0,0:0:0:70:kick.wav
199,192,144391,1,0,0:0:0:70:snare.wav
369,192,144391,1,0,0:0:0:70:hat open.wav
256,192,144755,1,0,0:0:0:70:kick.wav
369,192,144755,1,0,0:0:0:70:hat open.wav
256,192,144936,1,0,0:0:0:70:kick.wav
369,192,145118,1,0,0:0:0:70:hat open.wav
199,192,145118,1,0,0:0:0:70:snare.wav
256,192,145300,1,0,0:0:0:70:kick.wav
369,192,145482,1,0,0:0:0:70:hat open.wav
256,192,145482,1,0,0:0:0:70:kick.wav
199,192,145664,1,0,0:0:0:70:snare.wav
28,192,145664,1,0,0:0:0:70:crash2.wav
199,192,145845,1,0,0:0:0:70:snare.wav
28,192,145845,1,0,0:0:0:70:crash2.wav
256,192,146209,1,0,0:0:0:70:kick.wav
28,192,146209,1,0,0:0:0:70:crash2.wav
256,192,146391,1,0,0:0:0:70:kick.wav
199,192,146573,1,0,0:0:0:70:snare.wav
369,192,146573,1,0,0:0:0:70:hat open.wav
256,192,146936,1,0,0:0:0:70:kick.wav
369,192,146936,1,0,0:0:0:70:hat open.wav
256,192,147118,1,0,0:0:0:70:kick.wav
199,192,147300,1,0,0:0:0:70:snare.wav
369,192,147300,1,0,0:0:0:70:hat open.wav
256,192,147664,1,0,0:0:0:70:kick.wav
369,192,147664,1,0,0:0:0:70:hat open.wav
256,192,147845,1,0,0:0:0:70:kick.wav
199,192,148027,1,0,0:0:0:70:snare.wav
369,192,148027,1,0,0:0:0:70:hat open.wav
199,192,148209,1,0,0:0:0:70:DoubleSnare.mp3
256,192,148391,1,0,0:0:0:70:kick.wav
28,192,148391,1,0,0:0:0:70:crash2.wav
256,192,148755,1,0,0:0:0:70:kick.wav
28,192,148755,1,0,0:0:0:70:crash2.wav
256,192,149118,1,0,0:0:0:70:kick.wav
28,192,149118,1,0,0:0:0:70:crash2.wav
256,192,149300,1,0,0:0:0:70:kick.wav
199,192,149482,1,0,0:0:0:70:snare.wav
369,192,149482,1,0,0:0:0:70:hat open.wav
199,192,149755,1,0,0:0:0:70:snare.wav
256,192,149845,1,0,0:0:0:70:kick.wav
369,192,149845,1,0,0:0:0:70:hat open.wav
256,192,150027,1,0,0:0:0:70:kick.wav
199,192,150209,1,0,0:0:0:70:snare.wav
369,192,150209,1,0,0:0:0:70:hat open.wav
199,192,150482,1,0,0:0:0:70:snare.wav
256,192,150573,1,0,0:0:0:70:kick.wav
369,192,150573,1,0,0:0:0:70:hat open.wav
256,192,150755,1,0,0:0:0:70:kick.wav
199,192,150936,1,0,0:0:0:70:snare.wav
369,192,150936,1,0,0:0:0:70:hat open.wav
199,192,151300,1,0,0:0:0:70:snare.wav
312,192,151391,1,0,0:0:0:70:snare.wav
142,192,151482,1,0,0:0:0:70:Tomv2 1.wav
369,192,151573,1,0,0:0:0:70:Tomv2 1.wav
85,192,151664,1,0,0:0:0:70:Tomv v2 2.wav
426,192,151755,1,0,0:0:0:70:Tomv v2 2.wav
28,192,151845,1,0,0:0:0:70:Tomv2 3.wav
483,192,151936,1,0,0:0:0:70:Tomv2 3.wav
256,192,152027,1,0,0:0:0:70:kick.wav
28,192,152027,1,0,0:0:0:70:crash2.wav
256,192,152209,1,0,0:0:0:70:kick.wav
199,192,152391,1,0,0:0:0:70:snare.wav
369,192,152391,1,0,0:0:0:70:hat open.wav
256,192,152755,1,0,0:0:0:70:kick.wav
369,192,152755,1,0,0:0:0:70:hat open.wav
256,192,152936,1,0,0:0:0:70:kick.wav
199,192,153118,1,0,0:0:0:70:snare.wav
369,192,153118,1,0,0:0:0:70:hat open.wav
256,192,153482,1,0,0:0:0:70:kick.wav
369,192,153482,1,0,0:0:0:70:hat open.wav
256,192,153664,1,0,0:0:0:70:kick.wav
199,192,153845,1,0,0:0:0:70:snare.wav
369,192,153845,1,0,0:0:0:70:hat open.wav
256,192,154027,1,0,0:0:0:70:kick.wav
369,192,154209,1,0,0:0:0:70:hat open.wav
256,192,154391,1,0,0:0:0:70:kick.wav
199,192,154573,1,0,0:0:0:70:snare.wav
369,192,154573,1,0,0:0:0:70:hat open.wav
256,192,154936,1,0,0:0:0:70:kick.wav
369,192,154936,1,0,0:0:0:70:hat open.wav
256,192,155118,1,0,0:0:0:70:kick.wav
199,192,155300,1,0,0:0:0:70:snare.wav
369,192,155300,1,0,0:0:0:70:hat open.wav
256,192,155664,1,0,0:0:0:70:kick.wav
369,192,155664,1,0,0:0:0:70:hat open.wav
256,192,155845,1,0,0:0:0:70:kick.wav
199,192,156027,1,0,0:0:0:70:snare.wav
369,192,156027,1,0,0:0:0:70:hat open.wav
256,192,156391,1,0,0:0:0:70:kick.wav
369,192,156391,1,0,0:0:0:70:hat open.wav
256,192,156573,1,0,0:0:0:70:kick.wav
199,192,156755,1,0,0:0:0:70:snare.wav
369,192,156755,1,0,0:0:0:70:hat open.wav
256,192,156936,1,0,0:0:0:70:kick.wav
256,192,157118,1,0,0:0:0:70:kick.wav
369,192,157118,1,0,0:0:0:70:hat open.wav
199,192,157300,1,0,0:0:0:70:snare.wav
28,192,157300,1,0,0:0:0:70:crash2.wav
199,192,157482,1,0,0:0:0:70:snare.wav
28,192,157482,1,0,0:0:0:70:crash2.wav
256,192,157845,1,0,0:0:0:70:kick.wav
28,192,157845,1,0,0:0:0:70:crash2.wav
256,192,158027,1,0,0:0:0:70:kick.wav
369,192,158209,1,0,0:0:0:70:hat open.wav
256,192,158391,1,0,0:0:0:70:kick.wav
199,192,158573,1,0,0:0:0:70:snare.wav
369,192,158573,1,0,0:0:0:70:hat open.wav
369,192,158936,1,0,0:0:0:70:hat open.wav
256,192,159300,1,0,0:0:0:70:kick.wav
369,192,159300,1,0,0:0:0:70:hat open.wav
256,192,159482,1,0,0:0:0:70:kick.wav
369,192,159664,1,0,0:0:0:70:hat open.wav
256,192,159845,1,0,0:0:0:70:kick.wav
199,192,160027,1,0,0:0:0:70:snare.wav
369,192,160027,1,0,0:0:0:70:hat open.wav
256,192,160209,1,0,0:0:0:70:kick.wav
369,192,160391,1,0,0:0:0:70:hat open.wav
256,192,160755,1,0,0:0:0:70:kick.wav
28,192,160755,1,0,0:0:0:70:crash2.wav
256,192,160936,1,0,0:0:0:70:kick.wav
369,192,161118,1,0,0:0:0:70:hat open.wav
256,192,161300,1,0,0:0:0:70:kick.wav
199,192,161482,1,0,0:0:0:70:snare.wav
369,192,161482,1,0,0:0:0:70:hat open.wav
369,192,161845,1,0,0:0:0:70:hat open.wav
256,192,162209,1,0,0:0:0:70:kick.wav
369,192,162209,1,0,0:0:0:70:hat open.wav
256,192,162391,1,0,0:0:0:70:kick.wav
369,192,162573,1,0,0:0:0:70:hat open.wav
256,192,162755,1,0,0:0:0:70:kick.wav
199,192,162936,1,0,0:0:0:70:snare.wav
369,192,162936,1,0,0:0:0:70:hat open.wav
256,192,163118,1,0,0:0:0:70:kick.wav
369,192,163300,1,0,0:0:0:70:hat open.wav
199,192,163482,1,0,0:0:0:70:Doubleasdnas.wav
256,192,163664,1,0,0:0:0:70:kick.wav
28,192,163664,1,0,0:0:0:70:crash2.wav
199,192,164027,1,0,0:0:0:20:snare.wav
483,192,164027,1,0,0:0:0:20:Tomv2 3.wav
483,192,164209,1,0,0:0:0:30:Tomv2 3.wav
199,192,164209,1,0,0:0:0:30:snare.wav
199,192,164391,1,0,0:0:0:40:snare.wav
483,192,164391,1,0,0:0:0:40:Tomv2 3.wav
483,192,164573,1,0,0:0:0:50:Tomv2 3.wav
199,192,164573,1,0,0:0:0:50:snare.wav
483,192,164755,1,0,0:0:0:60:Tomv2 3.wav
199,192,164755,1,0,0:0:0:60:snare.wav
199,192,164936,1,0,0:0:0:70:snare.wav
483,192,164936,1,0,0:0:0:70:Tomv2 3.wav
199,192,165118,1,0,0:0:0:70:snare.wav
483,192,165118,1,0,0:0:0:70:Tomv2 3.wav
483,192,165300,1,0,0:0:0:70:Tomv2 3.wav
199,192,165300,1,0,0:0:0:70:snare.wav
199,192,165482,1,0,0:0:0:70:snare.wav
483,192,165482,1,0,0:0:0:70:Tomv2 3.wav
483,192,165664,1,0,0:0:0:70:Tomv2 3.wav
199,192,165664,1,0,0:0:0:70:snare.wav
199,192,165845,1,0,0:0:0:70:snare.wav
483,192,165845,1,0,0:0:0:70:Tomv2 3.wav
483,192,166027,1,0,0:0:0:70:Tomv2 3.wav
199,192,166027,1,0,0:0:0:70:snare.wav
199,192,166209,1,0,0:0:0:70:snare.wav
483,192,166209,1,0,0:0:0:70:Tomv2 3.wav
483,192,166391,1,0,0:0:0:70:Tomv2 3.wav
199,192,166391,1,0,0:0:0:70:snare.wav
199,192,166573,1,0,0:0:0:70:snare.wav
28,192,166573,1,0,0:0:0:70:crash2.wav
256,192,166755,1,0,0:0:0:70:kick.wav
256,192,166936,1,0,0:0:0:70:kick.wav
199,192,167118,1,0,0:0:0:70:snare.wav
28,192,167118,1,0,0:0:0:70:crash2.wav
256,192,167300,1,0,0:0:0:70:kick.wav
256,192,167482,1,0,0:0:0:70:kick.wav
199,192,167664,1,0,0:0:0:70:snare.wav
28,192,167664,1,0,0:0:0:70:crash2.wav
199,192,168027,1,0,0:0:0:70:snare.wav
426,192,168027,1,0,0:0:0:70:Tomv2 3.wav
199,192,168209,1,0,0:0:0:70:snare.wav
426,192,168209,1,0,0:0:0:70:Tomv2 3.wav
199,192,168391,1,0,0:0:0:70:snare.wav
426,192,168391,1,0,0:0:0:70:Tomv2 3.wav
256,192,168573,1,0,0:0:0:70:kick.wav
312,192,168573,1,0,0:0:0:70:Hat + Ambience 37.wav
256,192,168936,1,0,0:0:0:70:kick.wav
312,192,168936,1,0,0:0:0:70:Hat + Ambience 37.wav
199,192,169482,1,0,0:0:0:70:snare.wav
28,192,169482,1,0,0:0:0:70:crash2.wav
256,192,169664,1,0,0:0:0:70:kick.wav
256,192,169845,1,0,0:0:0:70:kick.wav
199,192,170027,1,0,0:0:0:70:snare.wav
483,192,170027,1,0,0:0:0:70:crash2.wav
256,192,170209,1,0,0:0:0:70:kick.wav
256,192,170391,1,0,0:0:0:70:kick.wav
199,192,170573,1,0,0:0:0:70:snare.wav
28,192,170573,1,0,0:0:0:70:crash2.wav
256,192,170755,1,0,0:0:0:70:kick.wav
256,192,170936,1,0,0:0:0:70:kick.wav
199,192,171118,1,0,0:0:0:70:snare.wav
483,192,171118,1,0,0:0:0:70:crash2.wav
256,192,171300,1,0,0:0:0:70:kick.wav
256,192,171482,1,0,0:0:0:70:kick.wav
142,192,171664,1,0,0:0:0:70:Tomv2 1.wav
85,192,171664,1,0,0:0:0:70:Tomv v2 2.wav
85,192,172027,1,0,0:0:0:70:Tomv v2 2.wav
28,192,172027,1,0,0:0:0:70:Tomv2 3.wav
199,192,172391,1,0,0:0:0:70:snare.wav
28,192,172391,1,0,0:0:0:70:crash2.wav
256,192,172573,1,0,0:0:0:70:kick.wav
256,192,172755,1,0,0:0:0:70:kick.wav
199,192,172936,1,0,0:0:0:70:snare.wav
483,192,172936,1,0,0:0:0:70:crash2.wav
256,192,173118,1,0,0:0:0:70:kick.wav
256,192,173300,1,0,0:0:0:70:kick.wav
199,192,173482,1,0,0:0:0:70:snare.wav
28,192,173482,1,0,0:0:0:70:crash2.wav
256,192,173664,1,0,0:0:0:70:kick.wav
256,192,173845,1,0,0:0:0:70:kick.wav
199,192,174027,1,0,0:0:0:70:snare.wav
483,192,174027,1,0,0:0:0:70:crash2.wav
256,192,174209,1,0,0:0:0:70:kick.wav
256,192,174391,1,0,0:0:0:70:kick.wav
199,192,174573,1,0,0:0:0:70:snare.wav
199,192,174755,1,0,0:0:0:70:snare.wav
312,192,174845,1,0,0:0:0:70:snare.wav
199,192,174936,1,0,0:0:0:70:snare.wav
312,192,175027,1,0,0:0:0:70:snare.wav
199,192,175118,1,0,0:0:0:70:snare.wav
312,192,175209,1,0,0:0:0:70:snare.wav
256,192,175300,1,0,0:0:0:70:kick.wav
28,192,175300,1,0,0:0:0:70:crash2.wav
142,192,175664,1,0,0:0:0:70:hat closed.wav
369,192,175755,1,0,0:0:0:40:hat closed.wav
142,192,175845,1,0,0:0:0:40:hat closed.wav
369,192,175936,1,0,0:0:0:40:hat closed.wav
142,192,176027,1,0,0:0:0:70:hat closed.wav
369,192,176118,1,0,0:0:0:40:hat closed.wav
142,192,176209,1,0,0:0:0:40:hat closed.wav
369,192,176300,1,0,0:0:0:40:hat closed.wav
142,192,176391,1,0,0:0:0:70:hat closed.wav
369,192,176482,1,0,0:0:0:40:hat closed.wav
142,192,176573,1,0,0:0:0:40:hat closed.wav
369,192,176664,1,0,0:0:0:40:hat closed.wav
142,192,176755,1,0,0:0:0:70:hat closed.wav
369,192,176845,1,0,0:0:0:40:hat closed.wav
142,192,176936,1,0,0:0:0:40:hat closed.wav
369,192,177027,1,0,0:0:0:40:hat closed.wav
142,192,177118,1,0,0:0:0:70:hat closed.wav
369,192,177209,1,0,0:0:0:40:hat closed.wav
142,192,177300,1,0,0:0:0:40:hat closed.wav
369,192,177391,1,0,0:0:0:40:hat closed.wav
142,192,177482,1,0,0:0:0:70:hat closed.wav
369,192,177573,1,0,0:0:0:40:hat closed.wav
142,192,177664,1,0,0:0:0:40:hat closed.wav
369,192,177755,1,0,0:0:0:40:hat closed.wav
142,192,177845,1,0,0:0:0:70:hat closed.wav
256,192,178027,1,0,0:0:0:70:kick.wav
28,192,178027,1,0,0:0:0:70:crash2.wav
256,192,178209,1,0,0:0:0:70:kick.wav
28,192,178209,1,0,0:0:0:70:crash2.wav
256,192,178391,1,0,0:0:0:70:kick.wav
28,192,178391,1,0,0:0:0:70:crash2.wav
142,192,178573,1,0,0:0:0:70:hat closed.wav
369,192,178664,1,0,0:0:0:40:hat closed.wav
142,192,178755,1,0,0:0:0:40:hat closed.wav
369,192,178845,1,0,0:0:0:40:hat closed.wav
142,192,178936,1,0,0:0:0:70:hat closed.wav
369,192,179027,1,0,0:0:0:40:hat closed.wav
142,192,179118,1,0,0:0:0:40:hat closed.wav
369,192,179209,1,0,0:0:0:40:hat closed.wav
142,192,179300,1,0,0:0:0:70:hat closed.wav
369,192,179391,1,0,0:0:0:40:hat closed.wav
142,192,179482,1,0,0:0:0:40:hat closed.wav
369,192,179573,1,0,0:0:0:40:hat closed.wav
142,192,179664,1,0,0:0:0:70:hat closed.wav
369,192,179755,1,0,0:0:0:40:hat closed.wav
142,192,179845,1,0,0:0:0:40:hat closed.wav
369,192,179936,1,0,0:0:0:40:hat closed.wav
142,192,180027,1,0,0:0:0:70:hat closed.wav
369,192,180118,1,0,0:0:0:40:hat closed.wav
142,192,180209,1,0,0:0:0:40:hat closed.wav
369,192,180300,1,0,0:0:0:40:hat closed.wav
142,192,180391,1,0,0:0:0:70:hat closed.wav
369,192,180482,1,0,0:0:0:40:hat closed.wav
142,192,180573,1,0,0:0:0:40:hat closed.wav
369,192,180664,1,0,0:0:0:40:hat closed.wav
142,192,180755,1,0,0:0:0:70:hat open.wav
256,192,181118,1,0,0:0:0:70:kick.wav
28,192,181118,1,0,0:0:0:70:crash2.wav
256,192,181300,1,0,0:0:0:70:kick.wav
369,192,181482,1,0,0:0:0:70:hat open.wav
256,192,181664,1,0,0:0:0:70:kick.wav
199,192,181845,1,0,0:0:0:70:snare.wav
369,192,181845,1,0,0:0:0:70:hat open.wav
369,192,182209,1,0,0:0:0:70:hat open.wav
256,192,182573,1,0,0:0:0:70:kick.wav
369,192,182573,1,0,0:0:0:70:hat open.wav
256,192,182755,1,0,0:0:0:70:kick.wav
369,192,182936,1,0,0:0:0:70:hat open.wav
256,192,183118,1,0,0:0:0:70:kick.wav
199,192,183300,1,0,0:0:0:70:snare.wav
369,192,183300,1,0,0:0:0:70:hat open.wav
256,192,183482,1,0,0:0:0:70:kick.wav
369,192,183664,1,0,0:0:0:70:hat open.wav
256,192,184027,1,0,0:0:0:70:kick.wav
28,192,184027,1,0,0:0:0:70:crash2.wav
256,192,184209,1,0,0:0:0:70:kick.wav
369,192,184391,1,0,0:0:0:70:hat open.wav
256,192,184573,1,0,0:0:0:70:kick.wav
199,192,184755,1,0,0:0:0:70:snare.wav
369,192,184755,1,0,0:0:0:70:hat open.wav
369,192,185118,1,0,0:0:0:70:hat open.wav
256,192,185482,1,0,0:0:0:70:kick.wav
369,192,185482,1,0,0:0:0:70:hat open.wav
256,192,185664,1,0,0:0:0:70:kick.wav
369,192,185845,1,0,0:0:0:70:hat open.wav
256,192,186027,1,0,0:0:0:70:kick.wav
199,192,186209,1,0,0:0:0:70:snare.wav
369,192,186209,1,0,0:0:0:70:hat open.wav
256,192,186391,1,0,0:0:0:70:kick.wav
142,192,186573,1,0,0:0:0:70:Tomv2 1.wav
199,192,186755,1,0,0:0:0:70:snare.wav
312,192,186845,1,0,0:0:0:70:snare.wav
28,192,186936,1,0,0:0:0:70:crash2.wav
256,192,186936,1,0,0:0:0:70:kick.wav
256,192,187482,1,0,0:0:0:70:kick.wav
28,192,187664,1,0,0:0:0:70:crash2.wav
199,192,187664,1,0,0:0:0:70:snare.wav
256,192,188391,1,0,0:0:0:70:kick.wav
28,192,188391,1,0,0:0:0:70:crash2.wav
256,192,188573,1,0,0:0:0:70:kick.wav
256,192,188936,1,0,0:0:0:70:kick.wav
28,192,189118,1,0,0:0:0:70:crash2.wav
199,192,189118,1,0,0:0:0:70:snare.wav
28,192,189845,1,0,0:0:0:70:crash2.wav
256,192,189845,1,0,0:0:0:70:kick.wav
256,192,190027,1,0,0:0:0:70:kick.wav
256,192,190391,1,0,0:0:0:70:kick.wav
28,192,190573,1,0,0:0:0:70:crash2.wav
199,192,190573,1,0,0:0:0:70:snare.wav
28,192,191300,1,0,0:0:0:70:crash2.wav
256,192,191300,1,0,0:0:0:70:kick.wav
256,192,191482,1,0,0:0:0:70:kick.wav
28,192,192027,1,0,0:0:0:70:crash2.wav
199,192,192027,1,0,0:0:0:70:snare.wav
256,192,192209,1,0,0:0:0:70:kick.wav
199,192,192391,1,0,0:0:0:70:snare.wav
483,192,192391,1,0,0:0:0:70:crash2.wav
28,192,192755,1,0,0:0:0:70:crash2.wav
256,192,192755,1,0,0:0:0:70:kick.wav
256,192,193118,1,0,0:0:0:70:kick.wav
256,192,193482,1,0,0:0:0:70:kick.wav
256,192,193845,1,0,0:0:0:70:kick.wav
256,192,194209,1,0,0:0:0:70:kick.wav
256,192,194573,1,0,0:0:0:70:kick.wav
256,192,194936,1,0,0:0:0:70:kick.wav
256,192,195300,1,0,0:0:0:70:kick.wav
28,192,195664,1,0,0:0:0:70:crash2.wav
256,192,195664,1,0,0:0:0:70:kick.wav
483,192,195845,1,0,0:0:0:10:Tomv2 3.wav
199,192,195845,1,0,0:0:0:10:snare.wav
199,192,196027,1,0,0:0:0:20:snare.wav
483,192,196027,1,0,0:0:0:20:Tomv2 3.wav
199,192,196209,1,0,0:0:0:30:snare.wav
483,192,196209,1,0,0:0:0:30:Tomv2 3.wav
199,192,196391,1,0,0:0:0:40:snare.wav
483,192,196391,1,0,0:0:0:40:Tomv2 3.wav
199,192,196573,1,0,0:0:0:50:snare.wav
483,192,196573,1,0,0:0:0:50:Tomv2 3.wav
483,192,196755,1,0,0:0:0:60:Tomv2 3.wav
199,192,196755,1,0,0:0:0:60:snare.wav
199,192,196936,1,0,0:0:0:70:snare.wav
483,192,196936,1,0,0:0:0:70:Tomv2 3.wav
483,192,197118,1,0,0:0:0:70:Tomv2 3.wav
199,192,197118,1,0,0:0:0:70:snare.wav
483,192,197300,1,0,0:0:0:70:Tomv2 3.wav
199,192,197300,1,0,0:0:0:70:snare.wav
483,192,197482,1,0,0:0:0:70:Tomv2 3.wav
199,192,197482,1,0,0:0:0:70:snare.wav
483,192,197664,1,0,0:0:0:70:Tomv2 3.wav
199,192,197664,1,0,0:0:0:70:snare.wav
483,192,197845,1,0,0:0:0:70:Tomv2 3.wav
199,192,197845,1,0,0:0:0:70:snare.wav
199,192,198027,1,0,0:0:0:70:snare.wav
483,192,198027,1,0,0:0:0:70:Tomv2 3.wav
483,192,198209,1,0,0:0:0:70:Tomv2 3.wav
199,192,198209,1,0,0:0:0:70:snare.wav
199,192,198391,1,0,0:0:0:70:snare.wav
483,192,198391,1,0,0:0:0:70:Tomv2 3.wav
28,192,198573,1,0,0:0:0:70:crash2.wav
199,192,198573,1,0,0:0:0:70:snare.wav
483,192,198755,1,0,0:0:0:70:Tomv2 3.wav
199,192,198755,1,0,0:0:0:70:snare.wav
199,192,198936,1,0,0:0:0:70:snare.wav
483,192,198936,1,0,0:0:0:70:Tomv2 3.wav
199,192,199118,1,0,0:0:0:70:snare.wav
483,192,199118,1,0,0:0:0:70:Tomv2 3.wav
483,192,199300,1,0,0:0:0:70:Tomv2 3.wav
199,192,199300,1,0,0:0:0:70:snare.wav
199,192,199482,1,0,0:0:0:70:snare.wav
483,192,199482,1,0,0:0:0:70:Tomv2 3.wav
199,192,199664,1,0,0:0:0:70:snare.wav
483,192,199664,1,0,0:0:0:70:Tomv2 3.wav
483,192,199845,1,0,0:0:0:70:Tomv2 3.wav
199,192,199845,1,0,0:0:0:70:snare.wav
199,192,200027,1,0,0:0:0:70:snare.wav
483,192,200027,1,0,0:0:0:70:Tomv2 3.wav
483,192,200209,1,0,0:0:0:70:Tomv2 3.wav
199,192,200209,1,0,0:0:0:70:snare.wav
199,192,200391,1,0,0:0:0:70:snare.wav
483,192,200391,1,0,0:0:0:70:Tomv2 3.wav
483,192,200573,1,0,0:0:0:70:Tomv2 3.wav
199,192,200573,1,0,0:0:0:70:snare.wav
199,192,200755,1,0,0:0:0:70:snare.wav
483,192,200755,1,0,0:0:0:70:Tomv2 3.wav
483,192,200936,1,0,0:0:0:70:Tomv2 3.wav
199,192,200936,1,0,0:0:0:70:snare.wav
199,192,201118,1,0,0:0:0:70:snare.wav
483,192,201118,1,0,0:0:0:70:Tomv2 3.wav
483,192,201300,1,0,0:0:0:70:Tomv2 3.wav
199,192,201300,1,0,0:0:0:70:snare.wav
199,192,201482,1,0,0:0:0:70:snare.wav
312,192,201573,1,0,0:0:0:70:snare.wav
199,192,201664,1,0,0:0:0:70:snare.wav
312,192,201755,1,0,0:0:0:70:snare.wav
199,192,201845,1,0,0:0:0:70:snare.wav
312,192,201936,1,0,0:0:0:70:snare.wav
199,192,202027,1,0,0:0:0:70:snare.wav
312,192,202118,1,0,0:0:0:70:snare.wav
142,192,202209,1,0,0:0:0:70:X-C#6.wav
85,192,202209,1,0,0:0:0:70:X-C#5.wav
369,192,202573,1,0,0:0:0:70:X-F#5.wav
426,192,202573,1,0,0:0:0:70:X-F#6.wav
142,192,202936,1,0,0:0:0:70:X-C#6.wav
85,192,202936,1,0,0:0:0:70:X-G#5.wav
199,192,202936,1,0,0:0:0:70:X-G#6.wav
85,192,203300,1,0,0:0:0:70:X-A6.wav
312,192,203300,1,0,0:0:0:70:X-C#6.wav
426,192,203300,1,0,0:0:0:70:X-A5.wav
85,192,203664,1,0,0:0:0:70:X-B6.wav
312,192,203664,1,0,0:0:0:70:X-E6.wav
426,192,203664,1,0,0:0:0:70:X-B5.wav
85,192,204209,1,0,0:0:0:70:X-E6.wav
199,192,204209,1,0,0:0:0:70:X-F#6.wav
369,192,204209,1,0,0:0:0:70:X-B6.wav
426,192,204209,1,0,0:0:0:70:X-E7.wav
85,192,204755,1,0,0:0:0:70:X-D6.wav
256,192,204755,1,0,0:0:0:70:X-A6.wav
426,192,204755,1,0,0:0:0:70:X-D7.wav
85,192,205118,1,0,0:0:0:70:X-C#6.wav
256,192,205118,1,0,0:0:0:70:X-G#6.wav
426,192,205118,1,0,0:0:0:70:X-C#7.wav
142,192,205664,1,0,0:0:0:70:X-A5.wav
312,192,205664,1,0,0:0:0:70:X-E6.wav
85,192,206027,1,0,0:0:0:70:X-F#5.wav
142,192,206209,1,0,0:0:0:70:X-A5.wav
199,192,206391,1,0,0:0:0:70:X-B5.wav
142,192,206573,1,0,0:0:0:70:X-C#6.wav
369,192,206573,1,0,0:0:0:70:X-F#5.wav
199,192,206755,1,0,0:0:0:70:XXX-A5.wav
369,192,207118,1,0,0:0:0:70:X-E5.wav
199,192,207300,1,0,0:0:0:70:X-F#5.wav
85,192,207664,1,0,0:0:0:70:X-E5.wav
142,192,207936,1,0,0:0:0:70:XY-D5.wav
85,192,208027,1,0,0:0:0:70:X-E5.wav
199,192,208209,1,0,0:0:0:70:X-F#5.wav
426,192,208936,1,0,0:0:0:70:X-A6.wav
28,192,208936,1,0,0:0:0:70:X-B5.wav
142,192,208936,1,0,0:0:0:70:X-E6.wav
426,192,209300,1,0,0:0:0:70:X-A6.wav
142,192,209300,1,0,0:0:0:70:X-E6.wav
28,192,209300,1,0,0:0:0:70:X-B5.wav
312,192,209664,1,0,0:0:0:70:X-A6.wav
256,192,209755,1,0,0:0:0:70:X-G#6.wav
199,192,209845,1,0,0:0:0:70:X-E6.wav
142,192,209936,1,0,0:0:0:70:X-B5.wav
85,192,210027,1,0,0:0:0:70:X-A5.wav
312,192,210209,1,0,0:0:0:70:X-G#6.wav
369,192,210482,1,0,0:0:0:70:X-A6.wav
426,192,210755,1,0,0:0:0:70:X-B6.wav
256,192,210936,128,0,212209:0:0:0:70:ZZZ-F#6.wav
85,192,210936,128,0,211300:0:0:0:70:X-C#6.wav
426,192,210936,128,0,211300:0:0:0:70:X-C#7.wav
85,192,211391,1,0,0:0:0:45:X-C#6.wav
426,192,211482,1,0,0:0:0:45:X-C#7.wav
85,192,211573,1,0,0:0:0:45:X-C#6.wav
426,192,211664,1,0,0:0:0:45:X-C#7.wav
85,192,211755,1,0,0:0:0:45:X-C#6.wav
426,192,211845,1,0,0:0:0:45:X-C#7.wav
85,192,211936,1,0,0:0:0:45:X-C#6.wav
426,192,212027,1,0,0:0:0:45:X-C#7.wav
85,192,212118,1,0,0:0:0:45:X-C#6.wav
426,192,212209,1,0,0:0:0:45:X-C#7.wav
256,192,212391,1,0,0:0:0:70:X-F#6.wav
199,192,212391,1,0,0:0:0:70:X-B5.wav
369,192,212391,1,0,0:0:0:70:X-B6.wav
256,192,212573,1,0,0:0:0:70:X-F#6.wav
199,192,212573,1,0,0:0:0:70:X-B5.wav
369,192,212573,1,0,0:0:0:70:X-B6.wav
426,192,213118,1,0,0:0:0:70:X-C#7.wav
256,192,213118,1,0,0:0:0:70:X-F#6.wav
85,192,213118,1,0,0:0:0:70:X-C#6.wav
256,192,213300,1,0,0:0:0:70:X-F#6.wav
85,192,213300,1,0,0:0:0:70:X-C#6.wav
426,192,213300,1,0,0:0:0:70:X-C#7.wav
483,192,213845,1,0,0:0:0:70:X-E6.wav
28,192,214027,1,0,0:0:0:70:X-E5.wav
199,192,214209,1,0,0:0:0:70:X-A5.wav
256,192,214391,128,0,214755:0:0:0:70:X-B5.wav
199,192,214755,1,0,0:0:0:70:X-A5.wav
483,192,214936,1,0,0:0:0:70:X-E6.wav
28,192,215118,1,0,0:0:0:70:X-E5.wav
199,192,215300,1,0,0:0:0:70:X-A5.wav
256,192,215482,128,0,215845:0:0:0:70:X-B5.wav
199,192,215845,1,0,0:0:0:70:X-A5.wav
256,192,216027,1,0,0:0:0:70:X-E6.wav
312,192,216209,1,0,0:0:0:70:X-F#6.wav
369,192,216391,1,0,0:0:0:70:X-G#6.wav
426,192,216573,1,0,0:0:0:70:X-A6.wav
426,192,216755,128,0,217118:0:0:0:70:X-E7.wav
142,192,217118,1,0,0:0:0:70:X-A6.wav
199,192,217300,128,0,217664:0:0:0:70:X-B6.wav
142,192,217664,1,0,0:0:0:70:X-A6.wav
369,192,217845,128,0,218209:0:0:0:70:X-D7.wav
142,192,218209,1,0,0:0:0:70:X-A6.wav
199,192,218391,128,0,218755:0:0:0:70:X-B6.wav
142,192,218755,5,0,0:0:0:70:X-A6.wav
85,192,218936,1,0,0:0:0:70:X-B6.wav
483,192,219118,1,0,0:0:0:70:X-E6.wav
85,192,219300,128,0,219664:0:0:0:70:X-B6.wav
28,192,219664,1,0,0:0:0:70:crash2.wav
199,192,219664,1,0,0:0:0:70:snare.wav
256,192,219845,5,0,0:0:0:70:kick.wav
256,192,220027,1,0,0:0:0:70:kick.wav
199,192,220209,1,0,0:0:0:70:snare.wav
28,192,220209,1,0,0:0:0:50:crash2.wav
256,192,220391,1,0,0:0:0:70:kick.wav
256,192,220573,1,0,0:0:0:70:kick.wav
199,192,220755,1,0,0:0:0:70:snare.wav
28,192,220755,1,0,0:0:0:50:crash2.wav
256,192,220936,1,0,0:0:0:70:kick.wav
199,192,221118,1,0,0:0:0:70:snare.wav
28,192,221118,1,0,0:0:0:50:crash2.wav
256,192,221300,1,0,0:0:0:70:kick.wav
256,192,221482,1,0,0:0:0:70:kick.wav
28,192,221664,1,0,0:0:0:50:crash2.wav
199,192,221664,1,0,0:0:0:70:snare.wav
256,192,221845,1,0,0:0:0:70:kick.wav
256,192,222027,1,0,0:0:0:70:kick.wav
199,192,222209,1,0,0:0:0:70:snare.wav
28,192,222209,1,0,0:0:0:50:crash2.wav
256,192,222573,1,0,0:0:0:70:kick.wav
28,192,222573,1,0,0:0:0:70:crash2.wav
256,192,222755,1,0,0:0:0:70:kick.wav
199,192,222936,1,0,0:0:0:70:snare.wav
369,192,222936,1,0,0:0:0:70:hat open.wav
256,192,223300,1,0,0:0:0:70:kick.wav
369,192,223300,1,0,0:0:0:70:hat open.wav
256,192,223482,1,0,0:0:0:70:kick.wav
199,192,223664,1,0,0:0:0:70:snare.wav
369,192,223664,1,0,0:0:0:70:hat open.wav
256,192,224027,1,0,0:0:0:70:kick.wav
369,192,224027,1,0,0:0:0:70:hat open.wav
256,192,224209,1,0,0:0:0:70:kick.wav
199,192,224391,1,0,0:0:0:70:snare.wav
369,192,224391,1,0,0:0:0:70:hat open.wav
256,192,224755,1,0,0:0:0:70:kick.wav
369,192,224755,1,0,0:0:0:70:hat open.wav
256,192,224936,1,0,0:0:0:70:kick.wav
199,192,225118,1,0,0:0:0:70:snare.wav
369,192,225118,1,0,0:0:0:70:hat open.wav
256,192,225482,1,0,0:0:0:70:kick.wav
28,192,225482,1,0,0:0:0:70:crash2.wav
483,192,225845,1,0,0:0:0:10:Tomv2 3.wav
199,192,225845,1,0,0:0:0:10:snare.wav
483,192,226027,1,0,0:0:0:20:Tomv2 3.wav
199,192,226027,1,0,0:0:0:20:snare.wav
199,192,226209,1,0,0:0:0:30:snare.wav
483,192,226209,1,0,0:0:0:30:Tomv2 3.wav
483,192,226391,1,0,0:0:0:40:Tomv2 3.wav
199,192,226391,1,0,0:0:0:40:snare.wav
199,192,226573,1,0,0:0:0:50:snare.wav
483,192,226573,1,0,0:0:0:50:Tomv2 3.wav
199,192,226755,1,0,0:0:0:60:snare.wav
483,192,226755,1,0,0:0:0:60:Tomv2 3.wav
199,192,226936,1,0,0:0:0:70:snare.wav
483,192,226936,1,0,0:0:0:70:Tomv2 3.wav
199,192,227118,1,0,0:0:0:70:snare.wav
483,192,227118,1,0,0:0:0:70:Tomv2 3.wav
199,192,227300,1,0,0:0:0:70:snare.wav
483,192,227300,1,0,0:0:0:70:Tomv2 3.wav
483,192,227482,1,0,0:0:0:70:Tomv2 3.wav
199,192,227482,1,0,0:0:0:70:snare.wav
199,192,227664,1,0,0:0:0:70:snare.wav
483,192,227664,1,0,0:0:0:70:Tomv2 3.wav
483,192,227845,1,0,0:0:0:70:Tomv2 3.wav
199,192,227845,1,0,0:0:0:70:snare.wav
199,192,228027,1,0,0:0:0:70:snare.wav
483,192,228027,1,0,0:0:0:70:Tomv2 3.wav
256,192,228209,1,0,0:0:0:70:kick.wav
312,192,228209,1,0,0:0:0:70:Hat + Ambience 37.wav
312,192,228391,1,0,0:0:0:70:X-E6.wav
85,192,228573,1,0,0:0:0:70:X-A5.wav
369,192,228755,1,0,0:0:0:70:X-A6.wav
85,192,228936,1,0,0:0:0:70:X-A5.wav
483,192,229118,1,0,0:0:0:70:X-B6.wav
85,192,229300,1,0,0:0:0:70:X-A5.wav
312,192,229482,1,0,0:0:0:70:X-E6.wav
85,192,229664,1,0,0:0:0:70:X-A5.wav
369,192,229845,1,0,0:0:0:70:X-A6.wav
85,192,230027,1,0,0:0:0:70:X-A5.wav
483,192,230209,1,0,0:0:0:70:X-B6.wav
85,192,230391,1,0,0:0:0:70:X-A5.wav
312,192,230573,1,0,0:0:0:70:X-E6.wav
85,192,230755,1,0,0:0:0:70:X-A5.wav
369,192,230936,1,0,0:0:0:70:X-A6.wav
85,192,231118,1,0,0:0:0:70:X-A5.wav
312,192,231300,1,0,0:0:0:70:X-E6.wav
85,192,231482,1,0,0:0:0:70:X-A5.wav
369,192,231664,1,0,0:0:0:70:X-A6.wav
85,192,231845,1,0,0:0:0:70:X-A5.wav
483,192,232027,1,0,0:0:0:70:X-B6.wav
85,192,232209,1,0,0:0:0:70:X-A5.wav
312,192,232391,1,0,0:0:0:70:X-E6.wav
85,192,232573,1,0,0:0:0:70:X-A5.wav
369,192,232755,1,0,0:0:0:70:X-A6.wav
85,192,232936,1,0,0:0:0:70:X-A5.wav
483,192,233118,1,0,0:0:0:70:X-B6.wav
85,192,233300,1,0,0:0:0:70:X-A5.wav
312,192,233482,1,0,0:0:0:70:X-E6.wav
85,192,233664,1,0,0:0:0:70:X-A5.wav
369,192,233845,1,0,0:0:0:70:X-A6.wav
85,192,234027,1,0,0:0:0:70:X-A5.wav
312,192,234209,1,0,0:0:0:70:X-E6.wav
85,192,234391,1,0,0:0:0:70:X-A5.wav
369,192,234573,1,0,0:0:0:70:X-A6.wav
85,192,234755,1,0,0:0:0:70:X-A5.wav
483,192,234936,1,0,0:0:0:70:X-B6.wav
85,192,235118,1,0,0:0:0:70:X-A5.wav
312,192,235300,1,0,0:0:0:70:X-E6.wav
85,192,235482,1,0,0:0:0:70:X-A5.wav
369,192,235664,1,0,0:0:0:70:X-A6.wav
85,192,235845,1,0,0:0:0:70:X-A5.wav
483,192,236027,1,0,0:0:0:70:X-B6.wav
85,192,236209,1,0,0:0:0:70:X-A5.wav
312,192,236391,1,0,0:0:0:70:X-E6.wav
85,192,236573,1,0,0:0:0:70:X-A5.wav
369,192,236755,1,0,0:0:0:70:X-A6.wav
85,192,236936,1,0,0:0:0:70:X-A5.wav
312,192,237118,1,0,0:0:0:70:X-E6.wav
85,192,237300,1,0,0:0:0:70:X-A5.wav
369,192,237482,1,0,0:0:0:70:X-A6.wav
85,192,237664,1,0,0:0:0:70:X-A5.wav
483,192,237845,1,0,0:0:0:70:X-B6.wav
85,192,238027,1,0,0:0:0:70:X-A5.wav
312,192,238209,1,0,0:0:0:70:X-E6.wav
85,192,238391,1,0,0:0:0:70:X-A5.wav
369,192,238573,1,0,0:0:0:70:X-A6.wav
85,192,238755,1,0,0:0:0:70:X-A5.wav
483,192,238936,1,0,0:0:0:70:X-B6.wav
85,192,239118,1,0,0:0:0:70:X-A5.wav
312,192,239300,1,0,0:0:0:70:X-E6.wav
85,192,239482,1,0,0:0:0:70:X-A5.wav
369,192,239664,1,0,0:0:0:70:X-A6.wav
85,192,239845,1,0,0:0:0:70:X-A5.wav
256,192,240027,1,0,0:0:0:70:kick.wav
28,192,240027,1,0,0:0:0:70:crash2.wav
256,192,240391,1,0,0:0:0:70:kick.wav
369,192,240391,1,0,0:0:0:70:hat open.wav
256,192,240755,1,0,0:0:0:70:kick.wav
199,192,240755,1,0,0:0:0:70:snare.wav
312,192,240755,1,0,0:0:0:70:hat closed.wav
256,192,241118,1,0,0:0:0:70:kick.wav
312,192,241118,1,0,0:0:0:70:hat closed.wav
199,192,241300,1,0,0:0:0:70:DoubleSnare.mp3
256,192,241482,1,0,0:0:0:70:kick.wav
312,192,241482,1,0,0:0:0:70:hat closed.wav
199,192,241664,1,0,0:0:0:70:snare.wav
256,192,241845,1,0,0:0:0:70:kick.wav
369,192,241845,1,0,0:0:0:70:hat open.wav
256,192,242209,1,0,0:0:0:70:kick.wav
199,192,242209,1,0,0:0:0:70:snare.wav
312,192,242209,1,0,0:0:0:70:hat closed.wav
199,192,242391,1,0,0:0:0:70:snare.wav
256,192,242573,1,0,0:0:0:70:kick.wav
312,192,242573,1,0,0:0:0:70:hat closed.wav
199,192,242845,1,0,0:0:0:40:Double Stroke.wav
256,192,242936,1,0,0:0:0:70:kick.wav
312,192,242936,1,0,0:0:0:70:hat closed.wav
199,192,243118,1,0,0:0:0:70:snare.wav
256,192,243300,1,0,0:0:0:70:kick.wav
369,192,243300,1,0,0:0:0:70:hat open.wav
256,192,243664,1,0,0:0:0:70:kick.wav
199,192,243664,1,0,0:0:0:70:snare.wav
312,192,243664,1,0,0:0:0:70:hat closed.wav
256,192,244027,1,0,0:0:0:70:kick.wav
312,192,244027,1,0,0:0:0:70:hat closed.wav
199,192,244209,1,0,0:0:0:40:DoubleSnare.mp3
256,192,244391,1,0,0:0:0:70:kick.wav
312,192,244391,1,0,0:0:0:70:hat closed.wav
199,192,244573,1,0,0:0:0:70:snare.wav
256,192,244755,1,0,0:0:0:70:kick.wav
369,192,244755,1,0,0:0:0:70:hat open.wav
312,192,245027,1,0,0:0:0:70:snare.wav
199,192,245118,1,0,0:0:0:70:snare.wav
142,192,245300,1,0,0:0:0:70:Tomv2 1.wav
85,192,245482,1,0,0:0:0:70:Tomv2 3.wav
312,192,245845,1,0,0:0:0:70:hat closed.wav
312,192,246027,1,0,0:0:0:70:hat closed.wav
369,192,246209,1,0,0:0:0:70:hat open.wav
312,192,246573,1,0,0:0:0:70:hat closed.wav
312,192,246755,1,0,0:0:0:70:hat closed.wav
312,192,246936,1,0,0:0:0:70:hat closed.wav
312,192,247118,1,0,0:0:0:70:hat closed.wav
312,192,247300,1,0,0:0:0:70:hat closed.wav
312,192,247482,1,0,0:0:0:70:hat closed.wav
369,192,247664,1,0,0:0:0:70:hat open.wav
312,192,248027,1,0,0:0:0:70:hat closed.wav
312,192,248209,1,0,0:0:0:70:hat closed.wav
312,192,248391,1,0,0:0:0:70:hat closed.wav
312,192,248573,1,0,0:0:0:70:hat closed.wav
256,192,250936,1,0,0:0:0:70:kick.wav
256,192,251118,1,0,0:0:0:70:kick.wav
256,192,251664,1,0,0:0:0:70:kick.wav
28,192,251664,1,0,0:0:0:70:crash2.wav
369,192,251845,1,0,0:0:0:40:hat closed.wav
142,192,251936,1,0,0:0:0:40:hat closed.wav
369,192,252027,1,0,0:0:0:40:hat closed.wav
142,192,252118,1,0,0:0:0:40:hat closed.wav
369,192,252209,1,0,0:0:0:70:hat closed.wav
142,192,252300,1,0,0:0:0:40:hat closed.wav
369,192,252391,1,0,0:0:0:40:hat closed.wav
142,192,252482,1,0,0:0:0:40:hat closed.wav
369,192,252573,1,0,0:0:0:70:hat closed.wav
142,192,252664,1,0,0:0:0:40:hat closed.wav
369,192,252755,1,0,0:0:0:40:hat closed.wav
142,192,252845,1,0,0:0:0:40:hat closed.wav
369,192,252936,1,0,0:0:0:70:hat closed.wav
142,192,253027,1,0,0:0:0:40:hat closed.wav
369,192,253118,1,0,0:0:0:40:hat closed.wav
142,192,253209,1,0,0:0:0:40:hat closed.wav
369,192,253300,1,0,0:0:0:70:hat closed.wav
142,192,253391,1,0,0:0:0:40:hat closed.wav
369,192,253482,1,0,0:0:0:40:hat closed.wav
142,192,253573,1,0,0:0:0:40:hat closed.wav
369,192,253664,1,0,0:0:0:70:hat closed.wav
142,192,253755,1,0,0:0:0:40:hat closed.wav
369,192,253845,1,0,0:0:0:40:hat closed.wav
142,192,253936,1,0,0:0:0:40:hat closed.wav
369,192,254027,1,0,0:0:0:70:hat closed.wav
142,192,254118,1,0,0:0:0:40:hat closed.wav
369,192,254209,1,0,0:0:0:40:hat closed.wav
142,192,254300,1,0,0:0:0:40:hat closed.wav
199,192,254391,1,0,0:0:0:70:Doubleasdnas.wav
312,192,254482,1,0,0:0:0:70:snare.wav
28,192,254573,1,0,0:0:0:70:crash2.wav
256,192,254573,1,0,0:0:0:70:kick.wav
369,192,254936,1,0,0:0:0:40:hat closed.wav
142,192,255027,1,0,0:0:0:40:hat closed.wav
369,192,255118,1,0,0:0:0:70:hat closed.wav
142,192,255209,1,0,0:0:0:40:hat closed.wav
369,192,255300,1,0,0:0:0:40:hat closed.wav
142,192,255391,1,0,0:0:0:40:hat closed.wav
369,192,255482,1,0,0:0:0:70:hat closed.wav
142,192,255573,1,0,0:0:0:40:hat closed.wav
369,192,255664,1,0,0:0:0:40:hat closed.wav
142,192,255755,1,0,0:0:0:40:hat closed.wav
369,192,255845,1,0,0:0:0:40:hat closed.wav
142,192,255936,1,0,0:0:0:40:hat closed.wav
369,192,256027,1,0,0:0:0:70:hat closed.wav
142,192,256118,1,0,0:0:0:40:hat closed.wav
369,192,256209,1,0,0:0:0:40:hat closed.wav
142,192,256300,1,0,0:0:0:40:hat closed.wav
369,192,256391,1,0,0:0:0:70:hat closed.wav
142,192,256482,1,0,0:0:0:40:hat closed.wav
369,192,256573,1,0,0:0:0:40:hat closed.wav
142,192,256664,1,0,0:0:0:40:hat closed.wav
369,192,256755,1,0,0:0:0:70:hat closed.wav
142,192,256845,1,0,0:0:0:40:hat closed.wav
369,192,256936,1,0,0:0:0:40:hat closed.wav
142,192,257027,1,0,0:0:0:40:hat closed.wav
369,192,257118,1,0,0:0:0:70:hat closed.wav
142,192,257209,1,0,0:0:0:40:hat closed.wav
369,192,257300,1,0,0:0:0:70:Doubleasdnas.wav
312,192,257391,1,0,0:0:0:70:snare.wav
256,192,257482,1,0,0:0:0:70:kick.wav
28,192,257482,1,0,0:0:0:70:crash2.wav
312,192,257755,1,0,0:0:0:8:snare.wav
199,192,257845,1,0,0:0:0:10:snare.wav
312,192,257936,1,0,0:0:0:15:snare.wav
199,192,258027,1,0,0:0:0:15:snare.wav
312,192,258118,1,0,0:0:0:20:snare.wav
199,192,258209,1,0,0:0:0:25:snare.wav
312,192,258300,1,0,0:0:0:30:snare.wav
199,192,258391,1,0,0:0:0:35:snare.wav
312,192,258482,1,0,0:0:0:40:snare.wav
199,192,258573,1,0,0:0:0:45:snare.wav
312,192,258664,1,0,0:0:0:50:snare.wav
199,192,258755,1,0,0:0:0:55:snare.wav
312,192,258845,1,0,0:0:0:60:snare.wav
199,192,258936,1,0,0:0:0:65:snare.wav
312,192,259027,1,0,0:0:0:70:snare.wav
199,192,259118,1,0,0:0:0:70:snare.wav
312,192,259209,1,0,0:0:0:70:snare.wav
199,192,259300,1,0,0:0:0:70:snare.wav
312,192,259391,1,0,0:0:0:70:snare.wav
199,192,259482,1,0,0:0:0:70:snare.wav
312,192,259573,1,0,0:0:0:70:snare.wav
199,192,259664,1,0,0:0:0:70:snare.wav
312,192,259755,1,0,0:0:0:70:snare.wav
199,192,259845,1,0,0:0:0:70:snare.wav
312,192,259936,1,0,0:0:0:70:snare.wav
199,192,260027,1,0,0:0:0:70:snare.wav
312,192,260118,1,0,0:0:0:70:snare.wav
199,192,260209,1,0,0:0:0:70:snare.wav
312,192,260300,1,0,0:0:0:70:snare.wav
256,192,260391,1,0,0:0:0:70:kick.wav
28,192,260391,1,0,0:0:0:70:crash2.wav
199,192,260573,1,0,0:0:0:70:snare.wav
312,192,260664,1,0,0:0:0:70:snare.wav
199,192,260755,1,0,0:0:0:70:snare.wav
256,192,260936,1,0,0:0:0:70:kick.wav
483,192,260936,1,0,0:0:0:70:crash2.wav
199,192,261118,1,0,0:0:0:70:snare.wav
312,192,261209,1,0,0:0:0:70:snare.wav
199,192,261300,1,0,0:0:0:70:snare.wav
256,192,261482,1,0,0:0:0:70:kick.wav
483,192,261482,1,0,0:0:0:70:crash2.wav
199,192,261664,1,0,0:0:0:70:snare.wav
312,192,261755,1,0,0:0:0:70:snare.wav
199,192,261845,1,0,0:0:0:70:snare.wav
256,192,262027,1,0,0:0:0:70:kick.wav
483,192,262027,1,0,0:0:0:70:crash2.wav
199,192,262209,1,0,0:0:0:70:snare.wav
312,192,262300,1,0,0:0:0:70:snare.wav
199,192,262391,1,0,0:0:0:70:snare.wav
312,192,262482,1,0,0:0:0:70:snare.wav
199,192,262573,1,0,0:0:0:70:snare.wav
312,192,262664,1,0,0:0:0:70:snare.wav
142,192,262755,1,0,0:0:0:70:Tomv2 1.wav
369,192,262845,1,0,0:0:0:70:Tomv2 1.wav
85,192,262936,1,0,0:0:0:70:Tomv v2 2.wav
426,192,263027,1,0,0:0:0:70:Tomv v2 2.wav
28,192,263118,1,0,0:0:0:70:Tomv2 3.wav
483,192,263209,1,0,0:0:0:70:Tomv2 3.wav
256,192,263300,1,0,0:0:0:70:kick.wav
28,192,263300,1,0,0:0:0:70:IntChina.wav
256,192,263664,1,0,0:0:0:70:kick.wav
369,192,263664,1,0,0:0:0:70:hat open.wav
256,192,264391,1,0,0:0:0:70:kick.wav
369,192,264391,1,0,0:0:0:70:hat open.wav
256,192,265118,1,0,0:0:0:70:kick.wav
369,192,265118,1,0,0:0:0:70:hat open.wav
256,192,265845,1,0,0:0:0:70:kick.wav
369,192,265845,1,0,0:0:0:70:hat open.wav
256,192,266573,1,0,0:0:0:70:kick.wav
369,192,266573,1,0,0:0:0:70:hat open.wav
256,192,267300,1,0,0:0:0:70:kick.wav
369,192,267300,1,0,0:0:0:70:hat open.wav
256,192,268027,1,0,0:0:0:70:kick.wav
369,192,268027,1,0,0:0:0:70:hat open.wav
256,192,268755,1,0,0:0:0:70:kick.wav
369,192,268755,1,0,0:0:0:70:hat open.wav
28,192,269118,1,0,0:0:0:70:IntChina.wav
256,192,269482,1,0,0:0:0:70:kick.wav
369,192,269482,1,0,0:0:0:70:hat open.wav
256,192,270209,1,0,0:0:0:70:kick.wav
369,192,270209,1,0,0:0:0:70:hat open.wav
256,192,270936,1,0,0:0:0:70:kick.wav
369,192,270936,1,0,0:0:0:70:hat open.wav
256,192,271664,1,0,0:0:0:70:kick.wav
369,192,271664,1,0,0:0:0:70:hat open.wav
28,192,272027,1,0,0:0:0:70:IntChina.wav
256,192,272391,1,0,0:0:0:70:kick.wav
369,192,272391,1,0,0:0:0:70:hat open.wav
256,192,273118,1,0,0:0:0:70:kick.wav
369,192,273118,1,0,0:0:0:70:hat open.wav
28,192,273482,1,0,0:0:0:70:IntChina.wav
256,192,273845,1,0,0:0:0:70:kick.wav
369,192,273845,1,0,0:0:0:70:hat open.wav
256,192,274573,1,0,0:0:0:70:kick.wav
369,192,274573,1,0,0:0:0:70:hat open.wav
28,192,274936,1,0,0:0:0:70:crash2.wav
256,192,274936,1,0,0:0:0:70:kick.wav
256,192,275300,1,0,0:0:0:70:kick.wav
369,192,275300,1,0,0:0:0:70:hat open.wav
142,192,275482,1,0,0:0:0:70:Tomv2 1.wav
256,192,276027,1,0,0:0:0:70:kick.wav
369,192,276027,1,0,0:0:0:70:hat open.wav
85,192,276027,1,0,0:0:0:70:Tomv v2 2.wav
256,192,276755,1,0,0:0:0:70:kick.wav
369,192,276755,1,0,0:0:0:70:hat open.wav
256,192,277482,1,0,0:0:0:70:kick.wav
369,192,277482,1,0,0:0:0:70:hat open.wav
28,192,277845,1,0,0:0:0:70:IntChina.wav
256,192,278209,1,0,0:0:0:70:kick.wav
369,192,278209,1,0,0:0:0:70:hat open.wav
142,192,278391,1,0,0:0:0:70:Tomv2 1.wav
256,192,278936,1,0,0:0:0:70:kick.wav
369,192,278936,1,0,0:0:0:70:hat open.wav
85,192,278936,1,0,0:0:0:70:Tomv v2 2.wav
256,192,279664,1,0,0:0:0:70:kick.wav
369,192,279664,1,0,0:0:0:70:hat open.wav
142,192,279845,1,0,0:0:0:70:Tomv2 1.wav
369,192,280027,1,0,0:0:0:70:Tomv2 3.wav
85,192,280209,1,0,0:0:0:70:Tomv v2 2.wav
369,192,280391,1,0,0:0:0:70:hat open.wav
142,192,280391,1,0,0:0:0:70:Tomv2 3.wav
199,192,280573,1,0,0:0:0:70:snare.wav
312,192,280664,1,0,0:0:0:70:snare.wav
256,192,280755,1,0,0:0:0:70:kick.wav
28,192,280755,1,0,0:0:0:70:IntChina.wav
256,192,281118,1,0,0:0:0:70:kick.wav
369,192,281118,1,0,0:0:0:70:hat open.wav
142,192,281300,1,0,0:0:0:70:Tomv2 1.wav
256,192,281845,1,0,0:0:0:70:kick.wav
369,192,281845,1,0,0:0:0:70:hat open.wav
85,192,281845,1,0,0:0:0:70:Tomv2 3.wav
256,192,282573,1,0,0:0:0:70:kick.wav
369,192,282573,1,0,0:0:0:70:hat open.wav
142,192,282755,1,0,0:0:0:70:Tomv2 1.wav
256,192,283300,1,0,0:0:0:70:kick.wav
369,192,283300,1,0,0:0:0:70:hat open.wav
85,192,283300,1,0,0:0:0:70:Tomv2 3.wav
28,192,283664,1,0,0:0:0:70:IntChina.wav
256,192,284027,1,0,0:0:0:70:kick.wav
369,192,284027,1,0,0:0:0:70:hat open.wav
142,192,284209,1,0,0:0:0:70:Tomv2 1.wav
256,192,284755,1,0,0:0:0:70:kick.wav
369,192,284755,1,0,0:0:0:70:hat open.wav
85,192,284755,1,0,0:0:0:70:Tomv2 3.wav
256,192,285482,1,0,0:0:0:70:kick.wav
369,192,285482,1,0,0:0:0:70:hat open.wav
142,192,285664,1,0,0:0:0:70:Tomv2 1.wav
256,192,286209,1,0,0:0:0:70:kick.wav
369,192,286209,1,0,0:0:0:70:hat open.wav
85,192,286209,1,0,0:0:0:70:Tomv2 3.wav
199,192,286391,1,0,0:0:0:70:snare.wav
312,192,286482,1,0,0:0:0:70:snare.wav
28,192,286573,1,0,0:0:0:70:IntChina.wav
256,192,286573,1,0,0:0:0:70:kick.wav
199,192,286936,1,0,0:0:0:10:snare.wav
483,192,286936,1,0,0:0:0:10:Tomv2 3.wav
199,192,287118,1,0,0:0:0:20:snare.wav
483,192,287118,1,0,0:0:0:20:Tomv2 3.wav
199,192,287300,1,0,0:0:0:20:snare.wav
483,192,287300,1,0,0:0:0:20:Tomv2 3.wav
483,192,287482,1,0,0:0:0:20:Tomv2 3.wav
199,192,287482,1,0,0:0:0:20:snare.wav
199,192,287664,1,0,0:0:0:20:snare.wav
483,192,287664,1,0,0:0:0:20:Tomv2 3.wav
483,192,287845,1,0,0:0:0:20:Tomv2 3.wav
199,192,287845,1,0,0:0:0:20:snare.wav
199,192,288027,1,0,0:0:0:20:snare.wav
483,192,288027,1,0,0:0:0:20:Tomv2 3.wav
483,192,288209,1,0,0:0:0:20:Tomv2 3.wav
199,192,288209,1,0,0:0:0:20:snare.wav
199,192,288391,1,0,0:0:0:20:snare.wav
483,192,288391,1,0,0:0:0:20:Tomv2 3.wav
199,192,288573,1,0,0:0:0:30:snare.wav
483,192,288573,1,0,0:0:0:30:Tomv2 3.wav
483,192,288755,1,0,0:0:0:30:Tomv2 3.wav
199,192,288755,1,0,0:0:0:30:snare.wav
199,192,288936,1,0,0:0:0:30:snare.wav
483,192,288936,1,0,0:0:0:30:Tomv2 3.wav
483,192,289118,1,0,0:0:0:30:Tomv2 3.wav
199,192,289118,1,0,0:0:0:30:snare.wav
199,192,289300,1,0,0:0:0:30:snare.wav
483,192,289300,1,0,0:0:0:30:Tomv2 3.wav
483,192,289482,1,0,0:0:0:30:Tomv2 3.wav
199,192,289482,1,0,0:0:0:30:snare.wav
199,192,289664,1,0,0:0:0:30:snare.wav
483,192,289664,1,0,0:0:0:30:Tomv2 3.wav
483,192,289845,1,0,0:0:0:30:Tomv2 3.wav
199,192,289845,1,0,0:0:0:30:snare.wav
199,192,290027,1,0,0:0:0:30:snare.wav
483,192,290027,1,0,0:0:0:30:Tomv2 3.wav
483,192,290209,1,0,0:0:0:30:Tomv2 3.wav
199,192,290209,1,0,0:0:0:30:snare.wav
199,192,290391,1,0,0:0:0:30:snare.wav
483,192,290391,1,0,0:0:0:30:Tomv2 3.wav
483,192,290573,1,0,0:0:0:30:Tomv2 3.wav
199,192,290573,1,0,0:0:0:30:snare.wav
199,192,290755,1,0,0:0:0:30:snare.wav
483,192,290755,1,0,0:0:0:30:Tomv2 3.wav
483,192,290936,1,0,0:0:0:30:Tomv2 3.wav
199,192,290936,1,0,0:0:0:30:snare.wav
199,192,291118,1,0,0:0:0:30:snare.wav
483,192,291118,1,0,0:0:0:30:Tomv2 3.wav
483,192,291300,1,0,0:0:0:30:Tomv2 3.wav
199,192,291300,1,0,0:0:0:30:snare.wav
199,192,291482,1,0,0:0:0:30:snare.wav
483,192,291482,1,0,0:0:0:30:Tomv2 3.wav
483,192,291664,1,0,0:0:0:30:Tomv2 3.wav
199,192,291664,1,0,0:0:0:30:snare.wav
199,192,291845,1,0,0:0:0:30:snare.wav
483,192,291845,1,0,0:0:0:30:Tomv2 3.wav
483,192,292027,1,0,0:0:0:30:Tomv2 3.wav
199,192,292027,1,0,0:0:0:30:snare.wav
199,192,292209,1,0,0:0:0:30:snare.wav
483,192,292209,1,0,0:0:0:30:Tomv2 3.wav
28,192,292391,1,0,0:0:0:70:crash2.wav
256,192,292391,1,0,0:0:0:70:kick.wav
199,192,292573,1,0,0:0:0:30:snare.wav
483,192,292573,1,0,0:0:0:30:Tomv2 3.wav
483,192,292755,1,0,0:0:0:30:Tomv2 3.wav
199,192,292755,1,0,0:0:0:30:snare.wav
199,192,292936,1,0,0:0:0:30:snare.wav
483,192,292936,1,0,0:0:0:30:Tomv2 3.wav
199,192,293118,1,0,0:0:0:30:snare.wav
483,192,293118,1,0,0:0:0:30:Tomv2 3.wav
199,192,293300,1,0,0:0:0:30:snare.wav
483,192,293300,1,0,0:0:0:30:Tomv2 3.wav
199,192,293482,1,0,0:0:0:30:snare.wav
483,192,293482,1,0,0:0:0:30:Tomv2 3.wav
483,192,293664,1,0,0:0:0:30:Tomv2 3.wav
199,192,293664,1,0,0:0:0:30:snare.wav
199,192,293845,1,0,0:0:0:30:snare.wav
483,192,293845,1,0,0:0:0:30:Tomv2 3.wav
483,192,294027,1,0,0:0:0:30:Tomv2 3.wav
199,192,294027,1,0,0:0:0:30:snare.wav
199,192,294209,1,0,0:0:0:30:snare.wav
483,192,294209,1,0,0:0:0:30:Tomv2 3.wav
483,192,294391,1,0,0:0:0:30:Tomv2 3.wav
199,192,294391,1,0,0:0:0:30:snare.wav
199,192,294573,1,0,0:0:0:40:snare.wav
483,192,294573,1,0,0:0:0:40:Tomv2 3.wav
199,192,294755,1,0,0:0:0:50:snare.wav
483,192,294755,1,0,0:0:0:50:Tomv2 3.wav
199,192,294936,1,0,0:0:0:60:snare.wav
483,192,294936,1,0,0:0:0:60:Tomv2 3.wav
483,192,295118,1,0,0:0:0:70:Tomv2 3.wav
199,192,295118,1,0,0:0:0:70:snare.wav
312,192,295300,1,0,0:0:0:70:snare.wav
199,192,295391,1,0,0:0:0:70:snare.wav
256,192,295482,1,0,0:0:0:70:kick.wav
369,192,295482,1,0,0:0:0:70:Hat + Ambience 37.wav
256,192,295664,1,0,0:0:0:70:kick.wav
369,192,295664,1,0,0:0:0:70:Hat + Ambience 37.wav
312,192,295845,1,0,0:0:0:70:snare.wav
199,192,295936,1,0,0:0:0:70:snare.wav
256,192,296027,1,0,0:0:0:70:kick.wav
369,192,296027,1,0,0:0:0:70:Hat + Ambience 37.wav
256,192,296209,1,0,0:0:0:70:kick.wav
369,192,296209,1,0,0:0:0:70:Hat + Ambience 37.wav
312,192,296391,1,0,0:0:0:70:snare.wav
199,192,296482,1,0,0:0:0:70:snare.wav
256,192,296573,1,0,0:0:0:70:kick.wav
483,192,296573,1,0,0:0:0:70:IntChina.wav
256,192,296755,1,0,0:0:0:70:kick.wav
483,192,296755,1,0,0:0:0:70:IntChina.wav
312,192,296936,1,0,0:0:0:70:snare.wav
199,192,297027,1,0,0:0:0:70:snare.wav
256,192,297118,1,0,0:0:0:70:kick.wav
483,192,297118,1,0,0:0:0:70:crash2.wav
256,192,297300,1,0,0:0:0:70:kick.wav
483,192,297300,1,0,0:0:0:70:crash2.wav
199,192,297482,1,0,0:0:0:70:snare.wav
199,192,297664,1,0,0:0:0:70:snare.wav
312,192,297755,1,0,0:0:0:70:snare.wav
199,192,297845,1,0,0:0:0:70:snare.wav
312,192,297936,1,0,0:0:0:70:snare.wav
199,192,298027,1,0,0:0:0:70:snare.wav
312,192,298118,1,0,0:0:0:70:snare.wav
256,192,298209,1,0,0:0:0:70:kick.wav
28,192,298209,1,0,0:0:0:70:crash2.wav
256,192,298391,1,0,0:0:0:70:kick.wav
369,192,298573,1,0,0:0:0:70:hat open.wav
199,192,298573,1,0,0:0:0:70:snare.wav
256,192,298936,1,0,0:0:0:70:kick.wav
369,192,298936,1,0,0:0:0:70:hat open.wav
256,192,299118,1,0,0:0:0:70:kick.wav
369,192,299300,1,0,0:0:0:70:hat open.wav
199,192,299300,1,0,0:0:0:70:snare.wav
256,192,299664,1,0,0:0:0:70:kick.wav
369,192,299664,1,0,0:0:0:70:hat open.wav
256,192,299845,1,0,0:0:0:70:kick.wav
199,192,300027,1,0,0:0:0:70:snare.wav
369,192,300027,1,0,0:0:0:70:hat open.wav
256,192,300209,1,0,0:0:0:70:kick.wav
369,192,300391,1,0,0:0:0:70:hat open.wav
256,192,300573,1,0,0:0:0:70:kick.wav
369,192,300755,1,0,0:0:0:70:hat open.wav
199,192,300755,1,0,0:0:0:70:snare.wav
256,192,301118,1,0,0:0:0:70:kick.wav
369,192,301118,1,0,0:0:0:70:hat open.wav
256,192,301300,1,0,0:0:0:70:kick.wav
199,192,301482,1,0,0:0:0:70:snare.wav
369,192,301482,1,0,0:0:0:70:hat open.wav
256,192,301845,1,0,0:0:0:70:kick.wav
369,192,301845,1,0,0:0:0:70:hat open.wav
256,192,302027,1,0,0:0:0:70:kick.wav
199,192,302209,1,0,0:0:0:70:snare.wav
369,192,302209,1,0,0:0:0:70:hat open.wav
256,192,302573,1,0,0:0:0:70:kick.wav
369,192,302573,1,0,0:0:0:70:hat open.wav
256,192,302755,1,0,0:0:0:70:kick.wav
199,192,302936,1,0,0:0:0:70:snare.wav
369,192,302936,1,0,0:0:0:70:hat open.wav
256,192,303118,1,0,0:0:0:70:kick.wav
256,192,303300,1,0,0:0:0:70:kick.wav
369,192,303300,1,0,0:0:0:70:hat open.wav
199,192,303482,1,0,0:0:0:70:snare.wav
28,192,303482,1,0,0:0:0:70:crash2.wav
199,192,303664,1,0,0:0:0:70:snare.wav
28,192,303664,1,0,0:0:0:70:crash2.wav
256,192,304027,1,0,0:0:0:70:kick.wav
28,192,304027,1,0,0:0:0:70:crash2.wav
256,192,304209,1,0,0:0:0:70:kick.wav
369,192,304391,1,0,0:0:0:70:hat open.wav
256,192,304573,1,0,0:0:0:70:kick.wav
199,192,304755,1,0,0:0:0:70:snare.wav
369,192,304755,1,0,0:0:0:70:hat open.wav
369,192,305118,1,0,0:0:0:70:hat open.wav
256,192,305482,1,0,0:0:0:70:kick.wav
369,192,305482,1,0,0:0:0:70:hat open.wav
256,192,305664,1,0,0:0:0:70:kick.wav
369,192,305845,1,0,0:0:0:70:hat open.wav
256,192,306027,1,0,0:0:0:70:kick.wav
199,192,306209,1,0,0:0:0:70:snare.wav
369,192,306209,1,0,0:0:0:70:hat open.wav
256,192,306391,1,0,0:0:0:70:kick.wav
369,192,306573,1,0,0:0:0:70:hat open.wav
256,192,306936,1,0,0:0:0:70:kick.wav
28,192,306936,1,0,0:0:0:70:crash2.wav
256,192,307118,1,0,0:0:0:70:kick.wav
369,192,307300,1,0,0:0:0:70:hat open.wav
256,192,307482,1,0,0:0:0:70:kick.wav
199,192,307664,1,0,0:0:0:70:snare.wav
369,192,307664,1,0,0:0:0:70:hat open.wav
369,192,308027,1,0,0:0:0:70:hat open.wav
256,192,308391,1,0,0:0:0:70:kick.wav
369,192,308391,1,0,0:0:0:70:hat open.wav
256,192,308573,1,0,0:0:0:70:kick.wav
369,192,308755,1,0,0:0:0:70:hat open.wav
256,192,308936,1,0,0:0:0:70:kick.wav
199,192,309118,1,0,0:0:0:70:snare.wav
369,192,309118,1,0,0:0:0:70:hat open.wav
256,192,309300,1,0,0:0:0:70:kick.wav
199,192,309482,1,0,0:0:0:70:snare.wav
369,192,309482,1,0,0:0:0:70:hat open.wav
312,192,309664,1,0,0:0:0:70:snare.wav
199,192,309755,1,0,0:0:0:70:snare.wav
28,192,309845,1,0,0:0:0:70:crash2.wav
256,192,309845,1,0,0:0:0:70:kick.wav
483,192,310209,1,0,0:0:0:20:Tomv2 3.wav
199,192,310209,1,0,0:0:0:20:snare.wav
199,192,310391,1,0,0:0:0:30:snare.wav
483,192,310391,1,0,0:0:0:30:Tomv2 3.wav
199,192,310573,1,0,0:0:0:40:snare.wav
483,192,310573,1,0,0:0:0:40:Tomv2 3.wav
199,192,310755,1,0,0:0:0:50:snare.wav
483,192,310755,1,0,0:0:0:50:Tomv2 3.wav
483,192,310936,1,0,0:0:0:60:Tomv2 3.wav
199,192,310936,1,0,0:0:0:60:snare.wav
483,192,311118,1,0,0:0:0:70:Tomv2 3.wav
199,192,311118,1,0,0:0:0:70:snare.wav
483,192,311300,1,0,0:0:0:70:Tomv2 3.wav
199,192,311300,1,0,0:0:0:70:snare.wav
199,192,311482,1,0,0:0:0:70:snare.wav
483,192,311482,1,0,0:0:0:70:Tomv2 3.wav
199,192,311664,1,0,0:0:0:70:snare.wav
483,192,311664,1,0,0:0:0:70:Tomv2 3.wav
199,192,311845,1,0,0:0:0:70:snare.wav
483,192,311845,1,0,0:0:0:70:Tomv2 3.wav
483,192,312027,1,0,0:0:0:70:Tomv2 3.wav
199,192,312027,1,0,0:0:0:70:snare.wav
199,192,312209,1,0,0:0:0:70:snare.wav
483,192,312209,1,0,0:0:0:70:Tomv2 3.wav
483,192,312391,1,0,0:0:0:70:Tomv2 3.wav
199,192,312391,1,0,0:0:0:70:snare.wav
199,192,312573,1,0,0:0:0:70:snare.wav
483,192,312573,1,0,0:0:0:70:Tomv2 3.wav
199,192,312755,1,0,0:0:0:70:snare.wav
28,192,312755,1,0,0:0:0:70:crash2.wav
256,192,312936,1,0,0:0:0:70:kick.wav
256,192,313118,1,0,0:0:0:70:kick.wav
199,192,313300,1,0,0:0:0:70:snare.wav
28,192,313300,1,0,0:0:0:70:crash2.wav
256,192,313482,1,0,0:0:0:70:kick.wav
256,192,313664,1,0,0:0:0:70:kick.wav
199,192,313845,1,0,0:0:0:70:snare.wav
28,192,313845,1,0,0:0:0:70:crash2.wav
256,192,314027,1,0,0:0:0:70:kick.wav
199,192,314209,1,0,0:0:0:70:snare.wav
312,192,314209,1,0,0:0:0:70:hat open.wav
256,192,315664,5,0,0:0:0:70:kick.wav
483,192,315664,1,0,0:0:0:70:crash2.wav
28,192,315664,1,0,0:0:0:70:crash2.wav
256,192,316027,5,0,0:0:0:70:kick.wav
369,192,316027,1,0,0:0:0:70:hat closed.wav
199,192,316027,1,0,0:0:0:70:snare.wav
369,192,316209,1,0,0:0:0:70:hat open.wav
256,192,316391,5,0,0:0:0:70:kick.wav
369,192,316391,1,0,0:0:0:70:hat closed.wav
369,192,316573,1,0,0:0:0:70:hat open.wav
256,192,316755,5,0,0:0:0:70:kick.wav
369,192,316755,1,0,0:0:0:70:hat closed.wav
199,192,316755,1,0,0:0:0:70:snare.wav
369,192,316936,1,0,0:0:0:70:hat open.wav
256,192,317118,5,0,0:0:0:70:kick.wav
369,192,317118,1,0,0:0:0:70:hat closed.wav
369,192,317300,1,0,0:0:0:70:hat open.wav
256,192,317482,5,0,0:0:0:70:kick.wav
199,192,317482,1,0,0:0:0:70:snare.wav
369,192,317482,1,0,0:0:0:70:hat closed.wav
369,192,317664,1,0,0:0:0:70:hat open.wav
256,192,317845,5,0,0:0:0:70:kick.wav
369,192,317845,1,0,0:0:0:70:hat closed.wav
369,192,318027,1,0,0:0:0:70:hat open.wav
256,192,318209,5,0,0:0:0:70:kick.wav
199,192,318209,1,0,0:0:0:70:snare.wav
369,192,318209,1,0,0:0:0:70:hat closed.wav
369,192,318391,1,0,0:0:0:70:hat open.wav
256,192,318573,5,0,0:0:0:70:kick.wav
369,192,318573,1,0,0:0:0:70:hat closed.wav
369,192,318755,1,0,0:0:0:70:hat open.wav
256,192,318936,5,0,0:0:0:70:kick.wav
199,192,318936,1,0,0:0:0:70:snare.wav
369,192,318936,1,0,0:0:0:70:hat closed.wav
369,192,319118,1,0,0:0:0:70:hat open.wav
256,192,319300,5,0,0:0:0:70:kick.wav
369,192,319300,1,0,0:0:0:70:hat closed.wav
369,192,319482,1,0,0:0:0:70:hat open.wav
256,192,319664,5,0,0:0:0:70:kick.wav
199,192,319664,1,0,0:0:0:70:snare.wav
369,192,319664,1,0,0:0:0:70:hat closed.wav
369,192,319845,1,0,0:0:0:70:hat open.wav
256,192,320027,5,0,0:0:0:70:kick.wav
369,192,320027,1,0,0:0:0:70:hat closed.wav
369,192,320209,1,0,0:0:0:70:hat open.wav
256,192,320391,5,0,0:0:0:70:kick.wav
199,192,320391,1,0,0:0:0:70:snare.wav
369,192,320391,1,0,0:0:0:70:hat closed.wav
369,192,320573,1,0,0:0:0:70:hat open.wav
256,192,320755,5,0,0:0:0:70:kick.wav
369,192,320755,1,0,0:0:0:70:hat closed.wav
369,192,320936,1,0,0:0:0:70:hat open.wav
256,192,321118,5,0,0:0:0:70:kick.wav
369,192,321118,1,0,0:0:0:70:hat closed.wav
199,192,321118,1,0,0:0:0:70:snare.wav
369,192,321300,1,0,0:0:0:70:hat open.wav
256,192,321482,5,0,0:0:0:70:kick.wav
369,192,321482,1,0,0:0:0:70:hat closed.wav
369,192,321664,1,0,0:0:0:70:hat open.wav
256,192,321845,5,0,0:0:0:70:kick.wav
199,192,321845,1,0,0:0:0:70:snare.wav
369,192,321845,1,0,0:0:0:70:hat closed.wav
369,192,322027,1,0,0:0:0:70:hat open.wav
256,192,322209,5,0,0:0:0:70:kick.wav
369,192,322209,1,0,0:0:0:70:hat closed.wav
369,192,322391,1,0,0:0:0:70:hat open.wav
256,192,322573,5,0,0:0:0:70:kick.wav
199,192,322573,1,0,0:0:0:70:snare.wav
369,192,322573,1,0,0:0:0:70:hat closed.wav
369,192,322755,1,0,0:0:0:70:hat open.wav
256,192,322936,5,0,0:0:0:70:kick.wav
369,192,322936,1,0,0:0:0:70:hat closed.wav
369,192,323118,1,0,0:0:0:70:hat open.wav
256,192,323300,5,0,0:0:0:70:kick.wav
199,192,323300,1,0,0:0:0:70:snare.wav
369,192,323300,1,0,0:0:0:70:hat closed.wav
369,192,323482,1,0,0:0:0:70:hat open.wav
256,192,323664,5,0,0:0:0:70:kick.wav
369,192,323664,1,0,0:0:0:70:hat closed.wav
369,192,323845,1,0,0:0:0:70:hat open.wav
256,192,324027,5,0,0:0:0:70:kick.wav
199,192,324027,1,0,0:0:0:70:snare.wav
369,192,324027,1,0,0:0:0:70:hat closed.wav
369,192,324209,1,0,0:0:0:70:hat open.wav
256,192,324391,5,0,0:0:0:70:kick.wav
369,192,324391,1,0,0:0:0:70:hat closed.wav
369,192,324573,1,0,0:0:0:70:hat open.wav
256,192,324755,5,0,0:0:0:70:kick.wav
199,192,324755,1,0,0:0:0:70:snare.wav
369,192,324755,1,0,0:0:0:70:hat closed.wav
369,192,324936,1,0,0:0:0:70:hat open.wav
256,192,325118,5,0,0:0:0:70:kick.wav
369,192,325118,1,0,0:0:0:70:hat closed.wav
369,192,325300,1,0,0:0:0:70:hat open.wav
199,192,325482,1,0,0:0:0:70:snare.wav
369,192,325482,1,0,0:0:0:70:hat open.wav
199,192,325664,1,0,0:0:0:70:snare.wav
369,192,325664,1,0,0:0:0:70:hat open.wav
256,192,325845,5,0,0:0:0:70:kick.wav
199,192,326027,1,0,0:0:0:10:snare.wav
483,192,326027,1,0,0:0:0:10:Tomv2 3.wav
483,192,326209,1,0,0:0:0:20:Tomv2 3.wav
199,192,326209,1,0,0:0:0:20:snare.wav
483,192,326391,1,0,0:0:0:30:Tomv2 3.wav
199,192,326391,1,0,0:0:0:30:snare.wav
483,192,326573,1,0,0:0:0:40:Tomv2 3.wav
199,192,326573,1,0,0:0:0:40:snare.wav
199,192,326755,1,0,0:0:0:40:snare.wav
483,192,326755,1,0,0:0:0:40:Tomv2 3.wav
483,192,326936,1,0,0:0:0:40:Tomv2 3.wav
199,192,326936,1,0,0:0:0:40:snare.wav
256,192,327118,5,0,0:0:0:70:kick.wav
312,192,327118,1,0,0:0:0:70:Hat + Ambience 37.wav
256,192,328073,5,0,0:0:0:70:kick.wav
28,192,328073,1,0,0:0:0:40:crash2.wav
483,192,328073,1,0,0:0:0:40:crash2.wav
85,192,335391,5,0,0:0:0:70:Tomv v2 2.wav
426,192,335482,1,0,0:0:0:70:Tomv2 3.wav
256,192,335573,1,0,0:0:0:70:Tomv2 3.wav
85,192,335664,1,0,0:0:0:70:kick.wav
