osu file format v14

[General]
AudioFilename: audio.mp3
AudioLeadIn: 0
PreviewTime: 134300
Countdown: 0
SampleSet: Normal
StackLeniency: 0.7
Mode: 3
LetterboxInBreaks: 0
SpecialStyle: 0
WidescreenStoryboard: 1

[Editor]
DistanceSpacing: 1
BeatDivisor: 4
GridSize: 4
TimelineZoom: 1

[Metadata]
Title:Kimi no Shiranai Monogatari
TitleUnicode:Kimi no Shiranai Monogatari
Artist:supercell
ArtistUnicode:supercell
Creator:Atreevete
Version:Cuatro ka
Source:Bakemonogatari
Tags:ed ending bakemonogatari
BeatmapID:1647362
BeatmapSetID:782937

[Difficulty]
HPDrainRate:5
CircleSize:4
OverallDifficulty:5
ApproachRate:5
SliderMultiplier:1.4
SliderTickRate:1

[Events]
//Background and Video events
0,0,"cropped-1366-768-683907.jpg",0,0
//Break Periods
//Storyboard Layer 0 (Background)
//Storyboard Layer 1 (Fail)
//Storyboard Layer 2 (Pass)
//Storyboard Layer 3 (Foreground)
//Storyboard Sound Samples
Sample,3482,0,"P2.wav",20
Sample,5664,0,"P2.wav",20
Sample,6027,0,"P2.wav",20
Sample,6391,0,"P2.wav",20
Sample,8573,0,"P2.wav",20
Sample,8936,0,"P2.wav",20
Sample,9482,0,"Tomv2 3.wav",8
Sample,9482,0,"snare.wav",8
Sample,9664,0,"snare.wav",10
Sample,9664,0,"Tomv2 3.wav",10
Sample,9845,0,"Tomv2 3.wav",15
Sample,9845,0,"snare.wav",15
Sample,10027,0,"snare.wav",20
Sample,10027,0,"Tomv2 3.wav",20
Sample,10209,0,"Tomv2 3.wav",25
Sample,10209,0,"snare.wav",25
Sample,10391,0,"snare.wav",30
Sample,10391,0,"Tomv2 3.wav",30
Sample,10573,0,"Tomv2 3.wav",35
Sample,10573,0,"snare.wav",35
Sample,10755,0,"snare.wav",40
Sample,10755,0,"Tomv2 3.wav",40
Sample,10936,0,"Tomv2 3.wav",45
Sample,10936,0,"snare.wav",45
Sample,11118,0,"snare.wav",50
Sample,11118,0,"Tomv2 3.wav",50
Sample,11300,0,"Tomv2 3.wav",55
Sample,11300,0,"snare.wav",55
Sample,11482,0,"snare.wav",60
Sample,11482,0,"Tomv2 3.wav",60
Sample,11664,0,"Tomv2 3.wav",60
Sample,11664,0,"snare.wav",60
Sample,11845,0,"snare.wav",65
Sample,11845,0,"Tomv2 3.wav",65
Sample,12027,0,"Tomv2 3.wav",65
Sample,12027,0,"snare.wav",65
Sample,12209,0,"snare.wav",65
Sample,12209,0,"Tomv2 3.wav",65
Sample,12391,0,"kick.wav",35
Sample,12391,0,"crash2.wav",35
Sample,12755,0,"X-E5.wav",70
Sample,18209,0,"kick.wav",35
Sample,18209,0,"crash2.wav",35
Sample,24027,0,"crash2.wav",35
Sample,24027,0,"X-E6.wav",70
Sample,24027,0,"kick.wav",35
Sample,26573,0,"X-G#6.wav",70
Sample,28573,0,"X-C#6.wav",70
Sample,28573,0,"X-A5.wav",70
Sample,28755,0,"X-A5.wav",70
Sample,28755,0,"X-C#6.wav",70
Sample,28936,0,"X-C#6.wav",70
Sample,28936,0,"X-A5.wav",70
Sample,29118,0,"X-A5.wav",70
Sample,29118,0,"X-C#6.wav",70
Sample,29300,0,"X-C#6.wav",70
Sample,29300,0,"X-A5.wav",70
Sample,29482,0,"X-C#6.wav",70
Sample,29482,0,"X-A5.wav",70
Sample,29664,0,"kick.wav",35
Sample,29664,0,"X-C#6.wav",70
Sample,29664,0,"Hat + Ambience 37.wav",35
Sample,102573,0,"crash2.wav",40
Sample,102573,0,"kick.wav",40
Sample,102936,0,"kick.wav",60
Sample,103300,0,"kick.wav",60
Sample,103664,0,"kick.wav",60
Sample,104027,0,"kick.wav",60
Sample,104391,0,"kick.wav",60
Sample,104755,0,"kick.wav",60
Sample,105118,0,"kick.wav",60
Sample,105482,0,"kick.wav",60
Sample,105845,0,"kick.wav",60
Sample,106209,0,"kick.wav",60
Sample,106573,0,"kick.wav",60
Sample,106936,0,"kick.wav",60
Sample,107300,0,"kick.wav",60
Sample,107664,0,"kick.wav",60
Sample,108027,0,"kick.wav",60
Sample,108391,0,"kick.wav",70
Sample,108391,0,"crash2.wav",20
Sample,108755,0,"kick.wav",60
Sample,109118,0,"kick.wav",60
Sample,109482,0,"kick.wav",60
Sample,109845,0,"kick.wav",60
Sample,110209,0,"kick.wav",60
Sample,110573,0,"kick.wav",60
Sample,110936,0,"kick.wav",60
Sample,111300,0,"kick.wav",60
Sample,111664,0,"kick.wav",60
Sample,112027,0,"kick.wav",60
Sample,112391,0,"kick.wav",60
Sample,112755,0,"kick.wav",60
Sample,113118,0,"kick.wav",60
Sample,113482,0,"kick.wav",60
Sample,113845,0,"kick.wav",60
Sample,202209,0,"crash2.wav",70
Sample,202209,0,"kick.wav",60
Sample,202573,0,"snare.wav",60
Sample,202936,0,"kick.wav",60
Sample,203118,0,"kick.wav",60
Sample,203300,0,"snare.wav",60
Sample,203664,0,"kick.wav",60
Sample,203845,0,"kick.wav",60
Sample,204027,0,"snare.wav",60
Sample,204391,0,"kick.wav",60
Sample,204573,0,"kick.wav",60
Sample,204755,0,"snare.wav",60
Sample,205118,0,"kick.wav",60
Sample,205300,0,"kick.wav",60
Sample,205482,0,"snare.wav",60
Sample,205845,0,"kick.wav",60
Sample,206027,0,"kick.wav",60
Sample,206209,0,"snare.wav",60
Sample,206573,0,"kick.wav",60
Sample,206755,0,"kick.wav",60
Sample,206936,0,"snare.wav",60
Sample,207300,0,"kick.wav",60
Sample,207482,0,"kick.wav",60
Sample,207664,0,"snare.wav",60
Sample,208027,0,"crash2.wav",20
Sample,208027,0,"kick.wav",20
Sample,208209,0,"kick.wav",60
Sample,208391,0,"snare.wav",60
Sample,208755,0,"kick.wav",60
Sample,208936,0,"kick.wav",60
Sample,209118,0,"snare.wav",60
Sample,209482,0,"kick.wav",60
Sample,209664,0,"kick.wav",60
Sample,209845,0,"snare.wav",60
Sample,210209,0,"kick.wav",60
Sample,210391,0,"kick.wav",60
Sample,210573,0,"snare.wav",60
Sample,210936,0,"kick.wav",60
Sample,211118,0,"kick.wav",60
Sample,211300,0,"snare.wav",60
Sample,211664,0,"kick.wav",60
Sample,211845,0,"kick.wav",60
Sample,212027,0,"snare.wav",60
Sample,212391,0,"Hat + Ambience 37.wav",40
Sample,212391,0,"snare.wav",40
Sample,212391,0,"kick.wav",40
Sample,212573,0,"Hat + Ambience 37.wav",40
Sample,212573,0,"snare.wav",40
Sample,212573,0,"kick.wav",40
Sample,212936,0,"snare.wav",40
Sample,213027,0,"snare.wav",40
Sample,213118,0,"kick.wav",40
Sample,213118,0,"Hat + Ambience 37.wav",40
Sample,213300,0,"Hat + Ambience 37.wav",40
Sample,213300,0,"kick.wav",40
Sample,213845,0,"kick.wav",40
Sample,213845,0,"crash2.wav",40
Sample,214209,0,"snare.wav",60
Sample,214573,0,"kick.wav",60
Sample,214755,0,"kick.wav",60
Sample,214936,0,"snare.wav",60
Sample,215300,0,"kick.wav",60
Sample,215482,0,"kick.wav",60
Sample,215664,0,"snare.wav",60
Sample,216027,0,"kick.wav",60
Sample,216209,0,"kick.wav",60
Sample,216391,0,"snare.wav",60
Sample,216573,0,"Tomv2 3.wav",60
Sample,216664,0,"Tomv2 1.wav",60
Sample,216755,0,"kick.wav",60
Sample,216936,0,"kick.wav",60
Sample,217118,0,"snare.wav",60
Sample,217482,0,"kick.wav",60
Sample,217664,0,"kick.wav",60
Sample,217845,0,"snare.wav",60
Sample,218209,0,"kick.wav",60
Sample,218391,0,"kick.wav",60
Sample,218573,0,"snare.wav",60
Sample,218936,0,"kick.wav",60
Sample,219118,0,"kick.wav",60
Sample,219300,0,"snare.wav",60
Sample,280391,0,"kick.wav",70
Sample,321482,0,"IntChina.wav",40

[TimingPoints]
755,363.636363636364,4,1,0,100,1,0
755,-100,4,2,0,5,0,0
29845,-100,4,1,0,5,0,0
67664,-100,4,1,0,100,0,1
85118,-100,4,1,0,100,0,0
137482,-100,4,1,0,100,0,1
163664,-100,4,1,0,100,0,0
201482,-100,4,1,0,100,0,1
228209,-100,4,1,0,100,0,0
298209,-100,4,1,0,100,0,1
315664,-100,4,1,0,100,0,0

[HitObjects]
192,192,755,5,0,0:0:0:20:P1.wav
320,192,936,1,0,0:0:0:20:P2.wav
448,192,1118,128,0,1482:0:0:0:20:P3.wav
64,192,1300,1,0,0:0:0:20:P2.wav
192,192,1482,1,0,0:0:0:20:P4.wav
448,192,1664,1,0,0:0:0:20:P2.wav
64,192,1845,1,0,0:0:0:20:P1.wav
192,192,2027,1,0,0:0:0:20:P2.wav
448,192,2209,128,0,2573:0:0:0:20:P3.wav
64,192,2391,1,0,0:0:0:20:P2.wav
320,192,2573,1,0,0:0:0:20:P4.wav
192,192,2755,1,0,0:0:0:20:P2.wav
64,192,2936,1,0,0:0:0:0:
320,192,2936,1,0,0:0:0:20:P1.wav
192,192,3118,1,0,0:0:0:20:P2.wav
448,192,3300,128,0,3664:0:0:0:20:P3.wav
192,192,3300,128,0,3664:0:0:0:0:
64,192,3664,1,0,0:0:0:20:P1.wav
320,192,3845,1,0,0:0:0:20:P2.wav
448,192,4027,128,0,4391:0:0:0:20:P3.wav
64,192,4209,1,0,0:0:0:20:P2.wav
192,192,4391,1,0,0:0:0:20:P4.wav
64,192,4573,1,0,0:0:0:20:P2.wav
320,192,4755,1,0,0:0:0:20:P1.wav
192,192,4936,1,0,0:0:0:20:P2.wav
448,192,5118,128,0,5482:0:0:0:20:P3.wav
64,192,5300,1,0,0:0:0:20:P2.wav
320,192,5482,1,0,0:0:0:20:P4.wav
448,192,5845,128,0,6209:0:0:0:0:
192,192,5845,128,0,6209:0:0:0:20:P1.wav
64,192,6209,128,0,6573:0:0:0:0:
320,192,6209,128,0,6573:0:0:0:20:P3.wav
192,192,6573,1,0,0:0:0:20:P1.wav
320,192,6755,1,0,0:0:0:20:P2.wav
448,192,6936,128,0,7300:0:0:0:20:P3.wav
64,192,7118,1,0,0:0:0:20:P2.wav
192,192,7300,1,0,0:0:0:20:P4.wav
448,192,7482,1,0,0:0:0:20:P2.wav
64,192,7664,1,0,0:0:0:20:P1.wav
192,192,7845,1,0,0:0:0:20:P2.wav
448,192,8027,128,0,8391:0:0:0:20:P3.wav
64,192,8209,1,0,0:0:0:20:P2.wav
320,192,8391,1,0,0:0:0:20:P4.wav
192,192,8755,1,0,0:0:0:0:
320,192,8755,1,0,0:0:0:20:P1.wav
192,192,9118,1,0,0:0:0:20:P3.wav
448,192,9300,1,0,0:0:0:20:P2.wav
64,192,9482,1,0,0:0:0:0:
192,192,9664,1,0,0:0:0:0:
320,192,9845,1,0,0:0:0:0:
448,192,10027,1,0,0:0:0:0:
64,192,10209,1,0,0:0:0:0:
192,192,10391,1,0,0:0:0:0:
320,192,10573,1,0,0:0:0:0:
448,192,10755,1,0,0:0:0:0:
448,192,10936,1,0,0:0:0:0:
320,192,11118,1,0,0:0:0:0:
192,192,11300,1,0,0:0:0:0:
64,192,11482,1,0,0:0:0:0:
192,192,11664,1,0,0:0:0:0:
320,192,11664,1,0,0:0:0:0:
64,192,11845,1,0,0:0:0:0:
448,192,11845,1,0,0:0:0:0:
192,192,12027,1,0,0:0:0:0:
320,192,12209,1,0,0:0:0:0:
448,192,12391,128,0,12755:0:0:0:70:X-C#6.wav
64,192,12391,128,0,12755:0:0:0:0:
320,192,12755,1,0,0:0:0:70:X-A5.wav
448,192,13118,1,0,0:0:0:70:X-E6.wav
192,192,13118,128,0,13482:0:0:0:0:
64,192,13482,1,0,0:0:0:70:X-A5.wav
448,192,13845,128,0,14209:0:0:0:70:X-E5.wav
192,192,13845,1,0,0:0:0:70:X-C#6.wav
320,192,14209,1,0,0:0:0:70:X-A5.wav
64,192,14573,1,0,0:0:0:0:
448,192,14573,1,0,0:0:0:70:X-E6.wav
192,192,14936,1,0,0:0:0:70:X-A5.wav
320,192,15300,128,0,15664:0:0:0:70:X-C#6.wav
192,192,15300,1,0,0:0:0:70:X-E5.wav
448,192,15482,1,0,0:0:0:0:
64,192,15664,1,0,0:0:0:70:X-A5.wav
192,192,15845,1,0,0:0:0:0:
320,192,16027,128,0,16391:0:0:0:70:X-E6.wav
192,192,16209,1,0,0:0:0:0:
64,192,16391,1,0,0:0:0:70:X-A5.wav
448,192,16573,1,0,0:0:0:0:
64,192,16755,1,0,0:0:0:70:X-C#6.wav
192,192,16755,1,0,0:0:0:70:X-C#7.wav
320,192,17118,1,0,0:0:0:70:X-D6.wav
448,192,17118,1,0,0:0:0:70:X-D7.wav
64,192,17482,1,0,0:0:0:70:X-E6.wav
448,192,17482,1,0,0:0:0:70:X-E7.wav
192,192,17845,1,0,0:0:0:70:X-A6.wav
320,192,17845,1,0,0:0:0:70:X-A7.wav
192,192,18209,128,0,18573:0:0:0:70:X-E5.wav
320,192,18209,128,0,18573:0:0:0:70:X-C#6.wav
64,192,18573,1,0,0:0:0:70:X-A5.wav
192,192,18755,1,0,0:0:0:0:
448,192,18936,128,0,19300:0:0:0:70:X-E6.wav
64,192,18936,1,0,0:0:0:0:
192,192,19300,1,0,0:0:0:70:X-A5.wav
64,192,19664,128,0,20027:0:0:0:70:X-E5.wav
192,192,19664,1,0,0:0:0:70:X-C#6.wav
320,192,19845,1,0,0:0:0:0:
448,192,20027,1,0,0:0:0:70:X-A5.wav
192,192,20391,128,0,20755:0:0:0:70:X-C#6.wav
64,192,20391,1,0,0:0:0:70:X-E5.wav
320,192,20573,1,0,0:0:0:0:
448,192,20755,1,0,0:0:0:70:X-G#5.wav
192,192,21118,1,0,0:0:0:0:
320,192,21118,1,0,0:0:0:70:X-A5.wav
192,192,21300,1,0,0:0:0:70:X-G#5.wav
64,192,21482,1,0,0:0:0:70:X-A5.wav
192,192,21664,1,0,0:0:0:70:X-B5.wav
64,192,22027,1,0,0:0:0:0:
448,192,22027,1,0,0:0:0:0:
320,192,22027,1,0,0:0:0:70:X-A6.wav
192,192,22209,1,0,0:0:0:70:X-B6.wav
320,192,22391,1,0,0:0:0:70:X-C#7.wav
192,192,22391,1,0,0:0:0:70:X-A6.wav
320,192,22755,1,0,0:0:0:70:X-B6.wav
64,192,22936,1,0,0:0:0:0:
448,192,22936,1,0,0:0:0:70:X-C#7.wav
320,192,23118,1,0,0:0:0:70:X-D7.wav
64,192,23118,1,0,0:0:0:70:X-F6.wav
192,192,23482,1,0,0:0:0:70:X-F6.wav
320,192,23482,1,0,0:0:0:70:X-A6.wav
64,192,24027,128,0,25118:0:0:0:70:X-A5.wav
448,192,24027,128,0,25118:0:0:0:70:X-A6.wav
64,192,25482,128,0,25845:0:0:0:70:X-F#6.wav
448,192,25482,128,0,25845:0:0:0:70:X-D7.wav
192,192,25482,128,0,25845:0:0:0:70:X-A6.wav
64,192,26027,128,0,26573:0:0:0:70:X-E6.wav
320,192,26027,128,0,26573:0:0:0:70:X-A6.wav
448,192,26027,128,0,26573:0:0:0:70:X-C#7.wav
192,192,26573,1,0,0:0:0:70:X-B6.wav
64,192,26936,1,0,0:0:0:70:X-E6.wav
192,192,26936,1,0,0:0:0:0:
320,192,26936,1,0,0:0:0:70:X-A6.wav
448,192,26936,1,0,0:0:0:70:X-C#7.wav
192,192,28027,1,0,0:0:0:70:X-D6.wav
64,192,28209,1,0,0:0:0:70:X-A5.wav
320,192,28209,1,0,0:0:0:70:X-C#6.wav
448,192,28209,1,0,0:0:0:70:X-A6.wav
192,192,28573,128,0,28755:0:0:0:70:X-A6.wav
320,192,28755,128,0,28936:0:0:0:70:X-A6.wav
448,192,28936,128,0,29118:0:0:0:70:X-A6.wav
320,192,29118,128,0,29300:0:0:0:70:X-A6.wav
192,192,29300,128,0,29482:0:0:0:70:X-A6.wav
320,192,29482,128,0,29664:0:0:0:70:X-A6.wav
448,192,29664,128,0,29845:0:0:0:70:X-A6.wav
64,192,29664,128,0,29845:0:0:0:70:X-A5.wav
192,192,29845,128,0,31300:0:0:0:70:X-A4.wav
64,192,30027,1,0,0:0:0:70:X-E5.wav
320,192,30209,1,0,0:0:0:70:X-A5.wav
448,192,30391,1,0,0:0:0:70:X-E5.wav
320,192,30573,1,0,0:0:0:70:X-A4.wav
64,192,30755,1,0,0:0:0:70:X-E5.wav
320,192,30936,1,0,0:0:0:70:X-A5.wav
448,192,31118,1,0,0:0:0:70:X-E5.wav
448,192,31300,128,0,32755:0:0:0:70:X-E4.wav
64,192,31482,1,0,0:0:0:70:X-B4.wav
320,192,31664,1,0,0:0:0:70:X-E5.wav
192,192,31845,1,0,0:0:0:70:X-B4.wav
64,192,32027,1,0,0:0:0:70:X-E4.wav
192,192,32209,1,0,0:0:0:70:X-B4.wav
64,192,32391,1,0,0:0:0:70:X-E5.wav
192,192,32573,1,0,0:0:0:70:X-B4.wav
64,192,32755,128,0,34209:0:0:0:70:X-D4.wav
320,192,32936,1,0,0:0:0:70:X-A4.wav
448,192,33118,1,0,0:0:0:70:X-D5.wav
192,192,33300,1,0,0:0:0:70:X-A4.wav
320,192,33482,1,0,0:0:0:70:X-D4.wav
192,192,33664,1,0,0:0:0:70:X-A4.wav
448,192,33845,1,0,0:0:0:70:X-D5.wav
320,192,34027,1,0,0:0:0:70:X-A4.wav
448,192,34209,1,0,0:0:0:0:
320,192,34209,128,0,35664:0:0:0:70:X-A4.wav
64,192,34391,1,0,0:0:0:70:X-E5.wav
192,192,34573,1,0,0:0:0:70:X-A5.wav
448,192,34755,1,0,0:0:0:70:X-E5.wav
64,192,34936,1,0,0:0:0:70:X-A4.wav
448,192,35118,1,0,0:0:0:70:X-E5.wav
64,192,35300,1,0,0:0:0:70:X-A5.wav
192,192,35482,1,0,0:0:0:70:X-E5.wav
448,192,35664,128,0,37118:0:0:0:70:X-F#4.wav
192,192,35664,1,0,0:0:0:0:
64,192,35845,1,0,0:0:0:70:X-C#5.wav
192,192,36027,1,0,0:0:0:70:X-A5.wav
320,192,36209,1,0,0:0:0:70:X-C#5.wav
192,192,36391,1,0,0:0:0:70:X-F#5.wav
64,192,36573,1,0,0:0:0:70:X-C#5.wav
192,192,36755,1,0,0:0:0:70:X-A5.wav
64,192,36936,1,0,0:0:0:70:X-C#5.wav
192,192,37118,128,0,38573:0:0:0:70:X-B4.wav
320,192,37118,1,0,0:0:0:0:
64,192,37300,1,0,0:0:0:70:X-F#5.wav
320,192,37482,1,0,0:0:0:70:X-D#6.wav
64,192,37664,1,0,0:0:0:70:X-F#5.wav
448,192,37845,1,0,0:0:0:70:X-B5.wav
320,192,38027,1,0,0:0:0:70:X-F#5.wav
64,192,38209,1,0,0:0:0:70:X-D#6.wav
320,192,38391,1,0,0:0:0:70:X-F#5.wav
448,192,38573,128,0,40027:0:0:0:70:X-D4.wav
64,192,38573,1,0,0:0:0:0:
320,192,38755,1,0,0:0:0:70:X-A4.wav
64,192,38936,1,0,0:0:0:70:X-F#5.wav
320,192,39118,1,0,0:0:0:70:X-A4.wav
192,192,39300,1,0,0:0:0:70:X-D5.wav
320,192,39482,1,0,0:0:0:70:X-A4.wav
192,192,39664,1,0,0:0:0:70:X-E5.wav
64,192,39845,1,0,0:0:0:70:X-A4.wav
320,192,40027,128,0,41482:0:0:0:70:X-E4.wav
64,192,40027,1,0,0:0:0:0:
192,192,40209,1,0,0:0:0:70:X-B4.wav
448,192,40391,1,0,0:0:0:70:X-G#5.wav
192,192,40573,1,0,0:0:0:70:X-B4.wav
192,192,40755,1,0,0:0:0:70:X-E5.wav
64,192,40936,1,0,0:0:0:70:X-B4.wav
448,192,41118,1,0,0:0:0:70:X-F#5.wav
192,192,41300,1,0,0:0:0:70:X-B4.wav
64,192,41482,1,0,0:0:0:0:
