osu file format v14

[General]
AudioFilename: ED.mp3
AudioLeadIn: 0
PreviewTime: 54813
Countdown: 1
SampleSet: None
StackLeniency: 0.7
Mode: 1
LetterboxInBreaks: 1
WidescreenStoryboard: 0

[Editor]
DistanceSpacing: 1.4
BeatDivisor: 8
GridSize: 4
TimelineZoom: 1

[Metadata]
Title:Kimi no Shiranai Monogatari
TitleUnicode:Kimi no Shiranai Monogatari
Artist:supercell
ArtistUnicode:supercell
Creator:-[ ix Ishida xi ]-
Version:-[ ix IshidaTaikonari xi ]-
Source:
Tags:
BeatmapID:1713210
BeatmapSetID:816988

[Difficulty]
HPDrainRate:7
CircleSize:5
OverallDifficulty:4
ApproachRate:5
SliderMultiplier:1.4
SliderTickRate:1

[Events]
//Background and Video events
0,0,"senjougaharahitagi.jpg",0,0
//Break Periods
//Storyboard Layer 0 (Background)
//Storyboard Layer 1 (Fail)
//Storyboard Layer 2 (Pass)
//Storyboard Layer 3 (Foreground)
//Storyboard Sound Samples

[TimingPoints]
-4,363.636363636364,4,1,0,5,1,0
1450,-100,4,1,0,70,0,1
10132,-100,4,1,0,70,0,0
10177,-100,4,1,0,70,0,1
10223,-100,4,1,0,70,0,0
10723,-100,4,1,0,70,0,1
10768,-100,4,1,0,70,0,0
11632,-100,4,1,0,70,0,1
11677,-100,4,1,0,70,0,0
12177,-100,4,1,0,70,0,1
12223,-100,4,1,0,70,0,0
13041,-100,4,1,0,70,0,0
13086,-100,4,1,0,70,0,1
13132,-100,4,1,0,70,0,0
18905,-100,4,1,0,70,0,1
18950,-133.333333333333,4,1,0,35,0,0
30541,-100,4,1,0,50,0,1
30586,-100,4,1,0,50,0,0
45086,-100,4,1,0,50,0,1
45132,-133.333333333333,4,1,0,50,0,0
50905,-125,4,1,0,50,0,0
52359,-111.111111111111,4,1,0,50,0,0
53814,-100,4,1,0,50,0,0
55268,-95.2380952380952,4,1,0,50,0,1
55314,-95.2380952380952,4,1,0,50,0,0
55814,-90.9090909090909,4,1,0,50,0,1
55859,-90.9090909090909,4,1,0,50,0,0
56723,-83.3333333333333,4,1,0,70,0,1
79950,-83.3333333333333,4,1,0,70,0,0
79996,-83.3333333333333,4,1,0,70,0,1
80041,-83.3333333333333,4,1,0,70,0,0
81450,-83.3333333333333,4,1,0,70,0,1
81496,-83.3333333333333,4,1,0,70,0,0
82859,-83.3333333333333,4,1,0,70,0,0
82905,-71.4285714285714,4,1,0,70,0,1
82950,-71.4285714285714,4,1,0,70,0,0
83450,-62.5,4,1,0,70,0,1
83496,-62.5,4,1,0,70,0,0
83996,-55.5555555555556,4,1,0,70,0,1
84041,-55.5555555555556,4,1,0,70,0,0
84177,-83.3333333333333,4,1,0,70,0,0
84359,-83.3333333333333,4,1,0,70,0,1
84405,-83.3333333333333,4,1,0,70,0,0
85814,-83.3333333333333,4,1,0,70,0,1
85996,-83.3333333333333,4,1,0,30,0,1
87268,-83.3333333333333,4,1,0,5,0,1
88723,-83.3333333333333,4,1,0,5,0,0

[HitObjects]
456,200,1450,5,6,0:0:0:0:
480,172,1632,1,0,0:0:0:0:
480,172,1814,1,2,0:0:0:0:
488,152,1996,1,0,0:0:0:0:
408,208,2177,1,0,0:0:0:0:
312,188,2359,1,0,0:0:0:0:
404,220,2541,1,2,0:0:0:0:
472,148,2723,1,0,0:0:0:0:
376,168,2905,1,0,0:0:0:0:
480,172,3086,1,2,0:0:0:0:
480,172,3177,1,0,0:0:0:0:
472,148,3268,1,2,0:0:0:0:
376,168,3450,1,0,0:0:0:0:
356,212,3541,1,0,0:0:0:0:
400,188,3632,1,2,0:0:0:0:
444,164,3723,1,2,0:0:0:0:
480,172,3814,1,0,0:0:0:0:
480,172,3996,1,2,0:0:0:0:
384,172,4177,1,0,0:0:0:0:
428,260,4359,1,6,0:0:0:0:
464,168,4541,1,0,0:0:0:0:
444,164,4723,1,2,0:0:0:0:
444,164,4905,1,0,0:0:0:0:
444,164,4996,1,0,0:0:0:0:
432,212,5086,1,0,0:0:0:0:
432,212,5268,1,0,0:0:0:0:
464,168,5450,1,2,0:0:0:0:
456,120,5541,1,2,0:0:0:0:
436,164,5632,1,0,0:0:0:0:
500,136,5814,1,0,0:0:0:0:
464,168,5996,1,0,0:0:0:0:
464,168,6086,1,2,0:0:0:0:
420,188,6177,1,2,0:0:0:0:
420,188,6359,1,2,0:0:0:0:
436,164,6723,1,0,0:0:0:0:
468,128,6814,1,2,0:0:0:0:
436,164,6905,1,0,0:0:0:0:
504,236,7086,1,0,0:0:0:0:
428,176,7268,1,6,0:0:0:0:
488,252,7450,1,0,0:0:0:0:
492,156,7632,1,2,0:0:0:0:
412,212,7814,1,0,0:0:0:0:
436,164,7905,1,0,0:0:0:0:
412,212,7996,1,0,0:0:0:0:
476,140,8177,1,2,0:0:0:0:
452,184,8359,1,2,0:0:0:0:
476,140,8450,1,0,0:0:0:0:
492,156,8541,1,2,0:0:0:0:
452,184,8723,1,2,0:0:0:0:
508,124,8905,1,0,0:0:0:0:
452,184,9086,1,2,0:0:0:0:
504,100,9268,1,0,0:0:0:0:
472,136,9359,1,0,0:0:0:0:
436,172,9450,1,0,0:0:0:0:
464,132,9541,1,2,0:0:0:0:
492,136,9632,1,2,0:0:0:0:
452,184,9814,1,0,0:0:0:0:
388,260,9996,1,0,0:0:0:0:
436,172,10086,1,0,0:0:0:0:
416,216,10177,1,6,0:0:0:0:
472,136,10359,1,0,0:0:0:0:
488,184,10450,1,2,0:0:0:0:
436,172,10541,1,0,0:0:0:0:
452,184,10723,1,6,0:0:0:0:
472,140,11086,1,0,0:0:0:0:
400,200,11268,1,0,0:0:0:0:
472,132,11450,1,2,0:0:0:0:
492,204,11632,1,6,0:0:0:0:
436,172,11814,1,0,0:0:0:0:
400,200,11996,1,0,0:0:0:0:
496,208,12177,1,6,0:0:0:0:
336,92,12541,1,0,0:0:0:0:
420,140,12723,1,2,0:0:0:0:
500,196,12905,1,0,0:0:0:0:
412,236,13086,1,4,0:0:0:0:
496,188,13268,1,0,0:0:0:0:
396,188,13450,1,2,0:0:0:0:
484,148,13632,1,0,0:0:0:0:
428,228,13814,1,0,0:0:0:0:
428,228,13996,1,0,0:0:0:0:
492,156,14177,1,2,0:0:0:0:
492,156,14359,1,0,0:0:0:0:
456,188,14450,1,2,0:0:0:0:
412,164,14541,1,0,0:0:0:0:
476,92,14723,1,0,0:0:0:0:
436,180,14905,1,2,0:0:0:0:
412,164,14996,1,0,0:0:0:0:
412,164,15086,1,0,0:0:0:0:
412,164,15268,1,0,0:0:0:0:
420,172,15450,1,0,0:0:0:0:
432,124,15541,1,0,0:0:0:0:
456,188,15632,1,2,0:0:0:0:
492,156,15814,1,0,0:0:0:0:
400,188,15996,1,2,0:0:0:0:
328,336,16359,1,6,0:0:0:0:
388,260,16541,1,0,0:0:0:0:
396,164,16723,1,0,0:0:0:0:
420,172,16905,1,0,0:0:0:0:
492,156,17086,1,2,0:0:0:0:
400,188,17268,1,0,0:0:0:0:
396,164,17632,1,0,0:0:0:0:
380,68,17814,1,0,0:0:0:0:
400,164,17996,1,0,0:0:0:0:
364,72,18177,1,0,0:0:0:0:
404,160,18359,1,0,0:0:0:0:
384,64,18541,1,0,0:0:0:0:
448,136,18723,1,0,0:0:0:0:
412,228,18905,1,6,0:0:0:0:
496,108,19268,1,2,0:0:0:0:
440,156,19450,1,2,0:0:0:0:
384,204,19632,1,2,0:0:0:0:
424,144,19814,1,2,0:0:0:0:
440,156,19996,1,2,0:0:0:0:
400,216,20177,1,2,0:0:0:0:
440,156,20359,1,2,0:0:0:0:
452,144,20723,1,2,0:0:0:0:
452,144,20905,1,2,0:0:0:0:
468,288,21268,1,0,0:0:0:0:
476,216,21450,1,2,0:0:0:0:
440,156,21632,1,0,0:0:0:0:
408,220,21814,1,0,0:0:0:0:
452,144,22177,1,2,0:0:0:0:
452,144,22359,1,0,0:0:0:0:
452,144,22541,1,0,0:0:0:0:
440,156,22723,1,0,0:0:0:0:
424,228,22905,1,2,0:0:0:0:
424,156,23086,1,0,0:0:0:0:
440,84,23268,1,0,0:0:0:0:
420,156,23450,1,0,0:0:0:0:
488,132,23632,1,2,0:0:0:0:
452,144,23814,1,2,0:0:0:0:
440,156,24177,1,0,0:0:0:0:
512,172,24359,1,2,0:0:0:0:
440,156,24541,1,0,0:0:0:0:
452,144,24723,1,0,0:0:0:0:
420,156,24905,1,0,0:0:0:0:
420,156,25086,1,2,0:0:0:0:
508,108,25268,1,0,0:0:0:0:
444,144,25450,1,0,0:0:0:0:
428,216,25632,1,2,0:0:0:0:
380,160,25814,1,0,0:0:0:0:
440,156,25996,1,2,0:0:0:0:
484,160,26177,1,0,0:0:0:0:
444,144,26541,1,2,0:0:0:0:
472,212,26723,1,0,0:0:0:0:
404,188,26905,1,0,0:0:0:0:
472,160,27086,1,0,0:0:0:0:
472,160,27268,1,2,0:0:0:0:
440,156,27450,1,2,0:0:0:0:
392,212,27632,1,2,0:0:0:0:
472,160,27814,1,0,0:0:0:0:
504,144,27996,1,2,0:0:0:0:
432,132,28177,1,0,0:0:0:0:
440,156,28359,1,0,0:0:0:0:
368,160,28541,1,0,0:0:0:0:
436,132,28723,1,2,0:0:0:0:
508,140,28905,1,0,0:0:0:0:
440,156,29086,1,0,0:0:0:0:
472,160,29268,1,0,0:0:0:0:
472,160,29450,1,2,0:0:0:0:
488,144,29632,1,0,0:0:0:0:
468,116,29723,1,0,0:0:0:0:
472,160,29814,1,2,0:0:0:0:
440,156,29905,1,2,0:0:0:0:
488,144,29996,1,0,0:0:0:0:
508,140,30177,1,2,0:0:0:0:
472,160,30359,1,0,0:0:0:0:
452,232,30541,1,6,0:0:0:0:
404,148,30723,1,2,0:0:0:0:
324,204,30905,1,2,0:0:0:0:
404,148,31086,1,2,0:0:0:0:
500,152,31268,1,2,0:0:0:0:
404,140,31450,1,2,0:0:0:0:
496,176,31632,1,2,0:0:0:0:
404,140,31814,1,2,0:0:0:0:
356,156,31905,1,2,0:0:0:0:
496,112,31996,1,2,0:0:0:0:
416,172,32177,1,2,0:0:0:0:
472,92,32359,1,2,0:0:0:0:
428,180,32541,1,2,0:0:0:0:
392,200,32905,1,0,0:0:0:0:
392,200,32996,1,0,0:0:0:0:
440,200,33086,1,2,0:0:0:0:
508,132,33268,1,0,0:0:0:0:
432,196,33450,1,4,0:0:0:0:
504,128,33632,1,0,0:0:0:0:
392,200,33814,1,2,0:0:0:0:
488,180,33996,1,0,0:0:0:0:
432,196,34177,1,0,0:0:0:0:
408,100,34359,1,0,0:0:0:0:
476,172,34541,1,2,0:0:0:0:
476,152,34723,1,0,0:0:0:0:
452,248,34905,1,6,0:0:0:0:
420,156,35086,1,0,0:0:0:0:
432,196,35177,1,0,0:0:0:0:
432,196,35268,1,0,0:0:0:0:
476,172,35450,1,2,0:0:0:0:
432,196,35632,1,0,0:0:0:0:
476,172,35814,1,0,0:0:0:0:
432,196,35905,1,0,0:0:0:0:
480,184,35996,1,2,0:0:0:0:
476,152,36086,1,0,0:0:0:0:
428,160,36177,1,0,0:0:0:0:
476,168,36268,1,0,0:0:0:0:
428,176,36359,1,0,0:0:0:0:
476,152,36541,1,0,0:0:0:0:
428,240,36723,1,2,0:0:0:0:
480,184,36905,1,0,0:0:0:0:
476,172,36996,1,2,0:0:0:0:
476,172,37086,1,0,0:0:0:0:
384,136,37268,1,0,0:0:0:0:
480,184,37450,1,2,0:0:0:0:
380,180,37632,1,0,0:0:0:0:
476,168,37814,1,2,0:0:0:0:
492,168,37996,1,0,0:0:0:0:
480,184,38086,1,2,0:0:0:0:
480,184,38177,1,0,0:0:0:0:
388,212,38359,1,2,0:0:0:0:
452,140,38541,1,2,0:0:0:0:
416,176,38632,1,2,0:0:0:0:
480,184,38723,1,0,0:0:0:0:
384,208,38905,1,2,0:0:0:0:
432,196,38996,1,2,0:0:0:0:
476,168,39086,1,0,0:0:0:0:
476,168,39177,1,2,0:0:0:0:
476,168,39268,1,0,0:0:0:0:
420,88,39450,1,0,0:0:0:0:
432,196,39632,1,2,0:0:0:0:
472,108,39814,1,0,0:0:0:0:
416,176,39905,1,0,0:0:0:0:
456,148,39996,1,2,0:0:0:0:
452,140,40086,1,2,0:0:0:0:
500,136,40177,1,0,0:0:0:0:
456,148,40359,1,2,0:0:0:0:
456,148,40541,1,0,0:0:0:0:
476,168,40632,1,2,0:0:0:0:
508,128,40723,1,0,0:0:0:0:
484,224,40905,1,2,0:0:0:0:
500,136,40996,1,0,0:0:0:0:
476,168,41177,1,0,0:0:0:0:
380,172,41359,1,0,0:0:0:0:
428,176,41450,1,2,0:0:0:0:
452,140,41632,1,0,0:0:0:0:
416,172,41723,1,0,0:0:0:0:
428,176,41814,1,0,0:0:0:0:
476,168,41996,1,2,0:0:0:0:
392,216,42177,1,6,0:0:0:0:
480,172,42359,1,0,0:0:0:0:
428,176,42450,1,0,0:0:0:0:
476,168,42541,1,2,0:0:0:0:
428,176,42723,1,2,0:0:0:0:
332,184,42905,1,2,0:0:0:0:
420,224,43086,1,2,0:0:0:0:
336,176,43268,1,2,0:0:0:0:
432,188,43450,1,2,0:0:0:0:
512,244,43632,1,4,0:0:0:0:
428,192,43814,1,0,0:0:0:0:
456,204,43996,1,0,0:0:0:0:
456,204,44177,1,0,0:0:0:0:
456,204,44359,1,0,0:0:0:0:
456,204,44541,1,0,0:0:0:0:
476,192,44723,1,0,0:0:0:0:
476,192,44905,1,0,0:0:0:0:
388,236,45086,1,6,0:0:0:0:
352,172,45268,1,2,0:0:0:0:
420,140,45450,1,0,0:0:0:0:
492,136,45632,1,0,0:0:0:0:
456,148,45723,1,0,0:0:0:0:
488,168,45814,1,2,0:0:0:0:
480,216,46177,1,0,0:0:0:0:
436,156,46359,1,0,0:0:0:0:
496,152,46723,1,2,0:0:0:0:
504,136,46905,1,0,0:0:0:0:
428,260,47268,1,2,0:0:0:0:
452,192,47450,1,0,0:0:0:0:
432,224,47541,1,0,0:0:0:0:
432,224,47632,1,0,0:0:0:0:
452,192,47814,1,2,0:0:0:0:
420,212,47905,1,2,0:0:0:0:
420,212,47996,1,2,0:0:0:0:
480,172,48177,1,0,0:0:0:0:
504,136,48359,1,2,0:0:0:0:
452,192,48723,1,0,0:0:0:0:
380,184,48905,1,0,0:0:0:0:
344,184,48996,1,0,0:0:0:0:
372,204,49086,1,2,0:0:0:0:
420,212,49268,1,0,0:0:0:0:
492,160,49632,1,2,0:0:0:0:
432,204,49814,1,0,0:0:0:0:
428,132,49996,1,0,0:0:0:0:
432,168,50086,1,0,0:0:0:0:
492,160,50177,1,2,0:0:0:0:
460,180,50268,1,2,0:0:0:0:
492,160,50359,1,0,0:0:0:0:
504,148,50541,1,2,0:0:0:0:
460,208,50723,1,0,0:0:0:0:
476,172,50814,1,2,0:0:0:0:
492,160,50905,1,0,0:0:0:0:
420,128,51086,1,0,0:0:0:0:
476,184,51268,1,2,0:0:0:0:
492,160,51450,1,0,0:0:0:0:
460,208,51632,1,2,0:0:0:0:
476,172,51814,1,0,0:0:0:0:
504,148,51996,1,2,0:0:0:0:
512,144,52177,1,0,0:0:0:0:
448,204,52359,1,6,0:0:0:0:
460,208,52541,1,2,0:0:0:0:
492,160,52723,1,0,0:0:0:0:
492,160,52905,1,2,0:0:0:0:
476,172,53086,1,6,0:0:0:0:
492,160,53268,1,2,0:0:0:0:
504,148,53450,1,0,0:0:0:0:
416,168,53632,1,0,0:0:0:0:
420,256,53814,1,6,0:0:0:0:
444,160,53996,1,0,0:0:0:0:
444,160,54177,1,0,0:0:0:0:
444,160,54359,1,0,0:0:0:0:
492,164,54450,1,2,0:0:0:0:
444,160,54541,1,2,0:0:0:0:
492,160,54723,1,0,0:0:0:0:
444,160,54905,1,0,0:0:0:0:
416,168,55086,1,0,0:0:0:0:
500,216,55268,1,6,0:0:0:0:
492,164,55450,1,2,0:0:0:0:
492,164,55632,1,0,0:0:0:0:
408,216,55814,1,6,0:0:0:0:
500,184,55996,1,2,0:0:0:0:
492,160,56177,1,0,0:0:0:0:
416,168,56359,1,2,0:0:0:0:
456,128,56541,1,0,0:0:0:0:
492,164,56723,1,4,0:0:0:0:
380,132,56905,1,0,0:0:0:0:
468,212,57086,1,2,0:0:0:0:
492,160,57268,1,0,0:0:0:0:
496,128,57359,1,2,0:0:0:0:
492,160,57450,1,0,0:0:0:0:
456,128,57632,1,0,0:0:0:0:
508,132,57814,1,2,0:0:0:0:
496,128,57996,1,0,0:0:0:0:
448,236,58177,1,6,0:0:0:0:
472,120,58359,1,2,0:0:0:0:
492,160,58541,1,0,0:0:0:0:
456,272,58723,1,6,0:0:0:0:
488,160,58905,1,2,0:0:0:0:
448,236,59086,1,4,0:0:0:0:
464,224,59268,1,0,0:0:0:0:
476,204,59450,1,6,0:0:0:0:
420,100,59632,1,4,0:0:0:0:
392,216,59814,1,0,0:0:0:0:
404,160,59905,1,0,0:0:0:0:
460,148,59996,1,2,0:0:0:0:
488,160,60177,1,0,0:0:0:0:
500,104,60268,1,2,0:0:0:0:
508,44,60359,1,0,0:0:0:0:
492,100,60450,1,2,0:0:0:0:
488,160,60541,1,0,0:0:0:0:
428,60,60723,1,2,0:0:0:0:
444,176,60905,1,0,0:0:0:0:
404,216,60996,1,0,0:0:0:0:
444,176,61086,1,2,0:0:0:0:
352,252,61268,1,0,0:0:0:0:
448,184,61450,1,2,0:0:0:0:
488,160,61632,1,0,0:0:0:0:
436,188,61723,1,0,0:0:0:0:
404,216,61814,1,0,0:0:0:0:
508,160,61996,1,2,0:0:0:0:
428,248,62177,1,6,0:0:0:0:
444,176,62359,1,0,0:0:0:0:
464,192,62541,1,4,0:0:0:0:
464,192,62723,1,0,0:0:0:0:
488,176,62905,1,2,0:0:0:0:
396,248,63086,1,0,0:0:0:0:
488,176,63177,1,2,0:0:0:0:
488,176,63268,1,0,0:0:0:0:
444,176,63450,1,0,0:0:0:0:
344,116,63632,1,2,0:0:0:0:
420,204,63814,1,0,0:0:0:0:
444,176,64177,1,2,0:0:0:0:
472,204,64359,1,6,0:0:0:0:
508,168,64541,1,0,0:0:0:0:
444,176,64723,1,0,0:0:0:0:
444,176,64905,1,0,0:0:0:0:
400,216,64996,1,0,0:0:0:0:
448,188,65086,1,2,0:0:0:0:
444,176,65177,1,2,0:0:0:0:
472,184,65268,1,0,0:0:0:0:
472,204,65450,1,6,0:0:0:0:
508,168,65632,1,0,0:0:0:0:
468,128,65723,1,2,0:0:0:0:
488,152,65814,1,0,0:0:0:0:
504,132,65996,1,2,0:0:0:0:
504,132,66177,1,0,0:0:0:0:
388,140,66359,1,0,0:0:0:0:
332,152,66450,1,0,0:0:0:0:
368,264,66541,1,0,0:0:0:0:
284,184,66723,1,0,0:0:0:0:
472,204,66905,1,6,0:0:0:0:
508,168,67086,1,2,0:0:0:0:
396,200,67268,1,0,0:0:0:0:
508,168,67450,1,6,0:0:0:0:
420,244,67632,1,2,0:0:0:0:
432,92,67814,1,0,0:0:0:0:
444,176,67905,1,0,0:0:0:0:
508,136,67996,1,2,0:0:0:0:
416,208,68086,1,0,0:0:0:0:
416,208,68177,1,0,0:0:0:0:
392,196,68268,1,0,0:0:0:0:
492,156,68359,1,4,0:0:0:0:
392,196,68541,1,0,0:0:0:0:
392,196,68632,1,0,0:0:0:0:
448,180,68723,1,2,0:0:0:0:
484,176,68905,1,0,0:0:0:0:
484,176,68996,1,2,0:0:0:0:
492,156,69086,1,0,0:0:0:0:
444,176,69177,1,0,0:0:0:0:
388,192,69268,1,0,0:0:0:0:
492,244,69450,1,2,0:0:0:0:
424,148,69632,1,0,0:0:0:0:
472,256,69814,1,6,0:0:0:0:
484,176,69996,1,2,0:0:0:0:
484,176,70177,1,0,0:0:0:0:
484,176,70359,1,6,0:0:0:0:
492,156,70541,1,2,0:0:0:0:
376,144,70723,1,0,0:0:0:0:
492,164,70905,1,0,0:0:0:0:
492,156,71086,1,2,0:0:0:0:
440,264,71268,1,4,0:0:0:0:
444,148,71450,1,0,0:0:0:0:
416,200,71541,1,0,0:0:0:0:
472,188,71632,1,2,0:0:0:0:
508,176,71814,1,0,0:0:0:0:
492,156,71905,1,2,0:0:0:0:
492,156,71996,1,0,0:0:0:0:
416,68,72177,1,0,0:0:0:0:
472,188,72359,1,2,0:0:0:0:
488,172,72541,1,0,0:0:0:0:
492,156,72723,1,6,0:0:0:0:
472,188,72905,1,0,0:0:0:0:
492,156,72996,1,0,0:0:0:0:
456,200,73086,1,2,0:0:0:0:
488,224,73268,1,0,0:0:0:0:
440,188,73359,1,2,0:0:0:0:
460,244,73450,1,0,0:0:0:0:
460,244,73541,1,2,0:0:0:0:
428,196,73632,1,0,0:0:0:0:
420,256,73723,1,0,0:0:0:0:
428,196,73814,1,2,0:0:0:0:
372,212,73905,1,0,0:0:0:0:
492,156,73996,1,0,0:0:0:0:
432,156,74086,1,2,0:0:0:0:
472,188,74177,1,4,0:0:0:0:
488,304,74359,1,0,0:0:0:0:
444,196,74541,1,0,0:0:0:0:
472,188,74723,1,0,0:0:0:0:
444,196,74814,1,0,0:0:0:0:
500,216,74905,1,2,0:0:0:0:
472,188,75086,1,0,0:0:0:0:
392,104,75268,1,0,0:0:0:0:
368,44,75359,1,0,0:0:0:0:
492,156,75450,1,2,0:0:0:0:
436,260,75632,1,4,0:0:0:0:
504,164,75814,1,0,0:0:0:0:
472,188,75996,1,0,0:0:0:0:
500,128,76177,1,0,0:0:0:0:
460,172,76268,1,2,0:0:0:0:
444,196,76359,1,2,0:0:0:0:
492,156,76541,1,0,0:0:0:0:
492,156,76723,1,2,0:0:0:0:
436,144,76814,1,2,0:0:0:0:
436,144,76905,1,2,0:0:0:0:
492,156,76996,1,0,0:0:0:0:
440,180,77086,1,6,0:0:0:0:
284,188,77329,1,0,0:0:0:0:
436,144,77571,1,0,0:0:0:0:
364,176,77692,1,0,0:0:0:0:
444,184,77814,1,6,0:0:0:0:
508,160,77996,1,0,0:0:0:0:
508,160,78086,1,0,0:0:0:0:
452,180,78177,1,2,0:0:0:0:
400,204,78268,1,0,0:0:0:0:
344,216,78359,1,0,0:0:0:0:
488,204,78541,1,6,0:0:0:0:
444,184,78783,1,0,0:0:0:0:
444,184,79026,1,0,0:0:0:0:
480,168,79147,1,2,0:0:0:0:
480,168,79268,1,6,0:0:0:0:
444,184,79389,1,0,0:0:0:0:
440,180,79511,1,0,0:0:0:0:
364,168,79632,1,2,0:0:0:0:
464,184,79753,1,0,0:0:0:0:
420,120,79874,1,2,0:0:0:0:
424,224,79996,1,6,0:0:0:0:
464,184,80177,1,0,0:0:0:0:
444,184,80359,1,0,0:0:0:0:
496,144,80541,1,2,0:0:0:0:
480,168,80723,1,0,0:0:0:0:
496,144,80905,1,2,0:0:0:0:
464,184,81086,1,4,0:0:0:0:
464,184,81268,1,0,0:0:0:0:
404,184,81359,1,0,0:0:0:0:
492,208,81450,1,6,0:0:0:0:
504,176,81632,1,2,0:0:0:0:
400,228,81814,1,2,0:0:0:0:
500,164,81996,1,2,0:0:0:0:
388,204,82177,1,2,0:0:0:0:
500,164,82359,1,2,0:0:0:0:
388,204,82541,1,2,0:0:0:0:
464,184,82723,1,0,0:0:0:0:
504,176,82905,1,6,0:0:0:0:
392,144,83086,1,0,0:0:0:0:
480,224,83268,1,0,0:0:0:0:
504,108,83450,1,6,0:0:0:0:
428,196,83632,1,0,0:0:0:0:
348,108,83814,1,0,0:0:0:0:
464,184,83996,1,6,0:0:0:0:
464,184,84177,1,0,0:0:0:0:
464,184,84268,1,0,0:0:0:0:
464,184,84359,1,6,0:0:0:0:
348,184,84541,1,2,0:0:0:0:
464,184,84723,1,0,0:0:0:0:
464,184,84905,1,4,0:0:0:0:
500,144,85268,1,6,0:0:0:0:
508,168,85450,1,2,0:0:0:0:
480,156,85632,1,2,0:0:0:0:
256,192,85814,12,0,89086,0:0:0:0:
