osu file format v14

[General]
AudioFilename: 09. .mp3
AudioLeadIn: 0
PreviewTime: 63836
Countdown: 0
SampleSet: None
StackLeniency: 1
Mode: 0
LetterboxInBreaks: 0
WidescreenStoryboard: 1

[Editor]
Bookmarks: 7470,29288,43833,62015,65651,79288,83833,91106,120197,142015,155879,160197,165651,225651,227470,229288,242924,247470,269288
DistanceSpacing: 1
BeatDivisor: 2
GridSize: 8
TimelineZoom: 2.2

[Metadata]
Title:Hyakukaime No Kisu
TitleUnicode:百回目のキス
Artist:supercell
ArtistUnicode:supercell
Creator:Domi200
Version:Normal
Source:
Tags:supercell zigaexperientia l1mi
BeatmapID:708946
BeatmapSetID:286834

[Difficulty]
HPDrainRate:3
CircleSize:3
OverallDifficulty:3
ApproachRate:2
SliderMultiplier:1.2
SliderTickRate:2

[Events]
//Background and Video events
0,0,"bg (1).jpg",0,0
//Break Periods
2,91306,96819
2,119942,140455
2,167669,182273
//Storyboard Layer 0 (Background)
//Storyboard Layer 1 (Fail)
//Storyboard Layer 2 (Pass)
//Storyboard Layer 3 (Foreground)
//Storyboard Sound Samples

[TimingPoints]
7470,454.545454545455,4,2,0,20,1,0
43833,-100,4,1,0,20,0,0
65651,-100,4,3,0,50,0,1
80424,-133.333333333333,4,2,0,50,0,1
83379,-100,4,3,0,50,0,1
91106,-100,4,1,0,30,0,0
98379,-100,4,2,0,20,0,0
142015,-100,4,3,0,50,0,1
165651,-100,4,3,0,50,0,0
196560,-100,4,1,0,30,0,0
229288,-100,4,3,0,50,0,1
269288,-100,4,1,0,30,0,0

[Colours]
Combo1 : 170,85,255
Combo2 : 193,193,0
Combo3 : 204,0,102
Combo4 : 108,0,217

[HitObjects]
136,40,7470,6,0,P|136:104|216:136,1,120,4|0,0:0|0:0,0:0:0:0:
288,96,8379,2,0,P|328:144|299:220,1,120,4|0,0:0|0:0,0:0:0:0:
216,280,9288,5,4,0:0:0:0:
96,224,9742,1,0,0:0:0:0:
96,96,10197,1,4,0:0:0:0:
208,32,10651,1,0,0:0:0:0:
336,32,11106,6,0,B|368:88|368:88|344:144,1,120,4|0,0:0|0:0,0:0:0:0:
224,144,12015,2,0,B|200:200|200:200|224:288,1,120,4|0,0:0|0:0,0:0:0:0:
328,352,12924,2,0,B|352:296|352:296|336:192,1,120,4|0,0:0|0:0,0:0:0:0:
288,96,13833,5,4,0:0:0:0:
160,96,14288,1,0,0:0:0:0:
112,216,14742,6,0,B|128:264|128:264|176:248|176:248|208:272,1,120,4|0,0:0|0:0,0:0:0:0:
320,272,15651,1,4,0:0:0:0:
432,208,16106,1,0,0:0:0:0:
392,88,16560,2,0,B|346:65|346:65|324:110|280:112,1,120,4|0,0:0|0:0,0:0:0:0:
176,136,17470,5,4,0:0:0:0:
280,216,17924,1,0,0:0:0:0:
400,256,18379,6,0,B|448:272|448:272|528:192,2,120,4|0|4,0:0|0:0|0:0,0:0:0:0:
288,192,19742,1,0,0:0:0:0:
176,128,20197,6,0,B|128:112|128:112|48:192,2,120,4|0|4,0:0|0:0|0:0,0:0:0:0:
240,240,21560,1,0,0:0:0:0:
368,224,22015,6,0,P|432:176|416:96,1,120,4|0,0:0|0:0,0:0:0:0:
304,48,22924,2,0,P|240:96|256:176,1,120,4|0,0:0|0:0,0:0:0:0:
288,288,23833,6,0,P|240:352|160:336,1,120,4|0,0:0|0:0,0:0:0:0:
64,256,24742,2,0,P|112:192|192:208,1,120,4|0,0:0|0:0,0:0:0:0:
304,240,25651,5,4,0:0:0:0:
416,176,26106,1,0,0:0:0:0:
352,64,26560,1,4,0:0:0:0:
224,64,27015,1,0,0:0:0:0:
112,128,27470,6,0,B|64:192|64:192|96:272,1,120,4|0,0:0|0:0,0:0:0:0:
208,208,28379,2,0,B|272:160|272:160|352:192,1,120,4|0,0:0|0:0,0:0:0:0:
448,272,29288,6,0,P|400:336|320:336,1,120,4|0,0:0|0:0,0:0:0:0:
272,224,30197,2,0,P|197:253|177:331,1,120,4|0,0:0|0:0,0:0:0:0:
64,256,31106,6,0,P|87:182|159:154,1,120,4|0,0:0|0:0,0:0:0:0:
288,144,32015,2,0,P|353:102|361:25,2,120,4|0|4,0:0|0:0|0:0,0:0:0:0:
160,160,33379,5,0,0:0:0:0:
224,272,33833,1,4,0:0:0:0:
352,288,34288,1,0,0:0:0:0:
416,176,34742,6,0,P|448:112|432:16,2,120,4|0|4,0:0|0:0|0:0,0:0:0:0:
304,240,36106,1,0,0:0:0:0:
192,176,36560,1,4,0:0:0:0:
72,128,37015,1,0,0:0:0:0:
96,256,37470,6,0,B|136:304|136:304|200:320,1,120,4|0,0:0|0:0,0:0:0:0:
320,320,38379,1,4,0:0:0:0:
400,224,38833,1,0,0:0:0:0:
464,112,39288,1,4,0:0:0:0:
256,192,39515,12,4,41106,0:0:0:0:
80,160,41560,5,0,0:0:0:0:
176,80,42015,1,4,0:0:0:0:
296,56,42470,1,0,0:0:0:0:
416,88,42924,1,4,0:0:0:0:
360,192,43379,1,0,0:0:0:0:
240,184,43833,6,0,P|184:208|128:280,1,120,4|0,0:0|0:0,0:0:0:0:
112,368,44742,1,4,0:0:0:0:
232,336,45197,2,0,L|288:272,1,60
336,288,45651,2,0,B|352:224|352:224|336:152,1,120,4|0,0:0|0:0,0:0:0:0:
264,80,46560,5,4,0:0:0:0:
144,128,47015,1,0,0:0:0:0:
88,248,47470,2,0,L|208:320,1,120,4|0,0:0|0:0,0:0:0:0:
320,288,48379,1,4,0:0:0:0:
240,192,48833,1,0,0:0:0:0:
256,64,49288,6,0,P|336:48|408:160,2,180,4|0|0,0:0|0:0|0:0,0:0:0:0:
160,160,51106,2,0,P|80:168|16:112,2,120,4|0|4,0:0|0:0|0:0,0:0:0:0:
272,112,52470,5,0,0:0:0:0:
400,160,52924,1,4,0:0:0:0:
432,288,53379,1,0,0:0:0:0:
304,304,53833,6,0,B|256:272|256:272|152:280,1,120,4|0,0:0|0:0,0:0:0:0:
64,256,54742,2,0,P|32:176|56:120,1,120,4|0,0:0|0:0,0:0:0:0:
160,176,55651,1,4,0:0:0:0:
280,224,56106,6,0,P|360:224|416:176,2,120,0|4|0,0:0|0:0|0:0,0:0:0:0:
208,128,57470,1,4,0:0:0:0:
304,64,57924,1,0,0:0:0:0:
416,120,58379,6,0,B|432:184|432:184|400:264,1,120,4|0,0:0|0:0,0:0:0:0:
320,320,59288,1,0,0:0:0:0:
192,304,59742,2,0,B|128:296|128:296|48:224,2,120,0|4|0,0:0|0:0|0:0,0:0:0:0:
304,240,61106,6,0,B|360:224|360:224|400:160,1,120,4|0,0:0|0:0,0:0:0:0:
304,80,62015,5,4,0:0:0:0:
168,57,62470,1,0,0:0:0:0:
179,181,62924,1,4,0:0:0:0:
304,215,63379,1,0,0:0:0:0:
48,176,65651,6,0,P|64:240|136:288,1,120
192,192,66560,1,0,0:0:0:0:
320,192,67015,1,0,0:0:0:0:
448,192,67470,2,0,P|424:264|360:312,1,120
272,256,68379,5,0,0:0:0:0:
256,128,68833,1,0,0:0:0:0:
144,192,69288,2,0,P|80:184|32:120,2,120
256,128,70651,1,0,0:0:0:0:
256,256,71106,1,0,0:0:0:0:
352,336,71560,2,0,P|408:312|448:240,1,120
424,136,72470,1,0,0:0:0:0:
320,64,72924,6,0,L|184:64,2,120
432,128,74288,2,0,P|392:192|336:200,1,120
232,168,75197,2,0,P|184:184|136:280,1,120
224,336,76106,1,0,0:0:0:0:
352,304,76560,6,0,L|416:256,1,60
408,208,77015,2,0,L|440:136,1,60
400,96,77470,2,0,L|336:128,1,60
304,80,77924,2,0,L|216:104,1,60
176,96,78379,5,0,0:0:0:0:
104,216,78833,1,0,0:0:0:0:
176,328,79288,1,0,0:0:0:0:
248,344,79515,2,0,B|274:356|274:356|287:337|287:337|314:357|314:357|314:357|334:330|334:330|362:350|362:350|379:355|428:307,1,180
416,288,80424,6,0,L|360:256,1,45.0000017166138
360,224,80879,2,0,L|408:248,1,45.0000017166138
440,224,81333,2,0,L|384:192,1,45.0000017166138
384,160,81788,2,0,L|432:184,1,45.0000017166138
464,152,82242,2,0,L|408:128,1,45.0000017166138
416,88,82697,2,0,L|360:120,1,45.0000017166138
336,88,83151,2,0,L|280:120,1,45.0000017166138
432,248,83833,6,0,P|408:184|368:144,1,120
272,80,84742,1,0,0:0:0:0:
144,80,85197,2,0,P|96:64|64:16,2,60
240,160,86106,2,0,P|272:198|280:232,2,60
144,80,87015,1,0,0:0:0:0:
64,192,87470,6,0,P|96:272|144:304,1,120
256,336,88379,1,0,0:0:0:0:
368,272,88833,1,0,0:0:0:0:
240,224,89288,1,0,0:0:0:0:
352,176,89742,1,0,0:0:0:0:
232,112,90197,2,0,B|232:64|264:32|264:32|288:48|288:48|312:48|312:48|328:64|328:64|344:64|344:64|360:88|360:88|392:120,1,240
64,96,98379,5,0,0:0:0:0:
176,152,98833,1,0,0:0:0:0:
288,208,99288,1,0,0:0:0:0:
400,272,99742,1,0,0:0:0:0:
280,304,100197,5,0,0:0:0:0:
352,200,100651,1,0,0:0:0:0:
248,120,101106,1,0,0:0:0:0:
144,48,101560,1,0,0:0:0:0:
96,176,102015,6,0,L|208:264,1,120
312,232,102924,2,0,L|184:136,1,120
192,40,103833,2,0,L|328:136,1,120
392,176,104742,1,0,0:0:0:0:
368,296,105197,1,0,0:0:0:0:
256,336,105651,6,0,P|168:328|128:272,1,120
224,224,106560,1,0,0:0:0:0:
336,192,107015,1,0,0:0:0:0:
304,88,107470,2,0,P|400:104|432:152,1,120
432,240,108379,5,0,0:0:0:0:
320,208,108833,1,0,0:0:0:0:
208,176,109288,1,0,0:0:0:0:
96,144,109742,1,0,0:0:0:0:
96,256,110197,6,0,P|144:312|240:304,1,120
312,288,111106,2,0,P|264:232|168:240,1,120
216,328,112015,2,0,P|138:317|94:265,1,120
72,176,112924,2,0,P|144:176|194:239,1,120
218,319,113833,5,0,0:0:0:0:
304,256,114288,1,0,0:0:0:0:
240,160,114742,1,0,0:0:0:0:
320,80,115197,1,0,0:0:0:0:
384,176,115651,1,0,0:0:0:0:
304,256,116106,1,0,0:0:0:0:
192,288,116560,6,0,L|120:256,1,60
96,208,117015,2,0,L|56:152,1,60
80,96,117470,2,0,L|144:120,1,60
176,80,117924,2,0,L|264:64,1,60
304,32,118379,5,0,0:0:0:0:
352,128,118833,1,0,0:0:0:0:
400,224,119288,1,0,0:0:0:0:
288,224,119742,1,0,0:0:0:0:
456,192,142015,6,0,P|440:248|384:288,1,120
320,192,142924,1,0,0:0:0:0:
192,192,143379,1,0,0:0:0:0:
64,192,143833,2,0,P|80:256|144:288,1,120
256,256,144742,5,0,0:0:0:0:
256,128,145197,1,0,0:0:0:0:
368,192,145651,2,0,P|432:184|472:120,2,120
256,128,147015,1,0,0:0:0:0:
256,256,147470,1,0,0:0:0:0:
136,312,147924,2,0,P|64:288|32:200,1,120
80,128,148833,1,0,0:0:0:0:
192,64,149288,6,0,L|320:64,2,120
96,160,150651,1,0,0:0:0:0:
208,208,151106,1,0,0:0:0:0:
336,192,151560,2,0,P|400:224|424:272,1,120
304,304,152470,1,0,0:0:0:0:
176,304,152924,6,0,L|104:264,1,60
88,200,153379,2,0,L|152:240,1,60
216,216,153833,2,0,L|152:176,1,60
128,112,154288,2,0,L|192:152,1,60
256,128,154742,5,0,0:0:0:0:
360,208,155197,1,0,0:0:0:0:
368,80,155651,1,0,0:0:0:0:
312,64,155879,6,0,P|264:56|200:88,2,120
416,128,157242,2,0,B|448:184|448:184|424:240,1,120
304,248,158151,1,0,0:0:0:0:
368,352,158606,1,0,0:0:0:0:
248,352,159060,1,0,0:0:0:0:
128,352,159515,1,0,0:0:0:0:
64,192,160197,6,0,P|72:128|144:64,1,120
232,64,161106,1,0,0:0:0:0:
368,80,161560,2,0,P|416:64|432:32,2,60
272,160,162470,2,0,P|239:198|240:224,2,60
376,96,163379,1,0,0:0:0:0:
448,200,163833,6,0,P|432:256|352:320,1,120
256,336,164742,1,0,0:0:0:0:
144,272,165197,1,0,0:0:0:0:
272,224,165651,1,0,0:0:0:0:
160,176,166106,1,0,0:0:0:0:
272,112,166560,2,0,B|293:77|279:46|279:46|251:52|251:52|229:44|229:44|208:53|208:53|193:47|193:47|170:64|170:64|137:60|137:60|124:72|124:72|78:80,1,240
416,288,183833,5,0,0:0:0:0:
384,176,184288,1,0,0:0:0:0:
288,112,184742,1,0,0:0:0:0:
176,80,185197,1,0,0:0:0:0:
96,176,185651,6,0,L|208:264,1,120
328,240,186560,2,0,L|192:144,1,120
216,56,187470,2,0,L|344:152,1,120
416,208,188379,1,0,0:0:0:0:
368,304,188833,1,0,0:0:0:0:
256,336,189288,6,0,P|160:320|128:272,1,120
224,224,190197,1,0,0:0:0:0:
336,192,190651,1,0,0:0:0:0:
304,80,191106,2,0,P|384:88|432:144,1,120
432,240,192015,5,0,0:0:0:0:
320,208,192470,1,0,0:0:0:0:
208,176,192924,1,0,0:0:0:0:
96,144,193379,1,0,0:0:0:0:
96,256,193833,6,0,P|144:304|240:304,1,120
320,288,194742,2,0,P|272:232|176:240,1,120
218,319,195651,2,0,P|140:308|96:256,1,120
208,208,196560,2,0,P|192:160|176:144,2,60
218,319,197470,5,0,0:0:0:0:
304,256,197924,1,0,0:0:0:0:
240,160,198379,1,0,0:0:0:0:
320,80,198833,1,0,0:0:0:0:
384,176,199288,1,0,0:0:0:0:
304,256,199742,1,0,0:0:0:0:
192,288,200197,6,0,L|128:264,1,60
96,208,200651,2,0,L|56:160,1,60
80,96,201106,2,0,L|144:120,1,60
176,80,201560,2,0,L|256:64,1,60
304,64,202015,6,0,L|368:96,1,60
400,144,202470,2,0,L|440:200,1,60
416,256,202924,2,0,L|344:224,1,60
320,272,203379,2,0,L|240:280,1,60
192,288,203833,5,0,0:0:0:0:
128,192,204288,1,0,0:0:0:0:
144,80,204742,1,0,0:0:0:0:
208,176,205197,1,0,0:0:0:0:
256,272,205651,1,0,0:0:0:0:
352,320,206106,1,0,0:0:0:0:
320,208,206560,1,0,0:0:0:0:
256,112,207015,1,0,0:0:0:0:
352,48,207470,6,0,P|424:64|464:144,1,120
448,240,208379,2,0,P|376:216|336:144,1,120
240,96,209288,2,0,P|168:112|128:192,1,120
144,288,210197,2,0,P|224:272|256:192,1,120
256,96,211106,5,0,0:0:0:0:
368,96,211560,1,0,0:0:0:0:
368,208,212015,1,0,0:0:0:0:
368,320,212470,1,0,0:0:0:0:
256,320,212924,6,0,P|168:288|144:224,1,120
160,128,213833,2,0,P|248:160|272:224,1,120
320,304,214742,5,0,0:0:0:0:
400,224,215197,1,0,0:0:0:0:
368,112,215651,1,0,0:0:0:0:
272,64,216106,1,0,0:0:0:0:
288,176,216560,6,0,P|200:208|128:192,1,120
192,80,217470,2,0,P|272:56|352:64,1,120
400,120,218379,5,0,0:0:0:0:
384,240,218833,1,0,0:0:0:0:
304,320,219288,1,0,0:0:0:0:
192,320,219742,1,0,0:0:0:0:
96,256,220197,6,0,P|136:168|198:131,1,120
288,136,221106,2,0,P|244:223|187:260,1,120
96,256,222015,2,0,P|128:176|198:131,1,120
256,88,222924,1,0,0:0:0:0:
384,72,223379,1,0,0:0:0:0:
432,176,223833,6,0,P|392:248|336:288,1,120
224,288,224742,2,0,P|152:256|112:192,1,120
256,192,225651,12,0,227470,0:0:0:0:
464,208,229288,6,0,P|448:152|368:80,1,120
304,192,230197,1,0,0:0:0:0:
176,192,230651,1,0,0:0:0:0:
48,192,231106,2,0,P|72:136|144:72,1,120
256,128,232015,5,0,0:0:0:0:
256,256,232470,1,0,0:0:0:0:
368,192,232924,2,0,P|464:224|480:264,2,120
256,256,234288,1,0,0:0:0:0:
256,128,234742,1,0,0:0:0:0:
160,48,235197,2,0,P|112:72|72:128,1,120
80,256,236106,1,0,0:0:0:0:
192,320,236560,6,0,L|320:320,2,120
96,224,237924,1,0,0:0:0:0:
208,176,238379,1,0,0:0:0:0:
336,192,238833,2,0,P|400:160|432:80,1,120
304,80,239742,1,0,0:0:0:0:
176,80,240197,6,0,L|112:120,1,60
128,176,240651,2,0,L|96:240,1,60
112,312,241106,2,0,L|160:272,1,60
224,304,241560,2,0,L|304:280,1,60
360,304,242015,5,0,0:0:0:0:
440,200,242470,1,0,0:0:0:0:
384,80,242924,1,0,0:0:0:0:
328,64,243151,6,0,P|280:56|216:88,2,120
432,128,244514,2,0,B|464:184|464:184|440:240,1,120
320,248,245423,1,0,0:0:0:0:
200,232,245878,1,0,0:0:0:0:
224,112,246332,1,0,0:0:0:0:
344,128,246787,1,0,0:0:0:0:
256,336,247470,6,0,P|160:328|128:272,1,120
224,224,248379,1,0,0:0:0:0:
336,192,248833,1,0,0:0:0:0:
304,80,249288,2,0,P|392:96|432:144,1,120
432,240,250197,5,0,0:0:0:0:
320,208,250651,1,0,0:0:0:0:
208,176,251106,1,0,0:0:0:0:
96,144,251560,1,0,0:0:0:0:
96,256,252015,6,0,P|144:312|240:304,1,120
320,288,252924,2,0,P|272:232|176:240,1,120
218,319,253833,2,0,P|148:308|96:256,1,120
208,208,254742,2,0,P|192:168|160:144,2,60
218,319,255651,5,0,0:0:0:0:
304,256,256106,1,0,0:0:0:0:
240,160,256560,1,0,0:0:0:0:
344,96,257015,1,0,0:0:0:0:
376,224,257470,2,0,B|376:256|332:279|304:288|304:288|288:320|288:320|256:320|256:320|240:352|240:352|208:352|208:352|176:320,1,240
96,272,258833,6,0,P|128:200|176:176,1,120,4|0,0:0|0:0,0:0:0:0:
272,256,259742,2,0,P|312:208|283:132,1,120,4|0,0:0|0:0,0:0:0:0:
208,72,260651,5,4,0:0:0:0:
88,128,261106,1,0,0:0:0:0:
80,256,261560,1,4,0:0:0:0:
192,320,262015,1,0,0:0:0:0:
320,320,262470,6,0,B|344:264|344:264|336:184,1,120,4|0,0:0|0:0,0:0:0:0:
208,208,263379,2,0,B|192:152|192:152|200:72,1,120,4|0,0:0|0:0,0:0:0:0:
312,16,264288,2,0,B|328:80|328:80|312:160,1,120,4|0,0:0|0:0,0:0:0:0:
272,256,265197,5,4,0:0:0:0:
144,256,265651,1,0,0:0:0:0:
64,160,266106,6,0,B|88:120|88:120|120:128|120:128|192:96,1,120,4|0,0:0|0:0,0:0:0:0:
304,80,267015,1,4,0:0:0:0:
416,144,267470,1,0,0:0:0:0:
392,272,267924,2,0,B|360:272|360:272|344:248|344:248|288:232,1,120,4|0,0:0|0:0,0:0:0:0:
240,208,268606,2,0,P|208:184|192:144,2,60
288,224,269288,5,0,0:0:0:0:
368,208,269742,1,0,0:0:0:0:
416,144,270197,1,0,0:0:0:0:
432,64,270651,1,0,0:0:0:0:
304,48,271106,5,0,0:0:0:0:
224,80,271560,1,0,0:0:0:0:
160,128,272015,1,0,0:0:0:0:
112,192,272470,1,0,0:0:0:0:
160,304,272924,5,0,0:0:0:0:
240,288,273379,1,0,0:0:0:0:
304,240,273833,1,0,0:0:0:0:
352,176,274288,1,0,0:0:0:0:
288,64,274742,5,0,0:0:0:0:
208,96,275197,1,0,0:0:0:0:
128,128,275651,1,0,0:0:0:0:
48,160,276106,1,0,0:0:0:0:
48,288,276560,6,0,P|120:304|200:280,1,120
128,176,277470,2,0,P|200:160|288:192,1,120
208,288,278379,2,0,P|272:304|360:280,1,120
288,176,279288,2,0,P|360:160|432:184,1,120
472,280,280197,5,0,0:0:0:0:
360,336,280651,1,0,0:0:0:0:
232,320,281106,1,0,0:0:0:0:
112,280,281560,1,0,0:0:0:0:
96,160,282015,5,0,0:0:0:0:
192,80,282470,1,0,0:0:0:0:
320,64,282924,1,0,0:0:0:0:
448,80,283379,1,0,0:0:0:0:
