osu file format v14

[General]
AudioFilename: audio.mp3
AudioLeadIn: 0
PreviewTime: 72670
Countdown: 1
SampleSet: Soft
StackLeniency: 0.3
Mode: 0
LetterboxInBreaks: 0
WidescreenStoryboard: 0

[Editor]
Bookmarks: 185252,187889,239318
DistanceSpacing: 1
BeatDivisor: 4
GridSize: 32
TimelineZoom: 2.2

[Metadata]
Title:Hoshi ga Matataku Konna Yoru ni
TitleUnicode:星が瞬くこんな夜に
Artist:supercell
ArtistUnicode:supercell
Creator:Yukiyo
Version:Starlight
Source:魔法使いの夜
Tags:today is a beautiful day ryo yanagi nagi atalanta Mahoutsukai no Type-Moon
BeatmapID:1759814
BeatmapSetID:840787

[Difficulty]
HPDrainRate:6
CircleSize:4
OverallDifficulty:9
ApproachRate:9.3
SliderMultiplier:1.76
SliderTickRate:1

[Events]
//Background and Video events
0,0,"Konachan.com - 259924 sample.jpg",0,0
//Break Periods
//Storyboard Layer 0 (Background)
//Storyboard Layer 1 (Fail)
//Storyboard Layer 2 (Pass)
//Storyboard Layer 3 (Foreground)
//Storyboard Sound Samples

[TimingPoints]
-458,400,4,2,1,40,1,0
1142,-166.666666666667,4,2,1,40,0,0
17142,-172.413793103448,4,2,1,40,0,0
21568,329.67032967033,4,2,1,80,1,0
21568,-111.111111111111,4,2,1,80,0,0
21726,329.67032967033,4,2,1,80,1,0
21726,-111.111111111111,4,2,1,80,0,0
32275,-125,4,2,1,60,0,0
53374,-142.857142857143,4,2,1,70,0,0
62605,-111.111111111111,4,2,1,70,0,0
68539,-333.333333333333,4,2,1,80,0,0
73154,-666.666666666667,4,2,1,80,0,0
74390,-666.666666666667,4,2,1,5,0,0
74473,-100,4,2,1,100,0,1
90297,-125,4,2,1,80,0,0
95572,-111.111111111111,4,2,1,60,0,0
105791,-133.333333333333,4,2,1,60,0,0
106121,329.67032967033,4,2,1,60,1,0
106121,-125,4,2,1,60,0,0
127220,329.67032967033,4,2,1,60,1,0
127220,-166.666666666667,4,2,1,60,0,0
137769,-111.111111111111,4,2,1,60,0,0
142384,-333.333333333332,4,2,1,60,0,0
147000,-125,4,2,1,60,0,0
147989,-333.333333333332,4,2,1,100,0,0
148236,-333.333333333332,4,2,1,5,0,0
148318,-100,4,2,1,100,0,1
164143,-125,4,2,1,80,0,0
169417,-250,4,2,1,60,0,0
178154,-222.222222222222,4,2,1,60,0,0
178483,-200,4,2,1,60,0,0
178813,-181.818181818182,4,2,1,60,0,0
179143,-166.666666666667,4,2,1,60,0,0
179473,-142.857142857143,4,2,1,60,0,0
179967,-125,4,2,1,60,0,0
185241,-333.333333333333,4,2,1,50,0,0
187055,-1000,4,2,1,50,0,0
187879,-133.333333333333,4,2,1,80,0,0
189692,-133.333333333333,4,2,1,80,0,0
190516,-90.9090909090909,4,2,1,80,0,0
206330,329.67032967033,4,2,1,80,1,0
206330,-90.9090909090909,4,2,1,80,0,0
211622,329.67032967033,4,2,1,80,1,0
211622,-90.9090909090909,4,2,1,80,0,0
219534,-142.857142857143,4,2,1,80,0,0
227775,-125,4,2,1,80,0,0
228105,-111.111111111111,4,2,1,80,0,0
228435,-100,4,2,1,80,0,0
228764,-90.909090909091,4,2,1,80,0,0
230083,-90.909090909091,4,2,1,100,0,1
235358,-111.111111111111,4,2,1,60,0,0
240629,329.67032967033,4,2,1,60,1,0
240629,-111.111111111111,4,2,1,60,0,0
245907,379.746835443038,4,2,1,60,1,0
247425,400,4,2,1,60,1,0
248225,422.535211267606,4,2,1,60,1,0
248833,422.535211267606,4,2,1,60,1,0
249070,500,4,2,1,60,1,0
249570,-100,4,2,1,60,0,0
249820,-90.9090909090909,4,2,1,60,0,0
250070,545.454545454546,4,2,1,60,1,0
250070,-83.3333333333333,4,2,1,60,0,0
250342,-76.9230769230769,4,2,1,60,0,0
250615,-71.4285714285714,4,2,1,60,0,0
250888,-66.6666666666667,4,2,1,60,0,0
252251,631.578947368421,4,2,1,60,1,0
252724,-100,4,2,1,5,0,0
252882,705.882352941175,4,2,1,60,1,0
253411,-100,4,2,1,5,0,0
253587,-1000,4,2,1,60,0,0
254999,705.882352941175,4,2,1,60,1,0
264528,-100,4,2,1,5,0,0

[Colours]
Combo1 : 138,138,198
Combo2 : 0,112,166
Combo3 : 130,130,255

[HitObjects]
99,138,942,5,2,0:0:0:0:
99,138,1142,2,0,P|122:184|120:237,1,105.599996777344,2|2,0:0|0:0,0:0:0:0:
68,287,1942,2,0,P|118:274|169:288,1,105.599996777344,2|2,0:0|0:0,0:0:0:0:
229,237,2742,6,0,L|219:342,1,105.599996777344,2|2,0:0|0:0,0:0:0:0:
299,155,3542,2,0,L|310:269,1,105.599996777344,2|2,0:0|0:0,0:0:0:0:
363,102,4142,5,2,0:0:0:0:
363,102,4342,2,0,P|321:72|270:74,1,105.599996777344,2|2,0:0|0:0,0:0:0:0:
153,123,5142,2,0,P|204:124|247:154,1,105.599996777344,2|2,0:0|0:0,0:0:0:0:
197,275,5942,6,0,P|146:275|105:243,1,105.599996777344,2|2,0:0|0:0,0:0:0:0:
39,208,6542,2,0,P|65:252|56:303,1,105.599996777344,2|2,0:0|0:0,0:0:0:0:
114,358,7142,2,0,P|123:333|139:312,1,52.7999983886719,2|0,0:0|0:0,0:0:0:0:
212,288,7542,6,0,L|316:305,1,105.599996777344,2|2,0:0|0:0,0:0:0:0:
471,230,8342,2,0,L|366:247,1,105.599996777344,2|2,0:0|0:0,0:0:0:0:
234,150,9142,2,0,P|277:177|294:226,1,105.599996777344,2|2,0:0|0:0,0:0:0:0:
401,47,9942,2,0,P|356:75|340:124,1,105.599996777344,2|2,0:0|0:0,0:0:0:0:
406,232,10742,6,0,L|423:127,1,105.599996777344,2|2,0:0|0:0,0:0:0:0:
294,185,11542,2,0,L|277:80,1,105.599996777344,2|2,0:0|0:0,0:0:0:0:
111,178,12342,6,0,P|160:195|209:179,1,105.599996777344,2|2,0:0|0:0,0:0:0:0:
125,47,13142,2,0,P|76:30|27:46,1,105.599996777344,2|2,0:0|0:0,0:0:0:0:
74,115,13742,5,2,0:0:0:0:
74,115,13942,2,0,B|89:162|89:162|78:217,1,105.599996777344,2|2,0:0|0:0,0:0:0:0:
164,217,14742,2,0,B|153:265|153:265|169:318,1,105.599996777344,2|2,0:0|0:0,0:0:0:0:
334,251,15542,6,0,P|283:243|234:266,1,105.599996777344,2|2,0:0|0:0,0:0:0:0:
375,348,16342,2,0,P|426:354|475:336,1,105.599996777344,2|2,0:0|0:0,0:0:0:0:
360,161,16942,5,2,0:0:0:0:
360,161,17142,2,0,B|375:203|352:237|352:237|382:229|413:210|428:238|453:259|453:259|455:227|448:192|478:187|505:170|505:170|476:158|442:154|445:122|437:92|437:92|417:116|405:146|374:136|341:133|341:133|247:44|138:34|138:34|145:95|145:95|93:123|93:123|178:188|297:189,1,1097.36003348877,2|0,0:0|0:0,0:0:0:0:
274,275,21568,5,8,0:0:0:0:
274,275,21650,1,8,0:0:0:0:
274,275,21726,2,0,P|236:268|198:278,1,79.1999975830079,4|0,3:2|0:0,0:0:0:0:
238,347,22055,2,0,P|277:354|316:347,1,79.1999975830079,0|0,3:0|0:0,0:0:0:0:
392,215,22385,2,0,P|366:244|356:282,1,79.1999975830079,0|0,3:0|0:0,0:0:0:0:
473,215,22715,2,0,P|463:177|437:147,1,79.1999975830079,0|0,3:0|0:0,0:0:0:0:
283,131,23044,6,0,L|361:137,1,79.1999975830079,0|0,3:0|0:0,0:0:0:0:
235,64,23374,1,0,3:0:0:0:
197,216,23539,2,0,L|275:209,1,79.1999975830079,0|0,0:0|3:0,0:0:0:0:
202,137,23868,1,0,0:0:0:0:
252,281,24033,1,0,3:0:0:0:
127,168,24198,5,8,0:0:0:0:
127,168,24280,1,8,0:0:0:0:
127,168,24363,2,0,P|124:119|150:79,1,79.1999975830079,4|0,3:2|0:0,0:0:0:0:
281,130,24693,2,0,L|187:139,1,79.1999975830079,0|0,3:0|0:0,0:0:0:0:
261,30,25022,2,0,L|355:39,1,79.1999975830079,0|0,3:0|0:0,0:0:0:0:
382,183,25352,2,0,P|361:149|359:110,1,79.1999975830079,0|0,3:0|0:0,0:0:0:0:
512,117,25682,6,0,L|418:126,1,79.1999975830079,0|0,3:0|0:0,0:0:0:0:
338,248,26011,2,0,P|414:255|462:195,1,158.399995166016,8|0,3:3|3:0,0:0:0:0:
328,169,26506,2,0,P|291:183|267:214,1,79.1999975830079,4|0,0:3|3:0,0:0:0:0:
266,365,26835,5,8,0:0:0:0:
266,365,26918,1,8,0:0:0:0:
266,365,27000,2,0,L|251:273,1,79.1999975830079,4|0,3:2|0:0,0:0:0:0:
199,177,27330,2,0,L|186:255,1,79.1999975830079,0|0,3:0|0:0,0:0:0:0:
136,125,27660,2,0,P|167:102|206:96,1,79.1999975830079,0|0,3:0|0:0,0:0:0:0:
332,186,27989,2,0,P|297:170|272:140,1,79.1999975830079,0|0,3:0|0:0,0:0:0:0:
359,56,28319,6,0,L|279:60,1,79.1999975830079,0|0,3:0|0:0,0:0:0:0:
421,1,28649,1,0,3:0:0:0:
445,146,28813,2,0,L|365:141,1,79.1999975830079,0|0,0:0|3:0,0:0:0:0:
481,78,29143,1,0,0:0:0:0:
418,219,29308,1,0,3:0:0:0:
291,105,29473,5,8,0:0:0:0:
291,105,29555,1,8,0:0:0:0:
291,105,29638,2,0,L|296:185,1,79.1999975830079,4|0,3:2|0:0,0:0:0:0:
300,263,29967,1,0,3:0:0:0:
222,149,30132,1,0,0:0:0:0:
229,306,30297,1,0,3:0:0:0:
295,184,30462,1,0,0:0:0:0:
160,350,30627,1,0,3:0:0:0:
225,229,30791,1,0,0:0:0:0:
301,344,30956,6,0,L|380:347,1,79.1999975830079,0|0,3:0|0:0,0:0:0:0:
295,184,31286,1,0,3:0:0:0:
229,306,31451,1,0,0:0:0:0:
360,222,31616,2,0,P|370:184|361:146,1,79.1999975830079,0|0,3:0|0:0,0:0:0:0:
160,274,31945,2,0,P|149:311|159:349,1,79.1999975830079,0|0,3:0|0:0,0:0:0:0:
295,184,32275,6,0,L|285:114,1,70.4,6|2,3:2|0:0,0:0:0:0:
203,150,32605,2,0,L|212:80,1,70.4,2|2,0:0|0:0,0:0:0:0:
133,111,32934,2,0,L|124:41,1,70.4,2|2,0:0|0:0,0:0:0:0:
41,69,33264,2,0,L|50:-1,1,70.4,2|2,0:0|0:0,0:0:0:0:
66,144,33594,6,0,P|31:148|-1:135,1,70.4,2|2,0:0|0:0,0:0:0:0:
41,69,33923,1,2,0:0:0:0:
121,85,34088,2,0,P|141:113|146:148,1,70.4,2|0,0:0|0:0,0:0:0:0:
101,216,34418,1,2,0:0:0:0:
23,198,34583,2,0,P|37:166|65:144,1,70.4,2|0,0:0|0:0,0:0:0:0:
182,239,34912,6,0,L|267:251,1,70.4,0|2,0:0|0:0,0:0:0:0:
218,168,35242,2,0,L|287:158,1,70.4,0|2,0:0|0:0,0:0:0:0:
268,81,35572,2,0,L|337:90,1,70.4,2|2,0:0|0:0,0:0:0:0:
327,11,35901,2,0,L|396:1,1,70.4,2|0,0:0|0:0,0:0:0:0:
425,143,36231,6,0,P|415:109|418:74,1,70.4,2|0,0:0|0:0,0:0:0:0:
497,100,36561,1,2,0:0:0:0:
495,185,36726,2,0,P|472:210|439:221,1,70.4,2|0,0:0|0:0,0:0:0:0:
365,112,37055,2,0,P|398:119|425:142,1,70.4,2|0,0:0|0:0,0:0:0:0:
363,191,37385,1,2,0:0:0:0:
292,143,37550,6,0,P|292:76|346:35,1,140.8,2|0,0:0|0:0,0:0:0:0:
365,112,38044,1,0,0:0:0:0:
363,191,38209,2,0,L|354:260,1,70.4,0|0,0:0|0:0,0:0:0:0:
289,355,38539,2,0,L|280:286,1,70.4,2|0,0:0|0:0,0:0:0:0:
489,269,38868,6,0,B|435:246|435:246|329:266,1,140.8,2|0,0:0|0:0,0:0:0:0:
279,285,39363,1,0,0:0:0:0:
275,367,39528,2,0,P|309:360|339:340,1,70.4,0|0,0:0|0:0,0:0:0:0:
301,206,39857,2,0,P|267:206|234:219,1,70.4,2|0,0:0|0:0,0:0:0:0:
78,270,40187,6,0,P|134:309|200:290,1,140.8,2|0,0:0|0:0,0:0:0:0:
234,219,40682,1,0,0:0:0:0:
140,158,40846,2,0,L|149:228,1,70.4,0|0,0:0|0:0,0:0:0:0:
63,119,41176,2,0,L|54:190,1,70.4,2|0,0:0|0:0,0:0:0:0:
4,63,41506,6,0,P|67:38|127:70,1,140.8,2|0,0:0|0:0,0:0:0:0:
145,148,42000,1,0,0:0:0:0:
201,202,42165,2,0,P|235:204|268:191,1,70.4,0|0,0:0|0:0,0:0:0:0:
221,125,42495,1,0,0:0:0:0:
125,227,42660,5,8,0:0:0:0:
125,227,42742,1,8,0:0:0:0:
125,227,42824,2,0,L|132:297,1,70.4,0|2,3:0|0:0,0:0:0:0:
47,162,43154,2,0,L|39:232,1,70.4,2|2,3:2|0:0,0:0:0:0:
117,75,43484,1,2,3:2:0:0:
124,152,43649,1,2,0:2:0:0:
35,79,43813,2,0,P|39:44|60:16,1,70.4,2|2,3:2|0:2,0:0:0:0:
260,95,44143,6,0,L|169:110,1,70.4,2|2,3:2|0:2,0:0:0:0:
272,11,44473,1,2,3:2:0:0:
326,142,44638,2,0,L|316:234,1,70.4,2|0,0:2|3:2,0:0:0:0:
416,77,44967,2,0,L|426:169,1,70.4,2|0,0:2|3:2,0:0:0:0:
338,61,45297,1,0,0:2:0:0:
397,220,45462,6,0,L|488:235,1,70.4,0|2,3:2|0:2,0:0:0:0:
423,146,45791,1,2,3:2:0:0:
318,211,45956,1,2,0:2:0:0:
498,165,46121,2,0,P|500:130|486:98,1,70.4,2|2,3:2|0:2,0:0:0:0:
273,124,46451,2,0,L|342:132,1,70.4,2|2,3:2|0:2,0:0:0:0:
171,0,46780,6,0,P|155:31|154:66,1,70.4,2|2,3:2|0:2,0:0:0:0:
188,138,47110,1,2,3:2:0:0:
296,42,47275,2,0,L|227:50,1,70.4,2|0,0:2|3:2,0:0:0:0:
118,146,47605,2,0,L|187:138,1,70.4,2|0,0:2|3:2,0:0:0:0:
273,124,47934,1,0,0:2:0:0:
164,215,48099,6,0,P|130:226|96:223,1,70.4,2|0,3:2|0:2,0:0:0:0:
75,80,48429,2,0,P|108:68|142:71,1,70.4,0|0,3:2|0:2,0:0:0:0:
244,197,48758,2,0,L|253:266,1,70.4,0|0,3:2|0:2,0:0:0:0:
172,369,49088,2,0,L|181:299,1,70.4,2|0,3:2|0:2,0:0:0:0:
329,337,49418,6,0,L|259:344,1,70.4,2|0,3:2|0:2,0:0:0:0:
111,291,49747,2,0,L|180:298,1,70.4,0|0,3:2|0:2,0:0:0:0:
301,217,50077,2,0,P|271:236|253:265,1,70.4,0|0,3:2|0:2,0:0:0:0:
149,159,50407,2,0,P|174:182|187:215,1,70.4,2|0,3:2|0:2,0:0:0:0:
71,155,50736,6,0,P|100:94|167:83,1,140.8,2|0,3:2|3:2,0:0:0:0:
228,128,51231,1,0,0:2:0:0:
308,41,51396,2,0,L|238:48,1,70.4,0|0,3:2|0:2,0:0:0:0:
149,159,51726,1,2,3:2:0:0:
311,117,51890,1,0,0:2:0:0:
86,110,52055,6,0,P|71:142|70:177,1,70.4,2|8,3:2|0:2,0:0:0:0:
199,223,52385,1,0,3:2:0:0:
228,147,52550,1,8,0:2:0:0:
114,241,52715,1,8,0:2:0:0:
278,209,52879,1,8,0:2:0:0:
184,83,53044,1,8,0:2:0:0:
184,83,53374,6,0,L|61:73,1,123.199996240234,2|0,3:2|3:2,0:0:0:0:
164,169,54033,2,0,L|286:159,1,123.199996240234,0|2,3:2|3:2,0:0:0:0:
449,249,54693,6,0,P|398:215|370:160,1,123.199996240234,2|0,3:2|3:2,0:0:0:0:
458,83,55187,2,0,P|456:114|444:142,1,61.5999981201172,2|0,0:2|3:2,0:0:0:0:
355,27,55517,2,0,P|370:53|376:83,1,61.5999981201172,2|0,0:2|3:2,0:0:0:0:
370,160,55846,1,2,0:2:0:0:
195,140,56011,6,0,P|238:97|297:83,1,123.199996240234,0|0,3:2|3:2,0:0:0:0:
332,255,56671,2,0,P|288:297|229:311,1,123.199996240234,0|2,3:2|3:2,0:0:0:0:
156,285,57165,1,2,0:2:0:0:
107,222,57330,6,0,B|93:176|93:176|107:102,1,123.199996240234,2|0,3:2|3:2,0:0:0:0:
197,41,57824,2,0,L|180:112,1,61.5999981201172,2|0,0:2|3:2,0:0:0:0:
259,198,58154,2,0,L|244:138,1,61.5999981201172,2|0,0:2|3:2,0:0:0:0:
209,47,58484,1,2,0:2:0:0:
200,246,58649,6,0,L|322:234,1,123.199996240234,0|0,3:2|3:2,0:0:0:0:
468,163,59308,2,0,L|345:151,1,123.199996240234,0|0,3:2|3:2,0:0:0:0:
228,2,59967,6,0,P|282:29|309:83,1,123.199996240234,0|0,3:2|3:2,0:0:0:0:
219,214,60627,2,0,B|201:164|201:164|216:97,1,123.199996240234,0|2,3:2|3:2,0:0:0:0:
402,200,61121,5,2,0:2:0:0:
402,200,61286,2,0,B|416:267|416:267|398:317,1,123.199996240234,2|0,3:2|3:2,0:0:0:0:
197,314,61945,2,0,P|254:297|313:314,1,123.199996240234,0|0,3:2|3:2,0:0:0:0:
129,372,62440,1,0,0:2:0:0:
120,287,62605,1,0,3:2:0:0:
255,383,62769,1,8,0:2:0:0:
47,326,62934,1,0,3:2:0:0:
192,234,63099,1,0,3:2:0:0:
58,175,63264,5,8,0:3:0:0:
26,145,63374,2,0,P|13:122|7:86,1,52.7999983886719,4|4,0:3|0:3,0:0:0:0:
103,113,63594,5,8,0:3:0:0:
100,65,63704,2,0,P|102:38|112:14,1,52.7999983886719,4|4,0:3|0:3,0:0:0:0:
181,58,63923,6,0,P|219:46|259:48,1,79.1999975830079,2|0,0:0|0:0,0:0:0:0:
325,89,64253,2,0,P|363:101|403:100,1,79.1999975830079,0|0,0:0|0:0,0:0:0:0:
480,84,64583,2,0,P|460:118|455:157,1,79.1999975830079,0|0,0:0|0:0,0:0:0:0:
460,235,64912,2,0,P|474:273|474:312,1,79.1999975830079,2|0,0:0|0:0,0:0:0:0:
261,310,65242,6,0,P|324:268|399:288,1,158.399995166016,2|0,0:0|0:0,0:0:0:0:
339,351,65736,1,0,0:0:0:0:
195,256,65901,2,0,P|161:235|122:232,1,79.1999975830079,0|0,0:0|0:0,0:0:0:0:
29,282,66231,2,0,P|43:245|42:205,1,79.1999975830079,2|0,0:0|0:0,0:0:0:0:
92,74,66561,6,0,L|102:152,1,79.1999975830079,2|0,0:0|0:0,0:0:0:0:
194,2,66890,2,0,L|183:80,1,79.1999975830079,0|0,0:0|0:0,0:0:0:0:
273,68,67220,2,0,L|283:146,1,79.1999975830079,0|0,0:0|0:0,0:0:0:0:
382,16,67550,2,0,L|371:94,1,79.1999975830079,2|0,0:0|0:0,0:0:0:0:
375,316,67879,6,0,P|338:247|364:175,1,158.399995166016,2|0,0:0|0:0,0:0:0:0:
434,241,68374,1,0,0:0:0:0:
274,299,68539,6,0,L|196:281,1,79.1999975830079,0|2,0:0|0:0,0:0:0:0:
120,263,69198,5,12,0:0:0:0:
251,217,69363,1,0,3:0:0:0:
225,353,69528,1,0,3:0:0:0:
170,193,69693,5,8,0:0:0:0:
336,226,69857,1,0,3:0:0:0:
225,353,70022,1,0,3:0:0:0:
230,134,70187,5,8,0:0:0:0:
417,248,70352,1,0,3:0:0:0:
225,353,70517,1,0,3:0:0:0:
311,139,70682,5,8,0:0:0:0:
454,321,70846,1,0,3:0:0:0:
225,353,71011,1,0,3:0:0:0:
395,147,71176,5,8,0:0:0:0:
373,356,71341,1,0,3:0:0:0:
267,100,71506,1,8,0:0:0:0:
294,281,71671,1,0,3:0:0:0:
422,75,71835,5,8,0:0:0:0:
367,221,72000,1,8,0:0:0:0:
267,100,72165,5,8,0:0:0:0:
228,348,72330,1,8,0:0:0:0:
347,134,72495,5,8,0:0:0:0:
378,310,72660,1,8,0:0:0:0:
187,53,72824,5,8,0:0:0:0:
294,281,72989,1,8,0:0:0:0:
464,4,73154,6,0,L|461:26,1,19.799999395752,2|0,3:2|0:0,0:0:0:0:
425,92,73484,2,0,L|423:104,1,6.59999979858399,2|0,0:0|0:0,0:0:0:0:
471,160,73649,2,0,L|473:182,1,19.799999395752,2|0,0:0|0:0,0:0:0:0:
418,236,73978,2,0,L|413:269,1,32.99999899292,2|0,0:0|0:0,0:0:0:0:
139,341,74473,6,0,B|181:332|236:335|210:357|253:372|310:357,1,176,6|8,3:2|0:2,0:0:0:0:
398,349,74967,1,2,0:2:0:0:
104,227,75132,2,0,P|36:278|23:363,1,176,2|8,3:2|0:0,0:0:0:0:
139,341,75627,1,2,0:2:0:0:
183,159,75791,6,0,L|193:55,1,88,2|0,3:2|3:2,0:0:0:0:
110,1,76121,1,10,0:2:0:0:
280,228,76286,2,0,L|270:124,1,88,2|0,3:2|0:2,0:0:0:0:
191,71,76616,1,2,3:2:0:0:
193,247,76780,1,8,0:2:0:0:
385,117,76945,1,2,0:2:0:0:
116,188,77110,6,0,P|96:270|150:335,1,176,0|8,3:2|0:2,0:0:0:0:
246,330,77605,1,2,0:2:0:0:
366,74,77769,2,0,B|311:61|311:61|255:71|255:71|184:57,1,176,2|8,3:2|0:0,0:0:0:0:
104,34,78264,1,2,0:2:0:0:
321,150,78429,6,0,P|344:186|343:229,1,88,2|0,3:2|3:2,0:0:0:0:
311,311,78758,1,10,0:2:0:0:
99,181,78923,2,0,P|118:142|156:121,1,88,2|0,3:2|0:2,0:0:0:0:
243,109,79253,1,2,3:2:0:0:
85,267,79418,1,8,0:2:0:0:
27,51,79583,1,0,0:2:0:0:
341,58,79747,6,0,B|321:108|337:151|346:140|359:183|340:234,1,176,2|8,3:2|0:2,0:0:0:0:
314,316,80242,1,2,0:2:0:0:
103,192,80407,2,0,P|176:147|257:173,1,176,2|8,3:2|0:0,0:0:0:0:
190,257,80901,1,2,0:2:0:0:
29,172,81066,6,0,L|19:84,1,88,2|0,3:2|3:2,0:0:0:0:
7,0,81396,1,10,0:2:0:0:
190,257,81561,2,0,L|180:344,1,88,2|0,3:2|0:2,0:0:0:0:
83,255,81890,1,2,3:2:0:0:
187,128,82055,1,8,0:2:0:0:
277,321,82220,1,2,0:2:0:0:
393,102,82385,6,0,P|432:82|475:83,1,88,2|0,3:2|3:2,0:0:0:0:
361,291,82715,1,10,0:2:0:0:
291,66,82879,1,2,0:2:0:0:
252,342,83044,2,0,P|212:361|169:360,1,88,2|0,3:2|3:2,0:0:0:0:
41,89,83374,1,10,0:2:0:0:
95,300,83539,1,2,0:2:0:0:
443,173,83704,5,10,0:2:0:0:
86,203,83868,1,10,0:2:0:0:
81,122,84363,5,10,0:2:0:0:
470,249,84528,1,10,0:2:0:0:
78,35,85022,6,0,P|6:77|3:162,1,176,6|8,3:2|0:2,0:0:0:0:
92,218,85517,1,2,0:2:0:0:
343,97,85682,2,0,B|255:103|255:103|250:108|250:108|164:114,1,176,2|8,3:2|0:0,0:0:0:0:
82,121,86176,1,2,0:2:0:0:
332,185,86341,6,0,L|419:192,1,88,2|0,3:2|3:2,0:0:0:0:
512,202,86671,1,10,0:2:0:0:
271,62,86835,2,0,L|183:69,1,88,2|0,3:2|0:2,0:0:0:0:
94,75,87165,1,2,3:2:0:0:
236,209,87330,1,8,0:2:0:0:
371,36,87495,1,2,0:2:0:0:
265,296,87660,6,0,B|213:309|168:287|188:279|144:261|94:274,1,176,2|8,3:2|0:2,0:0:0:0:
6,295,88154,1,2,0:2:0:0:
319,372,88319,2,0,P|353:295|313:219,1,176,2|8,3:2|0:0,0:0:0:0:
218,193,88813,1,2,0:2:0:0:
0,158,88978,6,0,L|107:140,1,88,2|0,3:2|3:2,0:0:0:0:
171,116,89308,1,10,0:2:0:0:
393,228,89473,2,0,P|352:240|308:233,1,88,2|0,3:2|0:2,0:0:0:0:
119,41,89802,2,0,P|160:28|204:35,1,88,2|8,3:2|0:2,0:0:0:0:
267,104,90132,1,2,0:2:0:0:
246,290,90297,6,0,L|237:359,2,70.4,6|0|0,3:2|0:0|0:0,0:0:0:0:
259,210,90791,1,2,3:2:0:0:
171,166,90956,2,0,L|179:235,2,70.4,10|0|0,0:2|0:0|0:0,0:0:0:0:
100,266,91451,1,2,3:2:0:0:
245,290,91616,6,0,P|315:278|385:277,1,140.8,2|2,3:2|0:0,0:0:0:0:
236,372,92110,2,0,P|200:370|166:365,1,70.4,2|8,3:2|0:0,0:0:0:0:
90,293,92440,2,0,P|125:291|159:286,1,70.4,2|0,0:0|0:0,0:0:0:0:
237,271,92769,1,2,3:2:0:0:
196,140,92934,6,0,P|185:175|180:218,2,70.4,2|0|2,3:2|0:0|0:0,0:0:0:0:
269,193,93429,1,0,3:0:0:0:
107,206,93594,2,0,P|71:203|37:196,1,70.4,10|0,0:0|0:0,0:0:0:0:
9,125,93923,1,2,0:0:0:0:
164,85,94088,1,2,3:2:0:0:
89,127,94253,6,0,L|81:49,1,70.4,6|0,3:2|0:0,0:0:0:0:
180,11,94583,2,0,L|171:80,1,70.4,2|0,0:2|0:2,0:0:0:0:
263,163,94912,2,0,L|255:92,1,70.4,2|0,0:0|0:0,0:0:0:0:
194,202,95242,6,0,P|233:237|285:239,1,105.6,4|0,0:3|0:0,0:0:0:0:
335,215,95572,6,0,L|348:136,1,79.1999975830079,4|0,3:2|0:0,0:0:0:0:
414,208,95901,2,0,P|408:247|385:279,1,79.1999975830079,0|0,3:0|0:0,0:0:0:0:
230,300,96231,2,0,P|266:285|305:290,1,79.1999975830079,0|0,3:0|0:0,0:0:0:0:
276,367,96561,2,0,P|239:381|200:376,1,79.1999975830079,0|0,3:0|0:0,0:0:0:0:
144,230,96890,6,0,L|149:308,1,79.1999975830079,0|0,3:0|0:0,0:0:0:0:
63,265,97220,1,0,3:0:0:0:
218,163,97385,2,0,L|223:241,1,79.1999975830079,0|0,0:0|3:0,0:0:0:0:
74,186,97715,1,0,0:0:0:0:
229,319,97879,1,0,3:0:0:0:
144,145,98044,5,8,0:0:0:0:
144,145,98127,1,8,0:0:0:0:
144,145,98209,2,0,P|117:116|80:103,1,79.1999975830079,4|0,3:2|0:0,0:0:0:0:
6,221,98539,2,0,P|44:212|73:186,1,79.1999975830079,0|0,3:0|0:0,0:0:0:0:
85,27,98868,2,0,P|73:64|80:103,1,79.1999975830079,0|0,3:0|0:0,0:0:0:0:
235,81,99198,2,0,L|157:68,1,79.1999975830079,0|0,3:0|0:0,0:0:0:0:
309,180,99528,6,0,L|230:166,1,79.1999975830079,0|0,3:0|0:0,0:0:0:0:
399,75,99857,2,0,B|386:146|386:146|406:201|366:243,1,158.399995166016,8|0,3:3|3:0,0:0:0:0:
314,99,100352,2,0,L|327:20,1,79.1999975830079,4|0,0:3|3:0,0:0:0:0:
470,160,100682,5,8,0:0:0:0:
470,160,100764,1,8,0:0:0:0:
470,160,100846,2,0,P|468:199|457:237,1,79.1999975830079,4|0,3:2|0:0,0:0:0:0:
304,256,101176,2,0,P|338:237|377:227,1,79.1999975830079,0|0,3:0|0:0,0:0:0:0:
485,335,101506,2,0,P|450:316|411:306,1,79.1999975830079,0|0,3:0|0:0,0:0:0:0:
262,363,101835,2,0,P|300:356|335:336,1,79.1999975830079,0|0,3:0|0:0,0:0:0:0:
276,201,102165,6,0,L|271:280,1,79.1999975830079,0|0,3:0|0:0,0:0:0:0:
358,190,102495,1,0,3:0:0:0:
202,138,102660,2,0,L|197:217,1,79.1999975830079,0|0,0:0|3:0,0:0:0:0:
351,269,102989,1,0,0:0:0:0:
282,112,103154,1,0,3:0:0:0:
199,297,103319,5,8,0:0:0:0:
199,297,103401,1,8,0:0:0:0:
199,297,103484,2,0,L|120:292,1,79.1999975830079,4|0,3:2|0:0,0:0:0:0:
35,284,103813,1,0,3:0:0:0:
165,217,103978,1,0,0:0:0:0:
80,362,104143,1,0,3:0:0:0:
80,212,104308,1,0,0:0:0:0:
119,291,104473,1,0,3:0:0:0:
248,226,104638,1,0,0:0:0:0:
80,212,104802,6,0,L|1:207,1,79.1999975830079,0|0,3:0|0:0,0:0:0:0:
126,140,105132,1,0,3:0:0:0:
165,217,105297,1,0,0:0:0:0:
174,70,105462,1,0,3:0:0:0:
80,212,105627,1,0,0:0:0:0:
205,143,105791,6,0,L|309:126,1,99.0000037765504,4|0,0:3|0:0,0:0:0:0:
347,116,106121,6,0,L|335:200,1,70.4,4|2,3:2|0:2,0:0:0:0:
420,169,106450,2,0,L|429:238,1,70.4,2|2,3:2|0:2,0:0:0:0:
424,89,106780,2,0,P|379:39|310:42,1,140.8,2|2,3:2|3:2,0:0:0:0:
265,108,107274,1,2,0:2:0:0:
149,41,107439,6,0,P|182:31|217:38,2,70.4,2|2|2,3:2|0:2|3:2,0:0:0:0:
175,181,107934,2,0,L|183:111,1,70.4,2|0,0:2|3:2,0:0:0:0:
98,28,108263,2,0,L|105:97,1,70.4,2|0,0:2|3:2,0:0:0:0:
121,177,108593,1,0,0:2:0:0:
9,214,108758,6,0,P|22:181|44:154,1,70.4,0|2,3:2|0:2,0:0:0:0:
174,223,109088,2,0,P|139:227|104:222,1,70.4,2|2,3:2|0:2,0:0:0:0:
134,139,109417,2,0,P|168:134|203:139,1,70.4,2|2,3:2|0:2,0:0:0:0:
260,271,109747,2,0,L|252:180,1,70.4,2|2,3:2|0:2,0:0:0:0:
334,363,110077,6,0,L|342:272,1,70.4,2|0,3:2|0:2,0:0:0:0:
348,215,110406,1,2,3:2:0:0:
424,337,110571,2,0,L|417:266,1,70.4,2|0,0:2|3:2,0:0:0:0:
504,269,110901,2,0,L|510:198,1,70.4,2|0,0:2|3:2,0:0:0:0:
512,120,111230,1,0,0:2:0:0:
339,234,111395,6,0,P|405:218|437:158,1,140.8,2|0,3:2|3:2,0:0:0:0:
355,149,111890,1,0,0:2:0:0:
280,176,112055,2,0,P|260:206|257:240,1,70.4,0|0,3:2|0:2,0:0:0:0:
172,89,112384,2,0,P|191:118|196:152,1,70.4,2|0,3:2|0:2,0:0:0:0:
88,286,112714,6,0,L|113:147,1,140.8,2|0,3:2|3:2,0:0:0:0:
196,186,113208,1,0,0:2:0:0:
89,73,113373,2,0,L|2:90,1,70.4,0|0,3:2|0:2,0:0:0:0:
151,8,113703,2,0,L|238:25,1,70.4,2|0,3:2|0:2,0:0:0:0:
380,97,114033,6,0,B|295:77|295:77|244:93,1,140.8,2|0,3:2|3:2,0:0:0:0:
169,131,114527,1,0,0:2:0:0:
255,239,114692,2,0,L|244:148,1,70.4,0|0,3:2|0:2,0:0:0:0:
322,0,115022,2,0,L|313:69,1,70.4,2|0,3:2|0:2,0:0:0:0:
395,258,115351,6,0,P|339:218|335:149,1,140.8,2|0,3:2|3:2,0:0:0:0:
409,177,115846,1,0,0:2:0:0:
469,291,116011,2,0,P|448:319|417:335,1,70.4,0|0,3:2|0:2,0:0:0:0:
226,252,116340,2,8,P|276:241|321:267,1,105.6,4|0,3:3|0:2,0:0:0:0:
334,300,116670,5,0,3:2:0:0:
193,380,116835,1,2,0:2:0:0:
172,297,117000,1,2,3:2:0:0:
280,194,117164,1,2,0:2:0:0:
259,277,117329,1,2,3:2:0:0:
196,211,117494,1,2,0:2:0:0:
343,252,117659,2,0,L|430:261,1,70.4,2|2,3:2|0:2,0:0:0:0:
512,157,117989,6,0,L|425:166,1,70.4,2|0,3:2|0:2,0:0:0:0:
363,178,118318,1,2,3:2:0:0:
402,32,118483,2,0,L|391:126,1,70.4,2|0,0:2|3:2,0:0:0:0:
306,0,118813,2,0,L|317:94,1,70.4,2|0,0:2|3:2,0:0:0:0:
328,148,119142,1,0,0:2:0:0:
176,115,119307,6,0,P|209:105|244:110,1,70.4,0|2,3:2|0:2,0:0:0:0:
133,196,119637,1,2,3:2:0:0:
91,120,119802,1,2,0:2:0:0:
216,190,119967,1,2,3:2:0:0:
77,261,120131,1,2,0:2:0:0:
208,346,120296,2,0,L|278:341,1,70.4,2|2,3:2|0:2,0:0:0:0:
164,203,120626,6,0,L|158:298,1,70.4,2|0,3:2|0:2,0:0:0:0:
124,349,120956,1,2,3:2:0:0:
73,157,121121,2,0,L|79:252,1,70.4,2|0,0:2|3:2,0:0:0:0:
241,186,121450,2,0,L|245:115,1,70.4,2|0,0:2|3:2,0:0:0:0:
165,115,121780,1,2,0:2:0:0:
240,267,121945,6,0,B|311:278|311:278|373:250,2,140.8,2|0|0,3:2|3:2|3:2,0:0:0:0:
171,219,122769,1,0,0:2:0:0:
311,293,122934,2,0,P|321:327|320:362,1,70.4,2|0,3:2|0:2,0:0:0:0:
111,329,123263,6,0,P|170:364|235:341,1,140.8,2|0,3:2|3:2,0:0:0:0:
179,280,123758,1,0,0:2:0:0:
17,241,123923,2,0,L|31:328,1,70.4,0|0,3:2|0:2,0:0:0:0:
116,180,124252,2,0,L|102:267,1,70.4,2|0,3:2|0:2,0:0:0:0:
50,23,124582,6,0,B|35:72|35:72|49:119|49:119|32:172,2,140.8,2|0|0,3:2|3:2|3:2,0:0:0:0:
126,113,125406,1,0,0:2:0:0:
199,32,125571,2,0,P|164:23|130:28,1,70.4,2|0,3:2|0:2,0:0:0:0:
194,168,125901,6,0,P|276:174|347:153,1,140.8,2|0,3:2|3:2,0:0:0:0:
396,109,126395,1,8,0:2:0:0:
283,88,126560,1,0,3:2:0:0:
376,223,126725,1,0,3:2:0:0:
465,59,126890,1,8,0:2:0:0:
465,59,127220,6,0,P|416:72|341:61,1,105.599996777344,4|0,3:2|3:0,0:0:0:0:
179,124,127879,2,0,P|229:109|272:80,1,105.599996777344,0|2,3:0|3:2,0:0:0:0:
422,214,128538,2,0,P|376:187|342:147,1,105.599996777344,2|0,3:2|3:0,0:0:0:0:
505,201,129033,2,0,L|491:273,1,52.7999983886719,2|0,0:2|3:0,0:0:0:0:
402,245,129362,2,0,L|416:317,1,52.7999983886719,2|0,0:2|3:0,0:0:0:0:
318,233,129692,1,2,0:2:0:0:
228,320,129857,6,0,B|278:307|278:307|329:323,1,105.599996777344,0|0,3:0|3:0,0:0:0:0:
143,375,130516,2,0,B|93:388|93:388|41:371,1,105.599996777344,0|2,3:0|3:2,0:0:0:0:
83,189,131176,6,0,L|92:294,1,105.599996777344,2|0,3:2|3:0,0:0:0:0:
192,131,131670,2,0,P|181:156|163:175,1,52.7999983886719,2|0,0:2|3:0,0:0:0:0:
90,51,132000,2,0,P|103:73|109:99,1,52.7999983886719,2|0,0:2|3:0,0:0:0:0:
26,104,132329,1,2,0:2:0:0:
187,50,132494,6,0,P|238:37|290:41,1,105.599996777344,0|0,3:0|3:0,0:0:0:0:
454,122,133154,2,0,P|402:134|350:130,1,105.599996777344,0|0,3:0|3:0,0:0:0:0:
265,261,133813,2,0,P|259:208|273:158,1,105.599996777344,0|0,3:0|3:0,0:0:0:0:
173,8,134472,2,0,P|187:58|181:110,1,105.599996777344,2|0,3:2|3:0,0:0:0:0:
14,265,134967,5,2,0:2:0:0:
14,265,135132,2,0,B|63:245|63:245|113:258,1,105.599996777344,2|0,3:2|3:0,0:0:0:0:
288,348,135791,2,0,B|239:368|239:368|188:354,1,105.599996777344,0|0,3:0|3:0,0:0:0:0:
110,278,136285,1,0,0:0:0:0:
283,223,136450,1,0,3:0:0:0:
92,360,136615,1,8,0:0:0:0:
92,360,136945,1,8,0:0:0:0:
187,110,137110,5,8,0:3:0:0:
199,140,137220,2,4,L|195:175,1,35.1999989257813,4|4,0:3|0:3,0:0:0:0:
271,142,137439,5,8,0:3:0:0:
284,175,137549,2,4,L|287:210,1,35.1999989257813,4|4,0:3|0:3,0:0:0:0:
367,213,137769,6,0,L|358:300,1,79.1999975830079,6|0,0:0|0:0,0:0:0:0:
462,165,138099,2,0,L|471:252,1,79.1999975830079,0|0,0:0|0:0,0:0:0:0:
260,142,138428,2,0,L|269:229,1,79.1999975830079,0|0,0:0|0:0,0:0:0:0:
377,97,138758,2,0,L|368:175,1,79.1999975830079,2|0,0:0|0:0,0:0:0:0:
172,152,139088,6,0,P|196:79|268:52,1,158.399995166016,2|0,0:0|0:0,0:0:0:0:
260,142,139582,1,0,0:0:0:0:
88,177,139747,2,0,P|51:163|23:135,1,79.1999975830079,0|0,0:0|0:0,0:0:0:0:
234,220,140077,2,0,P|247:258|246:297,1,79.1999975830079,2|2,0:0|0:0,0:0:0:0:
62,364,140406,6,0,L|140:372,1,79.1999975830079,2|0,0:0|0:0,0:0:0:0:
263,268,140736,2,0,L|184:276,1,79.1999975830079,0|0,0:0|0:0,0:0:0:0:
284,364,141066,2,0,L|362:372,1,79.1999975830079,0|0,0:0|0:0,0:0:0:0:
468,270,141395,2,0,L|389:278,1,79.1999975830079,2|0,0:0|0:0,0:0:0:0:
309,77,141725,6,0,P|283:149|323:214,1,158.399995166016,2|0,0:0|0:0,0:0:0:0:
373,140,142220,1,0,0:0:0:0:
224,31,142384,6,0,L|129:42,1,92.3999971801759,0|0,0:0|0:0,0:0:0:0:
57,15,143044,5,12,0:2:0:0:
139,122,143209,1,0,3:0:0:0:
196,0,143373,1,0,3:0:0:0:
53,99,143538,5,8,0:0:0:0:
211,174,143703,1,0,3:0:0:0:
196,0,143868,1,0,3:0:0:0:
127,206,144033,5,12,0:0:0:0:
340,163,144198,1,0,3:0:0:0:
196,0,144362,1,0,3:0:0:0:
200,260,144527,5,8,0:0:0:0:
424,127,144692,1,0,3:0:0:0:
196,0,144857,1,0,3:0:0:0:
283,290,145022,5,8,0:0:0:0:
114,23,145187,1,0,3:0:0:0:
120,266,145351,1,8,0:0:0:0:
285,14,145516,1,0,3:0:0:0:
84,161,145681,5,8,0:0:0:0:
368,150,145846,1,8,0:0:0:0:
33,93,146011,5,8,0:0:0:0:
396,229,146176,1,8,0:0:0:0:
39,242,146340,5,8,0:0:0:0:
428,85,146505,1,8,0:0:0:0:
0,168,146670,5,8,0:0:0:0:
456,167,146835,1,8,0:0:0:0:
63,15,147000,6,0,L|58:93,1,70.4,8|0,0:0|3:0,0:0:0:0:
77,259,147329,2,0,P|74:206|95:158,1,105.6,8|0,0:0|0:0,0:0:0:0:
141,94,147659,2,8,P|158:96|174:102,1,35.2,8|8,0:0|0:0,0:0:0:0:
313,137,147824,2,8,P|295:139|278:138,1,35.2,8|8,0:0|0:0,0:0:0:0:
147,307,147989,6,0,L|142:355,1,39.5999987915039,0|0,3:2|0:0,0:0:0:0:
419,156,148318,6,0,P|409:71|469:12,1,176,6|8,3:2|0:2,0:0:0:0:
499,103,148813,1,2,0:2:0:0:
368,249,148978,2,0,B|326:258|271:255|297:233|254:218|197:233,1,176,2|8,3:2|0:0,0:0:0:0:
114,264,149472,1,2,0:2:0:0:
333,172,149637,6,0,L|349:68,1,88,2|0,3:2|3:2,0:0:0:0:
361,2,149967,1,10,0:2:0:0:
195,256,150132,2,0,L|208:342,1,88,2|0,3:2|0:2,0:0:0:0:
17,225,150461,1,2,3:2:0:0:
193,57,150626,1,8,0:2:0:0:
149,182,150791,1,2,0:2:0:0:
9,21,150956,6,0,P|94:42|181:37,1,176,0|8,3:2|0:2,0:0:0:0:
264,15,151450,1,2,0:2:0:0:
62,130,151615,2,0,B|57:188|57:188|77:236|77:236|69:301,1,176,2|8,3:2|0:0,0:0:0:0:
59,384,152110,1,2,0:2:0:0:
149,163,152274,6,0,P|189:146|233:145,1,88,2|0,3:2|3:2,0:0:0:0:
321,176,152604,1,10,0:2:0:0:
480,70,152769,2,0,P|439:53|395:52,1,88,2|0,3:2|0:2,0:0:0:0:
307,82,153099,1,2,3:2:0:0:
206,231,153263,1,8,0:2:0:0:
425,135,153428,1,0,0:2:0:0:
247,307,153593,6,0,B|195:323|148:307|177:292|114:278|76:295,1,176,2|8,3:2|0:2,0:0:0:0:
7,329,154088,1,2,0:2:0:0:
310,368,154252,2,0,P|332:287|276:223,1,176,2|8,3:2|0:0,0:0:0:0:
247,307,154747,1,2,0:2:0:0:
46,117,154912,6,0,L|58:204,1,88,2|0,3:2|3:2,0:0:0:0:
73,291,155241,1,10,0:2:0:0:
230,0,155406,2,0,L|217:87,1,88,2|0,3:2|0:2,0:0:0:0:
203,174,155736,1,2,3:2:0:0:
119,42,155901,1,8,0:2:0:0:
168,261,156066,1,2,0:2:0:0:
292,135,156230,6,0,P|334:125|377:135,1,88,2|0,3:2|3:2,0:0:0:0:
251,351,156560,1,10,0:2:0:0:
216,87,156725,1,2,0:2:0:0:
167,380,156890,2,0,P|124:389|81:379,1,88,2|0,3:2|3:2,0:0:0:0:
26,79,157220,1,10,0:2:0:0:
126,305,157384,1,2,0:2:0:0:
473,131,157549,5,10,0:2:0:0:
69,222,157714,1,10,0:2:0:0:
20,159,158209,5,10,0:2:0:0:
447,205,158373,1,10,0:2:0:0:
34,365,158868,6,0,P|111:331|128:248,1,176,6|8,3:2|0:2,0:0:0:0:
38,272,159362,1,2,0:2:0:0:
182,177,159527,2,0,B|234:161|281:177|252:192|315:206|353:189,1,176,2|8,3:2|0:0,0:0:0:0:
421,146,160022,1,2,0:2:0:0:
222,255,160187,6,0,P|205:294|205:338,1,88,2|0,3:2|3:2,0:0:0:0:
296,311,160516,1,10,0:2:0:0:
97,146,160681,2,0,P|79:106|79:62,1,88,2|0,3:2|0:2,0:0:0:0:
171,90,161011,1,2,3:2:0:0:
134,358,161176,1,8,0:2:0:0:
32,207,161340,1,2,0:2:0:0:
249,38,161505,6,0,B|304:32|304:32|365:39|365:39|424:34,1,176,2|8,3:2|0:2,0:0:0:0:
512,26,162000,1,2,0:2:0:0:
265,286,162165,2,0,P|241:202|274:122,1,176,2|8,3:2|0:0,0:0:0:0:
334,54,162659,1,2,0:2:0:0:
413,345,162824,6,0,L|325:357,1,88,2|0,3:2|3:2,0:0:0:0:
238,371,163154,1,10,0:2:0:0:
49,159,163318,2,0,L|136:171,1,88,2|0,3:2|0:2,0:0:0:0:
224,185,163648,1,2,3:2:0:0:
128,354,163813,1,8,0:2:0:0:
7,80,163978,1,2,0:2:0:0:
298,145,164143,6,0,P|309:179|305:214,2,70.4,6|0|0,3:2|0:0|0:0,0:0:0:0:
224,185,164637,1,2,3:2:0:0:
335,64,164802,2,0,P|362:85|379:116,2,70.4,10|0|0,0:2|0:0|0:0,0:0:0:0:
249,81,165296,1,2,3:2:0:0:
370,193,165461,6,0,P|406:193|441:188,1,70.4,2|0,3:2|0:0,0:0:0:0:
298,145,165791,1,2,0:0:0:0:
334,267,165956,2,0,P|298:266|263:261,1,70.4,2|8,3:2|0:0,0:0:0:0:
231,119,166285,2,0,P|248:150|261:183,1,70.4,2|0,0:0|0:0,0:0:0:0:
289,258,166615,1,2,3:2:0:0:
150,279,166780,6,0,P|168:248|190:220,1,70.4,2|0,3:2|0:0,0:0:0:0:
312,318,167110,2,0,P|276:316|242:309,1,70.4,2|0,0:0|3:0,0:0:0:0:
103,371,167439,2,0,P|145:369|189:357,1,70.4,10|0,0:0|0:0,0:0:0:0:
135,212,167769,2,0,P|130:249|133:293,1,70.4,2|2,0:0|3:2,0:0:0:0:
274,181,168099,6,0,P|273:110|254:43,1,140.8,6|2,3:2|0:2,0:0:0:0:
162,6,168593,1,0,0:2:0:0:
0,79,168758,6,0,B|34:80|53:43|53:43|55:70|67:87|67:87|80:69|101:65|101:65|136:102|202:82,1,246.4,2|0,0:0|0:0,0:0:0:0:
184,86,169417,5,2,0:0:0:0:
320,29,170736,6,0,P|266:74|198:82,1,140.8,2|0,0:0|0:0,0:0:0:0:
93,119,171560,2,0,P|109:113|126:110,2,35.2,2|2|2,0:0|0:0|0:0,0:0:0:0:
134,190,172055,6,0,P|168:200|203:199,1,70.4,2|0,0:0|0:0,0:0:0:0:
237,169,172549,2,0,P|270:159|305:160,1,70.4,2|2,0:0|0:0,0:0:0:0:
382,304,173209,2,0,P|365:273|364:238,1,70.4,2|0,0:0|0:0,0:0:0:0:
393,209,173703,2,0,P|409:178|410:143,1,70.4,2|0,0:0|0:0,0:0:0:0:
343,63,174362,1,2,0:0:0:0:
218,131,174610,2,0,L|220:145,1,8.8,2|2,0:0|0:0,0:0:0:0:
221,126,174692,6,0,B|254:185|201:192|231:262,1,140.8,2|0,0:0|0:0,0:0:0:0:
306,328,175681,1,2,0:0:0:0:
161,289,176011,2,0,P|126:285|92:294,1,70.4,2|2,0:0|0:0,0:0:0:0:
68,333,176505,2,0,P|33:336|0:327,1,70.4,2|2,0:0|0:0,0:0:0:0:
72,122,177165,2,0,P|88:152|93:187,1,70.4,2|0,0:0|0:0,0:0:0:0:
49,256,177659,1,2,0:0:0:0:
157,133,177824,6,0,L|208:127,1,35.2,2|0,0:0|0:0,0:0:0:0:
284,188,178154,2,0,L|233:182,1,39.5999987915039,2|0,0:0|0:0,0:0:0:0:
118,221,178483,2,0,L|169:215,1,44,2|0,0:0|0:0,0:0:0:0:
279,270,178813,2,0,L|228:264,1,48.4000014770508,2|0,0:0|0:0,0:0:0:0:
95,314,179143,2,0,L|155:306,1,52.7999983886719,2|0,0:0|0:0,0:0:0:0:
274,351,179472,2,0,P|219:328|191:273,1,105.599996777344,2|0,0:0|0:0,0:0:0:0:
300,128,179967,6,0,B|287:188|287:188|297:213|297:213|285:264,1,140.8,4|0,3:2|0:0,0:0:0:0:
268,346,180461,1,0,3:0:0:0:
381,228,180626,2,0,P|418:222|451:226,2,70.4,8|0|0,0:0|0:0|0:0,0:0:0:0:
203,286,181121,2,0,P|166:292|133:288,1,70.4,8|0,0:0|0:0,0:0:0:0:
15,241,181450,1,0,3:0:0:0:
102,146,181615,2,0,L|93:228,1,70.4,0|0,3:0|0:0,0:0:0:0:
195,94,181945,2,0,L|187:24,2,70.4,8|0|0,0:0|0:0|0:0,0:0:0:0:
101,60,182439,1,8,0:0:0:0:
197,185,182604,6,0,P|267:174|337:172,1,140.8,0|0,3:0|0:0,0:0:0:0:
428,193,183099,1,0,3:0:0:0:
293,248,183263,2,0,L|278:320,2,70.4,8|0|0,0:0|0:0|0:0,0:0:0:0:
400,110,183758,2,0,L|415:38,1,70.4,8|0,0:0|0:0,0:0:0:0:
304,91,184088,1,0,3:0:0:0:
428,193,184252,2,0,P|463:194|501:198,1,70.4,0|0,3:0|0:0,0:0:0:0:
293,329,184582,2,0,P|257:330|220:334,1,70.4,8|0,0:0|0:0,0:0:0:0:
222,333,184912,1,4,0:0:0:0:
9,253,185241,6,0,B|49:235|108:246|74:272|148:286|186:262,1,184.799994360352,2|0,0:0|0:0,0:0:0:0:
213,185,186560,2,0,P|186:181|160:185,1,52.7999983886719,2|0,0:0|0:0,0:0:0:0:
266,252,187055,6,0,L|308:246,1,39.6,2|0,0:0|0:0,0:0:0:0:
338,240,187879,5,8,3:2:0:0:
207,74,188044,1,8,0:2:0:0:
267,304,188209,1,8,3:2:0:0:
368,59,188373,1,8,0:2:0:0:
353,324,188538,1,8,3:2:0:0:
284,17,188703,1,8,0:2:0:0:
186,335,188868,1,8,3:2:0:0:
295,103,189033,1,8,0:2:0:0:
251,384,189198,5,8,3:2:0:0:
24,154,189362,1,8,0:2:0:0:
363,46,189527,1,8,3:2:0:0:
72,226,189692,2,0,P|41:236|8:237,1,66.0000025177003,8|8,0:2|3:2,0:0:0:0:
120,10,190022,1,8,0:2:0:0:
312,116,190187,2,0,P|343:126|376:127,1,66.0000025177003,8|8,3:2|0:2,0:0:0:0:
74,85,190516,5,12,0:0:0:0:
102,208,190681,1,0,3:0:0:0:
195,123,190846,1,0,3:0:0:0:
30,159,191011,5,8,0:0:0:0:
143,283,191176,1,0,3:0:0:0:
195,123,191340,1,0,3:0:0:0:
23,244,191505,5,12,0:0:0:0:
214,332,191670,1,0,3:0:0:0:
195,123,191835,1,0,3:0:0:0:
58,326,192000,5,8,0:0:0:0:
303,344,192165,1,0,3:0:0:0:
195,123,192329,1,0,3:0:0:0:
120,376,192494,5,8,0:0:0:0:
277,82,192659,1,0,3:0:0:0:
214,332,192824,1,8,0:0:0:0:
156,29,192989,1,0,3:0:0:0:
301,292,193154,5,4,3:2:0:0:
92,214,193318,1,0,3:0:0:0:
257,121,193483,2,0,P|279:113|303:112,1,48.4000014770508,8|8,0:0|0:0,0:0:0:0:
512,186,193648,2,0,P|489:177|465:176,1,48.4000014770508,8|8,0:0|0:0,0:0:0:0:
219,222,193813,1,8,0:0:0:0:
219,222,193978,1,8,0:3:0:0:
430,64,194143,1,4,0:3:0:0:
309,236,194307,1,4,0:3:0:0:
188,70,194472,5,8,0:3:0:0:
142,65,194582,2,0,P|111:56|84:38,1,64.5333353027344,4|4,0:3|0:3,0:0:0:0:
110,172,194802,5,8,0:3:0:0:
70,148,194912,2,0,P|45:127|29:99,1,64.5333353027344,4|4,0:3|0:3,0:0:0:0:
183,156,195132,6,0,L|190:210,2,32.2666676513672,2|2|2,0:0|0:0|0:0,0:0:0:0:
269,196,195296,2,0,L|262:250,2,32.2666676513672,2|2|2,0:0|0:0|0:0,0:0:0:0:
183,260,195461,2,0,L|190:314,2,32.2666676513672,2|2|2,0:0|0:0|0:0,0:0:0:0:
263,307,195626,2,0,L|256:361,2,32.2666676513672,2|2|2,0:0|0:0|0:0,0:0:0:0:
186,378,195791,5,0,3:0:0:0:
107,265,195956,1,0,0:0:0:0:
107,349,196121,1,8,0:0:0:0:
184,223,196285,1,0,0:0:0:0:
258,338,196450,1,0,3:0:0:0:
108,180,196615,1,0,3:0:0:0:
181,305,196780,1,8,0:0:0:0:
258,98,196945,1,0,0:0:0:0:
263,255,197110,1,0,3:0:0:0:
104,100,197274,1,0,3:0:0:0:
184,223,197439,1,8,0:0:0:0:
303,10,197604,1,0,3:0:0:0:
108,180,197769,5,0,0:0:0:0:
368,64,197934,1,0,3:0:0:0:
27,145,198099,1,8,0:0:0:0:
314,127,198263,1,0,0:0:0:0:
20,68,198428,5,0,3:0:0:0:
203,351,198593,1,0,3:0:0:0:
2,104,198923,5,0,3:0:0:0:
288,284,199088,1,0,3:0:0:0:
0,149,199417,5,0,3:2:0:0:
335,190,199582,1,0,3:0:0:0:
11,187,199912,5,0,3:0:0:0:
332,83,200077,1,0,3:2:0:0:
30,230,200406,5,0,3:0:0:0:
276,0,200571,1,0,3:0:0:0:
256,1,200901,5,0,3:0:0:0:
57,251,201066,2,0,P|128:240|201:239,1,145.200004431152,4|0,3:2|0:0,0:0:0:0:
249,247,201395,1,8,0:0:0:0:
106,323,201560,1,0,0:0:0:0:
224,158,201725,1,0,3:0:0:0:
200,325,201890,1,0,3:0:0:0:
139,128,202055,1,8,0:0:0:0:
311,193,202220,1,0,0:0:0:0:
78,186,202384,1,0,3:0:0:0:
215,71,202549,1,0,3:0:0:0:
249,247,202714,1,8,0:0:0:0:
59,107,202879,1,0,3:0:0:0:
164,245,203044,5,0,0:0:0:0:
282,0,203209,1,0,3:0:0:0:
260,295,203373,1,8,0:0:0:0:
189,43,203538,1,0,0:0:0:0:
332,262,203703,5,0,3:0:0:0:
78,48,203868,1,0,3:0:0:0:
349,231,204198,5,0,3:0:0:0:
30,136,204362,1,0,3:0:0:0:
351,200,204692,5,0,3:0:0:0:
19,246,204857,1,0,3:0:0:0:
342,158,205187,5,0,3:0:0:0:
66,348,205351,1,0,3:0:0:0:
331,115,205681,5,0,3:0:0:0:
163,384,205846,1,0,3:0:0:0:
258,51,206011,1,12,0:0:0:0:
234,323,206176,1,0,3:0:0:0:
180,58,206330,6,0,P|89:27|0:57,1,193.600005908203,4|8,3:2|0:0,0:0:0:0:
0,143,206824,1,0,0:0:0:0:
238,113,206989,2,0,B|306:95|306:95|355:101|355:101|426:83,1,193.600005908203,0|8,3:0|0:0,0:0:0:0:
512,53,207483,1,0,0:0:0:0:
356,269,207648,6,0,P|348:218|338:173,1,96.8000029541017,0|0,3:0|3:0,0:0:0:0:
314,80,207978,1,8,0:0:0:0:
166,344,208143,2,0,P|173:293|184:248,1,96.8000029541017,0|0,3:0|0:0,0:0:0:0:
54,50,208472,2,0,P|71:140|89:240,1,193.600005908203,0|0,3:0|0:0,0:0:0:0:
361,155,208967,6,0,B|310:124|250:148|282:167|221:180|176:160,1,193.600005908203,0|8,3:0|0:0,0:0:0:0:
90,114,209461,1,0,0:0:0:0:
400,65,209626,2,0,P|454:142|423:230,1,193.600005908203,0|8,3:0|0:0,0:0:0:0:
344,278,210121,1,0,0:0:0:0:
52,240,210286,6,0,P|99:245|147:266,1,96.8000029541017,0|0,3:0|3:0,0:0:0:0:
215,321,210615,1,8,0:0:0:0:
343,182,210780,2,0,P|296:186|248:207,1,96.8000029541017,0|0,3:0|0:0,0:0:0:0:
27,62,211110,2,0,P|122:75|205:123,1,193.600005908203,0|0,3:0|0:0,0:0:0:0:
324,335,211622,5,12,0:0:0:0:
249,58,211786,1,0,3:0:0:0:
222,350,211951,5,8,0:0:0:0:
327,31,212116,1,0,3:0:0:0:
306,321,212281,5,8,0:0:0:0:
179,3,212446,1,0,3:0:0:0:
141,298,212611,5,8,0:0:0:0:
248,81,212775,1,0,3:0:0:0:
440,261,212940,5,8,0:0:0:0:
109,202,213105,1,0,3:0:0:0:
438,16,213270,5,8,0:0:0:0:
336,342,213435,1,0,3:0:0:0:
159,69,213600,5,8,0:0:0:0:
477,95,213764,1,8,3:0:0:0:
108,254,213929,5,8,0:0:0:0:
358,13,214094,1,0,3:0:0:0:
189,297,214259,6,0,P|109:345|24:307,1,193.600005908203,12|0,0:2|3:0,0:0:0:0:
0,226,214753,1,0,3:0:0:0:
240,229,214918,2,0,B|316:235|316:235|356:257|356:257|427:262,1,193.600005908203,8|0,0:0|3:0,0:0:0:0:
512,270,215413,1,0,3:0:0:0:
244,26,215578,6,0,B|212:102|261:154|261:154|266:126|286:104,1,193.600005908203,8|0,0:0|3:0,0:0:0:0:
334,29,216072,1,0,3:0:0:0:
281,307,216237,2,0,B|230:316|203:292|203:292|191:310|191:310|150:283|102:305,1,193.600005908203,8|0,0:0|3:0,0:0:0:0:
36,340,216731,1,0,3:0:0:0:
175,37,216896,5,8,0:0:0:0:
241,368,217061,1,0,3:0:0:0:
8,145,217226,5,8,0:0:0:0:
348,48,217391,1,0,3:0:0:0:
165,324,217556,5,8,0:0:0:0:
21,7,217720,1,0,3:0:0:0:
386,173,217885,5,8,0:0:0:0:
47,284,218050,1,0,3:0:0:0:
207,112,218215,5,8,0:0:0:0:
293,253,218380,1,8,0:0:0:0:
76,187,218545,1,8,0:0:0:0:
364,54,218709,1,8,0:0:0:0:
187,340,218874,1,8,0:0:0:0:
122,0,219039,1,8,0:0:0:0:
503,311,219204,1,8,0:0:0:0:
503,311,219534,6,0,P|447:285|386:290,1,123.199996240234,2|0,0:0|0:0,0:0:0:0:
316,353,220028,1,2,0:0:0:0:
200,219,220193,2,0,P|259:230|307:268,1,123.199996240234,2|2,0:0|0:0,0:0:0:0:
123,299,220687,1,2,0:0:0:0:
107,210,220852,2,0,L|88:83,1,123.199996240234,2|2,0:0|0:0,0:0:0:0:
214,13,221347,2,0,L|195:134,1,123.199996240234,2|2,0:0|0:0,0:0:0:0:
125,357,222006,5,2,0:0:0:0:
125,357,222171,2,0,P|181:332|242:331,1,123.199996240234,2|0,0:0|0:0,0:0:0:0:
312,357,222665,1,2,0:0:0:0:
507,241,222830,2,0,L|385:259,1,123.199996240234,2|0,0:0|0:0,0:0:0:0:
308,276,223325,1,2,0:0:0:0:
189,174,223490,6,0,L|310:192,1,123.199996240234,2|2,0:0|0:0,0:0:0:0:
168,85,223984,2,0,P|114:113|92:169,1,123.199996240234,2|2,0:0|0:0,0:0:0:0:
353,61,224643,1,2,0:0:0:0:
353,61,224808,6,0,L|442:51,1,61.5999981201172,2|0,3:2|0:0,0:0:0:0:
302,140,225138,2,0,L|213:130,1,61.5999981201172,0|2,3:0|0:0,0:0:0:0:
382,187,225468,2,0,L|471:177,1,61.5999981201172,2|0,3:2|0:0,0:0:0:0:
331,266,225797,2,0,L|242:256,1,61.5999981201172,0|2,3:0|0:0,0:0:0:0:
150,165,226127,6,0,P|187:212|187:272,1,123.199996240234,2|2,3:2|3:2,0:0:0:0:
43,260,226622,2,0,P|75:247|103:243,1,61.5999981201172,2|0,0:0|3:0,0:0:0:0:
115,136,226951,2,0,P|148:143|173:156,1,61.5999981201172,2|0,0:0|3:0,0:0:0:0:
227,240,227281,1,2,0:0:0:0:
201,74,227446,6,0,L|189:1,1,61.5999981201172,2|0,3:2|0:0,0:0:0:0:
311,117,227775,2,0,L|323:44,1,70.4,2|0,3:2|0:0,0:0:0:0:
178,223,228105,2,0,L|165:144,1,79.1999975830079,2|0,3:2|0:0,0:0:0:0:
323,275,228435,2,0,L|337:188,1,88,2|0,3:2|0:0,0:0:0:0:
189,344,228764,6,0,P|203:325|222:311,1,48.4000014770508,8|0,0:0|0:0,0:0:0:0:
381,322,228929,2,0,P|396:326|410:334,7,32.2666676513672,8|0|0|0|0|0|0|0,0:0|0:0|0:0|0:0|0:0|0:0|0:0|0:0,0:0:0:0:
182,240,229424,6,0,P|203:229|227:226,1,48.4000014770508,8|0,0:0|0:0,0:0:0:0:
465,278,229589,2,0,P|476:288|486:301,7,32.2666676513672,8|0|0|0|0|0|0|0,0:0|0:0|0:0|0:0|0:0|0:0|0:0|0:0,0:0:0:0:
273,354,230083,6,0,B|200:338|200:338|145:344|145:344|83:328,1,193.600005908203,6|8,3:2|0:2,0:0:0:0:
0,301,230578,1,2,0:2:0:0:
327,95,230742,2,0,P|345:189|321:282,1,193.600005908203,2|8,3:2|0:0,0:0:0:0:
273,354,231237,1,2,0:2:0:0:
83,99,231402,6,0,L|96:223,1,96.8000029541017,2|0,3:2|3:2,0:0:0:0:
108,291,231731,1,10,0:2:0:0:
313,0,231896,2,0,L|300:124,1,96.8000029541017,2|0,3:2|0:2,0:0:0:0:
288,192,232226,1,2,3:2:0:0:
213,18,232391,1,8,0:2:0:0:
477,128,232556,1,2,0:2:0:0:
332,274,232720,6,0,B|274:294|221:273|248:256|191:241|140:268,1,193.600005908203,2|8,3:2|0:2,0:0:0:0:
63,317,233215,1,2,0:2:0:0:
382,347,233380,2,0,P|420:263|363:191,1,193.600005908203,2|8,3:2|0:0,0:0:0:0:
277,180,233874,1,2,0:2:0:0:
46,264,234039,6,0,P|92:251|132:224,1,96.8000029541017,2|0,3:2|3:2,0:0:0:0:
186,155,234369,1,10,0:2:0:0:
367,156,234534,2,0,P|320:143|280:116,1,96.8000029541017,2|0,3:2|0:2,0:0:0:0:
227,47,234863,1,2,3:2:0:0:
462,84,235028,1,8,0:2:0:0:
266,291,235193,1,2,0:2:0:0:
121,104,235358,6,0,P|83:91|44:93,2,79.1999975830079,6|0|0,3:2|0:0|0:0,0:0:0:0:
216,181,235852,1,2,3:2:0:0:
103,290,236017,2,0,L|118:212,2,79.1999975830079,10|0|0,0:2|0:0|0:0,0:0:0:0:
28,178,236512,1,2,3:2:0:0:
213,92,236676,6,0,P|292:86|369:102,1,158.399995166016,2|2,3:2|0:0,0:0:0:0:
306,248,237171,2,0,P|296:209|297:170,1,79.1999975830079,2|8,3:2|0:0,0:0:0:0:
472,257,237501,2,0,P|473:296|463:334,1,79.1999975830079,2|0,0:0|0:0,0:0:0:0:
337,384,237830,1,2,3:2:0:0:
192,286,237995,6,0,P|228:301|258:326,1,79.1999975830079,2|0,3:2|0:0,0:0:0:0:
347,168,238325,2,0,P|333:205|329:244,1,79.1999975830079,2|0,0:0|3:0,0:0:0:0:
154,99,238654,2,0,P|183:125|204:158,1,79.1999975830079,10|0,0:0|0:0,0:0:0:0:
337,0,238984,2,0,P|314:33|301:70,1,79.1999975830079,2|2,0:0|3:2,0:0:0:0:
248,262,239314,5,6,3:2:0:0:
251,250,240468,5,8,0:0:0:0:
243,232,240550,1,8,0:0:0:0:
235,213,240629,2,0,L|156:220,1,79.1999975830079,0|0,3:0|0:0,0:0:0:0:
24,141,240958,2,0,L|102:148,1,79.1999975830079,8|0,0:0|0:0,0:0:0:0:
125,297,241288,1,0,3:0:0:0:
192,137,241453,1,0,3:0:0:0:
53,250,241618,2,0,P|40:287|43:326,1,79.1999975830079,8|0,0:0|0:0,0:0:0:0:
211,323,241947,6,0,P|214:283|201:246,1,79.1999975830079,0|0,3:0|0:0,0:0:0:0:
98,140,242277,2,0,P|130:162|168:170,1,79.1999975830079,8|0,0:0|0:0,0:0:0:0:
305,74,242607,1,0,3:0:0:0:
169,80,242771,1,0,3:0:0:0:
338,164,242936,2,0,L|356:269,1,79.1999975830079,8|0,0:0|0:0,0:0:0:0:
464,72,243266,6,0,L|435:227,1,158.399995166016,0|8,3:0|0:0,0:0:0:0:
414,325,243760,1,0,0:0:0:0:
256,207,243925,2,0,P|219:191|180:187,1,79.1999975830079,0|0,3:0|3:0,0:0:0:0:
64,220,244255,1,8,0:0:0:0:
191,321,244420,1,0,0:0:0:0:
307,137,244585,6,0,P|343:121|382:117,1,79.1999975830079,0|0,3:0|0:0,0:0:0:0:
491,114,244914,1,0,3:0:0:0:
329,222,245079,1,0,3:0:0:0:
396,17,245244,1,0,3:0:0:0:
506,198,245409,1,0,3:0:0:0:
232,190,245574,1,0,3:0:0:0:
232,190,245907,6,0,P|147:174|66:204,1,176,4|0,3:2|0:0,0:0:0:0:
26,282,246476,1,0,3:0:0:0:
125,272,246666,1,8,0:0:0:0:
46,127,246856,1,0,3:0:0:0:
46,127,247236,5,0,3:0:0:0:
227,75,247425,2,0,B|298:52|330:105|399:80,1,176,4|0,3:2|0:0,0:0:0:0:
480,43,248025,1,0,3:0:0:0:
363,0,248225,1,8,0:0:0:0:
411,194,248436,1,0,3:0:0:0:
411,194,248833,1,0,3:0:0:0:
296,384,249070,6,0,P|230:384|168:361,1,132,4|0,3:2|0:0,0:0:0:0:
79,300,249570,2,0,L|87:343,1,44,0|0,3:0|0:0,0:0:0:0:
168,239,249820,2,0,L|158:286,1,48.4000014770508,0|0,3:0|0:0,0:0:0:0:
236,181,250070,2,0,L|246:232,1,52.7999983886719,0|0,3:0|0:0,0:0:0:0:
329,126,250342,2,0,L|317:182,1,57.1999973815919,0|0,3:0|0:0,0:0:0:0:
402,57,250615,2,0,L|413:117,1,61.5999981201172,0|0,3:0|0:0,0:0:0:0:
508,0,250888,2,0,L|495:64,1,66.0000025177003,8|0,0:2|0:0,0:0:0:0:
508,0,251160,5,0,0:0:0:0:
196,124,252251,6,0,P|172:184|183:248,1,132,2|0,0:0|0:0,0:0:0:0:
328,248,252882,2,0,P|339:184|315:124,1,132,2|0,0:0|0:0,0:0:0:0:
256,192,253587,6,0,L|256:224,1,30.8,2|0,0:0|0:0,0:0:0:0:
256,320,254999,5,6,0:0:0:0:
256,192,255175,12,0,264528,0:0:0:0:
